osu file format v14

[General]
AudioFilename: Your Voice - Rhodanthe.mp3
AudioLeadIn: 0
PreviewTime: 55140
Countdown: 1
SampleSet: Normal
StackLeniency: 0.7
Mode: 0
LetterboxInBreaks: 1
WidescreenStoryboard: 0

[Editor]
DistanceSpacing: 0.5
BeatDivisor: 6
GridSize: 8
TimelineZoom: 2.8

[Metadata]
Title:Your Voice
TitleUnicode:Your Voice
Artist:Rhodanthe*
ArtistUnicode:Rhodanthe*
Creator:Possseidon
Version:Insane
Source:Kiniro Mosaic
Tags:Kiniro Mosaic Alice Shino Shinobu Aya Ayaya Kinpatsu Kin Gold Blonde Cute Kawaii
BeatmapID:776920
BeatmapSetID:352558

[Difficulty]
HPDrainRate:5
CircleSize:4.2
OverallDifficulty:8
ApproachRate:9
SliderMultiplier:1.6
SliderTickRate:1

[Events]
//Background and Video events
0,0,"Kiniro Mosaic.jpg",0,0
Video,0,"Your Voice - Rhodanthe-x11xtbb_x264_001.avi"
//Break Periods
//Storyboard Layer 0 (Background)
//Storyboard Layer 1 (Fail)
//Storyboard Layer 2 (Pass)
//Storyboard Layer 3 (Foreground)
//Storyboard Sound Samples

[TimingPoints]
830,258.620689655172,4,1,0,100,1,0
830,-111.111111111111,4,1,0,60,0,0
4881,-100,4,1,0,70,0,0
17381,-142.857142857143,4,1,0,50,0,0
21433,-100,4,1,0,70,0,0
33933,-142.857142857143,4,1,0,50,0,0
42123,-125,4,1,0,60,0,0
49709,-111.111111111111,4,1,0,40,0,0
51519,-125,4,1,0,60,0,0
52554,-111.111111111111,4,1,0,80,0,0
53588,-166.666666666667,4,1,0,40,0,0
55571,-90.9090909090909,4,1,0,80,0,1
63416,-111.111111111111,4,1,0,60,0,0
63933,-90.9090909090909,4,1,0,80,0,1
74278,-111.111111111111,4,1,0,60,0,0
78416,-125,4,1,0,50,0,0

[Colours]
Combo1 : 255,128,128
Combo2 : 255,244,111
Combo3 : 55,55,255
Combo4 : 242,24,57

[HitObjects]
160,192,830,6,0,B|176:112|256:96|256:96|336:112|352:192,1,287.999991210938,2|0,0:0|0:0,0:0:0:0:
255,333,1778,1,0,0:0:0:0:
324,259,1864,2,0,P|373:231|446:232,1,95.9999970703126,2|0,0:0|0:0,0:0:0:0:
217,233,2295,2,0,P|186:185|201:94,1,143.999995605469,2|0,0:0|0:0,0:0:0:0:
368,59,2812,2,0,P|399:107|376:193,1,143.999995605469,2|0,0:0|0:0,0:0:0:0:
344,250,3157,2,0,P|313:202|314:159,1,95.9999970703126
423,269,3416,2,0,P|382:320|299:310,1,143.999995605469,2|0,0:0|0:0,0:0:0:0:
256,182,3847,5,0,0:0:0:0:
258,111,3933,2,0,P|204:128|190:217,1,143.999995605469,2|0,0:0|0:0,0:0:0:0:
304,307,4364,2,0,P|380:249|392:197,1,143.999995605469,2|0,0:0|0:0,0:0:0:0:
263,36,4881,6,0,B|209:36|209:36|193:81|151:129,1,160,2|0,0:0|0:0,0:0:0:0:
223,208,5226,2,0,P|287:219|333:205,1,106.666666666667
260,293,5485,2,0,P|196:282|150:296,1,106.666666666667,2|0,0:0|0:0,0:0:0:0:
326,311,5743,2,0,P|337:247|323:201,1,106.666666666667
273,113,6002,5,2,0:0:0:0:
155,253,6261,1,0,0:0:0:0:
109,142,6433,1,2,0:0:0:0:
388,276,6692,1,0,0:0:0:0:
412,105,6950,2,0,B|368:74|326:73|326:73|296:106|244:124,1,160,2|0,0:0|0:0,0:0:0:0:
225,57,7295,2,0,P|200:111|230:168,1,106.666666666667
287,327,7554,2,0,P|312:273|282:216,1,106.666666666667
208,226,7812,2,0,P|195:259|202:289,2,53.3333333333333
355,199,8071,5,2,0:0:0:0:
161,186,8329,1,0,0:0:0:0:
317,50,8502,1,2,0:0:0:0:
195,334,8761,1,0,0:0:0:0:
355,199,9019,2,0,P|372:284|338:364,1,160,2|0,0:0|0:0,0:0:0:0:
324,345,9364,5,0,0:0:0:0:
302,329,9450,1,0,0:0:0:0:
287,305,9536,1,0,0:0:0:0:
268,286,9623,5,2,0:0:0:0:
290,270,9709,1,0,0:0:0:0:
305,246,9795,1,0,0:0:0:0:
323,227,9881,5,0,0:0:0:0:
301,210,9967,1,0,0:0:0:0:
286,187,10053,1,0,0:0:0:0:
266,167,10140,6,0,B|204:114|204:114|162:143|102:140,1,160,2|0,0:0|0:0,0:0:0:0:
268,56,10571,2,0,B|330:109|330:109|372:80|432:83,1,160,2|0,0:0|0:0,0:0:0:0:
391,163,11088,2,0,P|406:245|286:337,1,213.333333333333,2|0,0:0|0:0,0:0:0:0:
164,308,11605,1,0,0:0:0:0:
178,278,11692,2,0,P|168:213|90:150,1,160,2|0,0:0|0:0,0:0:0:0:
348,308,12123,1,0,0:0:0:0:
334,278,12209,2,0,P|344:213|422:150,1,160,2|0,0:0|0:0,0:0:0:0:
433,78,12726,6,0,P|343:84|283:44,1,160
265,121,13243,6,0,P|221:172|225:261,1,160,2|0,0:0|0:0,0:0:0:0:
246,338,13674,2,0,P|290:287|286:198,1,160
211,114,14019,5,0,0:0:0:0:
185,105,14105,1,0,0:0:0:0:
158,106,14192,1,0,0:0:0:0:
132,114,14278,2,0,B|90:133|90:133|117:170|89:243,1,160,2|0,0:0|0:0,0:0:0:0:
380,270,14709,2,0,B|422:251|422:251|395:214|423:141,1,160
433,117,15054,1,0,0:0:0:0:
363,104,15312,5,2,0:0:0:0:
151,101,15571,1,0,0:0:0:0:
155,318,15829,1,2,0:0:0:0:
373,318,16088,1,0,0:0:0:0:
331,63,16347,5,2,0:0:0:0:
420,274,16606,1,2,0:0:0:0:
199,355,16865,1,2,0:0:0:0:
186,172,17036,1,4,0:0:0:0:
217,174,17123,5,0,0:0:0:0:
243,177,17209,1,0,0:0:0:0:
269,175,17295,1,0,0:0:0:0:
291,173,17381,2,0,B|398:146|398:146|425:141|403:98|376:146,1,167.999994873047,2|0,0:0|0:0,0:0:0:0:
221,211,17898,2,0,B|114:238|114:238|87:243|109:286|136:238,1,167.999994873047,2|0,0:0|0:0,0:0:0:0:
235,288,18416,6,0,P|286:278|325:287,1,74.6666643880209,2|0,0:0|0:0,0:0:0:0:
391,223,18847,1,2,0:0:0:0:
112,259,19105,1,0,0:0:0:0:
358,159,19364,2,0,B|422:83|361:35|330:73|330:73|279:135|147:128,1,335.999989746094,2|0,0:0|0:0,0:0:0:0:
86,129,20226,2,0,P|97:173|121:191,1,74.6666643880209
190,213,20485,2,0,P|228:248|234:326,1,111.999996582031,2|0,0:0|0:0,0:0:0:0:
322,213,20916,2,0,P|284:248|278:326,1,111.999996582031,2|0,0:0|0:0,0:0:0:0:
292,38,21433,6,0,P|273:90|189:148,1,160,2|0,0:0|0:0,0:0:0:0:
165,165,21778,1,0,0:0:0:0:
145,182,21864,1,0,0:0:0:0:
121,194,21950,1,0,0:0:0:0:
98,208,22036,2,0,B|71:229|71:229|103:288|198:264,1,160,2|0,0:0|0:0,0:0:0:0:
254,66,22467,1,0,0:0:0:0:
330,267,22554,2,0,B|409:288|441:229|441:229|414:208,1,160,2|0,0:0|0:0,0:0:0:0:
202,228,22985,5,2,0:0:0:0:
310,228,23243,1,0,0:0:0:0:
171,68,23502,2,0,P|187:137|276:172,1,160,2|0,0:0|0:0,0:0:0:0:
159,204,23847,2,0,P|144:261|163:315,1,106.666666666667
129,133,24105,2,0,P|78:162|53:214,1,106.666666666667,2|0,0:0|0:0,0:0:0:0:
171,68,24364,2,0,P|114:53|60:72,1,106.666666666667
310,228,24623,2,0,P|367:243|440:175,1,160,2|0,0:0|0:0,0:0:0:0:
283,49,25054,1,2,0:0:0:0:
438,182,25312,1,0,0:0:0:0:
171,70,25571,6,0,P|136:124|133:237,1,160,2|0,0:0|0:0,0:0:0:0:
188,306,25916,2,0,L|165:358,2,53.3333333333333
324,306,26174,2,0,L|347:358,2,53.3333333333333,2|0|0,0:0|0:0|0:0,0:0:0:0:
216,212,26433,1,0,0:0:0:0:
253,203,26519,1,0,0:0:0:0:
289,186,26605,1,0,0:0:0:0:
321,161,26692,2,0,P|356:114|339:18,1,160,2|0,0:0|0:0,0:0:0:0:
172,19,27123,2,0,P|151:94|191:161,1,160,2|0,0:0|0:0,0:0:0:0:
365,246,27640,6,0,P|346:273|178:318,1,213.333333333333,2|0,0:0|0:0,0:0:0:0:
109,200,28243,2,0,P|172:248|259:257,1,160
363,133,28761,2,0,P|300:181|213:190,1,160,2|2,0:0|0:0,0:0:0:0:
109,66,29278,2,0,P|172:114|259:123,1,160,2|4,0:0|0:0,0:0:0:0:
357,60,29795,6,0,P|406:72|425:176,1,160,2|0,0:0|0:0,0:0:0:0:
237,262,30226,2,0,P|270:191|366:133,1,160,2|0,0:0|0:0,0:0:0:0:
324,270,30571,2,0,P|278:332|252:345,1,106.666666666667,2|0,0:0|0:0,0:0:0:0:
144,281,30829,5,2,0:0:0:0:
155,256,30916,1,0,0:0:0:0:
160,229,31002,1,0,0:0:0:0:
160,202,31088,1,0,0:0:0:0:
155,175,31174,1,0,0:0:0:0:
143,150,31261,1,0,0:0:0:0:
168,157,31347,5,2,0:0:0:0:
193,164,31433,1,0,0:0:0:0:
219,167,31519,1,0,0:0:0:0:
245,167,31605,1,0,0:0:0:0:
271,165,31692,1,0,0:0:0:0:
297,159,31778,1,0,0:0:0:0:
321,148,31864,6,0,B|305:130|276:127|276:127|277:175|305:235,1,160,2|0,0:0|0:0,0:0:0:0:
441,183,32295,1,0,0:0:0:0:
413,80,32381,2,0,P|356:60|298:72,1,106.666666666667,2|0,0:0|0:0,0:0:0:0:
99,304,32812,2,0,B|136:304|164:331|164:331|244:326|290:256,1,213.333333333333,6|0,0:0|0:0,0:0:0:0:
193,48,33329,5,0,0:0:0:0:
161,150,33416,2,0,P|230:148|272:117,1,106.666666666667,2|0,0:0|0:0,0:0:0:0:
278,304,33804,2,0,P|308:216|447:242,1,240,2|0,0:0|0:0,0:0:0:0:
372,296,34321,1,0,0:0:0:0:
202,307,34450,2,0,P|168:259|146:247,1,83.9999974365235,2|0,0:0|0:0,0:0:0:0:
202,77,34881,2,0,B|176:136|176:136|150:166|80:168,1,149.333328776042,2|0,0:0|0:0,0:0:0:0:
109,74,35398,1,0,0:0:0:0:
245,178,35485,2,0,P|285:185|322:169,1,74.6666643880209,2|0,0:0|0:0,0:0:0:0:
94,207,35916,6,0,B|148:247|148:247|185:322,1,149.333328776042,2|0,0:0|0:0,0:0:0:0:
245,178,36433,1,0,0:0:0:0:
293,121,36519,2,0,P|256:102|223:105,1,74.6666643880209,2|0,0:0|0:0,0:0:0:0:
305,313,36950,2,0,P|365:287|387:204,1,149.333328776042,2|0,0:0|0:0,0:0:0:0:
363,101,37467,1,0,0:0:0:0:
254,69,37554,2,0,L|220:37,2,37.3333321940105,2|0|0,0:0|0:0|0:0,0:0:0:0:
230,178,37812,2,0,L|264:210,2,37.3333321940105,2|0|0,0:0|0:0|0:0,0:0:0:0:
129,167,38071,6,0,P|102:215|102:277,1,111.999996582031,2|0,0:0|0:0,0:0:0:0:
249,254,38502,1,0,0:0:0:0:
316,214,38588,2,0,P|329:246|322:286,1,74.6666643880209,2|0,0:0|0:0,0:0:0:0:
192,101,39019,2,0,P|256:129|344:116,1,149.333328776042,2|0,0:0|0:0,0:0:0:0:
442,100,39536,1,0,0:0:0:0:
410,127,39623,5,2,0:0:0:0:
390,158,39709,1,0,0:0:0:0:
379,193,39795,1,0,0:0:0:0:
375,230,39881,1,2,0:0:0:0:
365,265,39967,1,0,0:0:0:0:
345,297,40054,1,0,0:0:0:0:
315,319,40140,6,0,P|271:331|213:280,1,111.999996582031,2|0,0:0|0:0,0:0:0:0:
250,149,40571,1,0,0:0:0:0:
321,170,40657,2,0,P|298:209|266:223,1,74.6666643880209,2|0,0:0|0:0,0:0:0:0:
120,57,41088,2,0,P|164:123|148:191,1,149.333328776042,2|0,0:0|0:0,0:0:0:0:
100,311,41605,1,0,0:0:0:0:
144,313,41692,5,6,0:0:0:0:
180,305,41778,1,0,0:0:0:0:
213,289,41864,1,0,0:0:0:0:
242,266,41950,1,2,0:0:0:0:
265,237,42036,1,0,0:0:0:0:
286,199,42123,6,0,P|300:145|254:68,1,128,2|0,0:0|0:0,0:0:0:0:
104,122,42640,2,0,P|90:176|136:253,1,128,4|0,0:0|0:0,0:0:0:0:
393,239,43157,2,0,P|421:183|408:122,1,128,2|0,0:0|0:0,0:0:0:0:
240,81,43674,2,0,P|212:137|226:199,1,128,4|0,0:0|0:0,0:0:0:0:
441,58,44192,6,0,P|361:107|350:172,1,128,2|0,0:0|0:0,0:0:0:0:
286,246,44536,1,0,0:0:0:0:
261,263,44622,1,0,0:0:0:0:
232,273,44708,1,0,0:0:0:0:
201,272,44795,2,0,P|153:263|125:213,1,85.3333333333333,2|0,0:0|0:0,0:0:0:0:
428,145,45226,2,0,P|429:208|361:296,1,170.666666666667,2|0,0:0|0:0,0:0:0:0:
250,80,45829,5,2,0:0:0:0:
140,278,46002,1,0,0:0:0:0:
297,161,46261,2,0,P|341:124|345:43,1,128,2|0,0:0|0:0,0:0:0:0:
225,151,46605,2,0,P|188:107|144:91,1,85.3333333333333,4|2,0:0|0:0,0:0:0:0:
215,223,46864,2,0,P|171:260|155:304,1,85.3333333333333
287,233,47123,2,0,P|324:277|368:293,1,85.3333333333333,4|2,0:0|0:0,0:0:0:0:
389,178,47381,5,2,0:0:0:0:
394,148,47467,1,0,0:0:0:0:
386,118,47554,1,0,0:0:0:0:
369,93,47640,1,2,0:0:0:0:
345,74,47726,1,0,0:0:0:0:
315,70,47812,1,0,0:0:0:0:
285,73,47898,6,0,P|204:86|142:64,1,128,2|0,0:0|0:0,0:0:0:0:
180,191,48329,2,0,P|176:253|138:312,1,128,2|0,0:0|0:0,0:0:0:0:
332,191,48674,2,0,P|336:253|374:312,1,128,4|2,0:0|0:0,0:0:0:0:
416,231,49105,1,0,0:0:0:0:
316,117,49364,2,0,P|249:131|184:114,1,128,4|0,0:0|0:0,0:0:0:0:
95,170,49709,5,2,0:0:0:0:
105,201,49795,1,2,0:0:0:0:
104,234,49881,1,2,0:0:0:0:
183,256,49967,6,4,P|173:275|171:303,2,47.9999985351563,6|4|4,0:0|0:0|0:0,0:0:0:0:
222,143,50226,1,4,0:0:0:0:
235,294,50398,1,0,0:0:0:0:
329,256,50485,6,4,P|339:275|341:303,2,47.9999985351563,6|4|4,0:0|0:0|0:0,0:0:0:0:
290,143,50744,1,4,0:0:0:0:
277,294,50916,1,0,0:0:0:0:
316,196,51002,6,0,P|363:164|373:124,1,95.9999970703126,2|0,0:0|0:0,0:0:0:0:
196,196,51261,2,0,P|149:164|139:124,1,95.9999970703126,2|0,0:0|0:0,0:0:0:0:
170,67,51519,5,6,0:0:0:0:
199,62,51605,1,2,0:0:0:0:
227,71,51692,1,2,0:0:0:0:
251,88,51778,5,6,0:0:0:0:
260,116,51864,1,2,0:0:0:0:
257,145,51950,1,2,0:0:0:0:
250,174,52036,5,6,0:0:0:0:
239,202,52123,1,2,0:0:0:0:
235,231,52209,1,2,0:0:0:0:
239,260,52295,5,6,0:0:0:0:
251,287,52381,1,2,0:0:0:0:
273,307,52467,1,2,0:0:0:0:
304,319,52554,6,2,L|343:322,11,23.9999992675781
180,313,53071,6,0,L|133:331,5,47.9999985351563
312,240,53588,6,0,B|368:216|368:168|368:168|320:152|304:104|304:104|256:88|208:104|208:104|192:152|144:168|144:168|144:224|200:240,1,479.999985351563,2|4,0:0|0:0,0:0:0:0:
333,103,55140,5,2,0:0:0:0:
187,289,55312,1,0,0:0:0:0:
130,96,55571,6,0,B|167:156|238:151|238:151|289:118|343:99,1,234.666673828125,2|0,0:0|0:0,0:0:0:0:
397,266,56088,1,0,0:0:0:0:
250,230,56174,2,0,P|182:213|128:227,1,117.333336914063,2|0,0:0|0:0,0:0:0:0:
262,154,56432,2,0,P|330:171|384:157,1,117.333336914063,2|0,0:0|0:0,0:0:0:0:
321,89,56692,1,2,0:0:0:0:
191,295,56950,1,0,0:0:0:0:
181,310,57123,1,2,0:0:0:0:
191,89,57381,1,0,0:0:0:0:
181,73,57467,1,2,0:0:0:0:
321,295,57726,6,0,P|370:271|406:216,1,117.333336914063,2|0,0:0|0:0,0:0:0:0:
314,201,57985,2,0,P|331:149|318:85,1,117.333336914063,2|0,0:0|0:0,0:0:0:0:
242,140,58243,2,0,P|218:90|163:54,1,117.333336914063,4|0,0:0|0:0,0:0:0:0:
148,147,58502,2,0,P|96:129|32:142,1,117.333336914063,2|0,0:0|0:0,0:0:0:0:
91,210,58761,2,0,P|151:235|259:195,1,176.000005371094,4|0,0:0|0:0,0:0:0:0:
369,69,59192,1,0,0:0:0:0:
352,164,59278,5,2,0:0:0:0:
369,184,59364,1,0,0:0:0:0:
382,210,59450,1,0,0:0:0:0:
382,239,59536,5,2,0:0:0:0:
376,267,59622,1,0,0:0:0:0:
363,293,59708,1,0,0:0:0:0:
345,316,59795,6,0,B|313:296|271:291|271:291|245:232|309:204,2,176.000005371094,4|0|0,0:0|0:0|0:0,0:0:0:0:
249,89,60485,1,0,0:0:0:0:
241,114,60571,2,0,P|201:176|142:203,1,117.333336914063,2|0,0:0|0:0,0:0:0:0:
121,98,60829,6,0,P|177:52|279:41,1,176.000005371094,2|0,0:0|0:0,0:0:0:0:
298,270,61261,2,0,P|252:214|241:112,1,176.000005371094,2|0,0:0|0:0,0:0:0:0:
191,260,61605,2,0,P|133:293|71:286,1,117.333336914063,2|0,0:0|0:0,0:0:0:0:
148,191,61864,2,2,L|90:176,2,58.6666684570313
364,191,62123,2,0,L|422:176,2,58.6666684570313
202,118,62381,2,2,L|176:65,2,58.6666684570313,6|2|2,0:0|0:0|0:0,0:0:0:0:
310,118,62640,2,0,L|336:65,2,58.6666684570313
256,222,62898,5,2,0:0:0:0:
253,251,62985,1,0,0:0:0:0:
245,279,63071,1,0,0:0:0:0:
228,303,63157,1,2,0:0:0:0:
204,320,63243,1,0,0:0:0:0:
175,325,63329,1,0,0:0:0:0:
151,321,63416,2,0,P|106:289|96:233,1,95.9999970703126,2|0,0:0|0:0,0:0:0:0:
361,321,63674,2,0,P|406:289|416:233,1,95.9999970703126,2|0,0:0|0:0,0:0:0:0:
334,44,63933,6,0,P|269:55|245:157,1,176.000005371094,2|0,0:0|0:0,0:0:0:0:
390,226,64364,1,0,0:0:0:0:
334,340,64450,2,0,P|269:329|245:227,1,176.000005371094,2|0,0:0|0:0,0:0:0:0:
390,157,64881,1,0,0:0:0:0:
310,270,64967,2,0,P|212:295|166:221,1,176.000005371094,2|0,0:0|0:0,0:0:0:0:
169,137,65355,2,0,P|232:82|325:138,1,205.33333959961,2|0,0:0|0:0,0:0:0:0:
226,204,65743,2,0,P|174:200|149:190,2,58.6666684570313,2|0|0,0:0|0:0|0:0,0:0:0:0:
344,196,66002,5,2,0:0:0:0:
372,188,66088,1,0,0:0:0:0:
398,174,66174,1,0,0:0:0:0:
419,153,66261,1,0,0:0:0:0:
433,127,66347,1,0,0:0:0:0:
442,99,66433,1,0,0:0:0:0:
442,69,66519,5,4,0:0:0:0:
415,80,66605,1,0,0:0:0:0:
386,87,66692,1,0,0:0:0:0:
356,89,66778,1,0,0:0:0:0:
327,84,66864,1,0,0:0:0:0:
300,71,66950,1,0,0:0:0:0:
273,58,67036,5,6,0:0:0:0:
160,165,67295,2,0,B|111:209|182:241|182:241|317:297|225:101|387:176,1,352.000010742188,4|2,0:0|0:0,0:0:0:0:
324,286,68071,6,0,P|272:316|133:295,1,176.000005371094,2|0,0:0|0:0,0:0:0:0:
188,98,68588,2,0,P|240:68|379:89,1,176.000005371094,2|0,0:0|0:0,0:0:0:0:
380,173,69105,5,2,0:0:0:0:
359,194,69192,1,0,0:0:0:0:
334,209,69278,1,0,0:0:0:0:
306,219,69364,2,0,P|287:217|252:192,2,58.6666684570313,4|0|0,0:0|0:0|0:0,0:0:0:0:
132,211,69623,5,2,0:0:0:0:
153,190,69710,1,0,0:0:0:0:
178,175,69796,1,0,0:0:0:0:
206,165,69881,2,0,P|225:167|260:192,2,58.6666684570313,4|0|0,0:0|0:0|0:0,0:0:0:0:
206,305,70140,6,0,P|295:328|344:322,1,117.333336914063,2|0,0:0|0:0,0:0:0:0:
280,260,70398,2,0,P|359:213|389:174,1,117.333336914063,2|0,0:0|0:0,0:0:0:0:
301,176,70657,2,0,P|323:86|256:23,1,176.000005371094,0|4,0:0|0:0,0:0:0:0:
138,123,71174,5,2,0:0:0:0:
110,236,71347,1,0,0:0:0:0:
344,220,71605,1,4,0:0:0:0:
110,236,71864,1,0,0:0:0:0:
138,123,71950,2,0,P|200:85|252:81,1,117.333336914063,2|0,0:0|0:0,0:0:0:0:
251,254,72209,6,0,P|211:306|161:327,1,117.333336914063,2|0,0:0|0:0,0:0:0:0:
311,198,72467,6,0,P|319:263|298:313,1,117.333336914063,4|0,0:0|0:0,0:0:0:0:
313,116,72726,6,0,P|365:155|386:206,1,117.333336914063,2|0,0:0|0:0,0:0:0:0:
256,56,72985,6,0,P|321:47|371:68,1,117.333336914063,4|0,0:0|0:0,0:0:0:0:
193,85,73243,5,2,0:0:0:0:
214,104,73329,1,0,0:0:0:0:
227,130,73416,1,0,0:0:0:0:
230,159,73502,5,2,0:0:0:0:
223,187,73588,1,0,0:0:0:0:
204,209,73674,1,0,0:0:0:0:
178,223,73761,5,2,0:0:0:0:
148,223,73847,1,0,0:0:0:0:
133,197,73933,1,0,0:0:0:0:
137,168,74019,5,4,0:0:0:0:
158,148,74105,1,0,0:0:0:0:
182,165,74192,1,0,0:0:0:0:
193,185,74278,6,0,P|179:255|117:252,1,143.999995605469,4|0,0:0|0:0,0:0:0:0:
319,185,74795,2,0,P|333:255|395:252,1,143.999995605469,4|0,0:0|0:0,0:0:0:0:
418,71,75312,1,2,0:0:0:0:
94,71,75571,1,0,0:0:0:0:
254,309,75829,1,0,0:0:0:0:
418,71,76088,1,0,0:0:0:0:
291,85,76347,6,0,L|260:41,2,47.9999985351563,2|0|0,0:0|0:0|0:0,0:0:0:0:
165,153,76605,6,0,L|121:184,2,47.9999985351563
233,279,76864,6,0,L|264:323,2,47.9999985351563,2|0|0,0:0|0:0|0:0,0:0:0:0:
359,211,77123,6,0,L|403:180,2,47.9999985351563
154,247,77554,5,2,0:0:0:0:
202,66,77812,1,4,0:0:0:0:
371,130,78071,1,6,0:0:0:0:
347,253,78416,5,2,0:0:0:0:
223,319,78674,1,0,0:0:0:0:
300,201,78933,2,0,P|311:153|280:70,1,128
167,153,79450,1,2,0:0:0:0:
300,201,79709,1,0,0:0:0:0:
223,319,79881,1,4,0:0:0:0:
300,201,80140,2,0,P|365:172|471:216,1,170.666666666667,0|2,0:0|0:0,0:0:0:0:
289,319,80743,5,0,0:0:0:0:
212,201,81002,2,0,P|201:153|232:70,1,128
345,153,81519,1,2,0:0:0:0:
212,201,81778,1,0,0:0:0:0:
289,319,81950,1,4,0:0:0:0:
212,201,82209,2,0,P|147:172|41:216,1,170.666666666667,0|2,0:0|0:0,0:0:0:0:
130,319,82812,5,0,0:0:0:0:
212,201,83071,1,2,0:0:0:0:
289,319,83329,1,0,0:0:0:0:
373,206,83588,1,2,0:0:0:0:
300,85,83847,1,0,0:0:0:0:
163,119,84105,5,2,0:0:0:0:
118,135,84192,1,0,0:0:0:0:
89,172,84278,1,0,0:0:0:0:
89,212,84364,5,4,0:0:0:0:
118,249,84450,1,0,0:0:0:0:
163,265,84537,1,0,0:0:0:0:
256,255,84623,6,0,P|311:242|387:192,1,128,2|0,0:0|0:0,0:0:0:0:
293,174,85054,2,0,P|322:125|341:36,1,128,2|4,0:0|0:0,0:0:0:0:
258,94,85398,1,6,0:0:0:0:
256,192,85657,12,4,88761,0:0:0:0:
