osu file format v14

[General]
AudioFilename: Your Voice - Rhodanthe.mp3
AudioLeadIn: 0
PreviewTime: 55140
Countdown: 1
SampleSet: Normal
StackLeniency: 0.7
Mode: 0
LetterboxInBreaks: 1
WidescreenStoryboard: 1

[Editor]
DistanceSpacing: 1
BeatDivisor: 3
GridSize: 8
TimelineZoom: 5.899998

[Metadata]
Title:Your Voice
TitleUnicode:Your Voice
Artist:Rhodanthe*
ArtistUnicode:Rhodanthe*
Creator:Possseidon
Version:Hard
Source:Kiniro Mosaic
Tags:Kiniro Mosaic Alice Shino Shinobu Aya Ayaya Kinpatsu Kin Gold Blonde Cute Kawaii
BeatmapID:776919
BeatmapSetID:352558

[Difficulty]
HPDrainRate:4
CircleSize:4
OverallDifficulty:6
ApproachRate:7
SliderMultiplier:1.2
SliderTickRate:1

[Events]
//Background and Video events
0,0,"Kiniro Mosaic.jpg",0,0
Video,0,"Your Voice - Rhodanthe-x11xtbb_x264_001.avi"
//Break Periods
//Storyboard Layer 0 (Background)
//Storyboard Layer 1 (Fail)
//Storyboard Layer 2 (Pass)
//Storyboard Layer 3 (Foreground)
//Storyboard Sound Samples

[TimingPoints]
830,258.620689655172,4,1,0,100,1,0
830,-111.111111111111,4,1,0,60,0,0
4881,-100,4,1,0,70,0,0
17381,-142.857142857143,4,1,0,50,0,0
21433,-100,4,1,0,70,0,0
33804,-142.857142857143,4,1,0,50,0,0
42123,-125,4,1,0,60,0,0
49709,-111.111111111111,4,1,0,40,0,0
51519,-125,4,1,0,60,0,0
52554,-111.111111111111,4,1,0,80,0,0
53588,-166.666666666667,4,1,0,40,0,0
55571,-90.9090909090909,4,1,0,80,0,1
63416,-111.111111111111,4,1,0,60,0,0
63933,-90.9090909090909,4,1,0,80,0,1
74278,-111.111111111111,4,1,0,60,0,0
78416,-125,4,1,0,50,0,0

[Colours]
Combo1 : 255,128,128
Combo2 : 255,244,111
Combo3 : 55,55,255
Combo4 : 242,24,57

[HitObjects]
336,192,830,6,0,B|304:136|256:120|256:120|208:136|176:192,1,215.999993408203,2|2,0:0|0:0,0:0:0:0:
256,199,1778,1,0,0:0:0:0:
216,259,1864,2,0,P|189:299|143:318,1,71.9999978027344,2|0,0:0|0:0,0:0:0:0:
296,259,2295,2,0,P|323:299|384:311,1,107.999996704102,2|0,0:0|0:0,0:0:0:0:
406,133,2812,2,0,B|400:57|339:32|339:32|276:108|276:108|201:186|199:90|248:130,1,323.999990112305,2|0,0:0|0:0,0:0:0:0:
285,200,3847,5,0,0:0:0:0:
230,264,3933,2,0,P|193:231|120:211,1,107.999996704102,2|0,0:0|0:0,0:0:0:0:
186,321,4364,2,0,P|236:337|287:313,1,107.999996704102,2|0,0:0|0:0,0:0:0:0:
372,216,4881,6,0,P|400:173|366:70,1,160,6|0,0:0|0:0,0:0:0:0:
255,137,5484,1,0,0:0:0:0:
124,118,5743,2,0,P|109:153|106:208,1,80
175,288,6002,2,0,P|190:253|168:160,1,120,2|0,0:0|0:0,0:0:0:0:
99,304,6433,2,0,P|139:350|201:361,1,120,2|0,0:0|0:0,0:0:0:0:
351,278,6950,5,6,0:0:0:0:
413,130,7295,1,0,0:0:0:0:
300,171,7554,1,0,0:0:0:0:
351,278,7812,2,0,P|311:301|263:303,1,80,2|0,0:0|0:0,0:0:0:0:
209,211,8071,2,0,P|184:171|225:82,1,120,2|0,0:0|0:0,0:0:0:0:
303,211,8502,2,0,P|328:171|287:82,1,120,2|0,0:0|0:0,0:0:0:0:
205,50,9019,5,6,0:0:0:0:
92,164,9364,1,0,0:0:0:0:
212,164,9623,1,0,0:0:0:0:
205,50,9881,2,0,P|244:51|279:84,1,80,2|0,0:0|0:0,0:0:0:0:
274,75,10140,2,0,P|316:123|373:125,1,120,2|0,0:0|0:0,0:0:0:0:
445,218,10571,2,0,P|411:280|362:303,1,120,2|0,0:0|0:0,0:0:0:0:
266,283,11088,6,0,P|207:236|212:156,1,160,6|0,0:0|0:0,0:0:0:0:
310,88,11692,2,0,P|314:164|277:207,1,120,2|0,0:0|0:0,0:0:0:0:
235,83,12209,1,2,0:0:0:0:
122,41,12467,1,0,0:0:0:0:
81,154,12726,1,2,0:0:0:0:
193,195,12985,1,0,0:0:0:0:
266,226,13243,6,0,P|301:256|304:336,1,120,6|0,0:0|0:0,0:0:0:0:
388,326,13674,2,0,P|389:267|430:225,1,120,2|0,0:0|0:0,0:0:0:0:
357,82,14278,6,0,B|305:121|230:99|230:99|213:123|217:150,2,180,2|2|4,0:0|0:0|0:0,0:0:0:0:
365,201,15312,5,4,0:0:0:0:
287,292,15571,1,2,0:0:0:0:
198,211,15829,1,4,0:0:0:0:
112,295,16088,1,2,0:0:0:0:
87,177,16347,6,0,P|79:132|104:70,1,80,6|0,0:0|0:0,0:0:0:0:
158,132,16605,2,0,P|173:89|226:47,1,80,2|0,0:0|0:0,0:0:0:0:
242,128,16864,2,0,P|276:98|343:89,1,80,2|0,0:0|0:0,0:0:0:0:
317,166,17123,2,0,P|361:158|423:183,1,80,2|0,0:0|0:0,0:0:0:0:
355,237,17381,6,0,P|326:291|255:322,1,139.999995727539,6|0,0:0|0:0,0:0:0:0:
157,237,17898,2,0,P|186:291|257:322,1,139.999995727539,2|0,0:0|0:0,0:0:0:0:
256,265,18416,5,2,0:0:0:0:
342,194,18588,1,0,0:0:0:0:
253,50,18847,1,2,0:0:0:0:
168,194,19105,1,0,0:0:0:0:
342,194,19364,6,0,P|289:130|104:149,1,279.999991455078,6|0,0:0|0:0,0:0:0:0:
136,264,20485,2,0,P|201:280|233:273,1,83.9999974365235,2|0,0:0|0:0,0:0:0:0:
296,198,20916,2,0,P|337:197|376:211,1,83.9999974365235,2|0,0:0|0:0,0:0:0:0:
213,134,21433,6,0,B|260:94|260:94|284:113|331:111,1,120,2|0,0:0|0:0,0:0:0:0:
326,170,21778,2,0,P|363:145|381:105,1,80
447,58,22036,1,2,0:0:0:0:
394,230,22295,1,0,0:0:0:0:
490,201,22467,5,0,0:0:0:0:
467,257,22554,2,0,P|440:285|346:299,1,120,2|0,0:0|0:0,0:0:0:0:
153,308,22985,2,0,P|180:280|274:266,1,120,2|0,0:0|0:0,0:0:0:0:
363,303,23502,2,0,P|324:303|247:247,1,120,6|0,0:0|0:0,0:0:0:0:
296,134,23847,2,0,L|347:71,1,80,2|0,0:0|0:0,0:0:0:0:
256,33,24105,1,2,0:0:0:0:
165,71,24364,6,0,L|216:134,1,80,2|0,0:0|0:0,0:0:0:0:
234,191,24623,2,0,P|224:236|143:269,1,120,2|0,0:0|0:0,0:0:0:0:
278,191,25054,2,0,P|288:236|369:269,1,120,2|0,0:0|0:0,0:0:0:0:
362,192,25571,2,0,P|335:141|340:74,1,120,2|0,0:0|0:0,0:0:0:0:
221,77,25916,5,2,0:0:0:0:
219,96,26002,1,0,0:0:0:0:
213,115,26089,1,0,0:0:0:0:
206,133,26175,2,0,P|173:185|126:224,1,120,4|0,0:0|0:0,0:0:0:0:
192,323,26692,2,0,B|252:306|252:306|293:287|256:268,1,120,6|0,0:0|0:0,0:0:0:0:
301,198,27123,2,0,B|241:215|241:215|200:234|237:253,1,120,2|0,0:0|0:0,0:0:0:0:
417,258,27640,6,0,P|401:188|336:127,1,160,6|0,0:0|0:0,0:0:0:0:
160,105,28243,2,0,P|191:136|212:209,1,120
117,336,28761,2,0,P|86:305|65:232,1,120,2|0,0:0|0:0,0:0:0:0:
160,105,29278,1,2,0:0:0:0:
117,336,29536,1,0,0:0:0:0:
289,310,29795,6,0,P|334:274|361:209,1,120,6|0,0:0|0:0,0:0:0:0:
422,267,30226,2,0,P|428:209|401:144,1,120,2|0,0:0|0:0,0:0:0:0:
446,88,30571,2,0,P|396:77|344:106,1,80,2|0,0:0|0:0,0:0:0:0:
309,144,30829,5,2,0:0:0:0:
74,332,31261,1,2,0:0:0:0:
74,92,31605,1,4,0:0:0:0:
173,242,31864,5,2,0:0:0:0:
240,299,32123,1,0,0:0:0:0:
322,318,32381,2,0,P|364:318|396:296,1,80,2|0,0:0|0:0,0:0:0:0:
214,173,32812,6,0,P|273:221|357:219,1,160,4|0,0:0|0:0,0:0:0:0:
307,109,33329,1,0,0:0:0:0:
363,86,33416,2,0,B|323:75|323:75|290:57,1,80,2|0,0:0|0:0,0:0:0:0:
172,87,33804,6,0,P|161:132|99:184,1,125.999996154785,4|0,0:0|0:0,0:0:0:0:
65,202,34321,1,0,0:0:0:0:
104,285,34450,2,0,L|164:300,1,41.9999987182618,2|0,0:0|0:0,0:0:0:0:
243,298,34838,6,0,P|254:252|301:188,1,125.999996154785,4|0,0:0|0:0,0:0:0:0:
335,167,35355,1,0,0:0:0:0:
248,116,35485,2,0,L|205:146,1,41.9999987182618,2|0,0:0|0:0,0:0:0:0:
151,256,35873,6,0,P|212:272|284:258,1,125.999996154785,4|0,0:0|0:0,0:0:0:0:
242,184,36519,2,0,L|188:182,1,41.9999987182618,2|0,0:0|0:0,0:0:0:0:
126,140,36907,6,0,P|177:90|230:76,1,125.999996154785,4|0,0:0|0:0,0:0:0:0:
270,77,37424,1,0,0:0:0:0:
340,138,37554,6,0,L|376:146,2,27.9999991455078,2|0|0,0:0|0:0|0:0,0:0:0:0:
262,179,37812,2,0,L|226:171,2,27.9999991455078,2|0|0,0:0|0:0|0:0,0:0:0:0:
320,253,38071,6,0,B|306:289|306:289|269:315,1,83.9999974365235,4|0,0:0|0:0,0:0:0:0:
224,243,38588,1,2,0:0:0:0:
202,278,38717,1,0,0:0:0:0:
192,131,38976,6,0,B|212:97|212:97|231:60|277:56,1,111.999996582031,4|0,0:0|0:0,0:0:0:0:
269,155,39623,1,2,0:0:0:0:
299,126,39752,1,0,0:0:0:0:
375,226,40011,6,0,P|359:262|295:293,1,111.999996582031,4|0,0:0|0:0,0:0:0:0:
244,228,40657,2,0,P|269:217|304:214,1,55.9999982910157,2|0,0:0|0:0,0:0:0:0:
394,338,41088,1,6,0:0:0:0:
177,209,41605,5,0,0:0:0:0:
194,170,41692,1,2,0:0:0:0:
261,219,41864,1,0,0:0:0:0:
359,113,42123,6,0,P|308:89|251:88,1,96,4|0,0:0|0:0,0:0:0:0:
153,271,42640,2,0,P|204:295|261:296,1,96,2|0,0:0|0:0,0:0:0:0:
177,89,43157,2,0,P|153:140|152:197,1,96,4|0,0:0|0:0,0:0:0:0:
335,295,43674,2,0,P|359:244|360:187,1,96,6|0,0:0|0:0,0:0:0:0:
257,105,44192,5,2,0:0:0:0:
109,226,44536,1,0,0:0:0:0:
251,203,44795,1,2,0:0:0:0:
215,292,44967,1,0,0:0:0:0:
358,279,45226,2,0,P|367:234|338:147,1,128,4|0,0:0|0:0,0:0:0:0:
251,203,45829,2,0,L|187:228,1,64,2|0,0:0|0:0,0:0:0:0:
170,133,46261,6,0,P|198:102|217:38,1,96,4|0,0:0|0:0,0:0:0:0:
269,128,46605,2,0,P|308:109|337:75,1,64,2|0,0:0|0:0,0:0:0:0:
357,173,46864,2,0,P|400:176|442:161,1,64,4|0,0:0|0:0,0:0:0:0:
411,256,47122,2,0,P|446:281|491:289,1,64,2|0,0:0|0:0,0:0:0:0:
353,336,47381,6,0,B|300:328|256:307|256:307|221:331|159:342,2,192,6|0|6,0:0|0:0|0:0,0:0:0:0:
408,257,48588,1,2,0:0:0:0:
418,239,48674,1,0,0:0:0:0:
299,156,48933,1,4,0:0:0:0:
284,169,49105,1,0,0:0:0:0:
258,26,49364,2,0,P|192:57|133:58,1,128,6|0,0:0|0:0,0:0:0:0:
125,166,49967,6,0,L|87:153,2,35.9999989013672,2|0|2,0:0|0:0|0:0,0:0:0:0:
198,142,50312,1,4,0:0:0:0:
227,272,50485,2,0,P|266:266|300:243,1,71.9999978027344,2|0,0:0|0:0,0:0:0:0:
384,201,50743,2,0,P|345:195|311:172,1,71.9999978027344,4|0,0:0|0:0,0:0:0:0:
256,85,51002,2,0,P|292:99|333:96,1,71.9999978027344,2|0,0:0|0:0,0:0:0:0:
428,102,51260,2,0,P|397:77|379:40,1,71.9999978027344,4|0,0:0|0:0,0:0:0:0:
184,43,51519,6,0,L|141:49,11,32,2|0|0|2|0|0|2|0|0|2|0|0,0:0|0:0|0:0|0:0|0:0|0:0|0:0|0:0|0:0|0:0|0:0|0:0,0:0:0:0:
134,141,52554,6,0,L|105:136,11,17.9999994506836,2|0|2|0|2|0|2|0|2|0|2|0,0:0|0:0|0:0|0:0|0:0|0:0|0:0|0:0|0:0|0:0|0:0|0:0,0:0:0:0:
170,244,53071,6,0,L|141:279,5,35.9999989013672,2|2|2|2|2|2,0:0|0:0|0:0|0:0|0:0|0:0,0:0:0:0:
285,281,53588,6,0,B|321:226|383:224|383:224|394:177|381:129|381:129|319:161|281:134|281:134|294:99|318:137,1,359.999989013672,4|6,0:0|0:0,0:0:0:0:
182,249,55140,5,2,0:0:0:0:
309,125,55312,1,0,0:0:0:0:
226,78,55571,2,0,B|206:111|213:147|213:147|258:178|272:240,1,176.000005371094,6|0,0:0|0:0,0:0:0:0:
217,323,56088,1,0,0:0:0:0:
164,323,56174,2,0,P|115:301|123:207,1,132.00000402832,2|0,0:0|0:0,0:0:0:0:
204,177,56605,1,0,0:0:0:0:
241,215,56691,2,0,P|260:265|187:326,1,132.00000402832,2|0,0:0|0:0,0:0:0:0:
146,220,57123,2,0,P|126:169|199:108,1,132.00000402832,2|0,0:0|0:0,0:0:0:0:
204,177,57467,1,0,0:0:0:0:
298,49,57726,6,0,P|333:70|388:76,1,88.000002685547,2|0,0:0|0:0,0:0:0:0:
422,144,57985,2,0,P|452:139|474:125,2,44.0000013427735,2|0|0,0:0|0:0|0:0,0:0:0:0:
380,211,58243,2,0,P|345:232|290:238,1,88.000002685547,2|0,0:0|0:0,0:0:0:0:
256,306,58502,2,0,P|226:301|204:287,2,44.0000013427735,2|0|0,0:0|0:0|0:0,0:0:0:0:
332,343,58761,2,0,P|413:315|447:278,1,132.00000402832,4|0,0:0|0:0,0:0:0:0:
380,211,59192,5,0,0:0:0:0:
337,179,59278,2,0,P|288:143|264:94,1,88.000002685547,2|0,0:0|0:0,0:0:0:0:
239,208,59536,2,0,P|178:198|127:216,1,88.000002685547,2|0,0:0|0:0,0:0:0:0:
191,282,59795,1,0,0:0:0:0:
206,76,60054,2,0,B|294:44|350:67|350:67|315:130|339:185,1,264.000008056641,4|0,0:0|0:0,0:0:0:0:
181,207,60829,2,0,B|184:240|154:294|154:294|181:299|200:315|200:315|205:291|213:275|213:275|203:272|203:272|205:267,2,198.000006042481,6|0|2,0:0|0:0|0:0,0:0:0:0:
223,95,61864,6,0,P|262:114|361:119,1,132.00000402832,6|0,0:0|0:0,0:0:0:0:
480,174,62381,2,0,P|441:193|342:198,1,132.00000402832
195,213,62898,1,2,0:0:0:0:
359,286,63157,1,0,0:0:0:0:
262,159,63416,2,0,P|266:114|290:79,1,71.9999978027344,2|0,0:0|0:0,0:0:0:0:
353,200,63674,2,0,P|382:167|392:125,1,71.9999978027344,2|4,0:0|0:0,0:0:0:0:
373,68,63933,5,2,0:0:0:0:
189,119,64450,2,0,P|246:223|391:253,1,264.000008056641,6|2,0:0|0:0,0:0:0:0:
253,88,65355,2,0,P|276:159|391:189,1,198.000006042481,6|2,0:0|0:0,0:0:0:0:
372,102,66002,5,4,0:0:0:0:
138,147,66390,1,0,0:0:0:0:
295,326,66778,1,0,0:0:0:0:
268,192,67036,1,2,0:0:0:0:
138,147,67295,6,0,P|246:77|372:102,1,264.000008056641,6|2,0:0|0:0,0:0:0:0:
268,192,68071,2,0,B|218:271|110:273|110:273|108:204|191:252,1,264.000008056641,6|0,0:0|0:0,0:0:0:0:
295,326,68847,1,0,0:0:0:0:
267,192,69105,2,0,B|249:125|265:77|265:77|310:106|346:99,2,198.000006042481,6|0|0,0:0|0:0|0:0,0:0:0:0:
403,249,70140,6,0,P|436:208|440:161,1,88.000002685547,2|0,0:0|0:0,0:0:0:0:
367,179,70398,2,0,P|361:126|330:90,1,88.000002685547,0|4,0:0|0:0,0:0:0:0:
267,192,70657,2,0,P|214:200|172:180,1,88.000002685547,2|0,0:0|0:0,0:0:0:0:
225,126,70915,2,0,P|182:94|166:50,1,88.000002685547,0|4,0:0|0:0,0:0:0:0:
257,52,71174,1,2,0:0:0:0:
257,52,71346,1,0,0:0:0:0:
367,179,71605,2,0,P|343:243|291:286,1,132.00000402832,2|0,0:0|0:0,0:0:0:0:
221,265,71950,6,0,P|198:273|170:278,2,33.0000010070801,2|0|0,0:0|0:0|0:0,0:0:0:0:
275,208,72209,2,0,P|302:158|229:52,2,198.000006042481,6|0|0,0:0|0:0|0:0,0:0:0:0:
224,138,73243,2,0,P|197:188|270:294,2,198.000006042481,6|0|0,0:0|0:0|0:0,0:0:0:0:
317,47,74278,6,0,P|338:88|402:128,1,107.999996704102,2|0,0:0|0:0,0:0:0:0:
195,47,74795,2,0,P|174:88|110:128,1,107.999996704102,2|4,0:0|0:0,0:0:0:0:
195,337,75312,2,0,P|174:296|110:256,1,107.999996704102,2|0,0:0|0:0,0:0:0:0:
317,337,75829,2,0,P|338:296|402:256,1,107.999996704102,2|6,0:0|0:0,0:0:0:0:
288,163,76347,6,0,P|310:128|308:95,1,71.9999978027344,2|0,0:0|0:0,0:0:0:0:
226,160,76605,2,0,P|192:138|159:140,1,71.9999978027344,2|0,0:0|0:0,0:0:0:0:
224,221,76864,2,0,P|202:256|204:289,1,71.9999978027344,2|0,0:0|0:0,0:0:0:0:
285,224,77122,2,0,P|320:246|353:244,1,71.9999978027344,2|0,0:0|0:0,0:0:0:0:
428,209,77554,1,2,0:0:0:0:
463,130,77812,1,4,0:0:0:0:
436,47,78071,2,0,B|395:75|382:135|382:135|340:129|373:102,1,143.999995605469,6|0,0:0|0:0,0:0:0:0:
250,83,78674,5,0,0:0:0:0:
361,113,78933,1,0,0:0:0:0:
250,83,79192,1,0,0:0:0:0:
183,120,79450,2,0,P|193:158|246:200,1,96,2|0,0:0|0:0,0:0:0:0:
307,217,79881,1,0,0:0:0:0:
192,204,80140,2,0,P|140:238|108:308,1,128,4|0,0:0|0:0,0:0:0:0:
262,301,80743,5,0,0:0:0:0:
110,295,81002,1,0,0:0:0:0:
262,301,81261,1,0,0:0:0:0:
329,264,81519,2,0,P|319:226|266:184,1,96,2|0,0:0|0:0,0:0:0:0:
205,167,81950,1,0,0:0:0:0:
320,180,82209,2,0,P|372:146|404:76,1,128,4|0,0:0|0:0,0:0:0:0:
287,73,82812,5,0,0:0:0:0:
205,167,83071,1,0,0:0:0:0:
319,180,83329,1,0,0:0:0:0:
306,65,83588,1,0,0:0:0:0:
344,173,83847,1,0,0:0:0:0:
331,287,84105,5,2,0:0:0:0:
317,295,84192,1,0,0:0:0:0:
302,300,84278,1,0,0:0:0:0:
286,301,84364,5,2,0:0:0:0:
270,298,84450,1,0,0:0:0:0:
255,291,84536,1,0,0:0:0:0:
241,281,84623,6,0,P|176:243|88:259,1,160,4|0,0:0|0:0,0:0:0:0:
166,143,85398,1,6,0:0:0:0:
256,192,85657,12,4,88761,0:0:0:0:
