osu file format v14

[General]
AudioFilename: Your Voice - Rhodanthe.mp3
AudioLeadIn: 0
PreviewTime: 55140
Countdown: 1
SampleSet: Normal
StackLeniency: 0.7
Mode: 0
LetterboxInBreaks: 1
WidescreenStoryboard: 1

[Editor]
DistanceSpacing: 1.5
BeatDivisor: 6
GridSize: 8
TimelineZoom: 1.6

[Metadata]
Title:Your Voice
TitleUnicode:Your Voice
Artist:Rhodanthe*
ArtistUnicode:Rhodanthe*
Creator:Possseidon
Version:Easy
Source:Kiniro Mosaic
Tags:Kiniro Mosaic Alice Shino Shinobu Aya Ayaya Kinpatsu Kin Gold Blonde Cute Kawaii
BeatmapID:777773
BeatmapSetID:352558

[Difficulty]
HPDrainRate:2
CircleSize:2
OverallDifficulty:3
ApproachRate:3
SliderMultiplier:0.600000005960464
SliderTickRate:1

[Events]
//Background and Video events
0,0,"Kiniro Mosaic.jpg",0,0
Video,0,"Your Voice - Rhodanthe-x11xtbb_x264_001.avi"
//Break Periods
//Storyboard Layer 0 (Background)
//Storyboard Layer 1 (Fail)
//Storyboard Layer 2 (Pass)
//Storyboard Layer 3 (Foreground)
//Storyboard Sound Samples

[TimingPoints]
830,258.620689655172,4,1,0,100,1,0
830,-111.111111111111,4,1,0,60,0,0
4881,-100,4,1,0,70,0,0
17381,-142.857142857143,4,1,0,50,0,0
21433,-100,4,1,0,70,0,0
33804,-142.857142857143,4,1,0,50,0,0
42123,-125,4,1,0,60,0,0
49450,-111.111111111111,4,1,0,40,0,0
51519,-125,4,1,0,60,0,0
52554,-111.111111111111,4,1,0,80,0,0
53588,-166.666666666667,4,1,0,40,0,0
55571,-90.9090909090909,4,1,0,80,0,1
63416,-111.111111111111,4,1,0,60,0,0
63933,-90.9090909090909,4,1,0,80,0,1
74278,-111.111111111111,4,1,0,60,0,0
78416,-125,4,1,0,50,0,0

[Colours]
Combo1 : 255,128,128
Combo2 : 255,244,111
Combo3 : 55,55,255
Combo4 : 242,24,57

[HitObjects]
99,86,830,6,0,B|99:116|121:138|121:138|204:117|277:140,1,215.99999555397,2|0,0:0|0:0,0:0:0:0:
369,196,2381,1,0,0:0:0:0:
277,244,2898,2,0,B|204:267|121:246|121:246|99:267|99:298,1,215.99999555397,2|0,0:0|0:0,0:0:0:0:
196,345,4450,1,0,0:0:0:0:
274,254,4967,6,0,B|284:126|284:126|239:138|174:125,1,240.000002384186,6|0,0:0|0:0,0:0:0:0:
160,244,6519,1,0,0:0:0:0:
279,245,7036,2,0,B|362:227|449:260|449:260|429:188|405:234,1,240.000002384186,2|0,0:0|0:0,0:0:0:0:
339,126,8588,1,0,0:0:0:0:
250,45,9105,6,0,P|200:79|133:90,1,120.000001192093,6|0,0:0|0:0,0:0:0:0:
31,130,10140,2,0,P|81:164|148:175,1,120.000001192093
258,181,11174,2,0,B|314:198|335:249|335:249|260:267|261:353,2,240.000002384186,2|0|2,0:0|0:0|0:0,0:0:0:0:
138,170,13761,1,0,0:0:0:0:
226,89,14278,1,2,0:0:0:0:
109,61,14795,1,0,0:0:0:0:
138,170,15312,2,0,P|142:233|104:283,1,120.000001192093,2|0,0:0|0:0,0:0:0:0:
82,169,16347,2,0,P|78:106|116:56,1,120.000001192093,2|0,0:0|0:0,0:0:0:0:
238,87,17381,6,0,P|296:117|318:217,1,167.999996541977,6|0,0:0|0:0,0:0:0:0:
238,181,18933,1,0,0:0:0:0:
156,211,19450,2,0,P|168:130|237:86,1,167.999996541977,2|2,0:0|0:0,0:0:0:0:
320,81,21002,1,4,0:0:0:0:
370,150,21519,6,0,P|386:188|373:266,2,120.000001192093,2|0|4,0:0|0:0|0:0,0:0:0:0:
256,192,23071,1,0,0:0:0:0:
142,150,23588,2,0,P|126:188|139:266,2,120.000001192093,2|0|4,0:0|0:0|0:0,0:0:0:0:
217,59,25140,1,2,0:0:0:0:
335,49,25657,6,0,B|410:80|410:80|357:138|349:230,1,240.000002384186,6|2,0:0|0:0,0:0:0:0:
296,328,27209,1,2,0:0:0:0:
180,327,27726,6,0,P|130:292|103:233,1,120.000001192093,6|0,0:0|0:0,0:0:0:0:
136,124,28761,2,0,P|186:159|213:218,1,120.000001192093,2|0,0:0|0:0,0:0:0:0:
287,117,29795,6,0,P|320:95|349:54,2,90.0000008940696,6|0|0,0:0|0:0|0:0,0:0:0:0:
329,193,30829,2,0,P|362:215|391:256,2,90.0000008940696,6|0|2,0:0|0:0|0:0,0:0:0:0:
242,192,31864,6,0,B|264:159|225:153|225:153|197:167|191:191|191:191|266:223|301:265,1,240.000002384186,6|0,0:0|0:0,0:0:0:0:
178,295,33416,1,0,0:0:0:0:
64,201,33933,6,0,L|104:174,1,41.9999991354942,2|0,0:0|0:0,0:0:0:0:
199,143,34450,2,0,L|159:116,1,41.9999991354942,2|0,0:0|0:0,0:0:0:0:
79,89,34967,1,4,0:0:0:0:
256,44,35485,1,0,0:0:0:0:
448,201,36002,6,0,L|408:174,1,41.9999991354942,2|0,0:0|0:0,0:0:0:0:
313,143,36519,2,0,L|353:116,1,41.9999991354942,2|0,0:0|0:0,0:0:0:0:
433,89,37036,1,4,0:0:0:0:
227,50,37554,1,0,0:0:0:0:
144,106,38071,6,0,P|128:152|147:227,1,125.999997406483,2|0,0:0|0:0,0:0:0:0:
219,291,39105,2,0,P|235:245|216:170,1,125.999997406483,4|0,0:0|0:0,0:0:0:0:
290,115,40140,2,0,P|331:138|373:143,2,83.9999982709884,2|0|2,0:0|0:0|0:0,0:0:0:0:
139,40,41692,1,4,0:0:0:0:
59,157,42209,6,0,P|55:230|134:319,1,192.000001907348,6|2,0:0|0:0,0:0:0:0:
226,273,43761,1,0,0:0:0:0:
212,167,44278,2,0,P|150:206|133:325,1,192.000001907348,6|2,0:0|0:0,0:0:0:0:
226,273,45829,1,0,0:0:0:0:
306,213,46347,6,0,P|328:175|319:119,1,96.0000009536742
232,93,47381,2,0,P|210:131|219:187,1,96.0000009536742
226,273,48416,1,0,0:0:0:0:
250,108,49450,6,0,P|288:139|344:157,1,107.999997776985,0|2,0:0|0:0,0:0:0:0:
243,221,50485,2,0,P|205:252|149:270,1,107.999997776985,0|2,0:0|0:0,0:0:0:0:
146,164,51519,2,0,L|123:112,2,48.0000004768371,2|0|2,0:0|0:0|0:0,0:0:0:0:
183,54,52554,2,0,L|220:61,4,26.9999994442463,2|0|2|0|2,0:0|0:0|0:0|0:0|0:0,0:0:0:0:
254,70,53588,2,0,B|310:96|310:96|300:135|307:180,1,143.99999703598,6|0,0:0|0:0,0:0:0:0:
241,239,55140,5,2,0:0:0:0:
181,134,55657,2,0,P|245:90|366:116,1,198.000008009434,6|0,0:0|0:0,0:0:0:0:
322,147,56692,2,0,P|276:175|251:221,2,99.0000040047169,2|0|2,0:0|0:0|0:0,0:0:0:0:
358,109,57726,2,0,B|395:173|455:213|455:213|457:279|419:333,1,264.000010679245,6|0,0:0|0:0,0:0:0:0:
290,327,59278,1,2,0:0:0:0:
216,217,59795,6,0,P|168:162|109:150,2,132.000005339623,2|0|2,0:0|0:0|0:0,0:0:0:0:
101,281,61347,1,0,0:0:0:0:
112,149,61864,2,0,B|129:107|114:73|114:73|206:87|310:80,1,264.000010679245,6|0,0:0|0:0,0:0:0:0:
367,164,63416,2,0,P|350:202|353:223,1,53.9999988884926,2|0,0:0|0:0,0:0:0:0:
273,270,63933,6,0,P|221:238|151:245,1,132.000005339623,2|0,0:0|0:0,0:0:0:0:
152,139,64967,2,0,P|217:146|253:131,2,99.0000040047169,2|0|2,0:0|0:0|0:0,0:0:0:0:
152,85,66002,2,0,P|87:77|51:93,2,99.0000040047169,6|0|2,0:0|0:0|0:0,0:0:0:0:
204,78,67036,1,0,0:0:0:0:
245,45,67295,2,0,P|304:59|336:127,1,132.000005339623,2|0,0:0|0:0,0:0:0:0:
164,181,68071,6,0,P|161:225|118:303,1,132.000005339623,6|0,0:0|0:0,0:0:0:0:
287,226,69105,2,0,P|251:170|242:105,1,132.000005339623,2|0,0:0|0:0,0:0:0:0:
395,139,70140,2,0,B|415:212|449:259|449:259|415:319|344:341,1,264.000010679245,6|0,0:0|0:0,0:0:0:0:
230,245,71692,2,0,P|179:233|104:267,1,132.000005339623,0|2,0:0|0:0,0:0:0:0:
122,65,72726,2,0,P|173:77|248:43,1,132.000005339623,0|4,0:0|0:0,0:0:0:0:
370,138,73761,1,0,0:0:0:0:
256,192,74278,12,4,76347,0:0:0:0:
234,180,77252,6,0,L|282:206,3,53.9999988884926,2|0|2|0,0:0|0:0|0:0|0:0,0:0:0:0:
378,147,78416,2,0,B|346:108|346:108|303:103|260:66,1,144.000001430511,6|0,0:0|0:0,0:0:0:0:
196,40,79450,1,2,0:0:0:0:
117,133,79838,1,0,0:0:0:0:
184,158,80097,1,0,0:0:0:0:
114,240,80485,6,0,B|146:279|146:279|189:284|232:321,1,144.000001430511,6|0,0:0|0:0,0:0:0:0:
294,349,81519,1,2,0:0:0:0:
373,275,81907,1,0,0:0:0:0:
312,235,82166,2,0,P|292:199|282:163,1,72.0000007152557,0|4,0:0|0:0,0:0:0:0:
369,65,83071,1,0,0:0:0:0:
490,143,83588,1,2,0:0:0:0:
395,251,84105,1,0,0:0:0:0:
326,272,84364,1,0,0:0:0:0:
255,257,84623,2,0,P|209:243|182:242,2,72.0000007152557,2|0|6,0:0|0:0|0:0,0:0:0:0:
256,192,85657,12,6,88761,0:0:0:0:
