osu file format v14

[General]
AudioFilename: audio.mp3
AudioLeadIn: 0
PreviewTime: 54127
Countdown: 0
SampleSet: Normal
StackLeniency: 0.9
Mode: 0
LetterboxInBreaks: 0
WidescreenStoryboard: 0

[Editor]
Bookmarks: 2204,12754,23303,33853,44402,54951,65501,76050,87918,98468,102424
DistanceSpacing: 1.3
BeatDivisor: 4
GridSize: 4
TimelineZoom: 1.5

[Metadata]
Title:Happy*Pretty*Clover
TitleUnicode:Happy★Pretty★Clover
Artist:Rhodanthe*
ArtistUnicode:Rhodanthe*
Creator:vekt0r
Version:Advanced
Source:きんいろモザイク Pretty Days
Tags:kin-iro kiniro mosaic kinmoza kinmosa ova opening short ver tanaka manami alice cartelet nishi asuka oomiya shinobu taneda risa komichi aya uchimiya yumi inokuma youko touyama nao kujou karen yuiko meis clauson
BeatmapID:1250219
BeatmapSetID:589761

[Difficulty]
HPDrainRate:3.5
CircleSize:3.5
OverallDifficulty:5
ApproachRate:7
SliderMultiplier:1.3
SliderTickRate:1

[Events]
//Background and Video events
0,0,"BG.jpg",0,0
//Break Periods
//Storyboard Layer 0 (Background)
//Storyboard Layer 1 (Fail)
//Storyboard Layer 2 (Pass)
//Storyboard Layer 3 (Foreground)
//Storyboard Sound Samples

[TimingPoints]
886,329.67032967033,4,2,3,30,1,0
886,-138.888888888889,4,2,3,30,0,0
7479,-142.857142857143,4,1,2,30,0,0
8798,-142.857142857143,4,1,2,20,0,0
10116,-142.857142857143,4,1,2,30,0,0
11435,-142.857142857143,4,1,1,50,0,0
12094,-100,4,1,2,35,0,0
22149,-100,4,1,2,45,0,0
22479,-100,4,1,2,35,0,0
22973,-100,4,1,1,35,0,0
23303,-125,4,1,1,25,0,0
23633,-125,4,1,2,25,0,0
25281,-125,4,1,2,35,0,0
25611,-125,4,1,2,25,0,0
26600,-125,4,1,2,35,0,0
26929,-125,4,1,2,25,0,0
28578,-125,4,1,1,25,0,0
28907,-125,4,1,2,25,0,0
30556,-125,4,1,2,35,0,0
30886,-125,4,1,2,25,0,0
33853,-125,4,1,1,30,0,0
34182,-125,4,1,2,30,0,0
35831,-125,4,1,2,40,0,0
36160,-125,4,1,2,30,0,0
37149,-125,4,1,2,40,0,0
37479,-125,4,1,2,30,0,0
39127,-125,4,1,1,30,0,0
39457,-125,4,1,2,30,0,0
41105,-125,4,1,2,40,0,0
41435,-125,4,1,2,30,0,0
41765,-125,4,1,2,40,0,0
43248,-125,4,1,1,50,0,0
44732,-100,4,1,1,50,0,0
46710,-100,4,1,2,40,0,0
47039,-100,4,1,1,50,0,0
49429,-100,4,1,2,35,0,0
53633,-100,4,1,1,60,0,0
54292,-100,4,1,1,35,0,0
54622,-100,4,1,1,50,0,0
54951,-100,4,1,1,45,0,1
55281,-100,4,1,2,45,0,1
64017,-100,4,1,2,55,0,1
64347,-100,4,1,2,45,0,1
64842,-100,4,1,1,55,0,1
65171,-100,4,1,2,45,0,0
65501,-100,4,1,1,45,0,1
65831,-100,4,1,2,45,0,1
68633,-100,4,1,1,45,0,1
68798,-100,4,1,2,45,0,1
69292,-100,4,1,1,45,0,1
69622,-100,4,1,2,45,0,1
73413,-100,4,1,2,40,0,1
75061,-100,4,1,2,30,0,1
75391,-125,4,1,1,40,0,1
75638,-125,4,1,2,30,0,1
76050,-125,4,1,2,30,0,0
78605,-125,4,2,3,5,0,0
78688,-125,4,1,2,30,0,0
81243,-125,4,2,3,5,0,0
81325,-100,4,1,1,35,0,0
81655,-100,4,1,2,35,0,0
82644,-100,4,1,1,45,0,0
82973,-100,4,1,2,35,0,0
83962,-100,4,1,1,50,0,0
84292,-100,4,1,2,40,0,0
84622,-100,4,1,2,50,0,0
84951,-100,4,1,2,40,0,0
85281,-100,4,1,2,50,0,1
85446,-100,4,1,2,40,0,1
85776,-100,4,1,2,50,0,1
85940,-100,4,1,2,40,0,1
86270,-100,4,1,2,35,0,1
86600,-166.666666666667,4,1,2,35,0,1
87589,-166.666666666667,4,1,1,45,0,1
87918,-100,4,1,2,35,0,0
93193,-100,4,1,2,35,0,1
95831,-100,4,1,2,35,0,0
97314,-100,4,1,2,45,0,0
97644,-100,4,1,2,35,0,0
98138,-100,4,1,1,45,0,0
98468,-100,4,1,2,35,0,0
99951,-100,4,1,1,45,0,0
100116,-100,4,1,2,35,0,0
100611,-100,4,1,2,42,0,0
101105,-142.857142857143,4,1,2,30,0,0

[Colours]
Combo1 : 250,255,43
Combo2 : 196,40,2
Combo3 : 255,81,159
Combo4 : 0,129,223

[HitObjects]
171,152,1546,53,0,0:0:0:0:
231,79,1876,1,0,0:0:0:0:
323,96,2204,1,0,0:0:0:0:
444,242,2864,5,0,0:0:0:0:
383,169,3194,1,0,0:0:0:0:
291,186,3522,1,0,0:0:0:0:
170,332,4182,5,0,0:0:0:0:
230,258,4512,1,0,0:0:0:0:
109,158,4842,1,0,0:0:0:0:
109,158,6160,5,0,0:0:0:0:
169,331,6820,1,0,0:0:0:0:
340,269,7479,6,0,P|418:289|314:339,1,272.999991668701
267,219,8798,6,0,P|271:173|312:129,1,90.9999972229005
422,84,9457,2,0,P|418:128|391:164,1,90.9999972229005
305,57,10117,6,0,P|223:49|304:131,1,272.999991668701,0|0,0:0|0:0,0:0:0:0:
422,84,11435,5,8,0:0:0:0:
408,161,11600,1,8,0:0:0:0:
394,238,11765,1,8,0:0:0:0:
240,327,12095,6,0,L|234:293,3,32.5,8|0|4|0,0:0|0:0|0:0|0:0,0:0:0:0:
224,254,12424,2,0,P|181:224|133:232,1,97.5,8|0,0:0|0:0,0:0:0:0:
101,250,12754,6,0,L|114:180,1,65,6|0,0:0|0:0,0:0:0:0:
128,102,13084,1,8,0:0:0:0:
128,102,13248,2,0,P|166:96|203:103,1,65,2|4,0:0|0:0,0:0:0:0:
265,142,13578,2,0,P|235:178|218:222,2,65,4|8|0,0:0|0:0|0:0,0:0:0:0:
367,98,14073,6,0,P|430:87|490:111,1,130,6|8,0:0|0:0,0:0:0:0:
489,195,14567,2,0,P|424:206|363:182,1,130,2|4,0:0|0:0,0:0:0:0:
327,259,15062,2,0,P|299:297|261:325,1,65,10|0,0:0|0:0,0:0:0:0:
176,293,15391,6,0,L|107:280,1,65,6|0,0:0|0:0,0:0:0:0:
57,215,15721,1,8,0:0:0:0:
57,215,15886,2,0,P|75:179|105:154,1,65,2|4,0:0|0:0,0:0:0:0:
177,165,16215,1,4,0:0:0:0:
199,83,16380,2,0,P|216:49|243:23,1,65,8|0,0:0|0:0,0:0:0:0:
302,117,16710,6,0,P|300:153|285:189,1,65,6|0,0:0|0:0,0:0:0:0:
240,249,17040,1,8,0:0:0:0:
240,249,17204,2,0,P|176:265|113:247,1,130,2|4,0:0|0:0,0:0:0:0:
48,196,17699,2,0,P|93:165|141:167,1,97.5,8|0,0:0|0:0,0:0:0:0:
177,165,18029,6,0,L|164:94,1,65,6|0,0:0|0:0,0:0:0:0:
249,107,18358,1,8,0:0:0:0:
249,107,18523,2,0,P|282:116|315:111,1,65,2|4,0:0|0:0,0:0:0:0:
393,86,18853,2,0,P|374:55|348:34,2,65,4|8|0,0:0|0:0|0:0,0:0:0:0:
411,195,19347,6,0,P|386:255|336:295,1,130,6|8,0:0|0:0,0:0:0:0:
290,224,19841,2,0,P|239:264|217:325,1,130,2|4,0:0|0:0,0:0:0:0:
136,295,20336,2,0,P|106:258|89:214,1,65,10|0,0:0|0:0,0:0:0:0:
85,133,20666,6,0,P|45:141|15:165,1,65,6|0,0:0|0:0,0:0:0:0:
15,240,20996,1,8,0:0:0:0:
99,243,21160,2,0,P|135:230|165:204,1,65,2|4,0:0|0:0,0:0:0:0:
211,150,21490,2,0,P|248:142|286:149,1,65,4|8,0:0|0:0,0:0:0:0:
341,234,21820,6,0,L|406:223,1,65,0|4,0:0|0:0,0:0:0:0:
448,121,22149,2,0,L|383:132,1,65,0|4,0:0|0:0,0:0:0:0:
274,145,22479,2,0,P|237:131|206:106,1,65,4|8,0:0|0:0,0:0:0:0:
177,44,22809,1,4,0:0:0:0:
177,44,22974,1,8,0:0:0:0:
52,135,23303,6,0,P|88:170|142:180,1,104,4|8,0:0|0:0,0:0:0:0:
211,150,23798,1,0,3:0:0:0:
261,209,23962,2,0,L|329:220,1,52,4|4,0:0|0:0,0:0:0:0:
390,223,24292,2,0,L|379:155,1,52,8|0,0:0|0:0,0:0:0:0:
362,74,24622,5,4,0:0:0:0:
214,24,24952,2,0,P|199:52|197:84,1,52,8|0,0:0|0:0,0:0:0:0:
195,149,25281,2,0,L|139:138,1,52,4|4,0:0|0:0,0:0:0:0:
66,124,25611,2,0,P|43:148|35:178,1,52,8|0,0:0|0:0,0:0:0:0:
36,264,25940,5,6,0:0:0:0:
166,349,26270,2,0,L|175:294,1,52,8|0,0:0|0:0,0:0:0:0:
184,219,26600,2,0,L|129:228,2,52,4|4|8,0:0|0:0|0:0,0:0:0:0:
261,204,27094,1,0,0:0:0:0:
261,204,27259,5,6,0:0:0:0:
391,289,27589,2,0,L|400:234,1,52,8|0,0:0|0:0,0:0:0:0:
408,159,27919,2,0,L|463:168,2,52,4|4|8,0:0|0:0|0:0,0:0:0:0:
393,82,28413,1,0,0:0:0:0:
296,105,28578,6,0,P|296:70|307:41,2,52,4|0|8,0:0|0:0|0:0,0:0:0:0:
314,186,29072,1,0,0:0:0:0:
314,186,29237,2,0,L|255:196,1,52,4|4,0:0|0:0,0:0:0:0:
185,206,29567,2,0,P|173:234|154:258,1,52,8|0,0:0|0:0,0:0:0:0:
93,178,29897,6,0,P|104:144|125:121,1,52,4|0,0:0|0:0,0:0:0:0:
185,98,30226,1,8,0:0:0:0:
313,188,30556,2,0,L|323:137,1,52,4|4,0:0|0:0,0:0:0:0:
337,59,30886,1,8,0:0:0:0:
233,175,31215,6,0,P|180:189|129:172,1,104,4|8,0:0|0:0,0:0:0:0:
77,229,31709,1,0,0:0:0:0:
76,307,31875,2,0,L|129:316,1,52,4|4,0:0|0:0,0:0:0:0:
201,290,32204,1,8,0:0:0:0:
266,365,32370,5,2,0:0:0:0:
417,336,32699,1,2,0:0:0:0:
316,218,33029,1,2,0:0:0:0:
266,365,33358,1,4,0:0:0:0:
266,365,33523,2,0,P|225:332|220:285,1,78,8|0,0:0|0:0,0:0:0:0:
215,270,33853,6,0,P|180:312|129:330,1,104,4|8,0:0|0:0,0:0:0:0:
88,267,34347,1,0,0:0:0:0:
116,194,34512,2,0,L|183:183,1,52,4|4,0:0|0:0,0:0:0:0:
173,107,34842,2,0,L|240:118,1,52,8|0,0:0|0:0,0:0:0:0:
321,133,35171,5,4,0:0:0:0:
291,285,35501,2,0,L|302:230,1,52,8|0,0:0|0:0,0:0:0:0:
379,238,35831,2,0,L|389:184,1,52,4|4,0:0|0:0,0:0:0:0:
467,191,36161,2,0,L|477:137,1,52,8|0,0:0|0:0,0:0:0:0:
505,45,36490,6,0,L|401:63,1,104,6|8,0:0|0:0,0:0:0:0:
325,73,36984,1,0,0:0:0:0:
325,73,37149,2,0,P|325:38|336:10,2,52,4|4|8,0:0|0:0|0:0,0:0:0:0:
347,148,37644,1,0,0:0:0:0:
405,227,37809,6,0,L|301:245,1,104,6|8,0:0|0:0,0:0:0:0:
225,255,38303,1,0,0:0:0:0:
225,255,38468,2,0,P|225:220|236:192,2,52,4|4|8,0:0|0:0|0:0,0:0:0:0:
260,325,38963,1,0,0:0:0:0:
166,354,39127,6,0,P|140:359|114:357,2,52,4|0|8,0:0|0:0|0:0,0:0:0:0:
137,280,39622,1,0,0:0:0:0:
58,281,39787,2,0,L|68:219,1,52,4|4,0:0|0:0,0:0:0:0:
76,151,40117,2,0,P|104:146|129:136,1,52,8|0,0:0|0:0,0:0:0:0:
210,85,40447,6,0,P|231:98|248:117,1,52,4|0,0:0|0:0,0:0:0:0:
283,188,40776,1,8,0:0:0:0:
149,267,41106,2,0,L|141:213,1,52,4|4,0:0|0:0,0:0:0:0:
126,138,41436,1,8,0:0:0:0:
309,64,41765,6,0,P|329:82|353:93,1,52,4|0,0:0|0:0,0:0:0:0:
439,101,42094,2,0,P|441:128|436:156,1,52,8|0,0:0|0:0,0:0:0:0:
393,229,42424,2,0,L|341:219,1,52,4|4,0:0|0:0,0:0:0:0:
255,199,42754,1,8,0:0:0:0:
298,298,42918,1,4,0:0:0:0:
124,332,43248,6,0,L|114:278,1,52,8|0,0:0|0:0,0:0:0:0:
98,193,43578,2,0,P|101:138|133:94,1,104,8|8,0:0|0:0,0:0:0:0:
212,69,44072,1,8,0:0:0:0:
357,177,44402,5,8,0:0:0:0:
390,11,44732,2,0,L|377:79,1,65
357,177,45062,2,0,P|326:245|251:277,1,130,8|0,0:0|0:0,0:0:0:0:
179,294,45556,5,8,0:0:0:0:
229,132,45886,1,0,0:0:0:0:
64,168,46215,1,0,0:0:0:0:
64,168,46380,1,8,0:0:0:0:
234,47,46710,1,8,0:0:0:0:
413,151,47039,6,0,P|348:188|268:172,1,130,8|0,0:0|0:0,0:0:0:0:
229,132,47534,1,0,0:0:0:0:
234,47,47699,2,0,L|304:35,2,65,8|0|0,0:0|0:0|0:0,0:0:0:0:
132,69,48193,5,8,0:0:0:0:
276,161,48523,1,0,0:0:0:0:
126,238,48852,1,0,0:0:0:0:
126,238,49017,1,8,0:0:0:0:
310,300,49347,2,0,L|332:276,3,32.5,8|0|0|0,0:0|0:0|0:0|0:0,0:0:0:0:
363,238,49677,6,0,P|386:206|399:170,1,65,4|0,0:0|0:0,0:0:0:0:
346,97,50007,2,0,P|311:93|278:103,1,65,8|0,0:0|0:0,0:0:0:0:
214,170,50336,2,0,L|139:183,1,65,4|4,0:0|0:0,0:0:0:0:
53,197,50666,6,0,P|38:160|35:122,1,65,8|0,0:0|0:0,0:0:0:0:
105,65,50996,2,0,P|139:71|168:89,1,65,4|0,0:0|0:0,0:0:0:0:
214,170,51325,1,8,0:0:0:0:
383,267,51655,6,0,L|396:191,1,65,4|4,0:0|0:0,0:0:0:0:
411,106,51985,1,8,0:0:0:0:
217,106,52314,6,0,P|210:143|218:182,1,65,10|4,0:0|0:0,0:0:0:0:
242,264,52644,2,0,L|202:333,1,65,8|4,0:0|0:0,0:0:0:0:
162,235,52974,2,0,L|93:274,1,65,8|4,0:0|0:0,0:0:0:0:
108,170,53303,2,0,L|28:170,1,65,8|4,0:0|0:0,0:0:0:0:
97,65,53633,5,8,0:0:0:0:
175,78,53798,1,8,0:0:0:0:
253,91,53963,1,8,0:0:0:0:
388,247,54292,6,0,P|413:216|424:180,1,65
356,111,54622,2,0,P|340:144|338:179,1,65,2|0,0:0|0:0,0:0:0:0:
325,308,54952,6,0,P|256:315|188:302,1,130,4|10,0:0|0:0,0:0:0:0:
60,147,55611,2,0,P|52:106|61:70,1,65,4|4,0:0|0:0,0:0:0:0:
150,36,55941,2,0,P|152:74|142:110,1,65,8|0,0:0|0:0,0:0:0:0:
121,234,56270,6,0,P|184:260|252:264,1,130,4|8,0:0|0:0,0:0:0:0:
442,199,56929,2,0,P|410:173|374:162,1,65,4|4,0:0|0:0,0:0:0:0:
284,169,57259,2,0,P|250:146|229:114,1,65,8|0,0:0|0:0,0:0:0:0:
171,5,57589,6,0,P|113:40|72:94,1,130,4|8,0:0|0:0,0:0:0:0:
89,191,58083,1,0,0:0:0:0:
193,192,58248,2,0,L|204:256,1,65,4|4,0:0|0:0,0:0:0:0:
299,210,58578,2,0,P|337:202|369:182,1,65,8|0,0:0|0:0,0:0:0:0:
466,102,58908,6,0,P|506:163|480:240,1,130,6|8,0:0|0:0,0:0:0:0:
414,277,59402,1,0,0:0:0:0:
310,275,59567,2,0,L|295:187,1,65,4|4,0:0|0:0,0:0:0:0:
206,257,59896,2,0,L|190:168,1,65,8|0,0:0|0:0,0:0:0:0:
108,85,60226,6,0,P|82:114|71:151,1,65,6|0,0:0|0:0,0:0:0:0:
102,239,60556,1,8,0:0:0:0:
310,275,60886,2,0,L|295:187,1,65,4|4,0:0|0:0,0:0:0:0:
206,257,61215,2,0,L|190:168,1,65,8|0,0:0|0:0,0:0:0:0:
108,85,61545,6,0,P|82:114|71:151,2,65,4|2|8,0:0|0:0|0:0,0:0:0:0:
211,68,62040,1,0,0:0:0:0:
174,165,62204,2,0,P|211:178|239:204,1,65,4|4,0:0|0:0,0:0:0:0:
260,294,62534,1,8,0:0:0:0:
451,211,62864,6,0,L|363:226,1,65,4|0,0:0|0:0,0:0:0:0:
396,117,63194,2,0,L|308:133,1,65,8|0,0:0|0:0,0:0:0:0:
229,146,63523,2,0,P|214:180|187:207,1,65,4|4,0:0|0:0,0:0:0:0:
125,122,63853,1,8,0:0:0:0:
188,39,64018,1,4,0:0:0:0:
24,167,64347,2,0,P|16:132|21:99,2,65,4|8|0,0:0|0:0|0:0,0:0:0:0:
59,265,64842,6,0,P|88:247|111:222,1,65,8|0,0:0|0:0,0:0:0:0:
125,122,65172,2,0,P|160:132|190:157,1,65,8|0,0:0|0:0,0:0:0:0:
253,266,65501,6,0,P|320:256|381:224,1,130,4|10,0:0|0:0,0:0:0:0:
182,149,66161,2,0,P|166:112|164:74,1,65,4|4,0:0|0:0,0:0:0:0:
238,15,66491,2,0,P|260:47|269:83,1,65,8|0,0:0|0:0,0:0:0:0:
288,206,66820,6,0,P|234:247|168:267,1,130,4|8,0:0|0:0,0:0:0:0:
18,129,67479,2,0,P|55:119|92:122,1,65,4|4,0:0|0:0,0:0:0:0:
182,149,67809,1,8,0:0:0:0:
286,328,68139,6,0,P|338:288|374:231,1,130,4|8,0:0|0:0,0:0:0:0:
390,132,68633,1,4,0:0:0:0:
182,149,68963,2,0,L|113:161,1,65,4|8,0:0|0:0,0:0:0:0:
9,243,69292,6,0,P|28:314|99:346,1,130,4|4,0:0|0:0,0:0:0:0:
114,247,69787,2,0,P|149:250|181:260,1,65,8|0,0:0|0:0,0:0:0:0:
250,334,70117,2,0,L|334:302,1,65,4|4,0:0|0:0,0:0:0:0:
260,219,70447,2,0,L|344:187,1,65,8|0,0:0|0:0,0:0:0:0:
419,101,70776,6,0,P|445:128|460:164,1,65,6|0,0:0|0:0,0:0:0:0:
444,256,71106,1,8,0:0:0:0:
250,334,71435,2,0,L|334:302,1,65,4|4,0:0|0:0,0:0:0:0:
260,219,71765,2,0,L|344:187,1,65,8|0,0:0|0:0,0:0:0:0:
419,101,72095,6,0,P|460:163|438:236,1,130,6|8,0:0|0:0,0:0:0:0:
379,288,72589,1,0,0:0:0:0:
260,219,72755,2,0,P|310:174|377:180,1,130,4|8,0:0|0:0,0:0:0:0:
215,38,73413,6,0,P|249:40|280:52,2,65,4|0|8,0:0|0:0|0:0,0:0:0:0:
231,128,73908,1,0,0:0:0:0:
144,98,74073,1,4,0:0:0:0:
144,98,74237,2,0,L|128:182,1,65,4|8,0:0|0:0,0:0:0:0:
108,277,74567,6,0,P|162:314|229:303,1,130,4|4,0:0|0:0,0:0:0:0:
288,241,75062,1,8,0:0:0:0:
371,50,75391,2,0,P|343:69|298:83,1,78,8|0,0:0|0:0,0:0:0:0:
262,87,75721,2,0,L|273:150,1,52,8|0,0:0|0:0,0:0:0:0:
288,241,76051,6,0,P|275:272|256:295,1,52,4|0,0:0|0:0,0:0:0:0:
186,298,76380,1,8,0:0:0:0:
200,220,76545,2,0,P|163:179|110:166,1,104,0|4,0:0|0:0,0:0:0:0:
39,168,77039,2,0,P|39:200|32:228,1,52,8|0,0:0|0:0,0:0:0:0:
14,323,77369,6,0,P|69:320|112:288,1,104,4|8,0:0|0:0,0:0:0:0:
264,293,78028,2,0,L|327:282,1,52,4|4,0:0|0:0,0:0:0:0:
390,262,78358,2,0,P|393:228|377:181,1,78,8|0,0:0|0:0,0:0:0:0:
358,153,78688,6,0,P|312:180|259:180,1,104,4|8,0:0|0:0,0:0:0:0:
193,143,79183,2,0,P|138:141|92:170,1,104,0|4,0:0|0:0,0:0:0:0:
59,234,79677,2,0,P|90:247|113:266,1,52,8|0,0:0|0:0,0:0:0:0:
134,357,80006,6,0,P|78:359|32:331,1,104,4|8,0:0|0:0,0:0:0:0:
182,277,80666,2,0,L|245:288,1,52,4|4,0:0|0:0,0:0:0:0:
311,291,80996,2,0,P|331:265|342:214,1,78,8|0,0:0|0:0,0:0:0:0:
335,180,81325,6,0,P|268:168|226:114,1,130,4|8,0:0|0:0,0:0:0:0:
206,40,81820,1,0,0:0:0:0:
123,55,81984,2,0,L|48:68,1,65,4|4,0:0|0:0,0:0:0:0:
18,141,82314,2,0,P|50:163|87:172,1,65,8|0,0:0|0:0,0:0:0:0:
157,151,82644,1,4,0:0:0:0:
132,317,82973,6,0,L|144:245,1,65,8|0,0:0|0:0,0:0:0:0:
226,237,83303,2,0,L|214:301,1,65,4|4,0:0|0:0,0:0:0:0:
296,285,83633,2,0,L|307:213,1,65,8|0,0:0|0:0,0:0:0:0:
389,147,83962,6,0,P|405:211|462:247,1,130,6|8,0:0|0:0,0:0:0:0:
470,161,84457,1,0,0:0:0:0:
486,77,84622,2,0,L|501:-3,1,65,4|4,0:0|0:0,0:0:0:0:
389,39,84952,1,8,0:0:0:0:
182,116,85281,6,0,L|168:196,1,65,8|4,0:0|0:0,0:0:0:0:
156,263,85611,1,4,0:0:0:0:
251,207,85776,2,0,L|265:287,1,65,8|4,0:0|0:0,0:0:0:0:
277,354,86106,1,4,0:0:0:0:
346,268,86270,1,8,0:0:0:0:
344,99,86600,6,2,P|427:106|355:180,1,233.999992858887,6|8,0:0|0:0,0:0:0:0:
212,98,87919,6,0,L|200:168,1,65,6|0,0:0|0:0,0:0:0:0:
184,245,88248,1,8,0:0:0:0:
184,245,88413,2,0,P|148:228|122:200,1,65,2|4,0:0|0:0,0:0:0:0:
94,133,88743,2,0,P|55:134|21:151,2,65,4|8|0,0:0|0:0|0:0,0:0:0:0:
201,162,89237,6,0,P|260:190|324:182,1,130,6|8,0:0|0:0,0:0:0:0:
287,104,89731,2,0,P|350:97|409:124,1,130,2|4,0:0|0:0,0:0:0:0:
446,202,90226,2,0,P|489:217|536:217,1,65,10|0,0:0|0:0,0:0:0:0:
474,114,90556,6,0,L|404:126,1,65,6|0,0:0|0:0,0:0:0:0:
326,141,90886,1,8,0:0:0:0:
326,141,91050,2,0,P|312:177|287:206,1,65,2|4,0:0|0:0,0:0:0:0:
211,211,91380,1,4,0:0:0:0:
233,129,91545,2,0,P|234:90|219:55,1,65,8|0,0:0|0:0,0:0:0:0:
126,15,91875,6,0,P|114:51|119:89,1,65,6|0,0:0|0:0,0:0:0:0:
148,156,92205,1,8,0:0:0:0:
134,237,92369,1,0,0:0:0:0:
134,237,92534,6,0,P|173:236|207:221,1,65,4|0,0:0|0:0,0:0:0:0:
233,129,92864,2,0,P|260:150|277:183,1,65,10|0,0:0|0:0,0:0:0:0:
292,312,93194,6,0,L|361:299,1,65,6|0,0:0|0:0,0:0:0:0:
410,235,93523,1,8,0:0:0:0:
410,235,93688,2,0,P|379:209|343:197,1,65,2|4,0:0|0:0,0:0:0:0:
275,176,94018,2,0,P|264:208|245:236,2,65,4|8|0,0:0|0:0|0:0,0:0:0:0:
255,67,94512,6,0,P|191:57|131:80,1,130,6|8,0:0|0:0,0:0:0:0:
177,150,95006,2,0,P|239:159|300:136,1,130,2|4,0:0|0:0,0:0:0:0:
351,67,95501,2,0,P|372:42|398:24,1,65,10|0,0:0|0:0,0:0:0:0:
442,126,95831,6,0,P|438:164|420:199,1,65,6|0,0:0|0:0,0:0:0:0:
370,251,96161,1,8,0:0:0:0:
285,254,96325,2,0,P|247:236|220:209,1,65,2|4,0:0|0:0,0:0:0:0:
256,140,96655,2,0,P|215:136|178:146,1,65,4|8,0:0|0:0,0:0:0:0:
115,220,96984,6,0,L|102:152,1,65,0|4,0:0|0:0,0:0:0:0:
0,113,97314,2,0,L|12:180,1,65,0|4,0:0|0:0,0:0:0:0:
33,286,97644,2,0,P|46:321|72:350,1,65,4|8,0:0|0:0,0:0:0:0:
138,381,97974,1,4,0:0:0:0:
138,381,98138,1,8,0:0:0:0:
115,220,98468,5,4,0:0:0:0:
115,220,98633,2,0,L|100:140,1,65,4|8,0:0|0:0,0:0:0:0:
80,45,98962,1,6,0:0:0:0:
203,196,99292,6,0,L|203:115,1,65,4|8,0:0|0:0,0:0:0:0:
199,18,99622,1,6,0:0:0:0:
293,187,99952,6,0,L|306:107,1,65,8|8,0:0|0:0,0:0:0:0:
321,13,100282,1,6,0:0:0:0:
383,195,100611,5,4,0:0:0:0:
418,90,100776,1,8,0:0:0:0:
346,301,101106,6,2,B|324:302|301:298|280:292|259:282|239:270|221:257|201:247|179:239|158:235|135:237|135:237|111:240|92:252|79:268|74:290|77:311|90:329|109:339,1,363.999988891602,6|4,0:0|0:0,0:0:0:0:
