osu file format v14

[General]
AudioFilename: audio.mp3
AudioLeadIn: 0
PreviewTime: 54230
Countdown: 0
SampleSet: Soft
StackLeniency: 0.7
Mode: 3
LetterboxInBreaks: 0
SpecialStyle: 0
WidescreenStoryboard: 0

[Editor]
DistanceSpacing: 1.4
BeatDivisor: 4
GridSize: 8
TimelineZoom: 2.3

[Metadata]
Title:Happy*Pretty*Clover
TitleUnicode:Happy⋆Pretty⋆Clover
Artist:Rhodanthe*
ArtistUnicode:Rhodanthe*
Creator:Rivals_7
Version:7K Normal Lv. 12
Source:きんいろモザイク Pretty Days
Tags:happy pretty clover yuiko meis clauson kin-iro kiniro mosaic kinmoza kinmosa ova きんモザ opening movie short ver cut tanaka manami 田中真奈美 alice cartelet アリス・カータレット nishi asuka 西明日香 oomiya shinobu 大宮忍 taneda risa 種田梨沙 komichi aya 小路綾 uchimiya yumi 内山夕実 inokuma youko 猪熊陽子 touyama nao 東山奈央 kujou karen 九条カレン tv size op
BeatmapID:1235510
BeatmapSetID:583943

[Difficulty]
HPDrainRate:7
CircleSize:7
OverallDifficulty:7
ApproachRate:5
SliderMultiplier:1.4
SliderTickRate:1

[Events]
//Background and Video events
0,0,"happy pretty clover edit.jpg",0,0
//Break Periods
//Storyboard Layer 0 (Background)
//Storyboard Layer 1 (Fail)
//Storyboard Layer 2 (Pass)
//Storyboard Layer 3 (Foreground)
//Storyboard Sound Samples

[TimingPoints]
2225,329.67032967033,4,2,1,40,1,0
12774,-100,4,2,1,40,0,1
23323,-100,4,2,1,40,0,0
54972,-100,4,2,1,40,0,1
65192,-100,4,2,1,40,0,0
65521,-100,4,2,1,40,0,1
76071,-100,4,2,1,40,0,0
87939,-100,4,2,1,40,0,1
98488,-100,4,2,1,40,0,0

[HitObjects]
36,192,1565,5,0,0:0:0:0:
256,192,1895,1,0,0:0:0:0:
475,192,2225,1,0,0:0:0:0:
329,192,2884,1,0,0:0:0:0:
182,192,3214,1,0,0:0:0:0:
36,192,3543,1,0,0:0:0:0:
475,192,4203,1,0,0:0:0:0:
256,192,4532,1,0,0:0:0:0:
36,192,4862,128,0,5192:0:0:0:0:
402,192,4862,1,0,0:0:0:0:
182,192,5192,1,0,0:0:0:0:
329,192,5356,128,0,5686:0:0:0:0:
256,192,5686,128,0,6016:0:0:0:0:
36,192,6016,128,0,7005:0:0:0:0:
475,192,6181,1,0,0:0:0:0:
329,192,6510,1,0,0:0:0:0:
182,192,6675,1,0,0:0:0:0:
402,192,6840,1,0,0:0:0:0:
256,192,7005,128,0,7499:0:0:0:0:
109,192,7334,1,0,0:0:0:0:
402,192,7499,128,0,8818:0:0:0:0:
109,192,8818,128,0,9477:0:0:0:0:
475,192,9477,128,0,10137:0:0:0:0:
36,192,10137,128,0,11455:0:0:0:0:
256,192,10137,128,0,11455:0:0:0:0:
329,192,11455,1,0,0:0:0:30:drum-hitclap.wav
475,192,11455,1,0,0:0:0:30:drum-hitclap.wav
182,192,11620,1,0,0:0:0:30:drum-hitclap.wav
36,192,11620,1,0,0:0:0:30:drum-hitclap.wav
329,192,11785,1,0,0:0:0:30:drum-hitclap.wav
475,192,11785,1,0,0:0:0:30:drum-hitclap.wav
402,192,12115,128,0,12444:0:0:0:60:drum-hitclap.wav
256,192,12444,128,0,12774:0:0:0:30:drum-hitclap.wav
36,192,12444,128,0,12774:0:0:0:30:drum-hitclap.wav
109,192,12774,1,0,0:0:0:60:normal-hitfinish.wav
475,192,12774,1,0,0:0:0:30:drum-hitnormal.wav
329,192,12774,1,0,0:0:0:30:drum-hitnormal.wav
182,192,13104,1,0,0:0:0:30:drum-hitclap.wav
329,192,13104,1,0,0:0:0:30:drum-hitclap.wav
109,192,13268,1,0,0:0:0:0:
402,192,13433,1,0,0:0:0:60:drum-hitnormal.wav
182,192,13598,1,0,0:0:0:60:drum-hitnormal.wav
36,192,13763,1,0,0:0:0:30:drum-hitclap.wav
475,192,13763,1,0,0:0:0:30:drum-hitclap.wav
329,192,13928,1,0,0:0:0:0:
109,192,14093,1,0,0:0:0:30:drum-hitnormal.wav
402,192,14093,1,0,0:0:0:30:drum-hitnormal.wav
36,192,14257,1,0,0:0:0:0:
182,192,14422,1,0,0:0:0:30:drum-hitclap.wav
329,192,14422,1,0,0:0:0:30:drum-hitclap.wav
256,192,14587,1,0,0:0:0:0:
109,192,14752,1,0,0:0:0:60:drum-hitnormal.wav
402,192,14917,1,0,0:0:0:60:drum-hitnormal.wav
329,192,15082,1,0,0:0:0:30:drum-hitclap.wav
182,192,15082,1,0,0:0:0:30:drum-hitclap.wav
36,192,15411,1,0,0:0:0:30:drum-hitnormal.wav
256,192,15411,1,0,0:0:0:30:drum-hitnormal.wav
182,192,15741,1,0,0:0:0:30:drum-hitclap.wav
475,192,15741,1,0,0:0:0:30:drum-hitclap.wav
329,192,15906,1,0,0:0:0:0:
109,192,16071,1,0,0:0:0:60:drum-hitnormal.wav
402,192,16235,1,0,0:0:0:60:drum-hitnormal.wav
36,192,16400,1,0,0:0:0:30:drum-hitclap.wav
256,192,16400,1,0,0:0:0:30:drum-hitclap.wav
329,192,16565,1,0,0:0:0:0:
182,192,16730,1,0,0:0:0:30:drum-hitnormal.wav
402,192,16730,1,0,0:0:0:30:drum-hitnormal.wav
36,192,16895,1,0,0:0:0:0:
109,192,17060,1,0,0:0:0:30:drum-hitclap.wav
475,192,17060,1,0,0:0:0:30:drum-hitclap.wav
256,192,17225,1,0,0:0:0:0:
36,192,17389,1,0,0:0:0:60:drum-hitnormal.wav
329,192,17554,1,0,0:0:0:60:drum-hitnormal.wav
182,192,17719,1,0,0:0:0:30:drum-hitclap.wav
475,192,17719,1,0,0:0:0:30:drum-hitclap.wav
109,192,18049,1,0,0:0:0:60:normal-hitfinish.wav
329,192,18049,1,0,0:0:0:30:drum-hitnormal.wav
402,192,18049,1,0,0:0:0:30:drum-hitnormal.wav
36,192,18378,1,0,0:0:0:30:drum-hitclap.wav
475,192,18378,1,0,0:0:0:30:drum-hitclap.wav
256,192,18543,1,0,0:0:0:0:
109,192,18708,1,0,0:0:0:60:drum-hitnormal.wav
402,192,18873,1,0,0:0:0:60:drum-hitnormal.wav
329,192,19038,1,0,0:0:0:30:drum-hitclap.wav
36,192,19038,1,0,0:0:0:30:drum-hitclap.wav
256,192,19203,1,0,0:0:0:0:
182,192,19367,1,0,0:0:0:30:drum-hitnormal.wav
402,192,19367,1,0,0:0:0:30:drum-hitnormal.wav
475,192,19532,1,0,0:0:0:0:
109,192,19697,1,0,0:0:0:30:drum-hitclap.wav
329,192,19697,1,0,0:0:0:30:drum-hitclap.wav
182,192,19862,1,0,0:0:0:0:
256,192,20027,1,0,0:0:0:60:drum-hitnormal.wav
36,192,20192,1,0,0:0:0:60:drum-hitnormal.wav
182,192,20356,1,0,0:0:0:30:drum-hitclap.wav
402,192,20356,1,0,0:0:0:30:drum-hitclap.wav
109,192,20686,1,0,0:0:0:30:drum-hitnormal.wav
329,192,20686,1,0,0:0:0:30:drum-hitnormal.wav
182,192,21016,1,0,0:0:0:30:drum-hitclap.wav
475,192,21016,1,0,0:0:0:30:drum-hitclap.wav
329,192,21181,1,0,0:0:0:0:
109,192,21345,1,0,0:0:0:60:drum-hitnormal.wav
256,192,21510,1,0,0:0:0:60:drum-hitnormal.wav
36,192,21675,1,0,0:0:0:30:drum-hitclap.wav
475,192,21675,1,0,0:0:0:30:drum-hitclap.wav
182,192,22005,1,0,0:0:0:60:drum-hitnormal.wav
109,192,22170,1,0,0:0:0:30:drum-hitclap.wav
402,192,22170,1,0,0:0:0:30:drum-hitclap.wav
256,192,22334,1,0,0:0:0:0:
329,192,22499,1,0,0:0:0:60:drum-hitnormal.wav
109,192,22664,1,0,0:0:0:30:drum-hitclap.wav
402,192,22664,1,0,0:0:0:30:drum-hitclap.wav
256,192,22829,1,0,0:0:0:60:drum-hitnormal.wav
182,192,22994,128,0,23323:0:0:0:30:LR_Tom Drop.wav
329,192,22994,1,0,0:0:0:30:LR_Tom Drop.wav
36,192,23323,1,0,0:0:0:60:normal-hitfinish.wav
475,192,23323,1,0,0:0:0:30:drum-hitnormal.wav
256,192,23323,1,0,0:0:0:30:drum-hitnormal.wav
109,192,23653,1,0,0:0:0:30:drum-hitclap.wav
402,192,23653,1,0,0:0:0:30:drum-hitclap.wav
329,192,23818,1,0,0:0:0:0:
182,192,23983,1,0,0:0:0:60:drum-hitnormal.wav
256,192,24148,1,0,0:0:0:60:drum-hitnormal.wav
36,192,24312,1,0,0:0:0:30:drum-hitclap.wav
475,192,24312,1,0,0:0:0:30:drum-hitclap.wav
182,192,24477,1,0,0:0:0:0:
402,192,24642,1,0,0:0:0:60:drum-hitnormal.wav
256,192,24807,1,0,0:0:0:0:
109,192,24972,1,0,0:0:0:30:drum-hitclap.wav
329,192,24972,1,0,0:0:0:30:drum-hitclap.wav
182,192,25137,1,0,0:0:0:0:
475,192,25301,1,0,0:0:0:60:drum-hitnormal.wav
256,192,25466,1,0,0:0:0:60:drum-hitnormal.wav
36,192,25631,1,0,0:0:0:30:drum-hitclap.wav
402,192,25631,1,0,0:0:0:30:drum-hitclap.wav
109,192,25796,1,0,0:0:0:0:
256,192,25961,1,0,0:0:0:60:drum-hitnormal.wav
475,192,26126,1,0,0:0:0:0:
109,192,26290,1,0,0:0:0:30:drum-hitclap.wav
329,192,26290,1,0,0:0:0:30:drum-hitclap.wav
182,192,26455,1,0,0:0:0:0:
402,192,26620,1,0,0:0:0:60:drum-hitnormal.wav
109,192,26785,1,0,0:0:0:60:drum-hitnormal.wav
36,192,26950,1,0,0:0:0:30:drum-hitclap.wav
329,192,26950,1,0,0:0:0:30:drum-hitclap.wav
256,192,27115,1,0,0:0:0:0:
182,192,27279,1,0,0:0:0:60:drum-hitnormal.wav
475,192,27444,1,0,0:0:0:0:
402,192,27609,1,0,0:0:0:30:drum-hitclap.wav
36,192,27609,1,0,0:0:0:30:drum-hitclap.wav
109,192,27774,1,0,0:0:0:0:
256,192,27939,1,0,0:0:0:60:drum-hitnormal.wav
329,192,28104,1,0,0:0:0:60:drum-hitnormal.wav
109,192,28268,1,0,0:0:0:30:drum-hitclap.wav
475,192,28268,1,0,0:0:0:30:drum-hitclap.wav
256,192,28433,1,0,0:0:0:0:
182,192,28598,1,0,0:0:0:60:drum-hitnormal.wav
402,192,28763,1,0,0:0:0:0:
36,192,28928,1,0,0:0:0:30:drum-hitclap.wav
329,192,28928,1,0,0:0:0:30:drum-hitclap.wav
182,192,29093,1,0,0:0:0:0:
402,192,29257,1,0,0:0:0:60:drum-hitnormal.wav
109,192,29422,1,0,0:0:0:60:drum-hitnormal.wav
256,192,29587,1,0,0:0:0:30:drum-hitclap.wav
475,192,29587,1,0,0:0:0:30:drum-hitclap.wav
329,192,29752,1,0,0:0:0:0:
109,192,29917,1,0,0:0:0:60:drum-hitnormal.wav
402,192,30082,1,0,0:0:0:0:
256,192,30246,1,0,0:0:0:30:drum-hitclap.wav
36,192,30246,1,0,0:0:0:30:drum-hitclap.wav
182,192,30411,1,0,0:0:0:0:
329,192,30576,1,0,0:0:0:60:drum-hitnormal.wav
109,192,30741,1,0,0:0:0:60:drum-hitnormal.wav
256,192,30906,1,0,0:0:0:30:drum-hitclap.wav
475,192,30906,1,0,0:0:0:30:drum-hitclap.wav
402,192,31071,1,0,0:0:0:0:
109,192,31235,1,0,0:0:0:60:drum-hitnormal.wav
329,192,31400,1,0,0:0:0:0:
36,192,31565,1,0,0:0:0:30:drum-hitclap.wav
182,192,31565,1,0,0:0:0:30:drum-hitclap.wav
402,192,31730,1,0,0:0:0:0:
256,192,31895,1,0,0:0:0:60:drum-hitnormal.wav
109,192,32060,1,0,0:0:0:60:drum-hitnormal.wav
329,192,32225,1,0,0:0:0:30:drum-hitclap.wav
475,192,32225,1,0,0:0:0:30:drum-hitclap.wav
182,192,32389,1,0,0:0:0:30:drum-hitnormal.wav
36,192,32389,1,0,0:0:0:30:drum-hitnormal.wav
36,192,32719,1,0,0:0:0:30:drum-hitnormal.wav
182,192,32719,1,0,0:0:0:30:drum-hitnormal.wav
109,192,33049,1,0,0:0:0:30:drum-hitnormal.wav
256,192,33049,1,0,0:0:0:30:drum-hitnormal.wav
329,192,33378,1,0,0:0:0:60:drum-hitnormal.wav
402,192,33543,1,0,0:0:0:30:drum-hitclap.wav
182,192,33543,128,0,33873:0:0:0:30:drum-hitclap.wav
329,192,33873,1,0,0:0:0:60:normal-hitfinish.wav
36,192,33873,128,0,34203:0:0:0:30:drum-hitnormal.wav
475,192,33873,1,0,0:0:0:30:drum-hitnormal.wav
256,192,34203,1,0,0:0:0:30:drum-hitclap.wav
475,192,34203,1,0,0:0:0:30:drum-hitclap.wav
402,192,34367,1,0,0:0:0:0:
182,192,34532,1,0,0:0:0:60:drum-hitnormal.wav
329,192,34697,1,0,0:0:0:60:drum-hitnormal.wav
36,192,34862,1,0,0:0:0:30:drum-hitclap.wav
402,192,34862,1,0,0:0:0:30:drum-hitclap.wav
182,192,35027,1,0,0:0:0:0:
256,192,35192,1,0,0:0:0:60:drum-hitnormal.wav
109,192,35356,1,0,0:0:0:0:
329,192,35521,1,0,0:0:0:30:drum-hitclap.wav
475,192,35521,1,0,0:0:0:30:drum-hitclap.wav
182,192,35686,1,0,0:0:0:0:
402,192,35851,1,0,0:0:0:60:drum-hitnormal.wav
109,192,36016,1,0,0:0:0:60:drum-hitnormal.wav
256,192,36181,1,0,0:0:0:30:drum-hitclap.wav
475,192,36181,1,0,0:0:0:30:drum-hitclap.wav
36,192,36345,1,0,0:0:0:0:
329,192,36510,1,0,0:0:0:60:drum-hitnormal.wav
182,192,36675,1,0,0:0:0:0:
109,192,36840,1,0,0:0:0:30:drum-hitclap.wav
402,192,36840,1,0,0:0:0:30:drum-hitclap.wav
329,192,37005,1,0,0:0:0:0:
36,192,37170,1,0,0:0:0:60:drum-hitnormal.wav
256,192,37334,1,0,0:0:0:60:drum-hitnormal.wav
182,192,37499,1,0,0:0:0:30:drum-hitclap.wav
475,192,37499,1,0,0:0:0:30:drum-hitclap.wav
329,192,37664,1,0,0:0:0:0:
109,192,37829,1,0,0:0:0:60:drum-hitnormal.wav
402,192,37994,1,0,0:0:0:0:
109,192,38159,1,0,0:0:0:30:drum-hitclap.wav
36,192,38159,128,0,38488:0:0:0:30:drum-hitclap.wav
402,192,38323,1,0,0:0:0:0:
182,192,38488,1,0,0:0:0:60:drum-hitnormal.wav
329,192,38653,1,0,0:0:0:60:drum-hitnormal.wav
182,192,38818,1,0,0:0:0:30:drum-hitclap.wav
475,192,38818,128,0,39148:0:0:0:30:drum-hitclap.wav
329,192,38983,1,0,0:0:0:0:
256,192,39148,1,0,0:0:0:60:drum-hitnormal.wav
109,192,39312,1,0,0:0:0:0:
402,192,39477,1,0,0:0:0:30:drum-hitclap.wav
36,192,39477,1,0,0:0:0:30:drum-hitclap.wav
182,192,39642,1,0,0:0:0:0:
329,192,39807,1,0,0:0:0:60:drum-hitnormal.wav
109,192,39972,1,0,0:0:0:60:drum-hitnormal.wav
256,192,40137,1,0,0:0:0:30:drum-hitclap.wav
475,192,40137,1,0,0:0:0:30:drum-hitclap.wav
402,192,40301,1,0,0:0:0:0:
109,192,40466,1,0,0:0:0:60:drum-hitnormal.wav
256,192,40631,1,0,0:0:0:0:
36,192,40796,1,0,0:0:0:30:drum-hitclap.wav
329,192,40796,1,0,0:0:0:30:drum-hitclap.wav
182,192,40961,1,0,0:0:0:0:
402,192,41126,1,0,0:0:0:60:drum-hitnormal.wav
109,192,41290,1,0,0:0:0:60:drum-hitnormal.wav
475,192,41455,1,0,0:0:0:30:drum-hitclap.wav
256,192,41455,1,0,0:0:0:30:drum-hitclap.wav
402,192,41620,1,0,0:0:0:0:
109,192,41785,1,0,0:0:0:60:drum-hitnormal.wav
256,192,41950,1,0,0:0:0:0:
36,192,42115,1,0,0:0:0:30:drum-hitclap.wav
402,192,42115,1,0,0:0:0:30:drum-hitclap.wav
182,192,42279,1,0,0:0:0:0:
329,192,42444,1,0,0:0:0:60:drum-hitnormal.wav
109,192,42609,1,0,0:0:0:60:drum-hitnormal.wav
256,192,42774,1,0,0:0:0:60:drum-hitclap.wav
36,192,42939,1,0,0:0:0:60:drum-hitnormal.wav
402,192,42939,1,0,0:0:0:30:normal-hitfinish.wav
475,192,42939,1,0,0:0:0:30:normal-hitfinish.wav
256,192,43268,1,0,0:0:0:60:LR_Tom Hit.wav
109,192,43433,1,0,0:0:0:0:
402,192,43598,1,0,0:0:0:60:LR_Tom Normal.wav
256,192,43763,1,0,0:0:0:60:LR_Tom Normal.wav
182,192,43928,1,0,0:0:0:60:LR_Tom Drop.wav
402,192,44093,1,0,0:0:0:30:LR_Tom Drop.wav
36,192,44093,128,0,44422:0:0:0:30:LR_Tom Drop.wav
182,192,44422,1,0,0:0:0:60:drum-hitnormal.wav
475,192,44422,128,0,44752:0:0:0:30:normal-hitfinish.wav
329,192,44422,1,0,0:0:0:30:normal-hitfinish.wav
256,192,44752,1,0,0:0:0:0:
109,192,44917,1,0,0:0:0:60:drum-hitnormal.wav
109,192,45082,1,0,0:0:0:60:drum-hitnormal.wav
256,192,45411,1,0,0:0:0:30:drum-hitclap.wav
475,192,45411,1,0,0:0:0:30:drum-hitclap.wav
182,192,45576,1,0,0:0:0:60:drum-hitnormal.wav
182,192,45906,1,0,0:0:0:60:drum-hitnormal.wav
182,192,46235,1,0,0:0:0:60:drum-hitnormal.wav
329,192,46400,1,0,0:0:0:60:drum-hitnormal.wav
256,192,46730,1,0,0:0:0:30:drum-hitclap.wav
36,192,46730,1,0,0:0:0:30:drum-hitclap.wav
402,192,47060,1,0,0:0:0:60:drum-hitnormal.wav
182,192,47389,1,0,0:0:0:60:LR_Hat Synth.wav
329,192,47554,1,0,0:0:0:60:drum-hitnormal.wav
329,192,47719,1,0,0:0:0:60:drum-hitnormal.wav
36,192,48049,1,0,0:0:0:30:drum-hitclap.wav
402,192,48049,1,0,0:0:0:30:drum-hitclap.wav
256,192,48214,1,0,0:0:0:60:drum-hitnormal.wav
256,192,48543,1,0,0:0:0:60:drum-hitnormal.wav
256,192,48873,1,0,0:0:0:60:drum-hitnormal.wav
256,192,49038,1,0,0:0:0:60:drum-hitnormal.wav
475,192,49203,1,0,0:0:0:60:drum-hitclap.wav
329,192,49285,1,0,0:0:0:60:drum-hitclap.wav
36,192,49367,128,0,49697:0:0:0:30:drum-hitnormal.wav
182,192,49367,128,0,49697:0:0:0:30:drum-hitnormal.wav
329,192,49697,1,0,0:0:0:60:normal-hitfinish.wav
475,192,49697,1,0,0:0:0:30:drum-hitnormal.wav
402,192,49697,1,0,0:0:0:30:drum-hitnormal.wav
109,192,49862,1,0,0:0:0:0:
182,192,50027,1,0,0:0:0:30:drum-hitclap.wav
402,192,50027,1,0,0:0:0:30:drum-hitclap.wav
329,192,50192,1,0,0:0:0:0:
256,192,50356,1,0,0:0:0:60:drum-hitnormal.wav
36,192,50521,1,0,0:0:0:60:drum-hitnormal.wav
182,192,50686,1,0,0:0:0:30:drum-hitclap.wav
402,192,50686,1,0,0:0:0:30:drum-hitclap.wav
329,192,50851,1,0,0:0:0:0:
256,192,51016,1,0,0:0:0:60:drum-hitnormal.wav
109,192,51181,1,0,0:0:0:0:
402,192,51345,1,0,0:0:0:30:drum-hitclap.wav
182,192,51345,1,0,0:0:0:30:drum-hitclap.wav
329,192,51510,1,0,0:0:0:0:
109,192,51675,1,0,0:0:0:60:drum-hitnormal.wav
182,192,51840,1,0,0:0:0:60:drum-hitnormal.wav
256,192,52005,1,0,0:0:0:30:drum-hitclap.wav
475,192,52005,1,0,0:0:0:30:drum-hitclap.wav
36,192,52334,1,0,0:0:0:60:drum-hitclap.wav
182,192,52499,1,0,0:0:0:60:drum-hitnormal.wav
329,192,52664,1,0,0:0:0:30:drum-hitclap.wav
475,192,52664,1,0,0:0:0:30:drum-hitclap.wav
109,192,52829,1,0,0:0:0:60:drum-hitnormal.wav
329,192,52994,1,0,0:0:0:30:drum-hitclap.wav
475,192,52994,1,0,0:0:0:30:drum-hitclap.wav
109,192,53159,1,0,0:0:0:60:drum-hitnormal.wav
329,192,53323,1,0,0:0:0:30:drum-hitclap.wav
475,192,53323,128,0,53653:0:0:0:30:drum-hitclap.wav
182,192,53653,1,0,0:0:0:30:drum-hitclap.wav
109,192,53653,1,0,0:0:0:30:drum-hitclap.wav
329,192,53818,1,0,0:0:0:30:drum-hitclap.wav
402,192,53818,1,0,0:0:0:30:drum-hitclap.wav
182,192,53983,1,0,0:0:0:30:drum-hitclap.wav
109,192,53983,1,0,0:0:0:30:drum-hitclap.wav
256,192,54312,128,0,54642:0:0:0:0:
36,192,54642,128,0,54972:0:0:0:0:
475,192,54642,128,0,54972:0:0:0:0:
182,192,54972,1,0,0:0:0:60:drum-hitnormal.wav
329,192,54972,1,0,0:0:0:30:normal-hitfinish.wav
109,192,54972,1,0,0:0:0:30:normal-hitfinish.wav
36,192,55301,1,0,0:0:0:30:drum-hitclap.wav
402,192,55301,128,0,55631:0:0:0:30:drum-hitclap.wav
256,192,55631,1,0,0:0:0:60:drum-hitnormal.wav
182,192,55796,1,0,0:0:0:60:drum-hitnormal.wav
329,192,55961,1,0,0:0:0:30:drum-hitclap.wav
36,192,55961,1,0,0:0:0:30:drum-hitclap.wav
109,192,56290,1,0,0:0:0:60:drum-hitnormal.wav
182,192,56620,1,0,0:0:0:30:drum-hitclap.wav
402,192,56620,1,0,0:0:0:30:drum-hitclap.wav
256,192,56785,1,0,0:0:0:0:
109,192,56950,1,0,0:0:0:60:drum-hitnormal.wav
329,192,57115,1,0,0:0:0:60:drum-hitnormal.wav
36,192,57279,1,0,0:0:0:30:drum-hitclap.wav
475,192,57279,1,0,0:0:0:30:drum-hitclap.wav
109,192,57609,1,0,0:0:0:60:drum-hitnormal.wav
256,192,57939,1,0,0:0:0:30:drum-hitclap.wav
475,192,57939,1,0,0:0:0:30:drum-hitclap.wav
182,192,58104,1,0,0:0:0:0:
109,192,58268,1,0,0:0:0:60:drum-hitnormal.wav
329,192,58433,1,0,0:0:0:60:drum-hitnormal.wav
36,192,58598,1,0,0:0:0:30:drum-hitclap.wav
402,192,58598,1,0,0:0:0:30:drum-hitclap.wav
256,192,58928,128,0,59257:0:0:0:60:drum-hitnormal.wav
109,192,59257,1,0,0:0:0:30:drum-hitclap.wav
402,192,59257,1,0,0:0:0:30:drum-hitclap.wav
329,192,59422,1,0,0:0:0:0:
182,192,59587,1,0,0:0:0:60:drum-hitnormal.wav
329,192,59752,1,0,0:0:0:60:drum-hitnormal.wav
36,192,59917,1,0,0:0:0:30:drum-hitclap.wav
475,192,59917,1,0,0:0:0:30:drum-hitclap.wav
256,192,60082,1,0,0:0:0:0:
182,192,60246,1,0,0:0:0:60:normal-hitfinish.wav
329,192,60246,1,0,0:0:0:30:drum-hitnormal.wav
36,192,60246,1,0,0:0:0:30:drum-hitnormal.wav
109,192,60576,1,0,0:0:0:30:drum-hitclap.wav
402,192,60576,1,0,0:0:0:30:drum-hitclap.wav
182,192,60906,1,0,0:0:0:60:drum-hitnormal.wav
329,192,61071,1,0,0:0:0:60:drum-hitnormal.wav
109,192,61235,1,0,0:0:0:30:drum-hitclap.wav
475,192,61235,1,0,0:0:0:30:drum-hitclap.wav
256,192,61400,1,0,0:0:0:0:
402,192,61565,1,0,0:0:0:60:drum-hitnormal.wav
36,192,61895,1,0,0:0:0:30:drum-hitclap.wav
182,192,61895,1,0,0:0:0:30:drum-hitclap.wav
329,192,62225,1,0,0:0:0:60:drum-hitnormal.wav
402,192,62389,1,0,0:0:0:60:drum-hitnormal.wav
475,192,62554,1,0,0:0:0:30:drum-hitclap.wav
256,192,62554,1,0,0:0:0:30:drum-hitclap.wav
36,192,62719,1,0,0:0:0:0:
402,192,62884,1,0,0:0:0:60:drum-hitnormal.wav
329,192,63049,1,0,0:0:0:0:
109,192,63214,1,0,0:0:0:30:drum-hitclap.wav
36,192,63214,1,0,0:0:0:30:drum-hitclap.wav
182,192,63378,1,0,0:0:0:0:
475,192,63543,1,0,0:0:0:60:drum-hitnormal.wav
329,192,63708,1,0,0:0:0:60:drum-hitnormal.wav
36,192,63873,1,0,0:0:0:30:drum-hitclap.wav
182,192,63873,1,0,0:0:0:30:drum-hitclap.wav
256,192,64038,1,0,0:0:0:60:drum-hitnormal.wav
402,192,64038,1,0,0:0:0:30:normal-hitfinish.wav
475,192,64038,1,0,0:0:0:30:normal-hitfinish.wav
109,192,64367,1,0,0:0:0:60:drum-hitnormal.wav
182,192,64532,1,0,0:0:0:30:drum-hitclap.wav
475,192,64532,1,0,0:0:0:30:drum-hitclap.wav
329,192,64697,1,0,0:0:0:0:
109,192,64862,1,0,0:0:0:60:LR_Tom Hit.wav
256,192,65027,1,0,0:0:0:0:
36,192,65192,128,0,65521:0:0:0:60:drum-hitclap.wav
256,192,65521,1,0,0:0:0:60:normal-hitfinish.wav
109,192,65521,1,0,0:0:0:30:drum-hitnormal.wav
475,192,65521,1,0,0:0:0:30:drum-hitnormal.wav
182,192,65851,1,0,0:0:0:30:drum-hitclap.wav
329,192,65851,128,0,66181:0:0:0:30:drum-hitclap.wav
36,192,66181,1,0,0:0:0:60:drum-hitnormal.wav
109,192,66345,1,0,0:0:0:60:drum-hitnormal.wav
182,192,66510,1,0,0:0:0:30:drum-hitclap.wav
402,192,66510,1,0,0:0:0:30:drum-hitclap.wav
329,192,66840,1,0,0:0:0:60:drum-hitnormal.wav
475,192,67170,1,0,0:0:0:30:drum-hitclap.wav
109,192,67170,1,0,0:0:0:30:drum-hitclap.wav
256,192,67334,1,0,0:0:0:0:
402,192,67499,1,0,0:0:0:60:drum-hitnormal.wav
329,192,67664,1,0,0:0:0:60:drum-hitnormal.wav
36,192,67829,1,0,0:0:0:30:drum-hitclap.wav
182,192,67829,1,0,0:0:0:30:drum-hitclap.wav
475,192,68159,1,0,0:0:0:60:drum-hitnormal.wav
402,192,68323,1,0,0:0:0:0:
109,192,68488,1,0,0:0:0:30:drum-hitclap.wav
36,192,68488,1,0,0:0:0:30:drum-hitclap.wav
475,192,68653,1,0,0:0:0:60:normal-hitfinish.wav
329,192,68653,1,0,0:0:0:30:drum-hitnormal.wav
182,192,68653,1,0,0:0:0:30:drum-hitnormal.wav
256,192,68983,1,0,0:0:0:60:drum-hitnormal.wav
36,192,69148,1,0,0:0:0:30:drum-hitclap.wav
402,192,69148,1,0,0:0:0:30:drum-hitclap.wav
329,192,69312,1,0,0:0:0:60:normal-hitfinish.wav
182,192,69312,128,0,69642:0:0:0:30:drum-hitnormal.wav
109,192,69312,1,0,0:0:0:30:drum-hitnormal.wav
402,192,69642,1,0,0:0:0:60:drum-hitnormal.wav
109,192,69807,1,0,0:0:0:30:drum-hitclap.wav
329,192,69807,1,0,0:0:0:30:drum-hitclap.wav
182,192,69972,1,0,0:0:0:0:
256,192,70137,1,0,0:0:0:60:drum-hitnormal.wav
109,192,70301,1,0,0:0:0:60:drum-hitnormal.wav
182,192,70466,1,0,0:0:0:30:drum-hitclap.wav
402,192,70466,1,0,0:0:0:30:drum-hitclap.wav
329,192,70631,1,0,0:0:0:60:drum-hitclap.wav
36,192,70796,1,0,0:0:0:60:drum-hitnormal.wav
256,192,70796,1,0,0:0:0:30:normal-hitfinish.wav
475,192,70796,1,0,0:0:0:30:normal-hitfinish.wav
402,192,71126,1,0,0:0:0:30:drum-hitclap.wav
109,192,71126,1,0,0:0:0:30:drum-hitclap.wav
329,192,71455,1,0,0:0:0:60:drum-hitnormal.wav
182,192,71620,1,0,0:0:0:60:drum-hitnormal.wav
402,192,71785,1,0,0:0:0:30:drum-hitclap.wav
475,192,71785,1,0,0:0:0:30:drum-hitclap.wav
256,192,71950,1,0,0:0:0:0:
109,192,72115,1,0,0:0:0:60:drum-hitnormal.wav
36,192,72444,1,0,0:0:0:30:drum-hitclap.wav
329,192,72444,1,0,0:0:0:30:drum-hitclap.wav
182,192,72774,1,0,0:0:0:60:drum-hitnormal.wav
329,192,72939,1,0,0:0:0:60:drum-hitnormal.wav
109,192,73104,1,0,0:0:0:30:drum-hitclap.wav
36,192,73104,1,0,0:0:0:30:drum-hitclap.wav
402,192,73268,1,0,0:0:0:0:
182,192,73433,1,0,0:0:0:60:drum-hitnormal.wav
256,192,73598,1,0,0:0:0:0:
109,192,73763,1,0,0:0:0:30:drum-hitclap.wav
475,192,73763,1,0,0:0:0:30:drum-hitclap.wav
182,192,73928,1,0,0:0:0:0:
329,192,74093,1,0,0:0:0:60:drum-hitnormal.wav
256,192,74257,1,0,0:0:0:60:drum-hitnormal.wav
109,192,74422,1,0,0:0:0:30:drum-hitclap.wav
36,192,74422,1,0,0:0:0:30:drum-hitclap.wav
182,192,74587,1,0,0:0:0:60:drum-hitnormal.wav
402,192,74587,1,0,0:0:0:30:normal-hitfinish.wav
475,192,74587,1,0,0:0:0:30:normal-hitfinish.wav
36,192,74917,1,0,0:0:0:60:drum-hitnormal.wav
182,192,75082,1,0,0:0:0:30:drum-hitclap.wav
475,192,75082,1,0,0:0:0:30:drum-hitclap.wav
329,192,75246,1,0,0:0:0:0:
109,192,75411,1,0,0:0:0:60:LR_Tom Hit.wav
256,192,75576,128,0,75741:0:0:0:60:drum-hitnormal.wav
475,192,75741,1,0,0:0:0:60:drum-hitclap.wav
182,192,75906,1,0,0:0:0:60:LR_Tom Hit.wav
329,192,76071,1,0,0:0:0:60:normal-hitfinish.wav
402,192,76071,1,0,0:0:0:30:drum-hitnormal.wav
36,192,76071,1,0,0:0:0:30:drum-hitnormal.wav
109,192,76400,1,0,0:0:0:30:drum-hitclap.wav
256,192,76400,1,0,0:0:0:30:drum-hitclap.wav
329,192,76730,1,0,0:0:0:60:drum-hitnormal.wav
182,192,76895,1,0,0:0:0:60:drum-hitnormal.wav
475,192,77060,1,0,0:0:0:30:drum-hitclap.wav
36,192,77060,1,0,0:0:0:30:drum-hitclap.wav
329,192,77225,1,0,0:0:0:0:
256,192,77389,1,0,0:0:0:60:drum-hitnormal.wav
109,192,77719,1,0,0:0:0:30:drum-hitclap.wav
402,192,77719,1,0,0:0:0:30:drum-hitclap.wav
256,192,78049,1,0,0:0:0:60:drum-hitnormal.wav
182,192,78214,1,0,0:0:0:60:drum-hitnormal.wav
402,192,78378,1,0,0:0:0:30:drum-hitclap.wav
109,192,78378,1,0,0:0:0:30:drum-hitclap.wav
256,192,78708,1,0,0:0:0:60:drum-hitnormal.wav
36,192,79038,1,0,0:0:0:30:drum-hitclap.wav
402,192,79038,1,0,0:0:0:30:drum-hitclap.wav
182,192,79367,1,0,0:0:0:60:drum-hitnormal.wav
256,192,79532,1,0,0:0:0:60:drum-hitnormal.wav
329,192,79697,1,0,0:0:0:30:drum-hitclap.wav
109,192,79697,1,0,0:0:0:30:drum-hitclap.wav
182,192,79862,1,0,0:0:0:0:
402,192,80027,1,0,0:0:0:60:drum-hitnormal.wav
109,192,80356,1,0,0:0:0:30:drum-hitclap.wav
475,192,80356,1,0,0:0:0:30:drum-hitclap.wav
256,192,80686,1,0,0:0:0:60:drum-hitnormal.wav
329,192,80851,1,0,0:0:0:60:drum-hitnormal.wav
402,192,81016,1,0,0:0:0:30:drum-hitclap.wav
109,192,81016,1,0,0:0:0:30:drum-hitclap.wav
36,192,81345,1,0,0:0:0:60:normal-hitfinish.wav
329,192,81345,1,0,0:0:0:30:drum-hitnormal.wav
475,192,81345,1,0,0:0:0:30:drum-hitnormal.wav
182,192,81675,1,0,0:0:0:30:drum-hitclap.wav
475,192,81675,1,0,0:0:0:30:drum-hitclap.wav
402,192,82005,1,0,0:0:0:60:drum-hitnormal.wav
256,192,82170,1,0,0:0:0:60:drum-hitnormal.wav
109,192,82334,1,0,0:0:0:30:drum-hitclap.wav
329,192,82334,1,0,0:0:0:30:drum-hitclap.wav
182,192,82664,1,0,0:0:0:60:normal-hitfinish.wav
402,192,82664,1,0,0:0:0:30:drum-hitnormal.wav
36,192,82664,1,0,0:0:0:30:drum-hitnormal.wav
36,192,82994,1,0,0:0:0:30:drum-hitclap.wav
329,192,82994,1,0,0:0:0:30:drum-hitclap.wav
182,192,83323,1,0,0:0:0:60:drum-hitnormal.wav
402,192,83488,1,0,0:0:0:60:drum-hitnormal.wav
256,192,83653,1,0,0:0:0:30:drum-hitclap.wav
109,192,83653,1,0,0:0:0:30:drum-hitclap.wav
329,192,83983,1,0,0:0:0:60:drum-hitnormal.wav
475,192,83983,1,0,0:0:0:30:normal-hitfinish.wav
36,192,83983,1,0,0:0:0:30:normal-hitfinish.wav
256,192,84312,1,0,0:0:0:30:drum-hitclap.wav
109,192,84312,1,0,0:0:0:30:drum-hitclap.wav
329,192,84642,1,0,0:0:0:60:drum-hitnormal.wav
109,192,84807,1,0,0:0:0:60:drum-hitnormal.wav
256,192,84972,1,0,0:0:0:30:drum-hitclap.wav
402,192,84972,1,0,0:0:0:30:drum-hitclap.wav
36,192,85301,1,0,0:0:0:20:drum-hitclap.wav
182,192,85301,1,0,0:0:0:20:drum-hitclap.wav
475,192,85301,128,0,85796:0:0:0:20:drum-hitclap.wav
329,192,85466,1,0,0:0:0:60:drum-hitnormal.wav
182,192,85631,1,0,0:0:0:60:drum-hitnormal.wav
402,192,85796,1,0,0:0:0:20:drum-hitclap.wav
36,192,85796,128,0,86290:0:0:0:20:drum-hitclap.wav
109,192,85796,1,0,0:0:0:20:drum-hitclap.wav
256,192,85961,1,0,0:0:0:60:drum-hitnormal.wav
402,192,86126,1,0,0:0:0:60:drum-hitnormal.wav
182,192,86290,1,0,0:0:0:20:drum-hitclap.wav
475,192,86290,128,0,86620:0:0:0:20:drum-hitclap.wav
329,192,86290,1,0,0:0:0:20:drum-hitclap.wav
256,192,86620,1,0,0:0:0:60:normal-hitfinish.wav
36,192,86620,128,0,87609:0:0:0:30:drum-hitnormal.wav
402,192,86620,1,0,0:0:0:30:drum-hitnormal.wav
256,192,87609,128,0,87939:0:0:0:30:drum-hitnormal.wav
402,192,87609,1,0,0:0:0:30:drum-hitnormal.wav
109,192,87939,1,0,0:0:0:60:drum-hitnormal.wav
475,192,87939,1,0,0:0:0:30:normal-hitfinish.wav
36,192,87939,1,0,0:0:0:30:normal-hitfinish.wav
329,192,88268,1,0,0:0:0:30:drum-hitclap.wav
182,192,88268,1,0,0:0:0:30:drum-hitclap.wav
402,192,88433,1,0,0:0:0:0:
109,192,88598,1,0,0:0:0:60:drum-hitnormal.wav
329,192,88763,1,0,0:0:0:60:drum-hitnormal.wav
475,192,88928,1,0,0:0:0:30:drum-hitclap.wav
36,192,88928,1,0,0:0:0:30:drum-hitclap.wav
256,192,89093,1,0,0:0:0:0:
402,192,89257,1,0,0:0:0:30:drum-hitnormal.wav
109,192,89257,1,0,0:0:0:30:drum-hitnormal.wav
475,192,89422,1,0,0:0:0:0:
329,192,89587,1,0,0:0:0:30:drum-hitclap.wav
36,192,89587,1,0,0:0:0:30:drum-hitclap.wav
256,192,89752,1,0,0:0:0:0:
402,192,89917,1,0,0:0:0:60:drum-hitnormal.wav
109,192,90082,1,0,0:0:0:60:drum-hitnormal.wav
182,192,90246,1,0,0:0:0:30:drum-hitclap.wav
329,192,90246,1,0,0:0:0:30:drum-hitclap.wav
475,192,90576,1,0,0:0:0:30:drum-hitnormal.wav
256,192,90576,1,0,0:0:0:30:drum-hitnormal.wav
329,192,90906,1,0,0:0:0:30:drum-hitclap.wav
36,192,90906,1,0,0:0:0:30:drum-hitclap.wav
182,192,91071,1,0,0:0:0:0:
402,192,91235,1,0,0:0:0:60:drum-hitnormal.wav
109,192,91400,1,0,0:0:0:60:drum-hitnormal.wav
475,192,91565,1,0,0:0:0:30:drum-hitclap.wav
256,192,91565,1,0,0:0:0:30:drum-hitclap.wav
182,192,91730,1,0,0:0:0:0:
329,192,91895,1,0,0:0:0:30:drum-hitnormal.wav
109,192,91895,1,0,0:0:0:30:drum-hitnormal.wav
256,192,92060,1,0,0:0:0:0:
402,192,92225,1,0,0:0:0:30:drum-hitclap.wav
36,192,92225,1,0,0:0:0:30:drum-hitclap.wav
256,192,92389,1,0,0:0:0:0:
475,192,92554,1,0,0:0:0:60:drum-hitnormal.wav
182,192,92719,1,0,0:0:0:60:drum-hitnormal.wav
329,192,92884,1,0,0:0:0:30:drum-hitclap.wav
36,192,92884,1,0,0:0:0:30:drum-hitclap.wav
402,192,93214,1,0,0:0:0:60:normal-hitfinish.wav
182,192,93214,1,0,0:0:0:30:drum-hitnormal.wav
109,192,93214,1,0,0:0:0:30:drum-hitnormal.wav
475,192,93543,1,0,0:0:0:30:drum-hitclap.wav
36,192,93543,1,0,0:0:0:30:drum-hitclap.wav
256,192,93708,1,0,0:0:0:0:
402,192,93873,1,0,0:0:0:60:drum-hitnormal.wav
109,192,94038,1,0,0:0:0:60:drum-hitnormal.wav
182,192,94203,1,0,0:0:0:30:drum-hitclap.wav
475,192,94203,1,0,0:0:0:30:drum-hitclap.wav
256,192,94367,1,0,0:0:0:0:
329,192,94532,1,0,0:0:0:30:drum-hitnormal.wav
109,192,94532,1,0,0:0:0:30:drum-hitnormal.wav
475,192,94697,1,0,0:0:0:0:
402,192,94862,1,0,0:0:0:30:drum-hitclap.wav
182,192,94862,1,0,0:0:0:30:drum-hitclap.wav
36,192,95027,1,0,0:0:0:0:
329,192,95192,1,0,0:0:0:60:drum-hitnormal.wav
475,192,95356,1,0,0:0:0:60:drum-hitnormal.wav
256,192,95521,1,0,0:0:0:30:drum-hitclap.wav
109,192,95521,1,0,0:0:0:30:drum-hitclap.wav
402,192,95851,1,0,0:0:0:30:drum-hitnormal.wav
182,192,95851,1,0,0:0:0:30:drum-hitnormal.wav
329,192,96181,1,0,0:0:0:30:drum-hitclap.wav
36,192,96181,1,0,0:0:0:30:drum-hitclap.wav
182,192,96345,1,0,0:0:0:0:
402,192,96510,1,0,0:0:0:60:drum-hitnormal.wav
256,192,96675,1,0,0:0:0:60:drum-hitnormal.wav
475,192,96840,1,0,0:0:0:30:drum-hitclap.wav
36,192,96840,1,0,0:0:0:30:drum-hitclap.wav
329,192,97170,1,0,0:0:0:60:drum-hitnormal.wav
402,192,97334,1,0,0:0:0:30:drum-hitclap.wav
109,192,97334,1,0,0:0:0:30:drum-hitclap.wav
256,192,97499,1,0,0:0:0:0:
182,192,97664,1,0,0:0:0:60:drum-hitnormal.wav
402,192,97829,1,0,0:0:0:30:drum-hitclap.wav
109,192,97829,1,0,0:0:0:30:drum-hitclap.wav
256,192,97994,1,0,0:0:0:60:drum-hitnormal.wav
329,192,98159,128,0,98488:0:0:0:30:LR_Tom Drop.wav
182,192,98159,1,0,0:0:0:30:LR_Tom Drop.wav
475,192,98488,1,0,0:0:0:60:drum-hitnormal.wav
36,192,98488,1,0,0:0:0:60:normal-hitfinish.wav
182,192,98653,1,0,0:0:0:60:drum-hitnormal.wav
329,192,98818,1,0,0:0:0:60:drum-hitclap.wav
109,192,98983,128,0,99312:0:0:0:60:normal-hitfinish.wav
475,192,98983,1,0,0:0:0:30:drum-hitnormal.wav
182,192,98983,1,0,0:0:0:30:drum-hitnormal.wav
329,192,99312,1,0,0:0:0:60:drum-hitnormal.wav
182,192,99477,1,0,0:0:0:60:drum-hitclap.wav
36,192,99642,1,0,0:0:0:60:normal-hitfinish.wav
475,192,99642,128,0,99972:0:0:0:30:drum-hitnormal.wav
256,192,99642,1,0,0:0:0:30:drum-hitnormal.wav
182,192,99972,1,0,0:0:0:60:drum-hitnormal.wav
256,192,100137,1,0,0:0:0:60:drum-hitclap.wav
109,192,100301,1,0,0:0:0:60:normal-hitfinish.wav
402,192,100301,128,0,101126:0:0:0:30:drum-hitnormal.wav
36,192,100301,1,0,0:0:0:30:drum-hitnormal.wav
329,192,100631,1,0,0:0:0:60:drum-hitnormal.wav
182,192,100796,1,0,0:0:0:60:drum-hitclap.wav
475,192,101126,1,0,0:0:0:60:drum-hitnormal.wav
109,192,101126,128,0,102444:0:0:0:30:normal-hitfinish.wav
256,192,101126,1,0,0:0:0:30:normal-hitfinish.wav
256,192,102444,1,0,0:0:0:30:drum-hitnormal.wav
475,192,102444,1,0,0:0:0:30:drum-hitnormal.wav
