osu file format v14

[General]
AudioFilename: audio.mp3
AudioLeadIn: 0
PreviewTime: 54230
Countdown: 0
SampleSet: Soft
StackLeniency: 0.7
Mode: 3
LetterboxInBreaks: 0
SpecialStyle: 0
WidescreenStoryboard: 0

[Editor]
DistanceSpacing: 1.4
BeatDivisor: 4
GridSize: 8
TimelineZoom: 3.459998

[Metadata]
Title:Happy*Pretty*Clover
TitleUnicode:Happy⋆Pretty⋆Clover
Artist:Rhodanthe*
ArtistUnicode:Rhodanthe*
Creator:Rivals_7
Version:4K Insane Lv. 20
Source:きんいろモザイク Pretty Days
Tags:happy pretty clover yuiko meis clauson kin-iro kiniro mosaic kinmoza kinmosa ova きんモザ opening movie short ver cut tanaka manami 田中真奈美 alice cartelet アリス・カータレット nishi asuka 西明日香 oomiya shinobu 大宮忍 taneda risa 種田梨沙 komichi aya 小路綾 uchimiya yumi 内山夕実 inokuma youko 猪熊陽子 touyama nao 東山奈央 kujou karen 九条カレン tv size op
BeatmapID:1235505
BeatmapSetID:583943

[Difficulty]
HPDrainRate:8
CircleSize:4
OverallDifficulty:8
ApproachRate:5
SliderMultiplier:1.4
SliderTickRate:1

[Events]
//Background and Video events
0,0,"happy pretty clover edit.jpg",0,0
//Break Periods
//Storyboard Layer 0 (Background)
//Storyboard Layer 1 (Fail)
//Storyboard Layer 2 (Pass)
//Storyboard Layer 3 (Foreground)
//Storyboard Sound Samples

[TimingPoints]
2225,329.67032967033,4,2,1,40,1,0
11455,-66.6666666666667,4,2,1,40,0,0
11538,-200,4,2,1,40,0,0
11620,-66.6666666666667,4,2,1,40,0,0
11703,-200,4,2,1,40,0,0
11785,-100,4,2,1,40,0,0
12774,-100,4,2,1,40,0,1
23323,-100,4,2,1,40,0,0
32389,-166.666666666667,4,2,1,40,0,0
32637,-45.4545454545455,4,2,1,40,0,0
32719,-166.666666666667,4,2,1,40,0,0
32966,-45.4545454545455,4,2,1,40,0,0
33049,-166.666666666667,4,2,1,40,0,0
33296,-45.4545454545455,4,2,1,40,0,0
33378,-100,4,2,1,40,0,0
53653,-66.6666666666667,4,2,1,40,0,0
53735,-200,4,2,1,40,0,0
53818,-66.6666666666667,4,2,1,40,0,0
53900,-200,4,2,1,40,0,0
53983,-100,4,2,1,40,0,0
54972,-100,4,2,1,40,0,1
65192,-100,4,2,1,40,0,0
65521,-100,4,2,1,40,0,1
76071,-100,4,2,1,40,0,0
87939,-100,4,2,1,40,0,1
98488,-100,4,2,1,40,0,0

[HitObjects]
64,192,1565,5,0,0:0:0:0:
192,192,1895,1,0,0:0:0:0:
448,192,2115,1,0,0:0:0:0:
320,192,2170,1,0,0:0:0:0:
64,192,2225,1,0,0:0:0:0:
192,192,2884,1,0,0:0:0:0:
320,192,3214,1,0,0:0:0:0:
64,192,3433,1,0,0:0:0:0:
192,192,3488,1,0,0:0:0:0:
448,192,3543,1,0,0:0:0:0:
448,192,4203,1,0,0:0:0:0:
192,192,4532,1,0,0:0:0:0:
448,192,4752,1,0,0:0:0:0:
320,192,4807,1,0,0:0:0:0:
64,192,4862,128,0,5356:0:0:0:0:
448,192,5192,128,0,5356:0:0:0:0:
320,192,5356,128,0,6016:0:0:0:0:
192,192,5686,128,0,6181:0:0:0:0:
448,192,6016,128,0,7499:0:0:0:0:
64,192,6181,128,0,6675:0:0:0:0:
320,192,6510,128,0,7005:0:0:0:0:
192,192,6675,128,0,7334:0:0:0:0:
64,192,7005,128,0,7334:0:0:0:0:
320,192,7334,128,0,7499:0:0:0:0:
192,192,7499,1,0,0:0:0:0:
64,192,7499,128,0,8818:0:0:0:0:
192,192,8323,1,0,0:0:0:0:
448,192,8488,1,0,0:0:0:0:
192,192,8653,1,0,0:0:0:0:
320,192,8708,1,0,0:0:0:0:
192,192,8818,1,0,0:0:0:0:
448,192,8818,128,0,9477:0:0:0:0:
320,192,9148,1,0,0:0:0:0:
64,192,9312,1,0,0:0:0:0:
192,192,9477,128,0,10137:0:0:0:0:
448,192,9642,1,0,0:0:0:0:
320,192,9807,1,0,0:0:0:0:
64,192,10137,1,0,0:0:0:0:
448,192,10137,128,0,11455:0:0:0:0:
320,192,10466,1,0,0:0:0:0:
64,192,10631,1,0,0:0:0:0:
192,192,10961,1,0,0:0:0:0:
64,192,11455,1,0,0:0:0:20:drum-hitclap.wav
192,192,11455,1,0,0:0:0:20:drum-hitclap.wav
320,192,11455,1,0,0:0:0:20:drum-hitclap.wav
64,192,11620,1,0,0:0:0:20:drum-hitclap.wav
192,192,11620,1,0,0:0:0:20:drum-hitclap.wav
320,192,11620,1,0,0:0:0:20:drum-hitclap.wav
64,192,11785,1,0,0:0:0:20:drum-hitclap.wav
320,192,11785,1,0,0:0:0:20:drum-hitclap.wav
192,192,11785,1,0,0:0:0:20:drum-hitclap.wav
320,192,12115,1,0,0:0:0:30:drum-hitclap.wav
448,192,12115,1,0,0:0:0:30:drum-hitclap.wav
192,192,12197,1,0,0:0:0:30:drum-hitclap.wav
64,192,12197,1,0,0:0:0:30:drum-hitclap.wav
448,192,12279,1,0,0:0:0:60:drum-hitnormal.wav
192,192,12362,1,0,0:0:0:60:drum-hitnormal.wav
320,192,12444,1,0,0:0:0:30:drum-hitclap.wav
448,192,12444,1,0,0:0:0:30:drum-hitclap.wav
192,192,12485,1,0,0:0:0:0:
64,192,12527,1,0,0:0:0:0:
448,192,12568,1,0,0:0:0:0:
320,192,12609,1,0,0:0:0:0:
64,192,12650,1,0,0:0:0:0:
192,192,12692,1,0,0:0:0:0:
320,192,12733,1,0,0:0:0:0:
448,192,12774,1,0,0:0:0:60:normal-hitfinish.wav
64,192,12774,1,0,0:0:0:30:drum-hitnormal.wav
192,192,12774,1,0,0:0:0:30:drum-hitnormal.wav
64,192,13104,1,0,0:0:0:20:drum-hitclap.wav
192,192,13104,1,0,0:0:0:20:drum-hitclap.wav
320,192,13104,1,0,0:0:0:20:drum-hitclap.wav
320,192,13268,1,0,0:0:0:0:
64,192,13433,1,0,0:0:0:30:drum-hitnormal.wav
448,192,13433,1,0,0:0:0:30:drum-hitnormal.wav
192,192,13598,1,0,0:0:0:30:drum-hitnormal.wav
320,192,13598,1,0,0:0:0:30:drum-hitnormal.wav
192,192,13763,1,0,0:0:0:20:drum-hitclap.wav
64,192,13763,1,0,0:0:0:20:drum-hitclap.wav
448,192,13763,1,0,0:0:0:20:drum-hitclap.wav
320,192,13928,1,0,0:0:0:0:
192,192,14093,1,0,0:0:0:30:drum-hitnormal.wav
64,192,14093,128,0,14422:0:0:0:30:drum-hitnormal.wav
320,192,14257,1,0,0:0:0:0:
192,192,14422,1,0,0:0:0:20:drum-hitclap.wav
320,192,14422,1,0,0:0:0:20:drum-hitclap.wav
448,192,14422,128,0,14587:0:0:0:20:drum-hitclap.wav
64,192,14587,128,0,14917:0:0:0:0:
192,192,14752,1,0,0:0:0:30:drum-hitnormal.wav
448,192,14752,1,0,0:0:0:30:drum-hitnormal.wav
192,192,14917,1,0,0:0:0:30:drum-hitnormal.wav
320,192,14917,128,0,15082:0:0:0:30:drum-hitnormal.wav
192,192,15082,1,0,0:0:0:20:drum-hitclap.wav
64,192,15082,1,0,0:0:0:20:drum-hitclap.wav
448,192,15082,128,0,15411:0:0:0:20:drum-hitclap.wav
320,192,15246,1,0,0:0:0:0:
64,192,15411,1,0,0:0:0:30:drum-hitnormal.wav
192,192,15411,1,0,0:0:0:30:drum-hitnormal.wav
320,192,15576,1,0,0:0:0:0:
192,192,15741,1,0,0:0:0:20:drum-hitclap.wav
64,192,15741,1,0,0:0:0:20:drum-hitclap.wav
448,192,15741,1,0,0:0:0:20:drum-hitclap.wav
448,192,15906,1,0,0:0:0:0:
320,192,16071,1,0,0:0:0:30:drum-hitnormal.wav
64,192,16071,1,0,0:0:0:30:drum-hitnormal.wav
192,192,16235,1,0,0:0:0:30:drum-hitnormal.wav
64,192,16235,1,0,0:0:0:30:drum-hitnormal.wav
192,192,16400,1,0,0:0:0:20:drum-hitclap.wav
320,192,16400,1,0,0:0:0:20:drum-hitclap.wav
448,192,16400,1,0,0:0:0:20:drum-hitclap.wav
64,192,16565,128,0,16730:0:0:0:0:
448,192,16730,128,0,16895:0:0:0:30:drum-hitnormal.wav
192,192,16730,1,0,0:0:0:30:drum-hitnormal.wav
320,192,16895,128,0,17060:0:0:0:0:
192,192,17060,1,0,0:0:0:20:drum-hitclap.wav
448,192,17060,1,0,0:0:0:20:drum-hitclap.wav
64,192,17060,128,0,17225:0:0:0:20:drum-hitclap.wav
448,192,17225,128,0,17719:0:0:0:0:
64,192,17389,1,0,0:0:0:30:drum-hitnormal.wav
320,192,17389,1,0,0:0:0:30:drum-hitnormal.wav
320,192,17554,1,0,0:0:0:30:drum-hitnormal.wav
64,192,17554,1,0,0:0:0:30:drum-hitnormal.wav
320,192,17719,1,0,0:0:0:20:drum-hitclap.wav
192,192,17719,1,0,0:0:0:20:drum-hitclap.wav
64,192,17719,1,0,0:0:0:20:drum-hitclap.wav
448,192,17884,1,0,0:0:0:0:
320,192,17966,1,0,0:0:0:60:drum-hitclap.wav
448,192,18049,1,0,0:0:0:60:normal-hitfinish.wav
192,192,18049,1,0,0:0:0:30:drum-hitnormal.wav
64,192,18049,1,0,0:0:0:30:drum-hitnormal.wav
320,192,18214,1,0,0:0:0:0:
192,192,18378,1,0,0:0:0:20:drum-hitclap.wav
64,192,18378,1,0,0:0:0:20:drum-hitclap.wav
448,192,18378,1,0,0:0:0:20:drum-hitclap.wav
64,192,18543,1,0,0:0:0:0:
320,192,18708,1,0,0:0:0:30:drum-hitnormal.wav
448,192,18708,1,0,0:0:0:30:drum-hitnormal.wav
192,192,18873,1,0,0:0:0:30:drum-hitnormal.wav
64,192,18873,1,0,0:0:0:30:drum-hitnormal.wav
64,192,19038,1,0,0:0:0:20:drum-hitclap.wav
320,192,19038,1,0,0:0:0:20:drum-hitclap.wav
448,192,19038,1,0,0:0:0:20:drum-hitclap.wav
192,192,19203,1,0,0:0:0:0:
448,192,19367,1,0,0:0:0:30:drum-hitnormal.wav
64,192,19367,128,0,19697:0:0:0:30:drum-hitnormal.wav
320,192,19532,1,0,0:0:0:0:
192,192,19697,1,0,0:0:0:20:drum-hitclap.wav
320,192,19697,1,0,0:0:0:20:drum-hitclap.wav
448,192,19697,128,0,19862:0:0:0:20:drum-hitclap.wav
64,192,19862,128,0,20192:0:0:0:0:
320,192,20027,1,0,0:0:0:30:drum-hitnormal.wav
448,192,20027,1,0,0:0:0:30:drum-hitnormal.wav
192,192,20192,1,0,0:0:0:30:drum-hitnormal.wav
320,192,20192,128,0,20356:0:0:0:30:drum-hitnormal.wav
64,192,20356,1,0,0:0:0:20:drum-hitclap.wav
448,192,20356,1,0,0:0:0:20:drum-hitclap.wav
192,192,20356,128,0,20686:0:0:0:20:drum-hitclap.wav
320,192,20521,1,0,0:0:0:0:
64,192,20686,1,0,0:0:0:30:drum-hitnormal.wav
448,192,20686,128,0,20851:0:0:0:30:drum-hitnormal.wav
320,192,20851,1,0,0:0:0:0:
448,192,21016,1,0,0:0:0:20:drum-hitclap.wav
192,192,21016,1,0,0:0:0:20:drum-hitclap.wav
64,192,21016,128,0,21181:0:0:0:20:drum-hitclap.wav
320,192,21181,128,0,21345:0:0:0:0:
64,192,21345,1,0,0:0:0:30:drum-hitnormal.wav
192,192,21345,1,0,0:0:0:30:drum-hitnormal.wav
320,192,21510,1,0,0:0:0:30:drum-hitnormal.wav
192,192,21510,128,0,21675:0:0:0:30:drum-hitnormal.wav
64,192,21675,1,0,0:0:0:30:drum-hitclap.wav
448,192,21675,1,0,0:0:0:30:drum-hitclap.wav
320,192,21840,128,0,22005:0:0:0:0:
64,192,22005,1,0,0:0:0:30:drum-hitnormal.wav
192,192,22005,1,0,0:0:0:30:drum-hitnormal.wav
320,192,22170,1,0,0:0:0:20:drum-hitclap.wav
448,192,22170,1,0,0:0:0:20:drum-hitclap.wav
64,192,22170,1,0,0:0:0:20:drum-hitclap.wav
192,192,22334,1,0,0:0:0:0:
320,192,22499,1,0,0:0:0:30:drum-hitnormal.wav
448,192,22499,1,0,0:0:0:30:drum-hitnormal.wav
192,192,22664,1,0,0:0:0:20:drum-hitclap.wav
64,192,22664,1,0,0:0:0:20:drum-hitclap.wav
448,192,22664,1,0,0:0:0:20:drum-hitclap.wav
320,192,22829,1,0,0:0:0:30:drum-hitnormal.wav
192,192,22829,1,0,0:0:0:30:drum-hitnormal.wav
320,192,22994,1,0,0:0:0:30:LR_Tom Drop.wav
448,192,22994,128,0,23323:0:0:0:30:LR_Tom Drop.wav
192,192,23323,1,0,0:0:0:60:normal-hitfinish.wav
64,192,23323,1,0,0:0:0:30:drum-hitnormal.wav
320,192,23323,1,0,0:0:0:30:drum-hitnormal.wav
64,192,23488,1,0,0:0:0:0:
192,192,23653,1,0,0:0:0:20:drum-hitclap.wav
320,192,23653,1,0,0:0:0:20:drum-hitclap.wav
448,192,23653,1,0,0:0:0:20:drum-hitclap.wav
320,192,23818,1,0,0:0:0:0:
192,192,23983,1,0,0:0:0:30:drum-hitnormal.wav
64,192,23983,1,0,0:0:0:30:drum-hitnormal.wav
192,192,24148,1,0,0:0:0:30:drum-hitnormal.wav
64,192,24148,1,0,0:0:0:30:drum-hitnormal.wav
64,192,24312,1,0,0:0:0:20:drum-hitclap.wav
320,192,24312,1,0,0:0:0:20:drum-hitclap.wav
448,192,24312,1,0,0:0:0:20:drum-hitclap.wav
448,192,24477,1,0,0:0:0:0:
320,192,24642,1,0,0:0:0:30:drum-hitnormal.wav
192,192,24642,1,0,0:0:0:30:drum-hitnormal.wav
192,192,24807,1,0,0:0:0:0:
64,192,24972,1,0,0:0:0:20:drum-hitclap.wav
320,192,24972,1,0,0:0:0:20:drum-hitclap.wav
448,192,24972,1,0,0:0:0:20:drum-hitclap.wav
448,192,25137,1,0,0:0:0:0:
192,192,25301,1,0,0:0:0:30:drum-hitnormal.wav
64,192,25301,1,0,0:0:0:30:drum-hitnormal.wav
64,192,25466,1,0,0:0:0:30:drum-hitnormal.wav
192,192,25466,1,0,0:0:0:30:drum-hitnormal.wav
320,192,25631,1,0,0:0:0:20:drum-hitclap.wav
448,192,25631,1,0,0:0:0:20:drum-hitclap.wav
64,192,25631,1,0,0:0:0:20:drum-hitclap.wav
192,192,25796,1,0,0:0:0:0:
320,192,25878,1,0,0:0:0:0:
448,192,25961,1,0,0:0:0:30:drum-hitnormal.wav
64,192,25961,1,0,0:0:0:30:drum-hitnormal.wav
448,192,26126,1,0,0:0:0:0:
320,192,26290,1,0,0:0:0:20:drum-hitclap.wav
192,192,26290,1,0,0:0:0:20:drum-hitclap.wav
64,192,26290,1,0,0:0:0:20:drum-hitclap.wav
192,192,26455,1,0,0:0:0:0:
320,192,26620,1,0,0:0:0:30:drum-hitnormal.wav
448,192,26620,1,0,0:0:0:30:drum-hitnormal.wav
448,192,26785,1,0,0:0:0:30:drum-hitnormal.wav
320,192,26785,1,0,0:0:0:30:drum-hitnormal.wav
192,192,26950,1,0,0:0:0:20:drum-hitclap.wav
64,192,26950,1,0,0:0:0:20:drum-hitclap.wav
448,192,26950,1,0,0:0:0:20:drum-hitclap.wav
320,192,27115,1,0,0:0:0:0:
192,192,27197,1,0,0:0:0:0:
64,192,27279,1,0,0:0:0:30:drum-hitnormal.wav
448,192,27279,1,0,0:0:0:30:drum-hitnormal.wav
64,192,27444,1,0,0:0:0:0:
192,192,27609,1,0,0:0:0:20:drum-hitclap.wav
320,192,27609,1,0,0:0:0:20:drum-hitclap.wav
448,192,27609,1,0,0:0:0:20:drum-hitclap.wav
192,192,27774,1,0,0:0:0:0:
320,192,27939,1,0,0:0:0:30:drum-hitnormal.wav
448,192,27939,1,0,0:0:0:30:drum-hitnormal.wav
448,192,28104,1,0,0:0:0:30:drum-hitnormal.wav
320,192,28104,1,0,0:0:0:30:drum-hitnormal.wav
192,192,28268,1,0,0:0:0:20:drum-hitclap.wav
64,192,28268,1,0,0:0:0:20:drum-hitclap.wav
448,192,28268,1,0,0:0:0:20:drum-hitclap.wav
320,192,28433,1,0,0:0:0:0:
448,192,28516,1,0,0:0:0:0:
192,192,28598,1,0,0:0:0:30:drum-hitnormal.wav
64,192,28598,1,0,0:0:0:30:drum-hitnormal.wav
192,192,28763,1,0,0:0:0:0:
64,192,28928,1,0,0:0:0:20:drum-hitclap.wav
320,192,28928,1,0,0:0:0:20:drum-hitclap.wav
448,192,28928,1,0,0:0:0:20:drum-hitclap.wav
448,192,29093,1,0,0:0:0:0:
192,192,29257,1,0,0:0:0:30:drum-hitnormal.wav
320,192,29257,1,0,0:0:0:30:drum-hitnormal.wav
192,192,29422,1,0,0:0:0:30:drum-hitnormal.wav
320,192,29422,1,0,0:0:0:30:drum-hitnormal.wav
64,192,29587,1,0,0:0:0:20:drum-hitclap.wav
192,192,29587,1,0,0:0:0:20:drum-hitclap.wav
448,192,29587,1,0,0:0:0:20:drum-hitclap.wav
320,192,29752,1,0,0:0:0:0:
192,192,29834,1,0,0:0:0:0:
64,192,29917,1,0,0:0:0:30:drum-hitnormal.wav
448,192,29917,1,0,0:0:0:30:drum-hitnormal.wav
448,192,30082,1,0,0:0:0:0:
192,192,30246,1,0,0:0:0:20:drum-hitclap.wav
320,192,30246,1,0,0:0:0:20:drum-hitclap.wav
64,192,30246,1,0,0:0:0:20:drum-hitclap.wav
64,192,30411,1,0,0:0:0:0:
192,192,30576,1,0,0:0:0:30:drum-hitnormal.wav
320,192,30576,1,0,0:0:0:30:drum-hitnormal.wav
320,192,30741,1,0,0:0:0:30:drum-hitnormal.wav
192,192,30741,1,0,0:0:0:30:drum-hitnormal.wav
320,192,30906,1,0,0:0:0:20:drum-hitclap.wav
448,192,30906,1,0,0:0:0:20:drum-hitclap.wav
64,192,30906,1,0,0:0:0:20:drum-hitclap.wav
192,192,31071,1,0,0:0:0:0:
320,192,31153,1,0,0:0:0:0:
64,192,31235,1,0,0:0:0:30:drum-hitnormal.wav
448,192,31235,1,0,0:0:0:30:drum-hitnormal.wav
64,192,31400,1,0,0:0:0:0:
192,192,31565,1,0,0:0:0:20:drum-hitclap.wav
320,192,31565,1,0,0:0:0:20:drum-hitclap.wav
448,192,31565,1,0,0:0:0:20:drum-hitclap.wav
320,192,31730,1,0,0:0:0:0:
64,192,31895,1,0,0:0:0:30:drum-hitnormal.wav
448,192,31895,1,0,0:0:0:30:drum-hitnormal.wav
64,192,32060,1,0,0:0:0:30:drum-hitnormal.wav
448,192,32060,1,0,0:0:0:30:drum-hitnormal.wav
64,192,32225,1,0,0:0:0:20:drum-hitclap.wav
192,192,32225,1,0,0:0:0:20:drum-hitclap.wav
448,192,32225,1,0,0:0:0:20:drum-hitclap.wav
320,192,32389,1,0,0:0:0:30:drum-hitnormal.wav
192,192,32389,1,0,0:0:0:30:drum-hitnormal.wav
192,192,32719,1,0,0:0:0:30:drum-hitnormal.wav
320,192,32719,1,0,0:0:0:30:drum-hitnormal.wav
64,192,33049,1,0,0:0:0:30:drum-hitnormal.wav
448,192,33049,1,0,0:0:0:30:drum-hitnormal.wav
192,192,33378,1,0,0:0:0:30:drum-hitnormal.wav
320,192,33378,1,0,0:0:0:30:drum-hitnormal.wav
64,192,33543,1,0,0:0:0:20:drum-hitclap.wav
192,192,33543,1,0,0:0:0:20:drum-hitclap.wav
448,192,33543,1,0,0:0:0:20:drum-hitclap.wav
320,192,33708,1,0,0:0:0:30:drum-hitclap.wav
448,192,33708,1,0,0:0:0:30:drum-hitclap.wav
192,192,33790,1,0,0:0:0:30:drum-hitclap.wav
64,192,33790,1,0,0:0:0:30:drum-hitclap.wav
320,192,33873,1,0,0:0:0:60:normal-hitfinish.wav
64,192,33873,1,0,0:0:0:30:drum-hitnormal.wav
448,192,33873,128,0,34203:0:0:0:30:drum-hitnormal.wav
192,192,34038,1,0,0:0:0:0:
64,192,34203,1,0,0:0:0:30:drum-hitclap.wav
192,192,34203,1,0,0:0:0:30:drum-hitclap.wav
320,192,34367,1,0,0:0:0:0:
64,192,34532,1,0,0:0:0:30:drum-hitnormal.wav
448,192,34532,1,0,0:0:0:30:drum-hitnormal.wav
64,192,34697,1,0,0:0:0:30:drum-hitnormal.wav
448,192,34697,1,0,0:0:0:30:drum-hitnormal.wav
64,192,34862,1,0,0:0:0:20:drum-hitclap.wav
320,192,34862,1,0,0:0:0:20:drum-hitclap.wav
448,192,34862,1,0,0:0:0:20:drum-hitclap.wav
192,192,35027,1,0,0:0:0:0:
320,192,35109,1,0,0:0:0:0:
448,192,35192,1,0,0:0:0:30:drum-hitnormal.wav
64,192,35192,1,0,0:0:0:30:drum-hitnormal.wav
64,192,35356,1,0,0:0:0:0:
192,192,35521,1,0,0:0:0:20:drum-hitclap.wav
320,192,35521,1,0,0:0:0:20:drum-hitclap.wav
448,192,35521,1,0,0:0:0:20:drum-hitclap.wav
448,192,35686,1,0,0:0:0:0:
192,192,35851,1,0,0:0:0:30:drum-hitnormal.wav
64,192,35851,1,0,0:0:0:30:drum-hitnormal.wav
64,192,36016,1,0,0:0:0:30:drum-hitnormal.wav
192,192,36016,1,0,0:0:0:30:drum-hitnormal.wav
320,192,36181,1,0,0:0:0:20:drum-hitclap.wav
448,192,36181,1,0,0:0:0:20:drum-hitclap.wav
64,192,36181,1,0,0:0:0:20:drum-hitclap.wav
192,192,36345,1,0,0:0:0:0:
64,192,36428,1,0,0:0:0:0:
320,192,36510,1,0,0:0:0:30:drum-hitnormal.wav
448,192,36510,1,0,0:0:0:30:drum-hitnormal.wav
448,192,36675,1,0,0:0:0:0:
192,192,36840,1,0,0:0:0:20:drum-hitclap.wav
64,192,36840,1,0,0:0:0:20:drum-hitclap.wav
320,192,36840,1,0,0:0:0:20:drum-hitclap.wav
192,192,37005,1,0,0:0:0:0:
320,192,37170,1,0,0:0:0:30:drum-hitnormal.wav
448,192,37170,1,0,0:0:0:30:drum-hitnormal.wav
448,192,37334,1,0,0:0:0:30:drum-hitnormal.wav
320,192,37334,1,0,0:0:0:30:drum-hitnormal.wav
192,192,37499,1,0,0:0:0:20:drum-hitclap.wav
64,192,37499,1,0,0:0:0:20:drum-hitclap.wav
448,192,37499,1,0,0:0:0:20:drum-hitclap.wav
320,192,37664,1,0,0:0:0:0:
192,192,37746,1,0,0:0:0:0:
64,192,37829,1,0,0:0:0:30:drum-hitnormal.wav
448,192,37829,1,0,0:0:0:30:drum-hitnormal.wav
448,192,37994,1,0,0:0:0:0:
192,192,38159,1,0,0:0:0:20:drum-hitclap.wav
320,192,38159,1,0,0:0:0:20:drum-hitclap.wav
64,192,38159,1,0,0:0:0:20:drum-hitclap.wav
64,192,38323,1,0,0:0:0:0:
192,192,38488,1,0,0:0:0:30:drum-hitnormal.wav
320,192,38488,1,0,0:0:0:30:drum-hitnormal.wav
192,192,38653,1,0,0:0:0:30:drum-hitnormal.wav
320,192,38653,1,0,0:0:0:30:drum-hitnormal.wav
64,192,38818,1,0,0:0:0:20:drum-hitclap.wav
320,192,38818,1,0,0:0:0:20:drum-hitclap.wav
448,192,38818,1,0,0:0:0:20:drum-hitclap.wav
192,192,38983,1,0,0:0:0:0:
64,192,39065,1,0,0:0:0:0:
320,192,39148,1,0,0:0:0:30:drum-hitnormal.wav
448,192,39148,1,0,0:0:0:30:drum-hitnormal.wav
448,192,39312,1,0,0:0:0:0:
320,192,39477,1,0,0:0:0:20:drum-hitclap.wav
192,192,39477,1,0,0:0:0:20:drum-hitclap.wav
64,192,39477,1,0,0:0:0:20:drum-hitclap.wav
192,192,39642,1,0,0:0:0:0:
320,192,39807,1,0,0:0:0:30:drum-hitnormal.wav
448,192,39807,1,0,0:0:0:30:drum-hitnormal.wav
448,192,39972,1,0,0:0:0:30:drum-hitnormal.wav
320,192,39972,1,0,0:0:0:30:drum-hitnormal.wav
192,192,40137,1,0,0:0:0:20:drum-hitclap.wav
64,192,40137,1,0,0:0:0:20:drum-hitclap.wav
448,192,40137,1,0,0:0:0:20:drum-hitclap.wav
320,192,40301,1,0,0:0:0:0:
64,192,40384,1,0,0:0:0:0:
192,192,40466,1,0,0:0:0:30:drum-hitnormal.wav
448,192,40466,1,0,0:0:0:30:drum-hitnormal.wav
448,192,40631,1,0,0:0:0:0:
192,192,40796,1,0,0:0:0:20:drum-hitclap.wav
64,192,40796,1,0,0:0:0:20:drum-hitclap.wav
320,192,40796,1,0,0:0:0:20:drum-hitclap.wav
64,192,40961,1,0,0:0:0:0:
320,192,41126,1,0,0:0:0:30:drum-hitnormal.wav
448,192,41126,1,0,0:0:0:30:drum-hitnormal.wav
448,192,41290,1,0,0:0:0:30:drum-hitnormal.wav
320,192,41290,1,0,0:0:0:30:drum-hitnormal.wav
192,192,41455,1,0,0:0:0:20:drum-hitclap.wav
64,192,41455,1,0,0:0:0:20:drum-hitclap.wav
448,192,41455,1,0,0:0:0:20:drum-hitclap.wav
192,192,41620,1,0,0:0:0:0:
448,192,41703,1,0,0:0:0:0:
64,192,41785,1,0,0:0:0:30:drum-hitnormal.wav
320,192,41785,1,0,0:0:0:30:drum-hitnormal.wav
320,192,41950,1,0,0:0:0:0:
448,192,42115,1,0,0:0:0:20:drum-hitclap.wav
192,192,42115,1,0,0:0:0:20:drum-hitclap.wav
64,192,42115,1,0,0:0:0:20:drum-hitclap.wav
448,192,42279,1,0,0:0:0:0:
192,192,42444,1,0,0:0:0:30:drum-hitnormal.wav
64,192,42444,1,0,0:0:0:30:drum-hitnormal.wav
64,192,42609,1,0,0:0:0:30:drum-hitnormal.wav
192,192,42609,1,0,0:0:0:30:drum-hitnormal.wav
320,192,42774,1,0,0:0:0:20:drum-hitclap.wav
448,192,42774,1,0,0:0:0:20:drum-hitclap.wav
64,192,42774,1,0,0:0:0:20:drum-hitclap.wav
64,192,42939,1,0,0:0:0:30:normal-hitfinish.wav
192,192,42939,1,0,0:0:0:30:drum-hitnormal.wav
320,192,42939,1,0,0:0:0:30:normal-hitfinish.wav
448,192,42939,1,0,0:0:0:30:drum-hitnormal.wav
64,192,43268,1,0,0:0:0:30:LR_Tom Hit.wav
192,192,43268,1,0,0:0:0:30:LR_Tom Hit.wav
320,192,43296,1,0,0:0:0:30:LR_Tom Hit.wav
448,192,43296,1,0,0:0:0:30:LR_Tom Hit.wav
192,192,43433,1,0,0:0:0:0:
64,192,43433,1,0,0:0:0:0:
192,192,43598,1,0,0:0:0:30:LR_Tom Normal.wav
448,192,43598,1,0,0:0:0:30:LR_Tom Normal.wav
320,192,43763,1,0,0:0:0:30:LR_Tom Normal.wav
448,192,43763,1,0,0:0:0:30:LR_Tom Normal.wav
192,192,43928,1,0,0:0:0:30:LR_Tom Drop.wav
320,192,43928,1,0,0:0:0:30:LR_Tom Drop.wav
192,192,44093,1,0,0:0:0:30:LR_Tom Drop.wav
64,192,44093,128,0,44422:0:0:0:30:LR_Tom Drop.wav
192,192,44422,1,0,0:0:0:60:drum-hitnormal.wav
320,192,44422,1,0,0:0:0:30:normal-hitfinish.wav
448,192,44422,128,0,44752:0:0:0:30:normal-hitfinish.wav
192,192,44752,1,0,0:0:0:0:
64,192,44917,1,0,0:0:0:30:drum-hitnormal.wav
448,192,44917,1,0,0:0:0:30:drum-hitnormal.wav
64,192,45082,1,0,0:0:0:30:drum-hitnormal.wav
448,192,45082,1,0,0:0:0:30:drum-hitnormal.wav
64,192,45411,1,0,0:0:0:20:drum-hitclap.wav
192,192,45411,1,0,0:0:0:20:drum-hitclap.wav
448,192,45411,1,0,0:0:0:20:drum-hitclap.wav
320,192,45576,1,0,0:0:0:30:drum-hitnormal.wav
448,192,45576,1,0,0:0:0:30:drum-hitnormal.wav
320,192,45906,1,0,0:0:0:30:drum-hitnormal.wav
192,192,45906,1,0,0:0:0:30:drum-hitnormal.wav
64,192,46235,1,0,0:0:0:30:drum-hitnormal.wav
192,192,46235,1,0,0:0:0:30:drum-hitnormal.wav
320,192,46400,1,0,0:0:0:30:drum-hitnormal.wav
448,192,46400,1,0,0:0:0:30:drum-hitnormal.wav
192,192,46730,1,0,0:0:0:20:drum-hitclap.wav
64,192,46730,1,0,0:0:0:20:drum-hitclap.wav
448,192,46730,1,0,0:0:0:20:drum-hitclap.wav
320,192,47060,1,0,0:0:0:30:drum-hitnormal.wav
192,192,47060,1,0,0:0:0:30:drum-hitnormal.wav
448,192,47389,1,0,0:0:0:60:LR_Hat Synth.wav
192,192,47554,1,0,0:0:0:30:drum-hitnormal.wav
64,192,47554,1,0,0:0:0:30:drum-hitnormal.wav
192,192,47719,1,0,0:0:0:30:drum-hitnormal.wav
64,192,47719,1,0,0:0:0:30:drum-hitnormal.wav
320,192,48049,1,0,0:0:0:20:drum-hitclap.wav
448,192,48049,1,0,0:0:0:20:drum-hitclap.wav
64,192,48049,1,0,0:0:0:20:drum-hitclap.wav
192,192,48214,1,0,0:0:0:30:drum-hitnormal.wav
448,192,48214,1,0,0:0:0:30:drum-hitnormal.wav
192,192,48543,1,0,0:0:0:30:drum-hitnormal.wav
448,192,48543,1,0,0:0:0:30:drum-hitnormal.wav
192,192,48873,1,0,0:0:0:30:drum-hitnormal.wav
448,192,48873,1,0,0:0:0:30:drum-hitnormal.wav
192,192,49038,1,0,0:0:0:30:drum-hitnormal.wav
448,192,49038,1,0,0:0:0:30:drum-hitnormal.wav
64,192,49203,1,0,0:0:0:30:drum-hitclap.wav
320,192,49203,1,0,0:0:0:30:drum-hitclap.wav
192,192,49285,1,0,0:0:0:30:drum-hitclap.wav
448,192,49285,1,0,0:0:0:30:drum-hitclap.wav
320,192,49367,1,0,0:0:0:60:drum-hitnormal.wav
192,192,49450,1,0,0:0:0:30:drum-hitclap.wav
64,192,49450,1,0,0:0:0:30:drum-hitclap.wav
320,192,49532,1,0,0:0:0:30:drum-hitclap.wav
448,192,49532,1,0,0:0:0:30:drum-hitclap.wav
192,192,49615,1,0,0:0:0:30:drum-hitclap.wav
64,192,49615,1,0,0:0:0:30:drum-hitclap.wav
320,192,49697,1,0,0:0:0:60:normal-hitfinish.wav
64,192,49697,1,0,0:0:0:30:drum-hitnormal.wav
448,192,49697,128,0,49862:0:0:0:30:drum-hitnormal.wav
192,192,49862,128,0,50027:0:0:0:0:
448,192,50027,128,0,50192:0:0:0:20:drum-hitclap.wav
64,192,50027,1,0,0:0:0:20:drum-hitclap.wav
320,192,50027,1,0,0:0:0:20:drum-hitclap.wav
64,192,50192,128,0,50356:0:0:0:0:
192,192,50356,1,0,0:0:0:30:drum-hitnormal.wav
448,192,50356,128,0,50521:0:0:0:30:drum-hitnormal.wav
320,192,50521,1,0,0:0:0:30:drum-hitnormal.wav
64,192,50521,1,0,0:0:0:30:drum-hitnormal.wav
192,192,50686,128,0,50851:0:0:0:20:drum-hitclap.wav
448,192,50686,1,0,0:0:0:20:drum-hitclap.wav
320,192,50686,1,0,0:0:0:20:drum-hitclap.wav
64,192,50851,128,0,51016:0:0:0:0:
448,192,51016,128,0,51181:0:0:0:30:drum-hitnormal.wav
192,192,51016,1,0,0:0:0:30:drum-hitnormal.wav
320,192,51181,128,0,51345:0:0:0:0:
64,192,51345,128,0,51510:0:0:0:20:drum-hitclap.wav
192,192,51345,1,0,0:0:0:20:drum-hitclap.wav
448,192,51345,1,0,0:0:0:20:drum-hitclap.wav
320,192,51510,1,0,0:0:0:0:
448,192,51675,128,0,51840:0:0:0:30:drum-hitnormal.wav
192,192,51675,1,0,0:0:0:30:drum-hitnormal.wav
64,192,51840,128,0,52005:0:0:0:30:drum-hitnormal.wav
320,192,51840,1,0,0:0:0:30:drum-hitnormal.wav
448,192,52005,128,0,52170:0:0:0:20:drum-hitclap.wav
320,192,52005,1,0,0:0:0:20:drum-hitclap.wav
192,192,52005,1,0,0:0:0:20:drum-hitclap.wav
64,192,52170,1,0,0:0:0:0:
64,192,52334,1,0,0:0:0:20:drum-hitclap.wav
192,192,52334,1,0,0:0:0:20:drum-hitclap.wav
448,192,52334,1,0,0:0:0:20:drum-hitclap.wav
320,192,52499,1,0,0:0:0:30:drum-hitnormal.wav
448,192,52499,1,0,0:0:0:30:drum-hitnormal.wav
320,192,52664,1,0,0:0:0:20:drum-hitclap.wav
192,192,52664,1,0,0:0:0:20:drum-hitclap.wav
64,192,52664,1,0,0:0:0:20:drum-hitclap.wav
192,192,52829,1,0,0:0:0:30:drum-hitnormal.wav
448,192,52829,1,0,0:0:0:30:drum-hitnormal.wav
320,192,52994,1,0,0:0:0:20:drum-hitclap.wav
448,192,52994,1,0,0:0:0:20:drum-hitclap.wav
64,192,52994,1,0,0:0:0:20:drum-hitclap.wav
192,192,53159,1,0,0:0:0:30:drum-hitnormal.wav
64,192,53159,1,0,0:0:0:30:drum-hitnormal.wav
320,192,53323,1,0,0:0:0:20:drum-hitclap.wav
448,192,53323,1,0,0:0:0:20:drum-hitclap.wav
64,192,53323,1,0,0:0:0:20:drum-hitclap.wav
192,192,53406,1,0,0:0:0:0:
448,192,53488,1,0,0:0:0:60:drum-hitnormal.wav
320,192,53571,1,0,0:0:0:60:drum-hitnormal.wav
192,192,53653,1,0,0:0:0:20:drum-hitclap.wav
64,192,53653,1,0,0:0:0:20:drum-hitclap.wav
448,192,53653,1,0,0:0:0:20:drum-hitclap.wav
192,192,53818,1,0,0:0:0:20:drum-hitclap.wav
64,192,53818,1,0,0:0:0:20:drum-hitclap.wav
448,192,53818,1,0,0:0:0:20:drum-hitclap.wav
192,192,53983,1,0,0:0:0:20:drum-hitclap.wav
64,192,53983,1,0,0:0:0:20:drum-hitclap.wav
448,192,53983,1,0,0:0:0:20:drum-hitclap.wav
448,192,54312,128,0,54642:0:0:0:0:
64,192,54642,1,0,0:0:0:0:
192,192,54683,1,0,0:0:0:0:
448,192,54725,1,0,0:0:0:0:
320,192,54766,1,0,0:0:0:0:
192,192,54807,1,0,0:0:0:0:
64,192,54848,1,0,0:0:0:0:
448,192,54889,1,0,0:0:0:0:
320,192,54931,1,0,0:0:0:0:
192,192,54972,1,0,0:0:0:60:drum-hitnormal.wav
64,192,54972,1,0,0:0:0:30:normal-hitfinish.wav
448,192,54972,1,0,0:0:0:30:normal-hitfinish.wav
320,192,55137,1,0,0:0:0:0:
64,192,55301,1,0,0:0:0:15:drum-hitclap.wav
192,192,55301,1,0,0:0:0:15:drum-hitclap.wav
320,192,55301,1,0,0:0:0:15:drum-hitclap.wav
448,192,55301,128,0,55631:0:0:0:15:drum-hitclap.wav
192,192,55631,1,0,0:0:0:30:drum-hitnormal.wav
64,192,55631,1,0,0:0:0:30:drum-hitnormal.wav
64,192,55796,1,0,0:0:0:30:drum-hitnormal.wav
192,192,55796,1,0,0:0:0:30:drum-hitnormal.wav
320,192,55961,1,0,0:0:0:20:drum-hitclap.wav
448,192,55961,1,0,0:0:0:20:drum-hitclap.wav
64,192,55961,1,0,0:0:0:20:drum-hitclap.wav
192,192,56126,1,0,0:0:0:0:
448,192,56290,1,0,0:0:0:30:drum-hitnormal.wav
64,192,56290,1,0,0:0:0:30:drum-hitnormal.wav
320,192,56455,1,0,0:0:0:0:
192,192,56620,1,0,0:0:0:20:drum-hitclap.wav
448,192,56620,1,0,0:0:0:20:drum-hitclap.wav
64,192,56620,128,0,56785:0:0:0:20:drum-hitclap.wav
320,192,56785,1,0,0:0:0:0:
192,192,56950,1,0,0:0:0:30:drum-hitnormal.wav
448,192,56950,1,0,0:0:0:30:drum-hitnormal.wav
64,192,57115,1,0,0:0:0:30:drum-hitnormal.wav
320,192,57115,1,0,0:0:0:30:drum-hitnormal.wav
64,192,57279,1,0,0:0:0:20:drum-hitclap.wav
192,192,57279,1,0,0:0:0:20:drum-hitclap.wav
448,192,57279,1,0,0:0:0:20:drum-hitclap.wav
320,192,57444,1,0,0:0:0:0:
192,192,57609,1,0,0:0:0:30:drum-hitnormal.wav
64,192,57609,1,0,0:0:0:30:drum-hitnormal.wav
320,192,57774,1,0,0:0:0:0:
448,192,57939,1,0,0:0:0:20:drum-hitclap.wav
192,192,57939,1,0,0:0:0:20:drum-hitclap.wav
64,192,57939,1,0,0:0:0:20:drum-hitclap.wav
320,192,58104,1,0,0:0:0:0:
448,192,58268,1,0,0:0:0:30:drum-hitnormal.wav
64,192,58268,1,0,0:0:0:30:drum-hitnormal.wav
64,192,58433,1,0,0:0:0:30:drum-hitnormal.wav
448,192,58433,1,0,0:0:0:30:drum-hitnormal.wav
192,192,58598,1,0,0:0:0:20:drum-hitclap.wav
320,192,58598,1,0,0:0:0:20:drum-hitclap.wav
448,192,58598,1,0,0:0:0:20:drum-hitclap.wav
64,192,58763,1,0,0:0:0:0:
192,192,58928,1,0,0:0:0:30:drum-hitnormal.wav
448,192,58928,128,0,59257:0:0:0:30:drum-hitnormal.wav
320,192,59093,1,0,0:0:0:0:
320,192,59257,1,0,0:0:0:20:drum-hitclap.wav
192,192,59257,1,0,0:0:0:20:drum-hitclap.wav
64,192,59257,128,0,59422:0:0:0:20:drum-hitclap.wav
448,192,59422,128,0,59587:0:0:0:0:
64,192,59587,1,0,0:0:0:30:drum-hitnormal.wav
192,192,59587,1,0,0:0:0:30:drum-hitnormal.wav
448,192,59752,1,0,0:0:0:30:drum-hitnormal.wav
320,192,59752,128,0,59917:0:0:0:30:drum-hitnormal.wav
192,192,59917,1,0,0:0:0:20:drum-hitclap.wav
64,192,59917,1,0,0:0:0:20:drum-hitclap.wav
448,192,59917,1,0,0:0:0:20:drum-hitclap.wav
320,192,60082,1,0,0:0:0:0:
192,192,60164,1,0,0:0:0:0:
448,192,60246,1,0,0:0:0:60:normal-hitfinish.wav
320,192,60246,1,0,0:0:0:30:drum-hitnormal.wav
64,192,60246,1,0,0:0:0:30:drum-hitnormal.wav
320,192,60411,1,0,0:0:0:0:
448,192,60576,1,0,0:0:0:20:drum-hitclap.wav
192,192,60576,1,0,0:0:0:20:drum-hitclap.wav
64,192,60576,1,0,0:0:0:20:drum-hitclap.wav
320,192,60741,1,0,0:0:0:0:
64,192,60906,1,0,0:0:0:30:drum-hitnormal.wav
448,192,60906,1,0,0:0:0:30:drum-hitnormal.wav
192,192,61071,1,0,0:0:0:30:drum-hitnormal.wav
320,192,61071,1,0,0:0:0:30:drum-hitnormal.wav
192,192,61235,1,0,0:0:0:20:drum-hitclap.wav
64,192,61235,1,0,0:0:0:20:drum-hitclap.wav
448,192,61235,1,0,0:0:0:20:drum-hitclap.wav
320,192,61400,1,0,0:0:0:0:
192,192,61565,1,0,0:0:0:30:drum-hitnormal.wav
64,192,61565,1,0,0:0:0:30:drum-hitnormal.wav
320,192,61730,128,0,61895:0:0:0:0:
448,192,61895,1,0,0:0:0:20:drum-hitclap.wav
192,192,61895,1,0,0:0:0:20:drum-hitclap.wav
64,192,61895,1,0,0:0:0:20:drum-hitclap.wav
320,192,62060,1,0,0:0:0:0:
64,192,62225,1,0,0:0:0:30:drum-hitnormal.wav
192,192,62225,1,0,0:0:0:30:drum-hitnormal.wav
192,192,62389,1,0,0:0:0:30:drum-hitnormal.wav
320,192,62389,1,0,0:0:0:30:drum-hitnormal.wav
320,192,62554,1,0,0:0:0:20:drum-hitclap.wav
64,192,62554,1,0,0:0:0:20:drum-hitclap.wav
448,192,62554,128,0,62719:0:0:0:20:drum-hitclap.wav
192,192,62719,128,0,62884:0:0:0:0:
64,192,62884,1,0,0:0:0:30:drum-hitnormal.wav
448,192,62884,1,0,0:0:0:30:drum-hitnormal.wav
192,192,63049,1,0,0:0:0:0:
320,192,63049,1,0,0:0:0:0:
64,192,63214,1,0,0:0:0:20:drum-hitclap.wav
320,192,63214,1,0,0:0:0:20:drum-hitclap.wav
448,192,63214,1,0,0:0:0:20:drum-hitclap.wav
192,192,63378,1,0,0:0:0:0:
320,192,63378,1,0,0:0:0:0:
64,192,63543,1,0,0:0:0:30:drum-hitnormal.wav
448,192,63543,1,0,0:0:0:30:drum-hitnormal.wav
192,192,63708,1,0,0:0:0:30:drum-hitnormal.wav
320,192,63708,1,0,0:0:0:30:drum-hitnormal.wav
192,192,63873,1,0,0:0:0:20:drum-hitclap.wav
448,192,63873,1,0,0:0:0:20:drum-hitclap.wav
64,192,63873,1,0,0:0:0:20:drum-hitclap.wav
448,192,64038,128,0,64120:0:0:0:30:normal-hitfinish.wav
320,192,64038,128,0,64120:0:0:0:30:drum-hitnormal.wav
192,192,64038,1,0,0:0:0:30:normal-hitfinish.wav
64,192,64038,1,0,0:0:0:30:drum-hitnormal.wav
320,192,64367,128,0,64450:0:0:0:30:drum-hitnormal.wav
448,192,64367,128,0,64450:0:0:0:30:drum-hitnormal.wav
320,192,64532,1,0,0:0:0:20:drum-hitclap.wav
448,192,64532,1,0,0:0:0:20:drum-hitclap.wav
64,192,64532,128,0,64697:0:0:0:20:drum-hitclap.wav
448,192,64697,128,0,64862:0:0:0:0:
192,192,64862,128,0,64944:0:0:0:30:LR_Tom Hit.wav
64,192,64862,128,0,64944:0:0:0:30:LR_Tom Hit.wav
64,192,65027,128,0,65109:0:0:0:0:
192,192,65027,128,0,65109:0:0:0:0:
320,192,65109,1,0,0:0:0:30:drum-hitclap.wav
448,192,65109,1,0,0:0:0:30:drum-hitclap.wav
192,192,65192,1,0,0:0:0:30:drum-hitclap.wav
64,192,65192,1,0,0:0:0:30:drum-hitclap.wav
192,192,65356,1,0,0:0:0:30:drum-hitnormal.wav
64,192,65356,1,0,0:0:0:30:drum-hitnormal.wav
320,192,65439,1,0,0:0:0:30:drum-hitnormal.wav
448,192,65439,1,0,0:0:0:30:drum-hitnormal.wav
64,192,65521,1,0,0:0:0:60:normal-hitfinish.wav
192,192,65521,1,0,0:0:0:30:drum-hitnormal.wav
448,192,65521,1,0,0:0:0:30:drum-hitnormal.wav
320,192,65686,1,0,0:0:0:0:
192,192,65851,1,0,0:0:0:20:drum-hitclap.wav
64,192,65851,1,0,0:0:0:20:drum-hitclap.wav
448,192,65851,128,0,66181:0:0:0:20:drum-hitclap.wav
320,192,66181,1,0,0:0:0:30:drum-hitnormal.wav
192,192,66181,1,0,0:0:0:30:drum-hitnormal.wav
64,192,66345,1,0,0:0:0:30:drum-hitnormal.wav
192,192,66345,1,0,0:0:0:30:drum-hitnormal.wav
320,192,66510,1,0,0:0:0:20:drum-hitclap.wav
448,192,66510,1,0,0:0:0:20:drum-hitclap.wav
64,192,66510,1,0,0:0:0:20:drum-hitclap.wav
192,192,66675,1,0,0:0:0:0:
320,192,66840,1,0,0:0:0:30:drum-hitnormal.wav
448,192,66840,1,0,0:0:0:30:drum-hitnormal.wav
192,192,67005,1,0,0:0:0:0:
320,192,67170,1,0,0:0:0:20:drum-hitclap.wav
64,192,67170,1,0,0:0:0:20:drum-hitclap.wav
448,192,67170,128,0,67334:0:0:0:20:drum-hitclap.wav
192,192,67334,1,0,0:0:0:0:
64,192,67499,1,0,0:0:0:30:drum-hitnormal.wav
320,192,67499,1,0,0:0:0:30:drum-hitnormal.wav
448,192,67664,1,0,0:0:0:30:drum-hitnormal.wav
192,192,67664,1,0,0:0:0:30:drum-hitnormal.wav
192,192,67829,1,0,0:0:0:20:drum-hitclap.wav
64,192,67829,1,0,0:0:0:20:drum-hitclap.wav
448,192,67829,1,0,0:0:0:20:drum-hitclap.wav
320,192,67994,1,0,0:0:0:0:
192,192,68159,1,0,0:0:0:30:drum-hitnormal.wav
64,192,68159,1,0,0:0:0:30:drum-hitnormal.wav
64,192,68323,1,0,0:0:0:0:
192,192,68488,1,0,0:0:0:20:drum-hitclap.wav
320,192,68488,1,0,0:0:0:20:drum-hitclap.wav
448,192,68488,1,0,0:0:0:20:drum-hitclap.wav
64,192,68653,1,0,0:0:0:30:drum-hitnormal.wav
320,192,68653,1,0,0:0:0:30:normal-hitfinish.wav
192,192,68653,1,0,0:0:0:30:drum-hitnormal.wav
448,192,68653,1,0,0:0:0:30:normal-hitfinish.wav
320,192,68983,1,0,0:0:0:30:drum-hitnormal.wav
448,192,68983,1,0,0:0:0:30:drum-hitnormal.wav
192,192,69148,1,0,0:0:0:20:drum-hitclap.wav
64,192,69148,1,0,0:0:0:20:drum-hitclap.wav
448,192,69148,1,0,0:0:0:20:drum-hitclap.wav
320,192,69312,1,0,0:0:0:30:drum-hitnormal.wav
64,192,69312,128,0,69642:0:0:0:30:normal-hitfinish.wav
448,192,69312,1,0,0:0:0:30:drum-hitnormal.wav
192,192,69312,1,0,0:0:0:30:normal-hitfinish.wav
192,192,69642,1,0,0:0:0:30:drum-hitnormal.wav
448,192,69642,128,0,69807:0:0:0:30:drum-hitnormal.wav
64,192,69807,1,0,0:0:0:20:drum-hitclap.wav
320,192,69807,128,0,69972:0:0:0:20:drum-hitclap.wav
192,192,69807,1,0,0:0:0:20:drum-hitclap.wav
64,192,69972,128,0,70137:0:0:0:0:
192,192,70137,1,0,0:0:0:30:drum-hitnormal.wav
448,192,70137,128,0,70301:0:0:0:30:drum-hitnormal.wav
320,192,70301,128,0,70466:0:0:0:30:drum-hitnormal.wav
64,192,70301,1,0,0:0:0:30:drum-hitnormal.wav
64,192,70466,128,0,70631:0:0:0:20:drum-hitclap.wav
448,192,70466,1,0,0:0:0:20:drum-hitclap.wav
192,192,70466,1,0,0:0:0:20:drum-hitclap.wav
320,192,70631,1,0,0:0:0:30:drum-hitclap.wav
448,192,70631,128,0,70796:0:0:0:30:drum-hitclap.wav
192,192,70796,1,0,0:0:0:60:drum-hitnormal.wav
320,192,70796,1,0,0:0:0:30:normal-hitfinish.wav
64,192,70796,1,0,0:0:0:30:normal-hitfinish.wav
192,192,70961,1,0,0:0:0:0:
192,192,71126,1,0,0:0:0:20:drum-hitclap.wav
320,192,71126,128,0,71208:0:0:0:20:drum-hitclap.wav
448,192,71126,128,0,71208:0:0:0:20:drum-hitclap.wav
64,192,71290,1,0,0:0:0:0:
320,192,71455,1,0,0:0:0:30:drum-hitnormal.wav
448,192,71455,1,0,0:0:0:30:drum-hitnormal.wav
320,192,71620,1,0,0:0:0:30:drum-hitnormal.wav
448,192,71620,1,0,0:0:0:30:drum-hitnormal.wav
192,192,71785,1,0,0:0:0:20:drum-hitclap.wav
64,192,71785,1,0,0:0:0:20:drum-hitclap.wav
448,192,71785,1,0,0:0:0:20:drum-hitclap.wav
320,192,71950,1,0,0:0:0:0:
192,192,72115,1,0,0:0:0:30:drum-hitnormal.wav
64,192,72115,1,0,0:0:0:30:drum-hitnormal.wav
320,192,72279,1,0,0:0:0:0:
448,192,72444,1,0,0:0:0:20:drum-hitclap.wav
192,192,72444,1,0,0:0:0:20:drum-hitclap.wav
64,192,72444,1,0,0:0:0:20:drum-hitclap.wav
320,192,72609,1,0,0:0:0:0:
192,192,72774,1,0,0:0:0:30:drum-hitnormal.wav
64,192,72774,1,0,0:0:0:30:drum-hitnormal.wav
64,192,72939,1,0,0:0:0:30:drum-hitnormal.wav
192,192,72939,1,0,0:0:0:30:drum-hitnormal.wav
448,192,73104,1,0,0:0:0:20:drum-hitclap.wav
64,192,73104,1,0,0:0:0:20:drum-hitclap.wav
320,192,73104,1,0,0:0:0:20:drum-hitclap.wav
192,192,73268,1,0,0:0:0:0:
320,192,73433,1,0,0:0:0:30:drum-hitnormal.wav
448,192,73433,1,0,0:0:0:30:drum-hitnormal.wav
192,192,73598,1,0,0:0:0:0:
320,192,73598,1,0,0:0:0:0:
64,192,73763,1,0,0:0:0:20:drum-hitclap.wav
192,192,73763,1,0,0:0:0:20:drum-hitclap.wav
448,192,73763,1,0,0:0:0:20:drum-hitclap.wav
320,192,73928,1,0,0:0:0:0:
64,192,73928,1,0,0:0:0:0:
192,192,74093,1,0,0:0:0:30:drum-hitnormal.wav
448,192,74093,1,0,0:0:0:30:drum-hitnormal.wav
192,192,74257,1,0,0:0:0:30:drum-hitnormal.wav
448,192,74257,1,0,0:0:0:30:drum-hitnormal.wav
64,192,74422,1,0,0:0:0:20:drum-hitclap.wav
320,192,74422,1,0,0:0:0:20:drum-hitclap.wav
448,192,74422,1,0,0:0:0:20:drum-hitclap.wav
192,192,74587,1,0,0:0:0:30:normal-hitfinish.wav
64,192,74587,1,0,0:0:0:30:drum-hitnormal.wav
320,192,74587,1,0,0:0:0:30:normal-hitfinish.wav
448,192,74587,1,0,0:0:0:30:drum-hitnormal.wav
192,192,74917,1,0,0:0:0:30:drum-hitnormal.wav
448,192,74917,1,0,0:0:0:30:drum-hitnormal.wav
320,192,74999,1,0,0:0:0:0:
192,192,75082,1,0,0:0:0:20:drum-hitclap.wav
64,192,75082,1,0,0:0:0:20:drum-hitclap.wav
448,192,75082,1,0,0:0:0:20:drum-hitclap.wav
320,192,75164,1,0,0:0:0:0:
192,192,75246,1,0,0:0:0:0:
64,192,75329,1,0,0:0:0:0:
320,192,75411,1,0,0:0:0:30:LR_Tom Hit.wav
448,192,75411,1,0,0:0:0:30:LR_Tom Hit.wav
192,192,75494,1,0,0:0:0:0:
448,192,75576,1,0,0:0:0:30:drum-hitnormal.wav
320,192,75576,1,0,0:0:0:30:drum-hitnormal.wav
192,192,75659,1,0,0:0:0:30:drum-hitclap.wav
64,192,75659,1,0,0:0:0:30:drum-hitclap.wav
320,192,75741,1,0,0:0:0:30:drum-hitclap.wav
448,192,75741,1,0,0:0:0:30:drum-hitclap.wav
192,192,75823,1,0,0:0:0:0:
64,192,75906,1,0,0:0:0:30:LR_Tom Hit.wav
448,192,75906,1,0,0:0:0:30:LR_Tom Hit.wav
320,192,75988,1,0,0:0:0:0:
192,192,76071,1,0,0:0:0:60:normal-hitfinish.wav
448,192,76071,1,0,0:0:0:30:drum-hitnormal.wav
64,192,76071,128,0,77719:0:0:0:30:drum-hitnormal.wav
320,192,76235,1,0,0:0:0:0:
320,192,76400,1,0,0:0:0:30:drum-hitclap.wav
448,192,76400,1,0,0:0:0:30:drum-hitclap.wav
192,192,76565,1,0,0:0:0:0:
192,192,76730,1,0,0:0:0:30:drum-hitnormal.wav
320,192,76730,1,0,0:0:0:30:drum-hitnormal.wav
320,192,76895,1,0,0:0:0:30:drum-hitnormal.wav
448,192,76895,1,0,0:0:0:30:drum-hitnormal.wav
192,192,77060,1,0,0:0:0:30:drum-hitclap.wav
448,192,77060,1,0,0:0:0:30:drum-hitclap.wav
320,192,77225,1,0,0:0:0:0:
320,192,77389,1,0,0:0:0:30:drum-hitnormal.wav
448,192,77389,1,0,0:0:0:30:drum-hitnormal.wav
192,192,77554,1,0,0:0:0:0:
448,192,77719,128,0,78049:0:0:0:30:drum-hitclap.wav
192,192,77719,1,0,0:0:0:30:drum-hitclap.wav
320,192,77884,1,0,0:0:0:0:
192,192,78049,128,0,78378:0:0:0:30:drum-hitnormal.wav
64,192,78049,1,0,0:0:0:30:drum-hitnormal.wav
320,192,78214,1,0,0:0:0:30:drum-hitnormal.wav
448,192,78214,1,0,0:0:0:30:drum-hitnormal.wav
64,192,78378,128,0,78708:0:0:0:20:drum-hitclap.wav
320,192,78378,1,0,0:0:0:20:drum-hitclap.wav
448,192,78378,1,0,0:0:0:20:drum-hitclap.wav
192,192,78543,1,0,0:0:0:0:
320,192,78708,128,0,79367:0:0:0:30:drum-hitnormal.wav
448,192,78708,1,0,0:0:0:30:drum-hitnormal.wav
64,192,78873,1,0,0:0:0:0:
192,192,79038,1,0,0:0:0:30:drum-hitclap.wav
448,192,79038,1,0,0:0:0:30:drum-hitclap.wav
64,192,79203,1,0,0:0:0:0:
448,192,79367,128,0,80027:0:0:0:30:drum-hitnormal.wav
192,192,79367,1,0,0:0:0:30:drum-hitnormal.wav
64,192,79532,1,0,0:0:0:30:drum-hitnormal.wav
320,192,79532,1,0,0:0:0:30:drum-hitnormal.wav
192,192,79697,1,0,0:0:0:30:drum-hitclap.wav
320,192,79697,1,0,0:0:0:30:drum-hitclap.wav
192,192,79862,1,0,0:0:0:0:
64,192,80027,128,0,80192:0:0:0:30:drum-hitnormal.wav
320,192,80027,1,0,0:0:0:30:drum-hitnormal.wav
192,192,80192,1,0,0:0:0:0:
64,192,80356,128,0,80521:0:0:0:20:drum-hitclap.wav
320,192,80356,1,0,0:0:0:20:drum-hitclap.wav
448,192,80356,1,0,0:0:0:20:drum-hitclap.wav
192,192,80521,1,0,0:0:0:0:
64,192,80686,128,0,80851:0:0:0:30:drum-hitnormal.wav
448,192,80686,1,0,0:0:0:30:drum-hitnormal.wav
320,192,80851,1,0,0:0:0:60:drum-hitnormal.wav
64,192,81016,128,0,81181:0:0:0:20:drum-hitclap.wav
192,192,81016,1,0,0:0:0:20:drum-hitclap.wav
448,192,81016,1,0,0:0:0:20:drum-hitclap.wav
320,192,81181,1,0,0:0:0:0:
192,192,81345,1,0,0:0:0:60:normal-hitfinish.wav
64,192,81345,1,0,0:0:0:30:drum-hitnormal.wav
448,192,81345,1,0,0:0:0:30:drum-hitnormal.wav
320,192,81510,1,0,0:0:0:0:
64,192,81675,1,0,0:0:0:20:drum-hitclap.wav
448,192,81675,1,0,0:0:0:20:drum-hitclap.wav
192,192,81675,1,0,0:0:0:20:drum-hitclap.wav
320,192,81840,1,0,0:0:0:0:
192,192,82005,1,0,0:0:0:30:drum-hitnormal.wav
448,192,82005,1,0,0:0:0:30:drum-hitnormal.wav
64,192,82170,1,0,0:0:0:30:drum-hitnormal.wav
320,192,82170,1,0,0:0:0:30:drum-hitnormal.wav
192,192,82334,1,0,0:0:0:20:drum-hitclap.wav
64,192,82334,1,0,0:0:0:20:drum-hitclap.wav
448,192,82334,1,0,0:0:0:20:drum-hitclap.wav
320,192,82499,1,0,0:0:0:0:
448,192,82664,1,0,0:0:0:60:normal-hitfinish.wav
192,192,82664,1,0,0:0:0:30:drum-hitnormal.wav
64,192,82664,1,0,0:0:0:30:drum-hitnormal.wav
192,192,82829,1,0,0:0:0:0:
448,192,82994,1,0,0:0:0:20:drum-hitclap.wav
320,192,82994,1,0,0:0:0:20:drum-hitclap.wav
64,192,82994,1,0,0:0:0:20:drum-hitclap.wav
448,192,83159,1,0,0:0:0:0:
192,192,83323,1,0,0:0:0:30:drum-hitnormal.wav
64,192,83323,1,0,0:0:0:30:drum-hitnormal.wav
192,192,83488,1,0,0:0:0:30:drum-hitnormal.wav
320,192,83488,1,0,0:0:0:30:drum-hitnormal.wav
320,192,83653,1,0,0:0:0:20:drum-hitclap.wav
448,192,83653,1,0,0:0:0:20:drum-hitclap.wav
64,192,83653,1,0,0:0:0:20:drum-hitclap.wav
192,192,83818,1,0,0:0:0:0:
64,192,83983,1,0,0:0:0:60:drum-hitnormal.wav
320,192,83983,1,0,0:0:0:30:normal-hitfinish.wav
448,192,83983,1,0,0:0:0:30:normal-hitfinish.wav
320,192,84148,1,0,0:0:0:0:
192,192,84312,1,0,0:0:0:20:drum-hitclap.wav
64,192,84312,1,0,0:0:0:20:drum-hitclap.wav
448,192,84312,1,0,0:0:0:20:drum-hitclap.wav
320,192,84477,1,0,0:0:0:0:
192,192,84642,1,0,0:0:0:30:drum-hitnormal.wav
448,192,84642,1,0,0:0:0:30:drum-hitnormal.wav
64,192,84807,1,0,0:0:0:30:drum-hitnormal.wav
320,192,84807,1,0,0:0:0:30:drum-hitnormal.wav
320,192,84972,1,0,0:0:0:20:drum-hitclap.wav
64,192,84972,1,0,0:0:0:20:drum-hitclap.wav
448,192,84972,1,0,0:0:0:20:drum-hitclap.wav
192,192,85054,1,0,0:0:0:60:drum-hitnormal.wav
320,192,85137,1,0,0:0:0:60:drum-hitnormal.wav
448,192,85301,1,0,0:0:0:20:drum-hitclap.wav
64,192,85301,1,0,0:0:0:20:drum-hitclap.wav
192,192,85301,1,0,0:0:0:20:drum-hitclap.wav
320,192,85466,1,0,0:0:0:30:drum-hitnormal.wav
448,192,85466,1,0,0:0:0:30:drum-hitnormal.wav
192,192,85631,1,0,0:0:0:30:drum-hitnormal.wav
320,192,85631,1,0,0:0:0:30:drum-hitnormal.wav
64,192,85796,1,0,0:0:0:20:drum-hitclap.wav
192,192,85796,1,0,0:0:0:20:drum-hitclap.wav
448,192,85796,1,0,0:0:0:20:drum-hitclap.wav
320,192,85961,1,0,0:0:0:30:drum-hitnormal.wav
448,192,85961,1,0,0:0:0:30:drum-hitnormal.wav
192,192,86126,1,0,0:0:0:30:drum-hitnormal.wav
320,192,86126,1,0,0:0:0:30:drum-hitnormal.wav
192,192,86290,1,0,0:0:0:20:drum-hitclap.wav
64,192,86290,1,0,0:0:0:20:drum-hitclap.wav
448,192,86290,128,0,86620:0:0:0:20:drum-hitclap.wav
320,192,86620,1,0,0:0:0:60:normal-hitfinish.wav
64,192,86620,128,0,87197:0:0:0:30:drum-hitnormal.wav
192,192,86620,128,0,87279:0:0:0:30:drum-hitnormal.wav
448,192,86950,1,0,0:0:0:60:LR_Hat Synth.wav
64,192,87279,1,0,0:0:0:30:LR_Hat Synth.wav
448,192,87279,128,0,87527:0:0:0:30:LR_Hat Synth.wav
320,192,87362,128,0,87609:0:0:0:0:
192,192,87444,128,0,87692:0:0:0:0:
64,192,87527,128,0,87774:0:0:0:0:
448,192,87609,1,0,0:0:0:60:drum-hitnormal.wav
320,192,87692,1,0,0:0:0:0:
192,192,87774,1,0,0:0:0:0:
448,192,87856,1,0,0:0:0:0:
192,192,87939,128,0,88104:0:0:0:60:drum-hitnormal.wav
64,192,87939,128,0,88104:0:0:0:30:normal-hitfinish.wav
320,192,87939,1,0,0:0:0:30:normal-hitfinish.wav
64,192,88268,128,0,88351:0:0:0:20:drum-hitclap.wav
448,192,88268,128,0,88351:0:0:0:20:drum-hitclap.wav
320,192,88268,1,0,0:0:0:20:drum-hitclap.wav
64,192,88433,128,0,88516:0:0:0:0:
448,192,88433,128,0,88516:0:0:0:0:
192,192,88598,1,0,0:0:0:30:drum-hitnormal.wav
320,192,88598,1,0,0:0:0:30:drum-hitnormal.wav
448,192,88763,1,0,0:0:0:30:drum-hitnormal.wav
192,192,88763,128,0,88928:0:0:0:30:drum-hitnormal.wav
64,192,88928,1,0,0:0:0:20:drum-hitclap.wav
448,192,88928,128,0,89093:0:0:0:20:drum-hitclap.wav
320,192,88928,1,0,0:0:0:20:drum-hitclap.wav
192,192,89093,128,0,89257:0:0:0:0:
64,192,89257,128,0,89587:0:0:0:30:drum-hitnormal.wav
320,192,89257,1,0,0:0:0:30:drum-hitnormal.wav
448,192,89422,1,0,0:0:0:0:
192,192,89587,1,0,0:0:0:20:drum-hitclap.wav
320,192,89587,1,0,0:0:0:20:drum-hitclap.wav
448,192,89587,128,0,89752:0:0:0:20:drum-hitclap.wav
192,192,89752,128,0,90082:0:0:0:0:
320,192,89917,1,0,0:0:0:30:drum-hitnormal.wav
448,192,89917,1,0,0:0:0:30:drum-hitnormal.wav
320,192,90082,1,0,0:0:0:30:drum-hitnormal.wav
448,192,90082,128,0,90246:0:0:0:30:drum-hitnormal.wav
320,192,90246,1,0,0:0:0:20:drum-hitclap.wav
192,192,90246,1,0,0:0:0:20:drum-hitclap.wav
64,192,90246,128,0,90576:0:0:0:20:drum-hitclap.wav
192,192,90411,1,0,0:0:0:0:
320,192,90576,128,0,90741:0:0:0:30:drum-hitnormal.wav
448,192,90576,128,0,90741:0:0:0:30:drum-hitnormal.wav
192,192,90741,1,0,0:0:0:0:
64,192,90906,1,0,0:0:0:20:drum-hitclap.wav
320,192,90906,128,0,90988:0:0:0:20:drum-hitclap.wav
448,192,90906,128,0,90988:0:0:0:20:drum-hitclap.wav
320,192,91071,128,0,91153:0:0:0:0:
448,192,91071,128,0,91153:0:0:0:0:
192,192,91235,1,0,0:0:0:30:drum-hitnormal.wav
64,192,91235,1,0,0:0:0:30:drum-hitnormal.wav
320,192,91400,128,0,91565:0:0:0:60:drum-hitnormal.wav
448,192,91565,128,0,91730:0:0:0:20:drum-hitclap.wav
192,192,91565,1,0,0:0:0:20:drum-hitclap.wav
64,192,91565,1,0,0:0:0:20:drum-hitclap.wav
320,192,91730,128,0,91895:0:0:0:0:
64,192,91895,128,0,92060:0:0:0:30:drum-hitnormal.wav
192,192,91895,1,0,0:0:0:30:drum-hitnormal.wav
448,192,92060,128,0,92225:0:0:0:0:
320,192,92225,128,0,92389:0:0:0:20:drum-hitclap.wav
192,192,92225,1,0,0:0:0:20:drum-hitclap.wav
64,192,92225,1,0,0:0:0:20:drum-hitclap.wav
448,192,92389,128,0,93214:0:0:0:0:
192,192,92554,1,0,0:0:0:30:drum-hitnormal.wav
64,192,92554,1,0,0:0:0:30:drum-hitnormal.wav
192,192,92719,1,0,0:0:0:30:drum-hitnormal.wav
320,192,92719,1,0,0:0:0:30:drum-hitnormal.wav
64,192,92884,1,0,0:0:0:30:drum-hitclap.wav
320,192,92884,1,0,0:0:0:30:drum-hitclap.wav
192,192,93049,1,0,0:0:0:0:
320,192,93131,1,0,0:0:0:0:
192,192,93214,128,0,93378:0:0:0:60:drum-hitnormal.wav
64,192,93214,128,0,93378:0:0:0:60:normal-hitfinish.wav
320,192,93378,1,0,0:0:0:0:
448,192,93543,1,0,0:0:0:20:drum-hitclap.wav
192,192,93543,128,0,93626:0:0:0:20:drum-hitclap.wav
64,192,93543,128,0,93626:0:0:0:20:drum-hitclap.wav
64,192,93708,128,0,93790:0:0:0:0:
192,192,93708,128,0,93790:0:0:0:0:
448,192,93873,1,0,0:0:0:30:drum-hitnormal.wav
320,192,93873,1,0,0:0:0:30:drum-hitnormal.wav
192,192,94038,128,0,94203:0:0:0:30:drum-hitnormal.wav
64,192,94038,1,0,0:0:0:30:drum-hitnormal.wav
320,192,94203,1,0,0:0:0:20:drum-hitclap.wav
448,192,94203,1,0,0:0:0:20:drum-hitclap.wav
64,192,94203,128,0,94367:0:0:0:20:drum-hitclap.wav
320,192,94367,128,0,94532:0:0:0:0:
448,192,94532,128,0,94862:0:0:0:30:drum-hitnormal.wav
192,192,94532,1,0,0:0:0:30:drum-hitnormal.wav
64,192,94697,1,0,0:0:0:0:
64,192,94862,128,0,95027:0:0:0:20:drum-hitclap.wav
192,192,94862,1,0,0:0:0:20:drum-hitclap.wav
320,192,94862,1,0,0:0:0:20:drum-hitclap.wav
448,192,95027,128,0,95356:0:0:0:0:
192,192,95192,1,0,0:0:0:30:drum-hitnormal.wav
320,192,95192,1,0,0:0:0:30:drum-hitnormal.wav
192,192,95356,1,0,0:0:0:30:drum-hitnormal.wav
320,192,95356,128,0,95521:0:0:0:30:drum-hitnormal.wav
64,192,95521,1,0,0:0:0:30:drum-hitclap.wav
192,192,95521,128,0,95851:0:0:0:30:drum-hitclap.wav
320,192,95686,1,0,0:0:0:0:
64,192,95851,128,0,96016:0:0:0:30:drum-hitnormal.wav
448,192,95851,1,0,0:0:0:30:drum-hitnormal.wav
320,192,96016,1,0,0:0:0:0:
448,192,96181,128,0,96345:0:0:0:20:drum-hitclap.wav
192,192,96181,1,0,0:0:0:20:drum-hitclap.wav
64,192,96181,1,0,0:0:0:20:drum-hitclap.wav
192,192,96345,128,0,96510:0:0:0:0:
320,192,96510,1,0,0:0:0:30:drum-hitnormal.wav
448,192,96510,1,0,0:0:0:30:drum-hitnormal.wav
320,192,96675,128,0,96840:0:0:0:30:drum-hitnormal.wav
64,192,96675,1,0,0:0:0:30:drum-hitnormal.wav
192,192,96840,1,0,0:0:0:30:drum-hitclap.wav
448,192,96840,1,0,0:0:0:30:drum-hitclap.wav
64,192,97005,128,0,97170:0:0:0:0:
320,192,97170,1,0,0:0:0:30:drum-hitnormal.wav
448,192,97170,1,0,0:0:0:30:drum-hitnormal.wav
448,192,97334,1,0,0:0:0:20:drum-hitclap.wav
64,192,97334,1,0,0:0:0:20:drum-hitclap.wav
192,192,97334,1,0,0:0:0:20:drum-hitclap.wav
320,192,97499,1,0,0:0:0:0:
64,192,97664,1,0,0:0:0:30:drum-hitnormal.wav
192,192,97664,1,0,0:0:0:30:drum-hitnormal.wav
64,192,97829,1,0,0:0:0:20:drum-hitclap.wav
448,192,97829,1,0,0:0:0:20:drum-hitclap.wav
320,192,97829,1,0,0:0:0:20:drum-hitclap.wav
320,192,97994,1,0,0:0:0:30:drum-hitnormal.wav
192,192,97994,1,0,0:0:0:30:drum-hitnormal.wav
64,192,98159,128,0,98488:0:0:0:30:LR_Tom Drop.wav
192,192,98159,1,0,0:0:0:30:LR_Tom Drop.wav
320,192,98488,1,0,0:0:0:60:drum-hitnormal.wav
448,192,98488,1,0,0:0:0:60:normal-hitfinish.wav
320,192,98653,1,0,0:0:0:30:drum-hitnormal.wav
448,192,98653,1,0,0:0:0:30:drum-hitnormal.wav
192,192,98818,1,0,0:0:0:20:drum-hitclap.wav
64,192,98818,1,0,0:0:0:20:drum-hitclap.wav
448,192,98818,1,0,0:0:0:20:drum-hitclap.wav
320,192,98983,1,0,0:0:0:60:normal-hitfinish.wav
448,192,98983,1,0,0:0:0:30:drum-hitnormal.wav
64,192,98983,128,0,99312:0:0:0:30:drum-hitnormal.wav
192,192,99312,1,0,0:0:0:30:drum-hitnormal.wav
320,192,99312,1,0,0:0:0:30:drum-hitnormal.wav
320,192,99477,1,0,0:0:0:20:drum-hitclap.wav
448,192,99477,1,0,0:0:0:20:drum-hitclap.wav
64,192,99477,1,0,0:0:0:20:drum-hitclap.wav
192,192,99642,1,0,0:0:0:60:normal-hitfinish.wav
64,192,99642,1,0,0:0:0:30:drum-hitnormal.wav
448,192,99642,128,0,99972:0:0:0:30:drum-hitnormal.wav
320,192,99972,1,0,0:0:0:30:drum-hitnormal.wav
64,192,99972,1,0,0:0:0:30:drum-hitnormal.wav
192,192,100137,1,0,0:0:0:20:drum-hitclap.wav
448,192,100137,1,0,0:0:0:20:drum-hitclap.wav
64,192,100137,1,0,0:0:0:20:drum-hitclap.wav
320,192,100301,1,0,0:0:0:60:normal-hitfinish.wav
448,192,100301,1,0,0:0:0:30:drum-hitnormal.wav
64,192,100301,128,0,101126:0:0:0:30:drum-hitnormal.wav
192,192,100631,1,0,0:0:0:60:drum-hitnormal.wav
192,192,100796,1,0,0:0:0:30:drum-hitclap.wav
448,192,100796,1,0,0:0:0:30:drum-hitclap.wav
448,192,101126,128,0,102279:0:0:0:60:drum-hitnormal.wav
192,192,101126,1,0,0:0:0:30:normal-hitfinish.wav
320,192,101126,1,0,0:0:0:30:normal-hitfinish.wav
64,192,102279,1,0,0:0:0:30:drum-hitclap.wav
320,192,102279,1,0,0:0:0:30:drum-hitclap.wav
192,192,102362,1,0,0:0:0:30:drum-hitclap.wav
448,192,102362,1,0,0:0:0:30:drum-hitclap.wav
320,192,102444,1,0,0:0:0:30:drum-hitnormal.wav
64,192,102444,1,0,0:0:0:30:drum-hitnormal.wav
