osu file format v14

[General]
AudioFilename: audio.mp3
AudioLeadIn: 0
PreviewTime: 54230
Countdown: 0
SampleSet: Soft
StackLeniency: 0.7
Mode: 3
LetterboxInBreaks: 0
SpecialStyle: 0
WidescreenStoryboard: 0

[Editor]
DistanceSpacing: 1.4
BeatDivisor: 4
GridSize: 8
TimelineZoom: 1.9

[Metadata]
Title:Happy*Pretty*Clover
TitleUnicode:Happy⋆Pretty⋆Clover
Artist:Rhodanthe*
ArtistUnicode:Rhodanthe*
Creator:Rivals_7
Version:4K Easy Lv. 5
Source:きんいろモザイク Pretty Days
Tags:happy pretty clover yuiko meis clauson kin-iro kiniro mosaic kinmoza kinmosa ova きんモザ opening movie short ver cut tanaka manami 田中真奈美 alice cartelet アリス・カータレット nishi asuka 西明日香 oomiya shinobu 大宮忍 taneda risa 種田梨沙 komichi aya 小路綾 uchimiya yumi 内山夕実 inokuma youko 猪熊陽子 touyama nao 東山奈央 kujou karen 九条カレン tv size op
BeatmapID:1235503
BeatmapSetID:583943

[Difficulty]
HPDrainRate:6.5
CircleSize:4
OverallDifficulty:7
ApproachRate:5
SliderMultiplier:1.4
SliderTickRate:1

[Events]
//Background and Video events
0,0,"happy pretty clover edit.jpg",0,0
//Break Periods
//Storyboard Layer 0 (Background)
//Storyboard Layer 1 (Fail)
//Storyboard Layer 2 (Pass)
//Storyboard Layer 3 (Foreground)
//Storyboard Sound Samples

[TimingPoints]
2225,329.67032967033,4,2,1,40,1,0
12774,-100,4,2,1,40,0,1
23323,-100,4,2,1,40,0,0
54972,-100,4,2,1,40,0,1
65192,-100,4,2,1,40,0,0
65521,-100,4,2,1,40,0,1
76071,-100,4,2,1,40,0,0
87939,-100,4,2,1,40,0,1
98488,-100,4,2,1,40,0,0

[HitObjects]
64,192,1565,5,0,0:0:0:0:
320,192,1895,1,0,0:0:0:0:
192,192,2225,1,0,0:0:0:0:
320,192,2884,1,0,0:0:0:0:
448,192,3214,1,0,0:0:0:0:
192,192,3543,1,0,0:0:0:0:
320,192,4203,1,0,0:0:0:0:
64,192,4532,1,0,0:0:0:0:
448,192,4862,1,0,0:0:0:0:
320,192,5192,1,0,0:0:0:0:
64,192,5356,1,0,0:0:0:0:
320,192,5686,1,0,0:0:0:0:
192,192,6016,1,0,0:0:0:0:
448,192,6181,1,0,0:0:0:0:
320,192,6510,1,0,0:0:0:0:
64,192,6675,1,0,0:0:0:0:
448,192,7005,1,0,0:0:0:0:
320,192,7334,1,0,0:0:0:0:
192,192,7499,128,0,8818:0:0:0:0:
64,192,8818,128,0,9477:0:0:0:0:
320,192,9477,128,0,10137:0:0:0:0:
448,192,10137,128,0,11455:0:0:0:0:
64,192,11455,1,0,0:0:0:60:drum-hitclap.wav
192,192,11620,1,0,0:0:0:60:drum-hitclap.wav
448,192,11785,1,0,0:0:0:60:drum-hitclap.wav
320,192,12115,1,0,0:0:0:60:drum-hitclap.wav
192,192,12444,1,0,0:0:0:30:drum-hitclap.wav
64,192,12444,128,0,12774:0:0:0:30:drum-hitclap.wav
448,192,12774,1,0,0:0:0:60:drum-hitnormal.wav
320,192,12774,1,0,0:0:0:60:normal-hitfinish.wav
64,192,13104,1,0,0:0:0:60:drum-hitclap.wav
320,192,13433,1,0,0:0:0:60:drum-hitnormal.wav
448,192,13763,1,0,0:0:0:60:drum-hitclap.wav
64,192,14093,1,0,0:0:0:60:drum-hitnormal.wav
448,192,14422,1,0,0:0:0:60:drum-hitclap.wav
192,192,14752,1,0,0:0:0:60:drum-hitnormal.wav
64,192,15082,1,0,0:0:0:60:drum-hitclap.wav
320,192,15411,1,0,0:0:0:60:drum-hitnormal.wav
192,192,15741,1,0,0:0:0:60:drum-hitclap.wav
448,192,16071,1,0,0:0:0:60:drum-hitnormal.wav
64,192,16400,1,0,0:0:0:60:drum-hitclap.wav
320,192,16730,1,0,0:0:0:60:drum-hitnormal.wav
192,192,17060,1,0,0:0:0:60:drum-hitclap.wav
448,192,17389,1,0,0:0:0:60:drum-hitnormal.wav
64,192,17719,1,0,0:0:0:60:drum-hitclap.wav
192,192,18049,1,0,0:0:0:60:drum-hitnormal.wav
448,192,18049,1,0,0:0:0:60:normal-hitfinish.wav
320,192,18378,1,0,0:0:0:60:drum-hitclap.wav
192,192,18708,1,0,0:0:0:60:drum-hitnormal.wav
64,192,19038,1,0,0:0:0:60:drum-hitclap.wav
448,192,19367,1,0,0:0:0:60:drum-hitnormal.wav
192,192,19697,1,0,0:0:0:60:drum-hitclap.wav
64,192,20027,1,0,0:0:0:60:drum-hitnormal.wav
320,192,20356,1,0,0:0:0:60:drum-hitclap.wav
448,192,20686,1,0,0:0:0:60:drum-hitnormal.wav
64,192,21016,1,0,0:0:0:60:drum-hitclap.wav
320,192,21345,1,0,0:0:0:60:drum-hitnormal.wav
192,192,21675,1,0,0:0:0:60:drum-hitclap.wav
320,192,22005,1,0,0:0:0:60:drum-hitnormal.wav
64,192,22170,1,0,0:0:0:60:drum-hitclap.wav
448,192,22499,1,0,0:0:0:60:drum-hitnormal.wav
192,192,22664,1,0,0:0:0:60:drum-hitclap.wav
320,192,22994,1,0,0:0:0:60:LR_Tom Drop.wav
64,192,23323,1,0,0:0:0:60:drum-hitnormal.wav
448,192,23323,1,0,0:0:0:60:normal-hitfinish.wav
320,192,23653,1,0,0:0:0:60:drum-hitclap.wav
192,192,23983,1,0,0:0:0:60:drum-hitnormal.wav
448,192,24312,1,0,0:0:0:60:drum-hitclap.wav
64,192,24642,1,0,0:0:0:60:drum-hitnormal.wav
320,192,24972,1,0,0:0:0:60:drum-hitclap.wav
64,192,25301,1,0,0:0:0:60:drum-hitnormal.wav
448,192,25631,1,0,0:0:0:60:drum-hitclap.wav
192,192,25961,1,0,0:0:0:60:drum-hitnormal.wav
320,192,26290,1,0,0:0:0:60:drum-hitclap.wav
64,192,26620,1,0,0:0:0:60:drum-hitnormal.wav
448,192,26950,1,0,0:0:0:60:drum-hitclap.wav
320,192,27279,128,0,27609:0:0:0:60:drum-hitnormal.wav
64,192,27609,1,0,0:0:0:60:drum-hitclap.wav
192,192,27939,128,0,28268:0:0:0:60:drum-hitnormal.wav
448,192,28268,1,0,0:0:0:60:drum-hitclap.wav
320,192,28598,1,0,0:0:0:60:drum-hitnormal.wav
64,192,28928,1,0,0:0:0:60:drum-hitclap.wav
448,192,29257,1,0,0:0:0:60:drum-hitnormal.wav
192,192,29587,1,0,0:0:0:60:drum-hitclap.wav
320,192,29917,1,0,0:0:0:60:drum-hitnormal.wav
448,192,30246,1,0,0:0:0:60:drum-hitclap.wav
64,192,30576,1,0,0:0:0:60:drum-hitnormal.wav
320,192,30906,1,0,0:0:0:60:drum-hitclap.wav
192,192,31235,1,0,0:0:0:60:drum-hitnormal.wav
448,192,31565,1,0,0:0:0:60:drum-hitclap.wav
192,192,31895,1,0,0:0:0:60:drum-hitnormal.wav
64,192,32225,1,0,0:0:0:60:drum-hitclap.wav
448,192,32389,1,0,0:0:0:60:drum-hitnormal.wav
320,192,32719,1,0,0:0:0:60:drum-hitnormal.wav
192,192,33049,1,0,0:0:0:60:drum-hitnormal.wav
320,192,33378,1,0,0:0:0:60:drum-hitnormal.wav
64,192,33543,128,0,33873:0:0:0:60:drum-hitclap.wav
320,192,33873,1,0,0:0:0:60:drum-hitnormal.wav
448,192,33873,1,0,0:0:0:60:normal-hitfinish.wav
64,192,34203,1,0,0:0:0:60:drum-hitclap.wav
448,192,34532,1,0,0:0:0:60:drum-hitnormal.wav
192,192,34862,1,0,0:0:0:60:drum-hitclap.wav
320,192,35192,1,0,0:0:0:60:drum-hitnormal.wav
64,192,35521,1,0,0:0:0:60:drum-hitclap.wav
320,192,35851,1,0,0:0:0:60:drum-hitnormal.wav
448,192,36181,1,0,0:0:0:60:drum-hitclap.wav
192,192,36510,1,0,0:0:0:60:drum-hitnormal.wav
448,192,36840,1,0,0:0:0:60:drum-hitclap.wav
64,192,37170,1,0,0:0:0:60:drum-hitnormal.wav
320,192,37499,1,0,0:0:0:60:drum-hitclap.wav
192,192,37829,1,0,0:0:0:60:drum-hitnormal.wav
64,192,38159,1,0,0:0:0:30:drum-hitclap.wav
448,192,38159,128,0,38488:0:0:0:30:drum-hitclap.wav
192,192,38488,1,0,0:0:0:60:drum-hitnormal.wav
320,192,38818,1,0,0:0:0:30:drum-hitclap.wav
64,192,38818,128,0,39148:0:0:0:30:drum-hitclap.wav
448,192,39148,1,0,0:0:0:60:drum-hitnormal.wav
192,192,39477,1,0,0:0:0:60:drum-hitclap.wav
320,192,39807,1,0,0:0:0:60:drum-hitnormal.wav
64,192,40137,1,0,0:0:0:60:drum-hitclap.wav
192,192,40466,1,0,0:0:0:60:drum-hitnormal.wav
448,192,40796,1,0,0:0:0:60:drum-hitclap.wav
320,192,41126,1,0,0:0:0:60:drum-hitnormal.wav
64,192,41455,1,0,0:0:0:60:drum-hitclap.wav
192,192,41785,1,0,0:0:0:60:drum-hitnormal.wav
448,192,42115,1,0,0:0:0:60:drum-hitclap.wav
192,192,42444,1,0,0:0:0:60:drum-hitnormal.wav
320,192,42774,1,0,0:0:0:60:drum-hitclap.wav
448,192,42939,1,0,0:0:0:60:normal-hitfinish.wav
64,192,42939,1,0,0:0:0:60:drum-hitnormal.wav
192,192,43268,1,0,0:0:0:60:LR_Tom Hit.wav
320,192,43598,1,0,0:0:0:60:LR_Tom Normal.wav
192,192,43763,1,0,0:0:0:60:LR_Tom Normal.wav
448,192,43928,1,0,0:0:0:60:LR_Tom Drop.wav
64,192,44093,128,0,44422:0:0:0:60:LR_Tom Drop.wav
320,192,44422,1,0,0:0:0:60:normal-hitfinish.wav
448,192,44422,1,0,0:0:0:60:drum-hitnormal.wav
192,192,44917,1,0,0:0:0:60:drum-hitnormal.wav
320,192,45082,1,0,0:0:0:60:drum-hitnormal.wav
64,192,45411,1,0,0:0:0:30:drum-hitclap.wav
448,192,45411,1,0,0:0:0:30:drum-hitclap.wav
192,192,45576,1,0,0:0:0:60:drum-hitnormal.wav
448,192,45906,1,0,0:0:0:60:drum-hitnormal.wav
64,192,46235,1,0,0:0:0:60:drum-hitnormal.wav
320,192,46400,1,0,0:0:0:60:drum-hitnormal.wav
64,192,46730,1,0,0:0:0:30:drum-hitclap.wav
448,192,46730,1,0,0:0:0:30:drum-hitclap.wav
192,192,47060,1,0,0:0:0:60:drum-hitnormal.wav
448,192,47554,1,0,0:0:0:60:drum-hitnormal.wav
64,192,47719,1,0,0:0:0:60:drum-hitnormal.wav
320,192,48049,1,0,0:0:0:30:drum-hitclap.wav
448,192,48049,1,0,0:0:0:30:drum-hitclap.wav
192,192,48214,1,0,0:0:0:60:drum-hitnormal.wav
448,192,48543,1,0,0:0:0:60:drum-hitnormal.wav
320,192,48873,1,0,0:0:0:60:drum-hitnormal.wav
64,192,49038,1,0,0:0:0:60:drum-hitnormal.wav
448,192,49367,128,0,49697:0:0:0:30:drum-hitnormal.wav
320,192,49367,1,0,0:0:0:30:drum-hitnormal.wav
192,192,49697,1,0,0:0:0:60:drum-hitnormal.wav
64,192,49697,1,0,0:0:0:60:normal-hitfinish.wav
448,192,50027,1,0,0:0:0:60:drum-hitclap.wav
64,192,50356,1,0,0:0:0:60:drum-hitnormal.wav
320,192,50686,1,0,0:0:0:60:drum-hitclap.wav
448,192,51016,1,0,0:0:0:60:drum-hitnormal.wav
192,192,51345,1,0,0:0:0:60:drum-hitclap.wav
64,192,51675,1,0,0:0:0:60:drum-hitnormal.wav
192,192,52005,1,0,0:0:0:60:drum-hitclap.wav
448,192,52334,1,0,0:0:0:60:drum-hitclap.wav
192,192,52664,1,0,0:0:0:60:drum-hitclap.wav
320,192,52994,1,0,0:0:0:60:drum-hitclap.wav
448,192,53323,1,0,0:0:0:60:drum-hitclap.wav
64,192,53653,1,0,0:0:0:60:drum-hitclap.wav
448,192,53818,1,0,0:0:0:60:drum-hitclap.wav
64,192,53983,1,0,0:0:0:60:drum-hitclap.wav
64,192,54642,128,0,54972:0:0:0:0:
192,192,54972,1,0,0:0:0:60:normal-hitfinish.wav
448,192,54972,1,0,0:0:0:60:drum-hitnormal.wav
320,192,55301,128,0,55631:0:0:0:60:drum-hitclap.wav
64,192,55631,1,0,0:0:0:60:drum-hitnormal.wav
320,192,55961,1,0,0:0:0:60:drum-hitclap.wav
64,192,56290,1,0,0:0:0:60:drum-hitnormal.wav
448,192,56620,1,0,0:0:0:60:drum-hitclap.wav
192,192,56950,1,0,0:0:0:60:drum-hitnormal.wav
64,192,57279,1,0,0:0:0:60:drum-hitclap.wav
448,192,57609,1,0,0:0:0:60:drum-hitnormal.wav
192,192,57939,1,0,0:0:0:60:drum-hitclap.wav
64,192,58268,1,0,0:0:0:60:drum-hitnormal.wav
320,192,58598,1,0,0:0:0:60:drum-hitclap.wav
192,192,58928,1,0,0:0:0:60:drum-hitnormal.wav
448,192,59257,1,0,0:0:0:60:drum-hitclap.wav
192,192,59587,1,0,0:0:0:60:drum-hitnormal.wav
64,192,59917,1,0,0:0:0:60:drum-hitclap.wav
448,192,60246,1,0,0:0:0:60:drum-hitnormal.wav
320,192,60246,1,0,0:0:0:60:normal-hitfinish.wav
64,192,60576,1,0,0:0:0:60:drum-hitclap.wav
448,192,60906,1,0,0:0:0:60:drum-hitnormal.wav
192,192,61235,1,0,0:0:0:60:drum-hitclap.wav
64,192,61565,1,0,0:0:0:60:drum-hitnormal.wav
320,192,61895,1,0,0:0:0:60:drum-hitclap.wav
192,192,62225,1,0,0:0:0:60:drum-hitnormal.wav
448,192,62554,1,0,0:0:0:60:drum-hitclap.wav
64,192,62884,1,0,0:0:0:60:drum-hitnormal.wav
320,192,63214,1,0,0:0:0:60:drum-hitclap.wav
192,192,63543,1,0,0:0:0:60:drum-hitnormal.wav
448,192,63873,1,0,0:0:0:60:drum-hitclap.wav
64,192,64038,1,0,0:0:0:60:normal-hitfinish.wav
320,192,64038,1,0,0:0:0:60:drum-hitnormal.wav
448,192,64367,1,0,0:0:0:60:drum-hitnormal.wav
192,192,64532,1,0,0:0:0:60:drum-hitclap.wav
448,192,64697,1,0,0:0:0:0:
64,192,64862,1,0,0:0:0:60:LR_Tom Hit.wav
320,192,65027,1,0,0:0:0:0:
64,192,65192,1,0,0:0:0:60:drum-hitclap.wav
320,192,65521,1,0,0:0:0:60:drum-hitnormal.wav
192,192,65521,1,0,0:0:0:60:normal-hitfinish.wav
448,192,65851,128,0,66181:0:0:0:60:drum-hitclap.wav
192,192,66181,1,0,0:0:0:60:drum-hitnormal.wav
64,192,66510,1,0,0:0:0:60:drum-hitclap.wav
320,192,66840,1,0,0:0:0:60:drum-hitnormal.wav
64,192,67170,1,0,0:0:0:60:drum-hitclap.wav
320,192,67499,1,0,0:0:0:60:drum-hitnormal.wav
448,192,67829,1,0,0:0:0:60:drum-hitclap.wav
64,192,68159,1,0,0:0:0:60:drum-hitnormal.wav
320,192,68488,1,0,0:0:0:60:drum-hitclap.wav
192,192,68653,1,0,0:0:0:60:normal-hitfinish.wav
448,192,68983,1,0,0:0:0:60:drum-hitnormal.wav
320,192,69148,1,0,0:0:0:60:drum-hitclap.wav
64,192,69312,1,0,0:0:0:60:normal-hitfinish.wav
192,192,69642,1,0,0:0:0:60:drum-hitnormal.wav
448,192,69807,1,0,0:0:0:60:drum-hitclap.wav
192,192,70137,1,0,0:0:0:60:drum-hitnormal.wav
320,192,70301,1,0,0:0:0:60:drum-hitnormal.wav
64,192,70466,1,0,0:0:0:60:drum-hitclap.wav
192,192,70631,1,0,0:0:0:60:drum-hitclap.wav
448,192,70796,1,0,0:0:0:60:normal-hitfinish.wav
64,192,71126,1,0,0:0:0:60:drum-hitclap.wav
448,192,71455,1,0,0:0:0:60:drum-hitnormal.wav
320,192,71785,1,0,0:0:0:60:drum-hitclap.wav
64,192,72115,1,0,0:0:0:60:drum-hitnormal.wav
192,192,72444,1,0,0:0:0:60:drum-hitclap.wav
448,192,72774,1,0,0:0:0:60:drum-hitnormal.wav
64,192,73104,1,0,0:0:0:60:drum-hitclap.wav
320,192,73433,1,0,0:0:0:60:drum-hitnormal.wav
192,192,73763,1,0,0:0:0:60:drum-hitclap.wav
448,192,74093,1,0,0:0:0:60:drum-hitnormal.wav
320,192,74422,1,0,0:0:0:60:drum-hitclap.wav
64,192,74587,1,0,0:0:0:60:normal-hitfinish.wav
448,192,74587,1,0,0:0:0:60:drum-hitnormal.wav
192,192,74917,1,0,0:0:0:60:drum-hitnormal.wav
448,192,75082,1,0,0:0:0:60:drum-hitclap.wav
320,192,75246,1,0,0:0:0:0:
64,192,75411,128,0,75741:0:0:0:60:LR_Tom Hit.wav
448,192,75741,128,0,76071:0:0:0:60:drum-hitclap.wav
64,192,76071,1,0,0:0:0:60:drum-hitnormal.wav
192,192,76071,1,0,0:0:0:60:normal-hitfinish.wav
320,192,76400,1,0,0:0:0:60:drum-hitclap.wav
192,192,76730,1,0,0:0:0:60:drum-hitnormal.wav
64,192,77060,1,0,0:0:0:60:drum-hitclap.wav
448,192,77389,1,0,0:0:0:60:drum-hitnormal.wav
320,192,77719,1,0,0:0:0:60:drum-hitclap.wav
64,192,78049,1,0,0:0:0:60:drum-hitnormal.wav
448,192,78378,1,0,0:0:0:60:drum-hitclap.wav
192,192,78708,1,0,0:0:0:60:drum-hitnormal.wav
320,192,79038,1,0,0:0:0:60:drum-hitclap.wav
64,192,79367,1,0,0:0:0:60:drum-hitnormal.wav
320,192,79697,1,0,0:0:0:60:drum-hitclap.wav
192,192,80027,1,0,0:0:0:60:drum-hitnormal.wav
448,192,80356,1,0,0:0:0:60:drum-hitclap.wav
192,192,80686,1,0,0:0:0:60:drum-hitnormal.wav
320,192,81016,1,0,0:0:0:60:drum-hitclap.wav
64,192,81345,1,0,0:0:0:60:drum-hitnormal.wav
448,192,81345,1,0,0:0:0:60:normal-hitfinish.wav
192,192,81675,1,0,0:0:0:60:drum-hitclap.wav
448,192,82005,1,0,0:0:0:60:drum-hitnormal.wav
320,192,82334,1,0,0:0:0:60:drum-hitclap.wav
64,192,82664,1,0,0:0:0:60:drum-hitnormal.wav
448,192,82664,1,0,0:0:0:60:normal-hitfinish.wav
192,192,82994,1,0,0:0:0:60:drum-hitclap.wav
448,192,83323,1,0,0:0:0:60:drum-hitnormal.wav
320,192,83653,1,0,0:0:0:60:drum-hitclap.wav
64,192,83983,1,0,0:0:0:60:normal-hitfinish.wav
448,192,83983,1,0,0:0:0:60:drum-hitnormal.wav
192,192,84312,1,0,0:0:0:60:drum-hitclap.wav
448,192,84642,1,0,0:0:0:60:drum-hitnormal.wav
64,192,84972,1,0,0:0:0:60:drum-hitclap.wav
448,192,85301,128,0,85796:0:0:0:30:drum-hitclap.wav
320,192,85301,1,0,0:0:0:30:drum-hitclap.wav
192,192,85796,1,0,0:0:0:30:drum-hitclap.wav
64,192,85796,128,0,86290:0:0:0:30:drum-hitclap.wav
448,192,86290,1,0,0:0:0:30:drum-hitclap.wav
320,192,86290,128,0,86620:0:0:0:30:drum-hitclap.wav
64,192,86620,1,0,0:0:0:60:drum-hitnormal.wav
192,192,86620,128,0,87609:0:0:0:60:normal-hitfinish.wav
448,192,87609,1,0,0:0:0:60:drum-hitnormal.wav
64,192,87939,1,0,0:0:0:60:normal-hitfinish.wav
320,192,87939,1,0,0:0:0:60:drum-hitnormal.wav
448,192,88268,1,0,0:0:0:60:drum-hitclap.wav
192,192,88598,1,0,0:0:0:60:drum-hitnormal.wav
64,192,88928,1,0,0:0:0:60:drum-hitclap.wav
448,192,89257,1,0,0:0:0:60:drum-hitnormal.wav
64,192,89587,1,0,0:0:0:60:drum-hitclap.wav
320,192,89917,1,0,0:0:0:60:drum-hitnormal.wav
64,192,90246,1,0,0:0:0:60:drum-hitclap.wav
448,192,90576,1,0,0:0:0:60:drum-hitnormal.wav
320,192,90906,1,0,0:0:0:60:drum-hitclap.wav
64,192,91235,1,0,0:0:0:60:drum-hitnormal.wav
448,192,91565,1,0,0:0:0:60:drum-hitclap.wav
192,192,91895,1,0,0:0:0:60:drum-hitnormal.wav
320,192,92225,1,0,0:0:0:60:drum-hitclap.wav
64,192,92554,1,0,0:0:0:60:drum-hitnormal.wav
320,192,92884,1,0,0:0:0:60:drum-hitclap.wav
192,192,93214,1,0,0:0:0:60:drum-hitnormal.wav
448,192,93214,1,0,0:0:0:60:normal-hitfinish.wav
64,192,93543,1,0,0:0:0:60:drum-hitclap.wav
448,192,93873,1,0,0:0:0:60:drum-hitnormal.wav
192,192,94203,1,0,0:0:0:60:drum-hitclap.wav
64,192,94532,1,0,0:0:0:60:drum-hitnormal.wav
320,192,94862,1,0,0:0:0:60:drum-hitclap.wav
448,192,95192,1,0,0:0:0:60:drum-hitnormal.wav
64,192,95521,1,0,0:0:0:60:drum-hitclap.wav
192,192,95851,1,0,0:0:0:60:drum-hitnormal.wav
448,192,96181,1,0,0:0:0:60:drum-hitclap.wav
320,192,96510,1,0,0:0:0:60:drum-hitnormal.wav
192,192,96840,1,0,0:0:0:60:drum-hitclap.wav
448,192,97170,1,0,0:0:0:60:drum-hitnormal.wav
192,192,97334,1,0,0:0:0:60:drum-hitclap.wav
320,192,97664,1,0,0:0:0:60:drum-hitnormal.wav
64,192,97829,1,0,0:0:0:60:drum-hitclap.wav
320,192,98159,128,0,98488:0:0:0:60:LR_Tom Drop.wav
448,192,98488,1,0,0:0:0:60:drum-hitnormal.wav
64,192,98488,128,0,98983:0:0:0:60:normal-hitfinish.wav
448,192,98983,128,0,99642:0:0:0:60:normal-hitfinish.wav
192,192,99642,128,0,100301:0:0:0:60:normal-hitfinish.wav
448,192,100301,128,0,101126:0:0:0:60:normal-hitfinish.wav
192,192,101126,1,0,0:0:0:60:normal-hitfinish.wav
64,192,101126,128,0,102444:0:0:0:60:drum-hitnormal.wav
448,192,102444,1,0,0:0:0:60:drum-hitnormal.wav
