osu file format v14

[General]
AudioFilename: audio.mp3
AudioLeadIn: 0
PreviewTime: 54210
Countdown: 0
SampleSet: Soft
StackLeniency: 0.3
Mode: 0
LetterboxInBreaks: 0
WidescreenStoryboard: 1

[Editor]
DistanceSpacing: 1.3
BeatDivisor: 4
GridSize: 16
TimelineZoom: 1.5

[Metadata]
Title:Happy*Pretty*Clover
TitleUnicode:Happy★Pretty★Clover
Artist:Rhodanthe*
ArtistUnicode:Rhodanthe*
Creator:Firis Mistlud
Version:Hard
Source:きんいろモザイク Pretty Days
Tags:KuranteMelodii krt M2Usonek Minorsonek SquareTude NEVlR nevir happy pretty clover yuiko meis clauson kin-iro kiniro mosaic kinmoza kinmosa ova きんモザ opening movie short ver cut tanaka manami 田中真奈美 alice cartelet アリス・カータレット nishi asuka 西明日香 oomiya shinobu 大宮忍 taneda risa 種田梨沙 komichi aya 小路綾 uchimiya yumi 内山夕実 inokuma youko 猪熊陽子 touyama nao 東山奈央 kujou karen 九条カレン tv size op
BeatmapID:1894318
BeatmapSetID:895474

[Difficulty]
HPDrainRate:5
CircleSize:4
OverallDifficulty:5
ApproachRate:7
SliderMultiplier:1.4
SliderTickRate:1

[Events]
//Background and Video events
0,0,"happiness.jpg",0,0
//Break Periods
//Storyboard Layer 0 (Background)
//Storyboard Layer 1 (Fail)
//Storyboard Layer 2 (Pass)
//Storyboard Layer 3 (Foreground)
//Storyboard Sound Samples

[TimingPoints]
886,329.67032967033,4,2,2,45,1,0
1545,-133.333333333333,4,2,2,45,0,0
7479,-166.666666666667,4,2,2,55,0,0
11435,-166.666666666667,4,2,1,90,0,0
12094,-100,4,2,17,70,0,0
12424,-83.3333333333333,4,2,17,70,0,0
12754,-100,4,2,1,80,0,0
12836,-100,4,2,1,70,0,0
18028,-100,4,2,1,80,0,0
18111,-100,4,2,1,70,0,0
23303,-125,4,2,20,80,0,0
23468,-125,4,2,20,60,0,0
32369,-125,4,2,1,70,0,0
33358,-125,4,2,20,70,0,0
33523,-125,4,2,1,70,0,0
33688,-125,4,2,20,70,0,0
33853,-125,4,2,20,80,0,0
33935,-125,4,2,20,60,0,0
42918,-125,4,2,20,80,0,0
43001,-125,4,2,20,60,0,0
44402,-166.666666666667,4,2,20,80,0,0
44484,-166.666666666667,4,2,20,60,0,0
49017,-125,4,2,20,60,0,0
49677,-100,4,2,1,70,0,0
53633,-100,4,2,1,90,0,0
54292,-125,4,2,1,90,0,0
54951,-90.9090909090909,4,2,1,90,0,1
64842,-90.9090909090909,4,2,1,90,0,0
65501,-90.9090909090909,4,2,1,90,0,1
68138,-90.9090909090909,4,2,1,90,0,1
75391,-90.9090909090909,4,2,1,90,0,0
76050,-90.9090909090909,4,2,1,90,0,1
80995,-90.9090909090909,4,2,1,90,0,0
81325,-90.9090909090909,4,2,1,90,0,1
83633,-90.9090909090909,4,2,1,90,0,0
83962,-90.9090909090909,4,2,1,90,0,1
86600,-133.333333333333,4,2,1,90,0,0
87918,-100,4,2,1,80,0,0
88001,-100,4,2,1,70,0,0
93193,-100,4,2,1,80,0,0
93276,-100,4,2,1,70,0,0
98468,-100,4,2,1,80,0,0
98550,-100,4,2,1,70,0,0
98962,-100,4,2,1,80,0,0
99045,-100,4,2,1,70,0,0
99622,-100,4,2,1,80,0,0
99704,-100,4,2,1,70,0,0
100281,-100,4,2,1,80,0,0
100364,-100,4,2,1,70,0,0
101105,-100,4,2,1,80,0,0
101188,-100,4,2,1,70,0,0
102424,-100,4,2,1,50,0,0

[Colours]
Combo1 : 255,87,87
Combo2 : 255,255,106
Combo3 : 255,0,255
Combo4 : 0,128,255

[HitObjects]
137,0,1545,6,0,P|159:49|147:104,1,105.000004005432,0|0,0:0|0:0,0:0:0:0:
66,168,2204,2,0,B|116:166|116:166|127:174|127:174|190:173,1,105.000004005432,4|0,0:0|0:0,0:0:0:0:
263,128,2864,6,0,P|241:177|253:232,1,105.000004005432,0|0,0:0|0:0,0:0:0:0:
334,296,3523,2,0,B|284:294|284:294|273:302|273:302|210:301,1,105.000004005432,2|0,0:0|0:0,0:0:0:0:
126,303,4182,1,0,0:0:0:0:
126,303,4512,1,0,0:0:0:0:
126,303,4842,6,0,P|158:287|158:344,1,105.000004005432,2|0,0:0|0:0,0:0:0:0:
105,381,5336,2,0,P|57:342|50:286,1,105.000004005432,0|0,0:0|0:0,0:0:0:0:
87,180,5995,1,0,0:0:0:0:
23,228,6160,6,0,B|96:222|64:246|143:243,1,105.000004005432,2|0,0:0|0:0,0:0:0:0:
182,192,6655,2,0,P|197:146|173:96,1,105.000004005432,0|0,0:0|0:0,0:0:0:0:
279,138,7314,1,0,0:0:0:0:
279,138,7479,6,0,B|329:112|384:128|404:183|404:183|431:125|489:127,1,251.999992309571,4|0,0:0|0:0,0:0:0:0:
412,264,8798,6,0,L|404:181,1,83.9999974365235,2|0,0:0|0:0,0:0:0:0:
493,224,9457,2,0,L|484:307,1,83.9999974365235,2|0,0:0|0:0,0:0:0:0:
355,365,10116,6,0,B|396:374|430:361|412:344|471:330|502:345|502:345|479:376|443:372,1,209.999993591309,4|0,0:0|0:0,0:0:0:0:
281,217,11435,5,8,0:1:0:0:
273,298,11600,1,8,0:1:0:0:
265,379,11765,1,8,0:1:0:0:
265,379,12094,6,0,L|261:339,3,35,8|0|0|0,0:0|0:0|1:0|0:0,0:0:0:0:
273,298,12424,2,0,B|231:288|203:298|219:315|183:324|146:316,1,125.999996154785,8|0,0:0|0:0,0:0:0:0:
134,286,12754,6,0,P|136:338|53:383,1,140,4|8,1:2|0:0,0:0:0:0:
6,342,13248,2,0,P|32:318|66:312,1,70,0|0,0:0|1:0,0:0:0:0:
74,242,13578,1,0,1:0:0:0:
16,199,13743,2,0,L|25:125,1,70,8|0,0:0|1:0,0:0:0:0:
128,83,14072,6,0,P|83:98|13:41,1,140,0|8,1:2|0:0,0:0:0:0:
84,23,14567,2,0,P|129:8|199:65,1,140,0|0,0:0|1:0,0:0:0:0:
191,135,15061,2,0,P|214:132|255:104,1,70,8|0,0:0|1:0,0:0:0:0:
301,27,15391,6,0,L|294:190,1,140,0|8,1:2|0:0,0:0:0:0:
320,237,15886,2,0,P|358:245|389:240,1,70,0|0,0:0|1:0,0:0:0:0:
457,275,16215,2,0,L|453:359,2,70,0|8|0,1:0|0:0|1:0,0:0:0:0:
464,200,16710,5,0,1:2:0:0:
494,130,16875,2,0,P|459:125|425:133,1,70,0|8,0:0|0:0,0:0:0:0:
359,163,17204,1,0,0:0:0:0:
298,97,17369,2,0,L|301:27,2,70,0|0|8,1:0|1:0|0:0,0:0:0:0:
224,146,17864,1,0,1:0:0:0:
224,146,17946,1,0,1:0:0:0:
224,146,18028,6,0,B|269:133|305:147|287:172|343:170|372:158,1,140,4|8,1:2|0:0,0:0:0:0:
425,132,18523,2,0,L|430:55,1,70,0|0,0:0|1:0,0:0:0:0:
507,67,18853,1,0,1:0:0:0:
503,141,19017,2,0,L|498:210,1,70,8|0,0:0|1:0,0:0:0:0:
399,266,19347,6,0,P|444:251|514:308,1,140,0|8,1:2|0:0,0:0:0:0:
443,326,19842,2,0,P|398:341|328:284,1,140,0|0,0:0|1:0,0:0:0:0:
336,214,20336,2,0,P|313:217|272:245,1,70,8|0,0:0|1:0,0:0:0:0:
262,317,20666,6,0,B|217:304|181:318|199:343|143:341|114:329,1,140,0|8,1:2|0:0,0:0:0:0:
58,372,21160,2,0,L|53:301,1,70,0|0,0:0|1:0,0:0:0:0:
104,244,21490,2,0,L|99:173,1,70,0|8,1:0|0:0,0:0:0:0:
27,95,21820,6,0,P|65:108|103:95,1,70,0|0,1:0|1:0,0:0:0:0:
126,32,22149,2,0,B|161:55|166:91|166:91|176:56|213:42,1,140,8|0,0:0|1:0,0:0:0:0:
237,112,22644,2,0,P|275:99|313:112,2,70,8|0|0,0:0|1:0|1:0,0:0:0:0:
165,280,23303,6,0,L|178:159,1,112,4|8,1:2|0:0,0:0:0:0:
247,202,23798,2,0,L|241:263,1,56,0|0,0:0|1:0,0:0:0:0:
219,335,24127,2,0,P|258:328|292:335,1,56,0|8,1:0|0:0,0:0:0:0:
338,373,24457,1,0,0:0:0:0:
342,295,24622,5,0,1:0:0:0:
342,295,24951,2,0,P|369:301|397:300,1,56,8|0,0:0|0:0,0:0:0:0:
472,292,25281,2,0,P|458:254|435:228,1,56,0|0,1:0|1:0,0:0:0:0:
405,181,25611,2,0,P|385:201|372:226,1,56,8|0,0:0|0:0,0:0:0:0:
342,295,25940,6,0,B|271:292|308:332|219:322,1,112,0|8,1:0|0:0,0:0:0:0:
174,280,26435,1,0,0:0:0:0:
174,280,26600,2,0,P|162:327|191:385,1,112,0|8,1:0|0:0,0:0:0:0:
121,351,27094,1,0,0:0:0:0:
121,351,27259,6,0,B|50:354|87:314|-2:324,1,112,0|8,1:0|0:0,0:0:0:0:
55,254,27754,1,0,0:0:0:0:
55,254,27918,2,0,P|67:207|38:149,1,112,0|8,1:0|0:0,0:0:0:0:
0,88,28413,1,0,0:0:0:0:
0,88,28578,6,0,P|34:77|67:82,1,56,0|0,1:0|0:0,0:0:0:0:
116,117,28907,2,0,P|127:83|122:50,1,56,8|0,0:0|0:0,0:0:0:0:
79,6,29237,2,0,P|120:26|191:20,1,112,0|8,1:0|0:0,0:0:0:0:
258,6,29732,1,0,0:0:0:0:
258,6,29896,6,0,P|269:40|264:73,1,56,0|0,1:0|0:0,0:0:0:0:
234,126,30226,1,8,0:0:0:0:
352,225,30556,2,0,L|341:162,1,56,0|0,1:0|1:0,0:0:0:0:
331,97,30886,1,8,0:0:0:0:
331,97,31215,6,0,B|402:94|365:134|454:124,1,112,0|8,1:0|0:0,0:0:0:0:
508,109,31710,2,0,P|479:63|426:51,1,112,0|0,0:0|1:0,0:0:0:0:
353,23,32204,1,8,0:0:0:0:
258,63,32369,6,0,P|279:90|287:172,2,112,8|8|8,0:0|0:0|0:0,0:0:0:0:
267,238,33358,1,0,1:0:0:0:
341,219,33523,1,8,0:0:0:0:
330,294,33688,1,0,1:0:0:0:
325,293,33771,1,0,1:0:0:0:
320,292,33853,6,0,P|278:312|211:287,1,112,4|8,1:2|0:0,0:0:0:0:
195,222,34347,2,0,P|168:237|148:268,1,56,0|0,0:0|1:0,0:0:0:0:
155,329,34677,2,0,L|151:394,1,56,0|8,1:0|0:0,0:0:0:0:
80,356,35006,5,0,0:0:0:0:
83,284,35171,1,0,1:0:0:0:
83,284,35501,2,0,P|77:257|78:229,1,56,8|0,0:0|0:0,0:0:0:0:
86,154,35831,2,0,P|124:168|150:191,1,56,0|0,1:0|1:0,0:0:0:0:
197,221,36161,2,0,P|177:241|152:254,1,56,8|0,0:0|0:0,0:0:0:0:
155,329,36490,6,0,B|226:326|189:366|278:356,1,112,0|8,1:0|0:0,0:0:0:0:
314,306,36984,1,0,0:0:0:0:
314,306,37149,2,0,P|360:296|412:354,1,112,0|8,1:0|0:0,0:0:0:0:
463,381,37644,1,0,0:0:0:0:
463,381,37809,6,0,P|445:338|456:268,1,112,0|8,1:0|0:0,0:0:0:0:
506,225,38303,1,0,0:0:0:0:
506,225,38468,2,0,P|460:235|408:177,1,112,0|8,1:0|0:0,0:0:0:0:
389,127,38962,1,0,0:0:0:0:
389,127,39127,6,0,L|396:60,2,56,0|0|8,1:2|0:0|0:0,0:0:0:0:
339,181,39622,2,0,B|268:178|305:218|216:208,1,112,0|0,0:0|1:0,0:0:0:0:
161,199,40116,6,0,L|168:132,2,56,8|0|0,0:0|0:0|1:0,0:0:0:0:
186,267,40611,2,0,P|195:318|179:384,1,112,0|0,0:0|0:0,0:0:0:0:
122,335,41105,2,0,L|55:328,1,56,0|0,1:0|1:0,0:0:0:0:
11,377,41435,1,8,0:0:0:0:
11,377,41765,6,0,L|22:255,1,112,0|8,1:0|0:0,0:0:0:0:
4,194,42259,2,0,P|51:225|112:209,1,112,0|0,0:0|1:0,0:0:0:0:
65,152,42754,1,8,0:0:0:0:
182,94,42918,6,0,L|177:208,2,112,4|0|0,0:0|1:0|1:0,0:0:0:0:
182,94,43907,1,0,1:0:0:0:
237,140,44072,2,0,P|277:148|304:138,1,56,0|0,1:0|3:0,0:0:0:0:
365,31,44402,6,0,L|358:116,1,83.9999974365235,4|0,0:0|0:0,0:0:0:0:
399,178,44896,1,0,1:0:0:0:
399,178,45061,1,0,1:0:0:0:
512,107,45391,1,8,0:0:0:0:
512,107,45556,6,0,P|468:98|426:117,2,83.9999974365235,0|0|0,1:0|1:0|1:0,0:0:0:0:
478,172,46380,1,0,1:0:0:0:
376,258,46710,2,0,L|427:257,1,41.9999987182618,8|0,0:0|0:0,0:0:0:0:
441,330,47039,6,0,L|345:331,1,83.9999974365235,0|0,1:0|0:0,0:0:0:0:
295,372,47534,2,0,P|304:328|285:286,1,83.9999974365235,0|0,1:0|0:0,0:0:0:0:
235,245,48028,1,8,0:0:0:0:
235,245,48193,6,0,L|139:246,2,83.9999974365235,0|0|0,1:0|1:0|1:0,0:0:0:0:
295,192,49017,6,0,P|307:147|291:107,1,84,0|0,1:0|1:0,0:0:0:0:
269,86,49347,2,0,L|235:86,3,28,8|0|0|0,1:2|0:0|1:0|0:0,0:0:0:0:
199,67,49677,6,0,L|200:141,1,70,4|0,1:2|0:0,0:0:0:0:
121,140,50006,2,0,L|120:70,1,70,8|0,0:0|0:0,0:0:0:0:
160,7,50336,1,0,1:0:0:0:
295,192,50666,6,0,L|294:118,1,70,8|0,0:0|1:0,0:0:0:0:
373,119,50995,2,0,L|373:188,1,70,0|0,1:2|0:0,0:0:0:0:
334,252,51325,1,8,0:0:0:0:
335,52,51655,2,0,P|379:43|410:54,1,70,0|0,1:0|1:0,0:0:0:0:
450,108,51984,1,8,0:0:0:0:
411,241,52314,6,0,P|458:251|485:273,1,70,0|0,1:0|0:0,0:0:0:0:
421,317,52644,2,0,P|410:364|388:391,1,70,8|0,0:0|0:0,0:0:0:0:
345,328,52973,2,0,P|297:317|270:295,1,70,8|0,0:0|0:0,0:0:0:0:
334,252,53303,2,0,P|344:204|366:177,1,70,8|0,0:0|0:0,0:0:0:0:
451,110,53633,5,8,0:1:0:0:
367,114,53798,1,8,0:1:0:0:
283,118,53962,1,8,0:1:0:0:
117,15,54292,6,0,B|113:67|113:67|119:85|119:85|113:145,1,112,0|0,0:0|0:0,0:0:0:0:
114,125,54951,6,0,P|157:113|230:187,1,154.000004699707,4|8,1:2|0:0,0:0:0:0:
155,189,55446,1,0,0:0:0:0:
72,189,55611,2,0,P|41:142|41:106,1,77.0000023498536,0|0,1:0|1:0,0:0:0:0:
116,49,55940,2,0,L|115:131,1,77.0000023498536,8|0,0:0|1:0,0:0:0:0:
114,255,56270,6,0,B|158:238|205:247|184:275|243:281|271:260,1,154.000004699707,0|8,1:2|0:0,0:0:0:0:
314,201,56765,1,0,0:0:0:0:
235,118,56929,2,0,L|235:195,1,77.0000023498536,0|0,1:0|1:0,0:0:0:0:
335,274,57259,2,0,P|381:261|419:267,1,77.0000023498536,8|0,0:0|1:0,0:0:0:0:
463,337,57589,6,0,P|446:273|477:171,1,154.000004699707,0|8,1:2|0:0,0:0:0:0:
501,120,58083,2,0,P|454:114|421:125,1,77.0000023498536,0|0,0:0|1:0,0:0:0:0:
357,158,58413,2,0,P|351:111|362:78,1,77.0000023498536,0|8,1:0|0:0,0:0:0:0:
429,46,58743,1,0,1:0:0:0:
299,36,58907,6,0,P|275:100|285:195,1,154.000004699707,0|8,1:2|0:0,0:0:0:0:
338,235,59402,1,0,0:0:0:0:
338,235,59567,2,0,L|422:241,1,77.0000023498536,0|0,1:0|1:0,0:0:0:0:
411,314,59896,2,0,L|334:307,1,77.0000023498536,8|0,0:0|1:0,0:0:0:0:
263,243,60226,6,0,P|283:181|368:166,1,154.000004699707,4|8,1:2|0:0,0:0:0:0:
411,314,60886,2,0,L|326:307,1,77.0000023498536,0|0,1:0|1:0,0:0:0:0:
338,235,61215,2,0,L|414:241,1,77.0000023498536,8|0,0:0|1:0,0:0:0:0:
485,306,61545,6,0,P|464:367|379:382,1,154.000004699707,0|8,1:2|0:0,0:0:0:0:
334,307,62039,1,0,0:0:0:0:
334,307,62204,2,0,P|297:293|256:298,1,77.0000023498536,0|0,1:0|1:0,0:0:0:0:
199,347,62534,2,0,P|160:350|125:336,1,77.0000023498536,8|0,0:0|1:0,0:0:0:0:
98,194,62864,6,0,L|87:282,1,77.0000023498536,0|0,1:2|0:0,0:0:0:0:
171,275,63193,2,0,L|180:198,1,77.0000023498536,8|0,0:0|0:0,0:0:0:0:
126,122,63523,2,0,P|87:118|52:132,2,77.0000023498536,0|0|8,1:0|1:0|0:0,0:0:0:0:
249,149,64017,5,4,1:2:0:0:
249,149,64347,2,0,L|258:72,2,77.0000023498536,0|8|0,1:0|0:0|1:0,0:0:0:0:
281,222,64842,1,0,1:0:0:0:
344,171,65006,1,0,1:0:0:0:
344,171,65089,1,0,1:0:0:0:
344,171,65171,2,0,P|382:174|417:160,1,77.0000023498536,8|0,0:0|1:0,0:0:0:0:
496,44,65501,6,0,L|490:215,1,154.000004699707,4|8,1:2|0:0,0:0:0:0:
481,274,65995,1,0,0:0:0:0:
506,346,66160,2,0,P|468:349|433:335,1,77.0000023498536,0|0,1:0|1:0,0:0:0:0:
368,247,66490,2,0,L|360:335,1,77.0000023498536,8|0,0:0|1:0,0:0:0:0:
304,208,66820,6,0,P|344:175|438:221,1,154.000004699707,0|8,1:2|0:0,0:0:0:0:
396,142,67314,1,0,0:0:0:0:
411,70,67479,2,0,P|456:80|496:67,1,77.0000023498536,0|0,1:0|1:0,0:0:0:0:
375,3,67809,2,0,P|330:-7|290:6,1,77.0000023498536,8|0,0:0|1:0,0:0:0:0:
238,55,68138,6,0,B|194:72|147:63|168:35|109:29|81:50,1,154.000004699707,0|8,1:2|0:0,0:0:0:0:
0,169,68633,2,0,P|71:174|116:115,1,154.000004699707,4|0,0:0|1:0,0:0:0:0:
42,105,69127,1,8,0:0:0:0:
97,203,69292,6,0,P|106:275|87:371,1,154.000004699707,4|0,0:0|1:2,0:0:0:0:
141,297,69787,2,0,P|186:283|231:293,1,77.0000023498536,8|0,0:0|0:0,0:0:0:0:
290,294,70116,2,0,L|374:288,1,77.0000023498536,0|0,1:0|1:0,0:0:0:0:
363,215,70446,2,0,L|286:222,1,77.0000023498536,8|0,0:0|1:0,0:0:0:0:
215,286,70775,6,0,P|235:348|320:363,1,154.000004699707,4|8,1:2|0:0,0:0:0:0:
363,215,71435,2,0,L|278:222,1,77.0000023498536,0|0,1:0|1:0,0:0:0:0:
290,294,71764,2,0,L|366:288,1,77.0000023498536,8|0,0:0|1:0,0:0:0:0:
437,223,72094,6,0,P|416:162|331:147,1,154.000004699707,0|8,1:2|0:0,0:0:0:0:
286,222,72588,1,0,0:0:0:0:
286,222,72753,2,0,P|249:236|208:231,1,77.0000023498536,0|0,1:0|1:0,0:0:0:0:
152,186,73083,2,0,P|113:183|78:197,1,77.0000023498536,8|0,0:0|1:0,0:0:0:0:
9,234,73413,6,0,L|14:325,2,77.0000023498536,0|0|8,1:2|0:0|0:0,0:0:0:0:
5,160,73907,1,0,0:0:0:0:
79,197,74072,2,0,L|84:288,2,77.0000023498536,0|0|8,1:0|1:0|0:0,0:0:0:0:
3,84,74567,6,0,P|54:128|156:95,1,154.000004699707,4|0,0:0|1:0,0:0:0:0:
199,75,75061,2,0,P|210:114|194:166,1,77.0000023498536,8|0,0:0|1:0,0:0:0:0:
162,216,75391,5,0,1:0:0:0:
261,205,75556,1,0,1:0:0:0:
261,205,75638,1,0,1:0:0:0:
261,205,75721,2,0,L|346:211,1,77.0000023498536,4|0,0:0|0:0,0:0:0:0:
448,282,76050,6,0,P|439:210|458:114,1,154.000004699707,4|8,1:2|0:0,0:0:0:0:
498,73,76545,2,0,P|426:82|330:63,1,154.000004699707,0|0,0:0|1:0,0:0:0:0:
291,20,77039,1,8,0:0:0:0:
291,20,77204,6,0,P|285:83|264:107,1,77.0000023498536,0|0,1:0|1:2,0:0:0:0:
264,168,77534,2,0,P|212:131|202:101,1,77.0000023498536,0|8,0:0|0:0,0:0:0:0:
150,70,77864,2,0,P|207:43|238:49,1,77.0000023498536,0|0,0:0|1:0,0:0:0:0:
278,92,78193,1,0,1:0:0:0:
346,68,78358,1,8,0:0:0:0:
346,68,78688,6,0,P|337:140|356:236,1,154.000004699707,0|8,1:2|0:0,0:0:0:0:
396,277,79183,2,0,P|324:268|228:287,1,154.000004699707,0|0,0:0|1:0,0:0:0:0:
189,330,79677,1,8,0:0:0:0:
189,330,79842,6,0,P|183:267|162:243,1,77.0000023498536,0|0,1:0|1:2,0:0:0:0:
162,182,80172,2,0,P|110:218|100:248,1,77.0000023498536,0|8,0:0|0:0,0:0:0:0:
48,280,80502,2,0,P|105:306|136:300,1,77.0000023498536,0|0,0:0|1:0,0:0:0:0:
176,258,80831,1,0,1:0:0:0:
244,282,80996,1,8,0:0:0:0:
244,282,81325,6,0,B|288:265|335:274|314:302|373:308|401:287,1,154.000004699707,4|8,1:2|0:0,0:0:0:0:
436,231,81820,2,0,P|401:216|364:222,1,77.0000023498536,0|0,0:0|1:0,0:0:0:0:
291,201,82149,2,0,P|275:166|281:128,2,77.0000023498536,0|8|0,1:0|0:0|1:0,0:0:0:0:
282,351,82644,5,4,1:2:0:0:
282,351,82973,2,0,B|238:368|191:359|212:331|153:325|125:346,1,154.000004699707,8|0,0:0|1:0,0:0:0:0:
62,373,83468,1,0,1:0:0:0:
5,320,83633,1,8,0:0:0:0:
97,138,83962,6,0,P|79:213|77:290,2,154.000004699707,4|8|0,1:2|0:0|1:0,0:0:0:0:
151,83,84787,2,0,P|106:62|71:67,2,77.0000023498536,0|8|0,1:0|0:0|1:0,0:0:0:0:
215,156,85281,5,4,0:2:0:0:
205,232,85446,2,0,L|194:321,1,77.0000023498536,0|8,1:0|0:0,0:0:0:0:
316,308,85776,1,4,0:2:0:0:
307,232,85941,2,0,L|297:155,1,77.0000023498536,0|8,1:0|0:0,0:0:0:0:
361,83,86270,1,8,0:1:0:0:
361,83,86600,6,0,P|441:59|372:168,1,315.000012016297,4|0,0:0|1:0,0:0:0:0:
373,169,87918,6,0,P|414:155|491:216,1,140,4|8,1:2|0:0,0:0:0:0:
464,278,88413,2,0,P|435:260|417:231,1,70,0|0,0:0|1:0,0:0:0:0:
345,242,88743,1,0,1:0:0:0:
297,181,88907,2,0,P|266:164|231:163,1,70,8|0,0:0|1:0,0:0:0:0:
152,246,89237,6,0,P|167:201|110:131,1,140,0|8,1:2|0:0,0:0:0:0:
92,202,89732,2,0,P|77:247|134:317,1,140,0|0,0:0|1:0,0:0:0:0:
175,370,90226,2,0,P|196:343|204:309,1,70,8|0,0:0|1:0,0:0:0:0:
256,212,90556,6,0,B|298:202|328:212|316:238|361:239|401:225,1,140,0|8,1:2|0:0,0:0:0:0:
428,162,91050,2,0,P|394:151|360:156,1,70,0|0,0:0|1:0,0:0:0:0:
292,135,91380,2,0,L|298:63,2,70,0|8|0,1:0|0:0|1:0,0:0:0:0:
256,212,91875,5,0,1:2:0:0:
286,282,92040,2,0,P|251:287|217:279,1,70,0|8,0:0|0:0,0:0:0:0:
151,249,92369,1,0,0:0:0:0:
90,315,92534,2,0,L|93:385,2,70,0|0|8,1:0|1:0|0:0,0:0:0:0:
16,266,93029,1,0,1:0:0:0:
16,266,93111,1,0,1:0:0:0:
16,266,93193,6,0,B|61:279|97:265|79:240|135:242|164:254,1,140,4|8,1:2|0:0,0:0:0:0:
208,296,93688,2,0,P|225:260|218:214,1,70,0|0,0:0|1:0,0:0:0:0:
171,176,94017,1,0,1:0:0:0:
245,159,94182,2,0,P|281:142|327:149,1,70,8|0,0:0|1:0,0:0:0:0:
363,238,94512,6,0,P|348:193|405:123,1,140,0|8,1:2|0:0,0:0:0:0:
423,194,95007,2,0,P|438:239|381:309,1,140,0|0,0:0|1:0,0:0:0:0:
311,301,95501,2,0,P|288:304|247:332,1,70,8|0,0:0|1:0,0:0:0:0:
189,373,95831,6,0,B|144:386|108:372|126:347|70:349|41:361,1,140,0|8,1:2|0:0,0:0:0:0:
4,297,96325,2,0,L|-1:226,1,70,0|0,0:0|1:0,0:0:0:0:
50,169,96655,2,0,P|73:172|113:200,1,70,0|8,1:0|0:0,0:0:0:0:
184,248,96984,6,0,L|189:177,1,70,0|0,1:0|1:0,0:0:0:0:
171,101,97314,2,0,B|230:111|230:111|255:139|255:139|327:150,1,140,8|0,0:0|1:0,0:0:0:0:
293,72,97809,2,0,L|298:1,2,70,8|0|0,0:0|1:0|1:0,0:0:0:0:
280,225,98468,6,0,P|305:191|304:147,2,70,4|0|8,0:0|1:0|0:0,0:0:0:0:
195,287,98962,2,0,P|267:267|345:269,1,140,4|0,0:0|1:0,0:0:0:0:
393,313,99457,1,8,0:0:0:0:
464,200,99622,6,0,P|433:170|423:233,1,140,4|0,0:0|1:0,0:0:0:0:
467,291,100116,1,8,0:0:0:0:
364,384,100281,6,0,P|319:333|332:267,1,140,4|0,0:0|1:0,0:0:0:0:
315,193,100776,1,8,0:0:0:0:
75,304,101105,6,0,B|100:242|100:242|73:186|73:186|138:193|138:193|182:148|182:148|195:214|195:214|250:242|250:242|195:276|195:276|184:337|184:337|134:293,1,560,4|0,0:0|1:0,0:0:0:0:
