osu file format v14

[General]
AudioFilename: audio.mp3
AudioLeadIn: 0
PreviewTime: 83603
Countdown: 0
SampleSet: Normal
StackLeniency: 0.7
Mode: 3
LetterboxInBreaks: 0
SpecialStyle: 0
WidescreenStoryboard: 0

[Editor]
DistanceSpacing: 0.8
BeatDivisor: 4
GridSize: 8
TimelineZoom: 1.5

[Metadata]
Title:Master of Peace
TitleUnicode:Master of Peace
Artist:Rhapsody of Fire
ArtistUnicode:Rhapsody of Fire
Creator:Cokiiplay
Version:Peacful
Source:
Tags:
BeatmapID:1964576
BeatmapSetID:940666

[Difficulty]
HPDrainRate:8
CircleSize:4
OverallDifficulty:8
ApproachRate:5
SliderMultiplier:1.4
SliderTickRate:1

[Events]
//Background and Video events
0,0,"cropped-1920-1080-947921.jpg",0,0
//Break Periods
//Storyboard Layer 0 (Background)
//Storyboard Layer 1 (Fail)
//Storyboard Layer 2 (Pass)
//Storyboard Layer 3 (Foreground)
//Storyboard Sound Samples

[TimingPoints]
235,315.789473684211,4,1,0,50,1,0

[HitObjects]
64,192,235,5,0,0:0:0:0:
320,192,235,1,0,0:0:0:0:
448,192,235,1,0,0:0:0:0:
192,192,392,1,0,0:0:0:0:
448,192,471,1,0,0:0:0:0:
64,192,550,1,0,0:0:0:0:
320,192,629,1,0,0:0:0:0:
192,192,708,128,0,787:0:0:0:0:
448,192,866,1,0,0:0:0:0:
320,192,945,1,0,0:0:0:0:
64,192,1024,1,0,0:0:0:0:
448,192,1103,1,0,0:0:0:0:
192,192,1182,128,0,1261:0:0:0:0:
320,192,1340,1,0,0:0:0:0:
192,192,1419,1,0,0:0:0:0:
448,192,1498,1,0,0:0:0:0:
64,192,1577,1,0,0:0:0:0:
320,192,1656,128,0,1735:0:0:0:0:
192,192,1813,1,0,0:0:0:0:
320,192,1892,1,0,0:0:0:0:
64,192,1971,1,0,0:0:0:0:
192,192,2050,1,0,0:0:0:0:
448,192,2129,1,0,0:0:0:0:
192,192,2208,1,0,0:0:0:0:
448,192,2287,1,0,0:0:0:0:
192,192,2366,1,0,0:0:0:0:
320,192,2445,1,0,0:0:0:0:
64,192,2524,1,0,0:0:0:0:
320,192,2603,1,0,0:0:0:0:
64,192,2682,1,0,0:0:0:0:
192,192,2761,1,0,0:0:0:0:
448,192,2761,1,0,0:0:0:0:
320,192,2761,1,0,0:0:0:0:
64,192,2919,1,0,0:0:0:0:
448,192,2998,1,0,0:0:0:0:
192,192,3077,1,0,0:0:0:0:
320,192,3156,1,0,0:0:0:0:
64,192,3235,128,0,3313:0:0:0:0:
448,192,3392,1,0,0:0:0:0:
192,192,3471,1,0,0:0:0:0:
320,192,3550,1,0,0:0:0:0:
64,192,3629,1,0,0:0:0:0:
448,192,3708,128,0,3787:0:0:0:0:
192,192,3866,1,0,0:0:0:0:
320,192,3945,1,0,0:0:0:0:
64,192,4024,1,0,0:0:0:0:
192,192,4103,1,0,0:0:0:0:
448,192,4182,128,0,4261:0:0:0:0:
320,192,4340,1,0,0:0:0:0:
192,192,4419,1,0,0:0:0:0:
64,192,4498,1,0,0:0:0:0:
320,192,4577,1,0,0:0:0:0:
192,192,4656,128,0,4892:0:0:0:0:
64,192,4656,128,0,4892:0:0:0:0:
448,192,4656,128,0,4971:0:0:0:0:
64,192,4971,128,0,5287:0:0:0:0:
192,192,4971,128,0,5208:0:0:0:0:
320,192,4971,128,0,5208:0:0:0:0:
192,192,5287,1,0,0:0:0:0:
320,192,5287,1,0,0:0:0:0:
448,192,5287,1,0,0:0:0:0:
64,192,5445,1,0,0:0:0:0:
448,192,5524,1,0,0:0:0:0:
192,192,5603,1,0,0:0:0:0:
320,192,5682,1,0,0:0:0:0:
64,192,5761,128,0,5840:0:0:0:0:
448,192,5919,1,0,0:0:0:0:
192,192,5998,1,0,0:0:0:0:
320,192,6077,1,0,0:0:0:0:
64,192,6156,1,0,0:0:0:0:
448,192,6235,128,0,6313:0:0:0:0:
320,192,6392,1,0,0:0:0:0:
192,192,6471,1,0,0:0:0:0:
448,192,6550,1,0,0:0:0:0:
64,192,6629,1,0,0:0:0:0:
192,192,6708,128,0,6787:0:0:0:0:
320,192,6866,1,0,0:0:0:0:
64,192,6945,1,0,0:0:0:0:
448,192,7024,1,0,0:0:0:0:
192,192,7103,1,0,0:0:0:0:
320,192,7182,1,0,0:0:0:0:
64,192,7261,1,0,0:0:0:0:
320,192,7340,1,0,0:0:0:0:
64,192,7419,1,0,0:0:0:0:
192,192,7498,1,0,0:0:0:0:
448,192,7577,1,0,0:0:0:0:
192,192,7656,1,0,0:0:0:0:
448,192,7735,1,0,0:0:0:0:
320,192,7813,1,0,0:0:0:0:
192,192,7813,1,0,0:0:0:0:
64,192,7813,1,0,0:0:0:0:
448,192,7971,1,0,0:0:0:0:
320,192,8129,1,0,0:0:0:0:
448,192,8129,1,0,0:0:0:0:
64,192,8287,1,0,0:0:0:0:
192,192,8287,1,0,0:0:0:0:
448,192,8287,1,0,0:0:0:0:
320,192,8445,1,0,0:0:0:0:
320,192,8603,1,0,0:0:0:0:
64,192,8603,1,0,0:0:0:0:
192,192,8761,1,0,0:0:0:0:
64,192,8761,1,0,0:0:0:0:
448,192,8761,1,0,0:0:0:0:
192,192,8919,1,0,0:0:0:0:
320,192,8919,1,0,0:0:0:0:
64,192,9077,1,0,0:0:0:0:
320,192,9077,1,0,0:0:0:0:
448,192,9077,1,0,0:0:0:0:
64,192,9235,1,0,0:0:0:0:
192,192,9313,1,0,0:0:0:0:
320,192,9392,1,0,0:0:0:0:
448,192,9471,1,0,0:0:0:0:
192,192,9550,1,0,0:0:0:0:
64,192,9629,1,0,0:0:0:0:
448,192,9708,1,0,0:0:0:0:
192,192,9787,1,0,0:0:0:0:
320,192,9866,1,0,0:0:0:0:
448,192,9945,1,0,0:0:0:0:
192,192,10024,1,0,0:0:0:0:
64,192,10103,1,0,0:0:0:0:
320,192,10182,1,0,0:0:0:0:
192,192,10261,1,0,0:0:0:0:
64,192,10340,1,0,0:0:0:0:
448,192,10340,1,0,0:0:0:0:
320,192,10419,1,0,0:0:0:0:
192,192,10498,1,0,0:0:0:0:
448,192,10577,1,0,0:0:0:0:
64,192,10656,1,0,0:0:0:0:
192,192,10656,1,0,0:0:0:0:
448,192,10735,1,0,0:0:0:0:
320,192,10813,1,0,0:0:0:0:
64,192,10892,1,0,0:0:0:0:
192,192,10971,1,0,0:0:0:0:
448,192,11050,1,0,0:0:0:0:
64,192,11129,1,0,0:0:0:0:
192,192,11208,1,0,0:0:0:0:
320,192,11287,1,0,0:0:0:0:
448,192,11287,1,0,0:0:0:0:
192,192,11366,1,0,0:0:0:0:
448,192,11445,1,0,0:0:0:0:
64,192,11524,1,0,0:0:0:0:
320,192,11603,1,0,0:0:0:0:
64,192,11682,1,0,0:0:0:0:
192,192,11761,1,0,0:0:0:0:
448,192,11840,1,0,0:0:0:0:
320,192,11919,1,0,0:0:0:0:
192,192,11919,1,0,0:0:0:0:
448,192,11998,1,0,0:0:0:0:
64,192,12077,1,0,0:0:0:0:
192,192,12156,1,0,0:0:0:0:
448,192,12235,1,0,0:0:0:0:
320,192,12313,1,0,0:0:0:0:
192,192,12392,1,0,0:0:0:0:
64,192,12471,1,0,0:0:0:0:
448,192,12550,1,0,0:0:0:0:
192,192,12550,1,0,0:0:0:0:
320,192,12629,1,0,0:0:0:0:
192,192,12708,1,0,0:0:0:0:
64,192,12787,1,0,0:0:0:0:
448,192,12866,1,0,0:0:0:0:
320,192,12945,1,0,0:0:0:0:
192,192,13024,1,0,0:0:0:0:
448,192,13103,1,0,0:0:0:0:
320,192,13182,1,0,0:0:0:0:
64,192,13182,1,0,0:0:0:0:
448,192,13261,1,0,0:0:0:0:
64,192,13340,1,0,0:0:0:0:
192,192,13419,1,0,0:0:0:0:
320,192,13498,1,0,0:0:0:0:
64,192,13577,1,0,0:0:0:0:
448,192,13656,1,0,0:0:0:0:
320,192,13735,1,0,0:0:0:0:
64,192,13813,1,0,0:0:0:0:
192,192,13813,1,0,0:0:0:0:
320,192,13892,1,0,0:0:0:0:
192,192,13971,1,0,0:0:0:0:
64,192,14050,1,0,0:0:0:0:
448,192,14129,1,0,0:0:0:0:
192,192,14208,1,0,0:0:0:0:
320,192,14287,1,0,0:0:0:0:
64,192,14366,1,0,0:0:0:0:
192,192,14445,1,0,0:0:0:0:
448,192,14445,1,0,0:0:0:0:
64,192,14524,1,0,0:0:0:0:
448,192,14603,1,0,0:0:0:0:
320,192,14682,1,0,0:0:0:0:
64,192,14761,128,0,15077:0:0:0:0:
192,192,14761,128,0,14998:0:0:0:0:
448,192,14761,128,0,14998:0:0:0:0:
192,192,15077,128,0,15313:0:0:0:0:
320,192,15077,128,0,15313:0:0:0:0:
448,192,15077,128,0,15392:0:0:0:0:
192,192,15392,1,0,0:0:0:0:
320,192,15392,1,0,0:0:0:0:
64,192,15392,1,0,0:0:0:0:
448,192,15471,1,0,0:0:0:0:
64,192,15550,1,0,0:0:0:0:
192,192,15629,1,0,0:0:0:0:
320,192,15708,1,0,0:0:0:0:
448,192,15708,1,0,0:0:0:0:
192,192,15787,1,0,0:0:0:0:
448,192,15866,1,0,0:0:0:0:
64,192,15945,1,0,0:0:0:0:
320,192,16024,1,0,0:0:0:0:
64,192,16103,1,0,0:0:0:0:
192,192,16182,1,0,0:0:0:0:
448,192,16261,1,0,0:0:0:0:
320,192,16340,1,0,0:0:0:0:
192,192,16340,1,0,0:0:0:0:
448,192,16419,1,0,0:0:0:0:
64,192,16498,1,0,0:0:0:0:
320,192,16577,1,0,0:0:0:0:
192,192,16656,1,0,0:0:0:0:
320,192,16735,1,0,0:0:0:0:
64,192,16813,1,0,0:0:0:0:
192,192,16892,1,0,0:0:0:0:
448,192,16971,1,0,0:0:0:0:
320,192,16971,1,0,0:0:0:0:
64,192,17050,1,0,0:0:0:0:
192,192,17129,1,0,0:0:0:0:
448,192,17208,1,0,0:0:0:0:
192,192,17287,1,0,0:0:0:0:
64,192,17287,1,0,0:0:0:0:
320,192,17366,1,0,0:0:0:0:
448,192,17366,1,0,0:0:0:0:
192,192,17445,1,0,0:0:0:0:
64,192,17445,1,0,0:0:0:0:
320,192,17524,1,0,0:0:0:0:
448,192,17524,1,0,0:0:0:0:
64,192,17603,1,0,0:0:0:0:
320,192,17682,1,0,0:0:0:0:
64,192,17761,1,0,0:0:0:0:
320,192,17840,1,0,0:0:0:0:
448,192,17919,1,0,0:0:0:0:
64,192,17919,1,0,0:0:0:0:
192,192,17919,1,0,0:0:0:0:
320,192,18077,1,0,0:0:0:0:
320,192,18235,1,0,0:0:0:0:
192,192,18235,1,0,0:0:0:0:
64,192,18392,1,0,0:0:0:0:
192,192,18392,1,0,0:0:0:0:
448,192,18392,1,0,0:0:0:0:
320,192,18550,1,0,0:0:0:0:
64,192,18708,1,0,0:0:0:0:
448,192,18708,1,0,0:0:0:0:
192,192,18866,1,0,0:0:0:0:
320,192,18866,1,0,0:0:0:0:
448,192,18866,1,0,0:0:0:0:
64,192,19024,1,0,0:0:0:0:
320,192,19024,1,0,0:0:0:0:
64,192,19182,1,0,0:0:0:0:
192,192,19182,1,0,0:0:0:0:
448,192,19182,1,0,0:0:0:0:
320,192,19340,1,0,0:0:0:0:
192,192,19498,1,0,0:0:0:0:
320,192,19498,1,0,0:0:0:0:
192,192,19656,1,0,0:0:0:0:
64,192,19656,1,0,0:0:0:0:
448,192,19656,1,0,0:0:0:0:
320,192,19813,1,0,0:0:0:0:
64,192,19813,1,0,0:0:0:0:
64,192,19971,1,0,0:0:0:0:
320,192,19971,1,0,0:0:0:0:
192,192,20129,1,0,0:0:0:0:
320,192,20129,1,0,0:0:0:0:
448,192,20129,1,0,0:0:0:0:
64,192,20287,1,0,0:0:0:0:
448,192,20287,1,0,0:0:0:0:
320,192,20445,1,0,0:0:0:0:
64,192,20445,1,0,0:0:0:0:
192,192,20445,1,0,0:0:0:0:
64,192,21077,1,0,0:0:0:0:
192,192,21156,1,0,0:0:0:0:
320,192,21235,1,0,0:0:0:0:
64,192,21313,1,0,0:0:0:0:
192,192,21392,1,0,0:0:0:0:
448,192,21471,1,0,0:0:0:0:
64,192,21550,1,0,0:0:0:0:
192,192,21629,1,0,0:0:0:0:
320,192,21708,1,0,0:0:0:0:
448,192,21708,1,0,0:0:0:0:
64,192,21708,1,0,0:0:0:0:
64,192,22971,1,0,0:0:0:0:
448,192,22971,1,0,0:0:0:0:
320,192,23050,1,0,0:0:0:0:
192,192,23129,1,0,0:0:0:0:
448,192,23208,1,0,0:0:0:0:
320,192,23287,1,0,0:0:0:0:
64,192,23287,1,0,0:0:0:0:
192,192,23366,1,0,0:0:0:0:
448,192,23445,1,0,0:0:0:0:
192,192,23524,1,0,0:0:0:0:
320,192,23603,1,0,0:0:0:0:
64,192,23682,1,0,0:0:0:0:
192,192,23761,1,0,0:0:0:0:
448,192,23840,1,0,0:0:0:0:
320,192,23919,1,0,0:0:0:0:
64,192,23919,1,0,0:0:0:0:
192,192,23998,1,0,0:0:0:0:
448,192,24077,1,0,0:0:0:0:
320,192,24156,1,0,0:0:0:0:
64,192,24235,1,0,0:0:0:0:
448,192,24313,1,0,0:0:0:0:
192,192,24392,1,0,0:0:0:0:
320,192,24471,1,0,0:0:0:0:
64,192,24550,1,0,0:0:0:0:
192,192,24550,1,0,0:0:0:0:
448,192,24629,1,0,0:0:0:0:
320,192,24708,1,0,0:0:0:0:
64,192,24787,1,0,0:0:0:0:
192,192,24866,1,0,0:0:0:0:
448,192,24945,1,0,0:0:0:0:
192,192,25024,1,0,0:0:0:0:
320,192,25103,1,0,0:0:0:0:
448,192,25182,1,0,0:0:0:0:
64,192,25182,1,0,0:0:0:0:
192,192,25261,1,0,0:0:0:0:
320,192,25340,1,0,0:0:0:0:
64,192,25419,1,0,0:0:0:0:
448,192,25498,1,0,0:0:0:0:
320,192,25577,1,0,0:0:0:0:
64,192,25656,1,0,0:0:0:0:
320,192,25735,1,0,0:0:0:0:
192,192,25813,1,0,0:0:0:0:
64,192,25813,1,0,0:0:0:0:
448,192,25892,1,0,0:0:0:0:
320,192,25971,1,0,0:0:0:0:
64,192,26050,1,0,0:0:0:0:
448,192,26129,1,0,0:0:0:0:
320,192,26208,1,0,0:0:0:0:
64,192,26287,1,0,0:0:0:0:
448,192,26366,1,0,0:0:0:0:
320,192,26445,1,0,0:0:0:0:
192,192,26445,1,0,0:0:0:0:
64,192,26524,1,0,0:0:0:0:
448,192,26603,1,0,0:0:0:0:
64,192,26682,1,0,0:0:0:0:
192,192,26761,1,0,0:0:0:0:
320,192,26840,1,0,0:0:0:0:
64,192,26919,1,0,0:0:0:0:
448,192,26998,1,0,0:0:0:0:
320,192,27077,1,0,0:0:0:0:
192,192,27077,1,0,0:0:0:0:
64,192,27156,1,0,0:0:0:0:
448,192,27235,1,0,0:0:0:0:
320,192,27313,1,0,0:0:0:0:
192,192,27392,1,0,0:0:0:0:
320,192,27471,1,0,0:0:0:0:
64,192,27550,1,0,0:0:0:0:
192,192,27629,1,0,0:0:0:0:
320,192,27708,1,0,0:0:0:0:
448,192,27708,1,0,0:0:0:0:
64,192,27787,1,0,0:0:0:0:
448,192,27866,1,0,0:0:0:0:
192,192,27945,1,0,0:0:0:0:
320,192,28024,1,0,0:0:0:0:
64,192,28103,1,0,0:0:0:0:
192,192,28182,1,0,0:0:0:0:
448,192,28261,1,0,0:0:0:0:
320,192,28340,1,0,0:0:0:0:
64,192,28340,1,0,0:0:0:0:
192,192,28419,1,0,0:0:0:0:
448,192,28498,1,0,0:0:0:0:
64,192,28577,1,0,0:0:0:0:
320,192,28656,1,0,0:0:0:0:
64,192,28735,1,0,0:0:0:0:
192,192,28813,1,0,0:0:0:0:
320,192,28892,1,0,0:0:0:0:
64,192,28971,1,0,0:0:0:0:
448,192,28971,1,0,0:0:0:0:
192,192,29050,1,0,0:0:0:0:
320,192,29129,1,0,0:0:0:0:
192,192,29208,1,0,0:0:0:0:
320,192,29287,1,0,0:0:0:0:
64,192,29366,1,0,0:0:0:0:
448,192,29445,1,0,0:0:0:0:
320,192,29524,1,0,0:0:0:0:
192,192,29603,1,0,0:0:0:0:
64,192,29603,1,0,0:0:0:0:
448,192,29682,1,0,0:0:0:0:
320,192,29761,1,0,0:0:0:0:
192,192,29840,1,0,0:0:0:0:
448,192,29919,1,0,0:0:0:0:
64,192,29919,1,0,0:0:0:0:
320,192,29998,1,0,0:0:0:0:
192,192,29998,1,0,0:0:0:0:
64,192,30077,1,0,0:0:0:0:
448,192,30077,1,0,0:0:0:0:
192,192,30156,1,0,0:0:0:0:
320,192,30156,1,0,0:0:0:0:
64,192,30235,1,0,0:0:0:0:
320,192,30313,1,0,0:0:0:0:
64,192,30392,1,0,0:0:0:0:
320,192,30471,1,0,0:0:0:0:
448,192,30550,1,0,0:0:0:0:
64,192,30550,1,0,0:0:0:0:
192,192,30550,1,0,0:0:0:0:
320,192,30866,1,0,0:0:0:0:
192,192,30866,1,0,0:0:0:0:
64,192,31182,1,0,0:0:0:0:
64,192,31340,1,0,0:0:0:0:
192,192,31498,1,0,0:0:0:0:
320,192,31498,1,0,0:0:0:0:
64,192,31656,1,0,0:0:0:0:
192,192,31735,1,0,0:0:0:0:
320,192,31813,1,0,0:0:0:0:
320,192,31971,1,0,0:0:0:0:
448,192,31971,1,0,0:0:0:0:
320,192,32287,1,0,0:0:0:0:
448,192,32287,1,0,0:0:0:0:
320,192,32603,1,0,0:0:0:0:
448,192,32603,1,0,0:0:0:0:
320,192,32919,1,0,0:0:0:0:
448,192,32919,1,0,0:0:0:0:
192,192,33077,1,0,0:0:0:0:
64,192,33077,1,0,0:0:0:0:
448,192,33077,1,0,0:0:0:0:
320,192,33156,1,0,0:0:0:0:
64,192,33235,1,0,0:0:0:0:
448,192,33313,1,0,0:0:0:0:
320,192,33392,1,0,0:0:0:0:
192,192,33392,1,0,0:0:0:0:
64,192,33471,1,0,0:0:0:0:
448,192,33550,1,0,0:0:0:0:
192,192,33629,1,0,0:0:0:0:
320,192,33708,1,0,0:0:0:0:
192,192,33787,1,0,0:0:0:0:
448,192,33866,1,0,0:0:0:0:
320,192,33945,1,0,0:0:0:0:
192,192,34024,1,0,0:0:0:0:
64,192,34024,1,0,0:0:0:0:
448,192,34103,1,0,0:0:0:0:
64,192,34182,1,0,0:0:0:0:
192,192,34261,1,0,0:0:0:0:
320,192,34340,1,0,0:0:0:0:
192,192,34419,1,0,0:0:0:0:
448,192,34498,1,0,0:0:0:0:
320,192,34577,1,0,0:0:0:0:
192,192,34656,1,0,0:0:0:0:
64,192,34656,1,0,0:0:0:0:
320,192,34735,1,0,0:0:0:0:
64,192,34813,1,0,0:0:0:0:
192,192,34892,1,0,0:0:0:0:
320,192,34971,1,0,0:0:0:0:
64,192,35050,1,0,0:0:0:0:
448,192,35129,1,0,0:0:0:0:
192,192,35208,1,0,0:0:0:0:
320,192,35287,1,0,0:0:0:0:
448,192,35287,1,0,0:0:0:0:
64,192,35366,1,0,0:0:0:0:
192,192,35445,1,0,0:0:0:0:
448,192,35524,1,0,0:0:0:0:
64,192,35603,1,0,0:0:0:0:
320,192,35682,1,0,0:0:0:0:
64,192,35761,1,0,0:0:0:0:
448,192,35840,1,0,0:0:0:0:
320,192,35919,1,0,0:0:0:0:
192,192,35919,1,0,0:0:0:0:
64,192,35998,1,0,0:0:0:0:
448,192,36077,1,0,0:0:0:0:
320,192,36156,1,0,0:0:0:0:
192,192,36235,1,0,0:0:0:0:
320,192,36313,1,0,0:0:0:0:
64,192,36392,1,0,0:0:0:0:
192,192,36471,1,0,0:0:0:0:
320,192,36550,1,0,0:0:0:0:
448,192,36550,1,0,0:0:0:0:
192,192,36629,1,0,0:0:0:0:
448,192,36708,1,0,0:0:0:0:
320,192,36787,1,0,0:0:0:0:
64,192,36866,1,0,0:0:0:0:
448,192,36945,1,0,0:0:0:0:
192,192,37024,1,0,0:0:0:0:
320,192,37103,1,0,0:0:0:0:
192,192,37182,1,0,0:0:0:0:
64,192,37182,1,0,0:0:0:0:
448,192,37261,1,0,0:0:0:0:
320,192,37340,1,0,0:0:0:0:
64,192,37419,1,0,0:0:0:0:
320,192,37498,1,0,0:0:0:0:
192,192,37577,1,0,0:0:0:0:
448,192,37656,1,0,0:0:0:0:
64,192,37735,1,0,0:0:0:0:
192,192,37813,1,0,0:0:0:0:
448,192,37813,1,0,0:0:0:0:
320,192,37892,1,0,0:0:0:0:
192,192,37971,1,0,0:0:0:0:
320,192,38050,1,0,0:0:0:0:
64,192,38129,1,0,0:0:0:0:
192,192,38208,1,0,0:0:0:0:
448,192,38287,1,0,0:0:0:0:
64,192,38366,1,0,0:0:0:0:
192,192,38445,1,0,0:0:0:0:
448,192,38445,1,0,0:0:0:0:
320,192,38524,1,0,0:0:0:0:
192,192,38603,1,0,0:0:0:0:
448,192,38682,1,0,0:0:0:0:
64,192,38761,1,0,0:0:0:0:
320,192,38840,1,0,0:0:0:0:
192,192,38919,1,0,0:0:0:0:
448,192,38998,1,0,0:0:0:0:
320,192,39077,1,0,0:0:0:0:
64,192,39077,1,0,0:0:0:0:
192,192,39156,1,0,0:0:0:0:
448,192,39235,1,0,0:0:0:0:
64,192,39313,1,0,0:0:0:0:
192,192,39392,1,0,0:0:0:0:
320,192,39471,1,0,0:0:0:0:
64,192,39550,1,0,0:0:0:0:
448,192,39629,1,0,0:0:0:0:
320,192,39708,1,0,0:0:0:0:
64,192,39708,1,0,0:0:0:0:
192,192,39787,1,0,0:0:0:0:
320,192,39866,1,0,0:0:0:0:
64,192,39945,1,0,0:0:0:0:
192,192,40024,1,0,0:0:0:0:
448,192,40103,1,0,0:0:0:0:
192,192,40182,1,0,0:0:0:0:
320,192,40261,1,0,0:0:0:0:
448,192,40340,1,0,0:0:0:0:
64,192,40340,1,0,0:0:0:0:
192,192,40419,1,0,0:0:0:0:
320,192,40498,1,0,0:0:0:0:
192,192,40577,1,0,0:0:0:0:
448,192,40656,1,0,0:0:0:0:
320,192,40735,1,0,0:0:0:0:
192,192,40813,1,0,0:0:0:0:
448,192,40892,1,0,0:0:0:0:
320,192,40971,1,0,0:0:0:0:
64,192,40971,1,0,0:0:0:0:
192,192,41050,1,0,0:0:0:0:
448,192,41129,1,0,0:0:0:0:
64,192,41208,1,0,0:0:0:0:
320,192,41287,1,0,0:0:0:0:
64,192,41366,1,0,0:0:0:0:
448,192,41445,1,0,0:0:0:0:
192,192,41524,1,0,0:0:0:0:
320,192,41603,1,0,0:0:0:0:
448,192,41603,1,0,0:0:0:0:
64,192,41682,1,0,0:0:0:0:
192,192,41761,1,0,0:0:0:0:
448,192,41840,1,0,0:0:0:0:
64,192,41919,1,0,0:0:0:0:
320,192,41998,1,0,0:0:0:0:
192,192,42077,1,0,0:0:0:0:
448,192,42156,1,0,0:0:0:0:
320,192,42235,1,0,0:0:0:0:
64,192,42235,1,0,0:0:0:0:
192,192,42313,1,0,0:0:0:0:
448,192,42392,1,0,0:0:0:0:
64,192,42471,1,0,0:0:0:0:
448,192,42550,1,0,0:0:0:0:
320,192,42550,1,0,0:0:0:0:
192,192,42629,1,0,0:0:0:0:
64,192,42629,1,0,0:0:0:0:
448,192,42708,1,0,0:0:0:0:
320,192,42787,1,0,0:0:0:0:
64,192,42866,1,0,0:0:0:0:
192,192,42945,1,0,0:0:0:0:
64,192,43024,1,0,0:0:0:0:
192,192,43103,1,0,0:0:0:0:
320,192,43182,1,0,0:0:0:0:
448,192,43182,1,0,0:0:0:0:
320,192,43340,1,0,0:0:0:0:
64,192,43498,1,0,0:0:0:0:
448,192,43498,1,0,0:0:0:0:
192,192,43656,1,0,0:0:0:0:
320,192,43656,1,0,0:0:0:0:
192,192,43813,1,0,0:0:0:0:
64,192,43971,1,0,0:0:0:0:
320,192,44129,1,0,0:0:0:0:
448,192,44129,1,0,0:0:0:0:
320,192,44287,1,0,0:0:0:0:
192,192,44445,1,0,0:0:0:0:
64,192,44603,1,0,0:0:0:0:
320,192,44603,1,0,0:0:0:0:
192,192,44761,1,0,0:0:0:0:
320,192,44761,1,0,0:0:0:0:
64,192,44919,1,0,0:0:0:0:
192,192,44998,1,0,0:0:0:0:
320,192,45077,1,0,0:0:0:0:
448,192,45077,1,0,0:0:0:0:
64,192,45235,1,0,0:0:0:0:
320,192,45392,1,0,0:0:0:0:
448,192,45392,1,0,0:0:0:0:
192,192,45550,1,0,0:0:0:0:
64,192,45708,1,0,0:0:0:0:
448,192,45708,1,0,0:0:0:0:
448,192,45866,1,0,0:0:0:0:
320,192,46024,1,0,0:0:0:0:
192,192,46024,1,0,0:0:0:0:
64,192,46182,1,0,0:0:0:0:
320,192,46182,1,0,0:0:0:0:
64,192,46340,1,0,0:0:0:0:
192,192,46498,1,0,0:0:0:0:
320,192,46656,1,0,0:0:0:0:
448,192,46656,1,0,0:0:0:0:
320,192,46813,1,0,0:0:0:0:
64,192,46971,1,0,0:0:0:0:
192,192,47129,1,0,0:0:0:0:
448,192,47129,1,0,0:0:0:0:
320,192,47287,1,0,0:0:0:0:
192,192,47287,1,0,0:0:0:0:
64,192,47445,1,0,0:0:0:0:
192,192,47524,1,0,0:0:0:0:
320,192,47603,1,0,0:0:0:0:
448,192,47603,1,0,0:0:0:0:
64,192,47761,1,0,0:0:0:0:
320,192,47919,1,0,0:0:0:0:
448,192,47919,1,0,0:0:0:0:
192,192,48077,1,0,0:0:0:0:
64,192,48235,1,0,0:0:0:0:
448,192,48235,1,0,0:0:0:0:
448,192,48392,1,0,0:0:0:0:
192,192,48550,1,0,0:0:0:0:
64,192,48550,1,0,0:0:0:0:
192,192,48708,1,0,0:0:0:0:
320,192,48708,1,0,0:0:0:0:
320,192,48866,1,0,0:0:0:0:
64,192,49024,1,0,0:0:0:0:
320,192,49182,1,0,0:0:0:0:
448,192,49182,1,0,0:0:0:0:
448,192,49340,1,0,0:0:0:0:
64,192,49498,1,0,0:0:0:0:
192,192,49656,1,0,0:0:0:0:
448,192,49656,1,0,0:0:0:0:
320,192,49813,1,0,0:0:0:0:
192,192,49813,1,0,0:0:0:0:
64,192,49971,1,0,0:0:0:0:
192,192,50050,1,0,0:0:0:0:
320,192,50129,1,0,0:0:0:0:
448,192,50129,1,0,0:0:0:0:
64,192,50287,1,0,0:0:0:0:
320,192,50445,1,0,0:0:0:0:
448,192,50445,1,0,0:0:0:0:
192,192,50603,1,0,0:0:0:0:
64,192,50761,1,0,0:0:0:0:
448,192,50761,1,0,0:0:0:0:
448,192,50919,1,0,0:0:0:0:
192,192,51077,1,0,0:0:0:0:
320,192,51077,1,0,0:0:0:0:
64,192,51235,1,0,0:0:0:0:
64,192,51392,1,0,0:0:0:0:
192,192,51550,1,0,0:0:0:0:
448,192,51550,1,0,0:0:0:0:
192,192,51708,1,0,0:0:0:0:
448,192,51708,1,0,0:0:0:0:
320,192,51866,1,0,0:0:0:0:
192,192,51945,1,0,0:0:0:0:
64,192,52024,1,0,0:0:0:0:
320,192,52024,1,0,0:0:0:0:
448,192,52024,1,0,0:0:0:0:
192,192,52182,1,0,0:0:0:0:
448,192,52340,1,0,0:0:0:0:
192,192,52498,1,0,0:0:0:0:
320,192,52656,1,0,0:0:0:0:
448,192,52656,1,0,0:0:0:0:
64,192,52735,1,0,0:0:0:0:
192,192,52813,1,0,0:0:0:0:
320,192,52892,1,0,0:0:0:0:
64,192,52971,1,0,0:0:0:0:
192,192,52971,1,0,0:0:0:0:
320,192,53050,1,0,0:0:0:0:
448,192,53050,1,0,0:0:0:0:
64,192,53129,1,0,0:0:0:0:
192,192,53129,1,0,0:0:0:0:
320,192,53208,1,0,0:0:0:0:
448,192,53208,1,0,0:0:0:0:
64,192,53287,1,0,0:0:0:0:
192,192,53366,1,0,0:0:0:0:
448,192,53445,1,0,0:0:0:0:
64,192,53524,1,0,0:0:0:0:
192,192,53603,1,0,0:0:0:0:
320,192,53603,1,0,0:0:0:0:
448,192,53682,1,0,0:0:0:0:
192,192,53761,1,0,0:0:0:0:
320,192,53840,1,0,0:0:0:0:
64,192,53919,1,0,0:0:0:0:
448,192,53998,1,0,0:0:0:0:
320,192,54077,1,0,0:0:0:0:
192,192,54156,1,0,0:0:0:0:
64,192,54235,1,0,0:0:0:0:
448,192,54235,1,0,0:0:0:0:
192,192,54313,1,0,0:0:0:0:
320,192,54392,1,0,0:0:0:0:
64,192,54471,1,0,0:0:0:0:
192,192,54550,1,0,0:0:0:0:
448,192,54629,1,0,0:0:0:0:
64,192,54708,1,0,0:0:0:0:
320,192,54787,1,0,0:0:0:0:
64,192,54866,1,0,0:0:0:0:
192,192,54866,1,0,0:0:0:0:
448,192,54945,1,0,0:0:0:0:
320,192,55024,1,0,0:0:0:0:
64,192,55103,1,0,0:0:0:0:
448,192,55182,1,0,0:0:0:0:
192,192,55261,1,0,0:0:0:0:
448,192,55340,1,0,0:0:0:0:
64,192,55419,1,0,0:0:0:0:
192,192,55498,1,0,0:0:0:0:
320,192,55498,1,0,0:0:0:0:
448,192,55577,1,0,0:0:0:0:
64,192,55656,1,0,0:0:0:0:
192,192,55735,1,0,0:0:0:0:
448,192,55813,1,0,0:0:0:0:
64,192,55892,1,0,0:0:0:0:
320,192,55971,1,0,0:0:0:0:
192,192,56050,1,0,0:0:0:0:
64,192,56129,1,0,0:0:0:0:
448,192,56129,1,0,0:0:0:0:
320,192,56208,1,0,0:0:0:0:
192,192,56287,1,0,0:0:0:0:
320,192,56366,1,0,0:0:0:0:
192,192,56445,1,0,0:0:0:0:
64,192,56524,1,0,0:0:0:0:
448,192,56603,1,0,0:0:0:0:
192,192,56682,1,0,0:0:0:0:
64,192,56761,1,0,0:0:0:0:
448,192,56761,1,0,0:0:0:0:
320,192,56840,1,0,0:0:0:0:
192,192,56919,1,0,0:0:0:0:
448,192,56998,1,0,0:0:0:0:
320,192,57077,1,0,0:0:0:0:
64,192,57156,1,0,0:0:0:0:
192,192,57235,1,0,0:0:0:0:
320,192,57313,1,0,0:0:0:0:
192,192,57392,1,0,0:0:0:0:
64,192,57392,1,0,0:0:0:0:
448,192,57471,1,0,0:0:0:0:
320,192,57550,1,0,0:0:0:0:
64,192,57629,1,0,0:0:0:0:
448,192,57708,1,0,0:0:0:0:
192,192,57787,1,0,0:0:0:0:
320,192,57866,1,0,0:0:0:0:
64,192,57945,1,0,0:0:0:0:
192,192,58024,1,0,0:0:0:0:
448,192,58024,1,0,0:0:0:0:
320,192,58103,1,0,0:0:0:0:
192,192,58182,1,0,0:0:0:0:
320,192,58261,1,0,0:0:0:0:
448,192,58340,1,0,0:0:0:0:
64,192,58419,1,0,0:0:0:0:
320,192,58498,1,0,0:0:0:0:
192,192,58577,1,0,0:0:0:0:
64,192,58656,1,0,0:0:0:0:
448,192,58656,1,0,0:0:0:0:
320,192,58735,1,0,0:0:0:0:
192,192,58813,1,0,0:0:0:0:
448,192,58892,1,0,0:0:0:0:
64,192,58971,1,0,0:0:0:0:
448,192,59050,1,0,0:0:0:0:
320,192,59129,1,0,0:0:0:0:
192,192,59208,1,0,0:0:0:0:
64,192,59287,1,0,0:0:0:0:
448,192,59287,1,0,0:0:0:0:
192,192,59366,1,0,0:0:0:0:
320,192,59445,1,0,0:0:0:0:
64,192,59524,1,0,0:0:0:0:
320,192,59603,1,0,0:0:0:0:
192,192,59682,1,0,0:0:0:0:
448,192,59761,1,0,0:0:0:0:
320,192,59840,1,0,0:0:0:0:
64,192,59919,1,0,0:0:0:0:
192,192,59919,1,0,0:0:0:0:
448,192,59998,1,0,0:0:0:0:
320,192,60077,1,0,0:0:0:0:
64,192,60156,1,0,0:0:0:0:
192,192,60235,1,0,0:0:0:0:
448,192,60313,1,0,0:0:0:0:
64,192,60392,1,0,0:0:0:0:
192,192,60471,1,0,0:0:0:0:
320,192,60550,1,0,0:0:0:0:
448,192,60550,1,0,0:0:0:0:
192,192,60629,1,0,0:0:0:0:
64,192,60629,1,0,0:0:0:0:
448,192,60708,1,0,0:0:0:0:
320,192,60708,1,0,0:0:0:0:
192,192,60787,1,0,0:0:0:0:
64,192,60787,1,0,0:0:0:0:
320,192,60866,1,0,0:0:0:0:
192,192,61182,1,0,0:0:0:0:
448,192,61182,1,0,0:0:0:0:
64,192,61498,1,0,0:0:0:0:
64,192,61656,1,0,0:0:0:0:
192,192,61813,1,0,0:0:0:0:
448,192,61813,1,0,0:0:0:0:
320,192,61971,1,0,0:0:0:0:
192,192,62050,1,0,0:0:0:0:
64,192,62129,1,0,0:0:0:0:
320,192,62287,1,0,0:0:0:0:
448,192,62287,1,0,0:0:0:0:
320,192,62603,1,0,0:0:0:0:
448,192,62603,1,0,0:0:0:0:
320,192,62919,1,0,0:0:0:0:
448,192,62919,1,0,0:0:0:0:
320,192,63235,1,0,0:0:0:0:
448,192,63235,1,0,0:0:0:0:
192,192,63392,1,0,0:0:0:0:
64,192,63392,1,0,0:0:0:0:
448,192,63392,1,0,0:0:0:0:
320,192,63471,1,0,0:0:0:0:
192,192,63550,1,0,0:0:0:0:
448,192,63629,1,0,0:0:0:0:
320,192,63708,1,0,0:0:0:0:
64,192,63708,1,0,0:0:0:0:
192,192,63787,1,0,0:0:0:0:
448,192,63866,1,0,0:0:0:0:
64,192,63945,1,0,0:0:0:0:
320,192,64024,1,0,0:0:0:0:
192,192,64103,1,0,0:0:0:0:
320,192,64182,1,0,0:0:0:0:
64,192,64261,1,0,0:0:0:0:
192,192,64340,1,0,0:0:0:0:
448,192,64340,1,0,0:0:0:0:
320,192,64419,1,0,0:0:0:0:
64,192,64498,1,0,0:0:0:0:
192,192,64577,1,0,0:0:0:0:
448,192,64656,1,0,0:0:0:0:
64,192,64735,1,0,0:0:0:0:
320,192,64813,1,0,0:0:0:0:
192,192,64892,1,0,0:0:0:0:
320,192,64971,1,0,0:0:0:0:
448,192,64971,1,0,0:0:0:0:
64,192,65050,1,0,0:0:0:0:
192,192,65129,1,0,0:0:0:0:
448,192,65208,1,0,0:0:0:0:
64,192,65287,1,0,0:0:0:0:
320,192,65366,1,0,0:0:0:0:
192,192,65445,1,0,0:0:0:0:
448,192,65524,1,0,0:0:0:0:
320,192,65603,1,0,0:0:0:0:
192,192,65603,1,0,0:0:0:0:
64,192,65682,1,0,0:0:0:0:
448,192,65761,1,0,0:0:0:0:
192,192,65840,1,0,0:0:0:0:
320,192,65919,1,0,0:0:0:0:
64,192,65998,1,0,0:0:0:0:
320,192,66077,1,0,0:0:0:0:
64,192,66156,1,0,0:0:0:0:
192,192,66235,1,0,0:0:0:0:
448,192,66235,1,0,0:0:0:0:
320,192,66313,1,0,0:0:0:0:
64,192,66392,1,0,0:0:0:0:
192,192,66471,1,0,0:0:0:0:
448,192,66550,1,0,0:0:0:0:
64,192,66629,1,0,0:0:0:0:
320,192,66708,1,0,0:0:0:0:
192,192,66787,1,0,0:0:0:0:
320,192,66866,1,0,0:0:0:0:
448,192,66866,1,0,0:0:0:0:
64,192,66945,1,0,0:0:0:0:
192,192,67024,1,0,0:0:0:0:
448,192,67103,1,0,0:0:0:0:
64,192,67182,1,0,0:0:0:0:
320,192,67261,1,0,0:0:0:0:
192,192,67340,1,0,0:0:0:0:
448,192,67419,1,0,0:0:0:0:
320,192,67498,1,0,0:0:0:0:
64,192,67498,1,0,0:0:0:0:
192,192,67577,1,0,0:0:0:0:
448,192,67656,1,0,0:0:0:0:
64,192,67735,1,0,0:0:0:0:
192,192,67813,1,0,0:0:0:0:
320,192,67892,1,0,0:0:0:0:
64,192,67971,1,0,0:0:0:0:
448,192,68050,1,0,0:0:0:0:
320,192,68129,1,0,0:0:0:0:
64,192,68129,1,0,0:0:0:0:
192,192,68208,1,0,0:0:0:0:
448,192,68287,1,0,0:0:0:0:
320,192,68366,1,0,0:0:0:0:
192,192,68445,1,0,0:0:0:0:
320,192,68524,1,0,0:0:0:0:
192,192,68603,1,0,0:0:0:0:
448,192,68682,1,0,0:0:0:0:
320,192,68761,1,0,0:0:0:0:
64,192,68761,1,0,0:0:0:0:
192,192,68840,1,0,0:0:0:0:
448,192,68919,1,0,0:0:0:0:
64,192,68998,1,0,0:0:0:0:
448,192,69077,1,0,0:0:0:0:
320,192,69156,1,0,0:0:0:0:
192,192,69235,1,0,0:0:0:0:
320,192,69313,1,0,0:0:0:0:
192,192,69392,1,0,0:0:0:0:
64,192,69392,1,0,0:0:0:0:
448,192,69471,1,0,0:0:0:0:
320,192,69550,1,0,0:0:0:0:
64,192,69629,1,0,0:0:0:0:
192,192,69708,1,0,0:0:0:0:
448,192,69787,1,0,0:0:0:0:
192,192,69866,1,0,0:0:0:0:
320,192,69945,1,0,0:0:0:0:
64,192,70024,1,0,0:0:0:0:
448,192,70024,1,0,0:0:0:0:
192,192,70103,1,0,0:0:0:0:
320,192,70182,1,0,0:0:0:0:
192,192,70261,1,0,0:0:0:0:
448,192,70340,1,0,0:0:0:0:
320,192,70419,1,0,0:0:0:0:
64,192,70498,1,0,0:0:0:0:
448,192,70577,1,0,0:0:0:0:
320,192,70656,1,0,0:0:0:0:
64,192,70656,1,0,0:0:0:0:
192,192,70735,1,0,0:0:0:0:
448,192,70813,1,0,0:0:0:0:
64,192,70892,1,0,0:0:0:0:
192,192,70971,1,0,0:0:0:0:
320,192,71050,1,0,0:0:0:0:
64,192,71129,1,0,0:0:0:0:
192,192,71208,1,0,0:0:0:0:
320,192,71287,1,0,0:0:0:0:
448,192,71287,1,0,0:0:0:0:
192,192,71366,1,0,0:0:0:0:
448,192,71445,1,0,0:0:0:0:
320,192,71524,1,0,0:0:0:0:
64,192,71603,1,0,0:0:0:0:
448,192,71682,1,0,0:0:0:0:
320,192,71761,1,0,0:0:0:0:
192,192,71840,1,0,0:0:0:0:
448,192,71919,1,0,0:0:0:0:
64,192,71919,1,0,0:0:0:0:
192,192,71998,1,0,0:0:0:0:
320,192,72077,1,0,0:0:0:0:
192,192,72156,1,0,0:0:0:0:
448,192,72235,1,0,0:0:0:0:
320,192,72313,1,0,0:0:0:0:
64,192,72392,1,0,0:0:0:0:
448,192,72471,1,0,0:0:0:0:
320,192,72550,1,0,0:0:0:0:
64,192,72550,1,0,0:0:0:0:
192,192,72629,1,0,0:0:0:0:
448,192,72708,1,0,0:0:0:0:
64,192,72787,1,0,0:0:0:0:
320,192,72866,1,0,0:0:0:0:
448,192,72866,1,0,0:0:0:0:
192,192,72945,1,0,0:0:0:0:
64,192,72945,1,0,0:0:0:0:
320,192,73024,1,0,0:0:0:0:
448,192,73024,1,0,0:0:0:0:
192,192,73103,1,0,0:0:0:0:
64,192,73103,1,0,0:0:0:0:
320,192,73182,1,0,0:0:0:0:
64,192,73261,1,0,0:0:0:0:
320,192,73340,1,0,0:0:0:0:
64,192,73419,1,0,0:0:0:0:
192,192,73498,1,0,0:0:0:0:
320,192,73498,1,0,0:0:0:0:
448,192,73498,1,0,0:0:0:0:
64,192,73656,1,0,0:0:0:0:
448,192,73656,1,0,0:0:0:0:
64,192,73813,1,0,0:0:0:0:
192,192,73813,1,0,0:0:0:0:
448,192,73971,1,0,0:0:0:0:
320,192,73971,1,0,0:0:0:0:
448,192,74129,1,0,0:0:0:0:
64,192,74287,1,0,0:0:0:0:
64,192,74445,1,0,0:0:0:0:
448,192,74445,1,0,0:0:0:0:
192,192,74603,1,0,0:0:0:0:
320,192,74603,1,0,0:0:0:0:
192,192,74761,1,0,0:0:0:0:
448,192,74919,1,0,0:0:0:0:
320,192,74919,1,0,0:0:0:0:
192,192,75077,1,0,0:0:0:0:
448,192,75077,1,0,0:0:0:0:
64,192,75235,1,0,0:0:0:0:
192,192,75313,1,0,0:0:0:0:
320,192,75392,1,0,0:0:0:0:
448,192,75392,1,0,0:0:0:0:
64,192,75550,1,0,0:0:0:0:
320,192,75708,1,0,0:0:0:0:
448,192,75708,1,0,0:0:0:0:
192,192,75866,1,0,0:0:0:0:
64,192,76024,1,0,0:0:0:0:
448,192,76024,1,0,0:0:0:0:
448,192,76182,1,0,0:0:0:0:
320,192,76340,1,0,0:0:0:0:
192,192,76340,1,0,0:0:0:0:
448,192,76498,1,0,0:0:0:0:
64,192,76498,1,0,0:0:0:0:
448,192,76656,1,0,0:0:0:0:
320,192,76656,1,0,0:0:0:0:
192,192,76813,1,0,0:0:0:0:
448,192,76971,1,0,0:0:0:0:
64,192,76971,1,0,0:0:0:0:
64,192,77129,1,0,0:0:0:0:
320,192,77287,1,0,0:0:0:0:
192,192,77445,1,0,0:0:0:0:
320,192,77445,1,0,0:0:0:0:
192,192,77603,1,0,0:0:0:0:
448,192,77603,1,0,0:0:0:0:
64,192,77761,1,0,0:0:0:0:
192,192,77840,1,0,0:0:0:0:
320,192,77919,1,0,0:0:0:0:
448,192,77919,1,0,0:0:0:0:
64,192,78077,1,0,0:0:0:0:
320,192,78235,1,0,0:0:0:0:
448,192,78235,1,0,0:0:0:0:
192,192,78392,1,0,0:0:0:0:
64,192,78550,1,0,0:0:0:0:
448,192,78550,1,0,0:0:0:0:
64,192,78708,1,0,0:0:0:0:
192,192,78866,1,0,0:0:0:0:
448,192,78866,1,0,0:0:0:0:
192,192,79024,1,0,0:0:0:0:
320,192,79182,1,0,0:0:0:0:
448,192,79182,1,0,0:0:0:0:
320,192,79340,1,0,0:0:0:0:
64,192,79498,1,0,0:0:0:0:
448,192,79498,1,0,0:0:0:0:
448,192,79656,1,0,0:0:0:0:
64,192,79813,1,0,0:0:0:0:
192,192,79813,1,0,0:0:0:0:
192,192,79971,1,0,0:0:0:0:
448,192,80129,1,0,0:0:0:0:
320,192,80129,1,0,0:0:0:0:
64,192,80287,1,0,0:0:0:0:
192,192,80366,1,0,0:0:0:0:
320,192,80445,1,0,0:0:0:0:
448,192,80445,1,0,0:0:0:0:
64,192,80603,1,0,0:0:0:0:
320,192,80761,1,0,0:0:0:0:
448,192,80761,1,0,0:0:0:0:
192,192,80919,1,0,0:0:0:0:
64,192,81077,1,0,0:0:0:0:
448,192,81077,1,0,0:0:0:0:
448,192,81235,1,0,0:0:0:0:
64,192,81392,1,0,0:0:0:0:
320,192,81392,1,0,0:0:0:0:
320,192,81550,1,0,0:0:0:0:
192,192,81708,1,0,0:0:0:0:
64,192,81866,1,0,0:0:0:0:
448,192,81866,1,0,0:0:0:0:
64,192,82024,1,0,0:0:0:0:
448,192,82024,1,0,0:0:0:0:
320,192,82142,1,0,0:0:0:0:
192,192,82221,1,0,0:0:0:0:
320,192,82300,1,0,0:0:0:0:
448,192,82340,1,0,0:0:0:0:
64,192,82340,1,0,0:0:0:0:
192,192,82498,1,0,0:0:0:0:
448,192,82656,1,0,0:0:0:0:
64,192,82813,1,0,0:0:0:0:
192,192,82892,1,0,0:0:0:0:
448,192,82971,1,0,0:0:0:0:
320,192,82971,1,0,0:0:0:0:
64,192,83050,1,0,0:0:0:0:
320,192,83129,1,0,0:0:0:0:
192,192,83208,1,0,0:0:0:0:
64,192,83287,1,0,0:0:0:0:
448,192,83445,1,0,0:0:0:0:
320,192,83524,1,0,0:0:0:0:
192,192,83603,1,0,0:0:0:0:
64,192,83603,1,0,0:0:0:0:
448,192,83603,1,0,0:0:0:0:
320,192,83682,1,0,0:0:0:0:
64,192,83761,1,0,0:0:0:0:
192,192,83840,1,0,0:0:0:0:
320,192,83919,1,0,0:0:0:0:
448,192,83919,1,0,0:0:0:0:
192,192,83998,1,0,0:0:0:0:
448,192,84077,1,0,0:0:0:0:
64,192,84156,1,0,0:0:0:0:
320,192,84235,1,0,0:0:0:0:
192,192,84313,1,0,0:0:0:0:
320,192,84392,1,0,0:0:0:0:
192,192,84471,1,0,0:0:0:0:
64,192,84550,1,0,0:0:0:0:
448,192,84550,1,0,0:0:0:0:
320,192,84629,1,0,0:0:0:0:
192,192,84708,1,0,0:0:0:0:
448,192,84787,1,0,0:0:0:0:
64,192,84866,1,0,0:0:0:0:
448,192,84945,1,0,0:0:0:0:
64,192,85024,1,0,0:0:0:0:
192,192,85103,1,0,0:0:0:0:
320,192,85182,1,0,0:0:0:0:
448,192,85182,1,0,0:0:0:0:
192,192,85261,1,0,0:0:0:0:
320,192,85340,1,0,0:0:0:0:
64,192,85419,1,0,0:0:0:0:
448,192,85498,1,0,0:0:0:0:
320,192,85577,1,0,0:0:0:0:
192,192,85656,1,0,0:0:0:0:
448,192,85735,1,0,0:0:0:0:
320,192,85813,1,0,0:0:0:0:
64,192,85813,1,0,0:0:0:0:
192,192,85892,1,0,0:0:0:0:
448,192,85971,1,0,0:0:0:0:
320,192,86050,1,0,0:0:0:0:
192,192,86129,1,0,0:0:0:0:
64,192,86129,1,0,0:0:0:0:
320,192,86208,1,0,0:0:0:0:
64,192,86287,1,0,0:0:0:0:
192,192,86366,1,0,0:0:0:0:
320,192,86445,1,0,0:0:0:0:
448,192,86445,1,0,0:0:0:0:
192,192,86524,1,0,0:0:0:0:
448,192,86603,1,0,0:0:0:0:
64,192,86682,1,0,0:0:0:0:
320,192,86761,1,0,0:0:0:0:
192,192,86840,1,0,0:0:0:0:
448,192,86919,1,0,0:0:0:0:
320,192,86998,1,0,0:0:0:0:
192,192,87077,1,0,0:0:0:0:
64,192,87077,1,0,0:0:0:0:
448,192,87156,1,0,0:0:0:0:
64,192,87235,1,0,0:0:0:0:
192,192,87313,1,0,0:0:0:0:
320,192,87392,1,0,0:0:0:0:
192,192,87471,1,0,0:0:0:0:
320,192,87550,1,0,0:0:0:0:
64,192,87629,1,0,0:0:0:0:
192,192,87708,1,0,0:0:0:0:
448,192,87708,1,0,0:0:0:0:
320,192,87787,1,0,0:0:0:0:
64,192,87866,1,0,0:0:0:0:
448,192,87945,1,0,0:0:0:0:
320,192,88024,1,0,0:0:0:0:
192,192,88103,1,0,0:0:0:0:
448,192,88182,1,0,0:0:0:0:
320,192,88261,1,0,0:0:0:0:
192,192,88340,1,0,0:0:0:0:
64,192,88340,1,0,0:0:0:0:
320,192,88419,1,0,0:0:0:0:
64,192,88498,1,0,0:0:0:0:
448,192,88577,1,0,0:0:0:0:
192,192,88656,1,0,0:0:0:0:
320,192,88656,1,0,0:0:0:0:
64,192,88735,1,0,0:0:0:0:
448,192,88813,1,0,0:0:0:0:
192,192,88892,1,0,0:0:0:0:
320,192,88971,1,0,0:0:0:0:
448,192,88971,1,0,0:0:0:0:
64,192,89050,1,0,0:0:0:0:
320,192,89129,1,0,0:0:0:0:
64,192,89208,1,0,0:0:0:0:
192,192,89287,1,0,0:0:0:0:
448,192,89366,1,0,0:0:0:0:
64,192,89445,1,0,0:0:0:0:
320,192,89524,1,0,0:0:0:0:
192,192,89603,1,0,0:0:0:0:
64,192,89603,1,0,0:0:0:0:
448,192,89682,1,0,0:0:0:0:
320,192,89761,1,0,0:0:0:0:
64,192,89840,1,0,0:0:0:0:
192,192,89919,1,0,0:0:0:0:
320,192,89998,1,0,0:0:0:0:
192,192,90077,1,0,0:0:0:0:
448,192,90156,1,0,0:0:0:0:
320,192,90235,1,0,0:0:0:0:
64,192,90235,1,0,0:0:0:0:
192,192,90313,1,0,0:0:0:0:
448,192,90392,1,0,0:0:0:0:
320,192,90471,1,0,0:0:0:0:
192,192,90550,1,0,0:0:0:0:
448,192,90629,1,0,0:0:0:0:
64,192,90708,1,0,0:0:0:0:
192,192,90787,1,0,0:0:0:0:
320,192,90866,1,0,0:0:0:0:
448,192,90866,1,0,0:0:0:0:
192,192,90945,1,0,0:0:0:0:
448,192,91024,1,0,0:0:0:0:
320,192,91103,1,0,0:0:0:0:
192,192,91182,1,0,0:0:0:0:
64,192,91182,1,0,0:0:0:0:
448,192,91261,1,0,0:0:0:0:
64,192,91340,1,0,0:0:0:0:
192,192,91419,1,0,0:0:0:0:
320,192,91498,1,0,0:0:0:0:
448,192,91498,1,0,0:0:0:0:
64,192,91577,1,0,0:0:0:0:
448,192,91656,1,0,0:0:0:0:
320,192,91735,1,0,0:0:0:0:
192,192,91813,1,0,0:0:0:0:
320,192,91892,1,0,0:0:0:0:
64,192,91971,1,0,0:0:0:0:
192,192,92050,1,0,0:0:0:0:
320,192,92129,1,0,0:0:0:0:
448,192,92129,1,0,0:0:0:0:
192,192,92208,1,0,0:0:0:0:
448,192,92287,1,0,0:0:0:0:
320,192,92366,1,0,0:0:0:0:
64,192,92445,1,0,0:0:0:0:
448,192,92524,1,0,0:0:0:0:
64,192,92603,1,0,0:0:0:0:
320,192,92682,1,0,0:0:0:0:
192,192,92761,1,0,0:0:0:0:
64,192,92761,1,0,0:0:0:0:
448,192,92840,1,0,0:0:0:0:
320,192,92919,1,0,0:0:0:0:
64,192,92998,1,0,0:0:0:0:
448,192,93077,1,0,0:0:0:0:
320,192,93077,1,0,0:0:0:0:
192,192,93156,1,0,0:0:0:0:
320,192,93235,1,0,0:0:0:0:
448,192,93235,1,0,0:0:0:0:
192,192,93313,1,0,0:0:0:0:
64,192,93392,1,0,0:0:0:0:
448,192,93471,1,0,0:0:0:0:
320,192,93550,1,0,0:0:0:0:
192,192,93590,1,0,0:0:0:0:
64,192,93629,1,0,0:0:0:0:
320,192,93708,1,0,0:0:0:0:
448,192,93708,1,0,0:0:0:0:
64,192,93787,1,0,0:0:0:0:
448,192,93866,1,0,0:0:0:0:
192,192,93945,1,0,0:0:0:0:
320,192,94024,1,0,0:0:0:0:
64,192,94024,1,0,0:0:0:0:
448,192,94103,1,0,0:0:0:0:
192,192,94182,1,0,0:0:0:0:
320,192,94261,1,0,0:0:0:0:
64,192,94340,1,0,0:0:0:0:
448,192,94419,1,0,0:0:0:0:
320,192,94498,1,0,0:0:0:0:
192,192,94577,1,0,0:0:0:0:
64,192,94656,1,0,0:0:0:0:
448,192,94656,1,0,0:0:0:0:
192,192,94735,1,0,0:0:0:0:
320,192,94813,1,0,0:0:0:0:
64,192,94892,1,0,0:0:0:0:
448,192,94971,1,0,0:0:0:0:
64,192,95050,1,0,0:0:0:0:
320,192,95129,1,0,0:0:0:0:
192,192,95208,1,0,0:0:0:0:
64,192,95287,1,0,0:0:0:0:
448,192,95287,1,0,0:0:0:0:
192,192,95366,1,0,0:0:0:0:
448,192,95445,1,0,0:0:0:0:
320,192,95524,1,0,0:0:0:0:
64,192,95603,1,0,0:0:0:0:
448,192,95682,1,0,0:0:0:0:
192,192,95761,1,0,0:0:0:0:
320,192,95840,1,0,0:0:0:0:
192,192,95919,1,0,0:0:0:0:
64,192,95919,1,0,0:0:0:0:
448,192,95998,1,0,0:0:0:0:
64,192,96077,1,0,0:0:0:0:
192,192,96156,1,0,0:0:0:0:
448,192,96235,1,0,0:0:0:0:
320,192,96235,1,0,0:0:0:0:
64,192,96313,1,0,0:0:0:0:
320,192,96392,1,0,0:0:0:0:
192,192,96471,1,0,0:0:0:0:
448,192,96550,1,0,0:0:0:0:
64,192,96550,1,0,0:0:0:0:
192,192,96629,1,0,0:0:0:0:
320,192,96708,1,0,0:0:0:0:
64,192,96787,1,0,0:0:0:0:
192,192,96866,1,0,0:0:0:0:
448,192,96945,1,0,0:0:0:0:
64,192,97024,1,0,0:0:0:0:
448,192,97103,1,0,0:0:0:0:
320,192,97182,1,0,0:0:0:0:
64,192,97182,1,0,0:0:0:0:
192,192,97261,1,0,0:0:0:0:
448,192,97340,1,0,0:0:0:0:
320,192,97419,1,0,0:0:0:0:
64,192,97498,1,0,0:0:0:0:
448,192,97577,1,0,0:0:0:0:
192,192,97656,1,0,0:0:0:0:
320,192,97735,1,0,0:0:0:0:
64,192,97813,1,0,0:0:0:0:
448,192,97813,1,0,0:0:0:0:
320,192,97892,1,0,0:0:0:0:
192,192,97971,1,0,0:0:0:0:
320,192,98050,1,0,0:0:0:0:
64,192,98129,1,0,0:0:0:0:
192,192,98208,1,0,0:0:0:0:
448,192,98287,1,0,0:0:0:0:
64,192,98366,1,0,0:0:0:0:
192,192,98445,1,0,0:0:0:0:
448,192,98445,1,0,0:0:0:0:
320,192,98524,1,0,0:0:0:0:
64,192,98603,1,0,0:0:0:0:
192,192,98682,1,0,0:0:0:0:
320,192,98761,1,0,0:0:0:0:
448,192,98761,1,0,0:0:0:0:
192,192,98840,1,0,0:0:0:0:
448,192,98919,1,0,0:0:0:0:
320,192,98998,1,0,0:0:0:0:
192,192,99077,1,0,0:0:0:0:
64,192,99077,1,0,0:0:0:0:
320,192,99156,1,0,0:0:0:0:
64,192,99235,1,0,0:0:0:0:
448,192,99313,1,0,0:0:0:0:
192,192,99392,1,0,0:0:0:0:
320,192,99471,1,0,0:0:0:0:
192,192,99550,1,0,0:0:0:0:
448,192,99629,1,0,0:0:0:0:
320,192,99708,1,0,0:0:0:0:
64,192,99708,1,0,0:0:0:0:
192,192,99787,1,0,0:0:0:0:
448,192,99866,1,0,0:0:0:0:
64,192,99945,1,0,0:0:0:0:
192,192,100024,1,0,0:0:0:0:
320,192,100103,1,0,0:0:0:0:
64,192,100182,1,0,0:0:0:0:
448,192,100261,1,0,0:0:0:0:
320,192,100340,1,0,0:0:0:0:
64,192,100340,1,0,0:0:0:0:
192,192,100419,1,0,0:0:0:0:
448,192,100498,1,0,0:0:0:0:
192,192,100577,1,0,0:0:0:0:
320,192,100656,1,0,0:0:0:0:
64,192,100735,1,0,0:0:0:0:
192,192,100813,1,0,0:0:0:0:
448,192,100892,1,0,0:0:0:0:
320,192,100971,1,0,0:0:0:0:
192,192,100971,1,0,0:0:0:0:
64,192,101050,1,0,0:0:0:0:
448,192,101129,1,0,0:0:0:0:
320,192,101208,1,0,0:0:0:0:
192,192,101287,1,0,0:0:0:0:
64,192,101287,1,0,0:0:0:0:
448,192,101366,1,0,0:0:0:0:
192,192,101445,1,0,0:0:0:0:
320,192,101524,1,0,0:0:0:0:
64,192,101603,1,0,0:0:0:0:
448,192,101603,1,0,0:0:0:0:
192,192,101682,1,0,0:0:0:0:
320,192,101761,1,0,0:0:0:0:
192,192,101840,1,0,0:0:0:0:
448,192,101919,1,0,0:0:0:0:
64,192,101998,1,0,0:0:0:0:
320,192,102077,1,0,0:0:0:0:
192,192,102156,1,0,0:0:0:0:
320,192,102235,1,0,0:0:0:0:
448,192,102235,1,0,0:0:0:0:
64,192,102313,1,0,0:0:0:0:
192,192,102392,1,0,0:0:0:0:
448,192,102471,1,0,0:0:0:0:
64,192,102550,1,0,0:0:0:0:
320,192,102629,1,0,0:0:0:0:
64,192,102708,1,0,0:0:0:0:
192,192,102787,1,0,0:0:0:0:
320,192,102866,1,0,0:0:0:0:
448,192,102866,1,0,0:0:0:0:
64,192,102945,1,0,0:0:0:0:
448,192,103024,1,0,0:0:0:0:
320,192,103103,1,0,0:0:0:0:
192,192,103182,1,0,0:0:0:0:
64,192,103182,1,0,0:0:0:0:
320,192,103261,1,0,0:0:0:0:
448,192,103261,1,0,0:0:0:0:
192,192,103340,1,0,0:0:0:0:
64,192,103340,1,0,0:0:0:0:
320,192,103419,1,0,0:0:0:0:
448,192,103419,1,0,0:0:0:0:
64,192,103498,1,0,0:0:0:0:
192,192,103577,1,0,0:0:0:0:
448,192,103656,1,0,0:0:0:0:
192,192,103735,1,0,0:0:0:0:
448,192,103813,128,0,103971:0:0:0:0:
64,192,103813,128,0,105077:0:0:0:0:
320,192,103813,128,0,103971:0:0:0:0:
192,192,105077,128,0,105235:0:0:0:0:
448,192,105077,128,0,105235:0:0:0:0:
320,192,105077,128,0,105708:0:0:0:0:
192,192,105708,128,0,106340:0:0:0:0:
448,192,106340,128,0,106498:0:0:0:0:
320,192,106340,128,0,106498:0:0:0:0:
64,192,106340,128,0,106971:0:0:0:0:
448,192,106971,128,0,107603:0:0:0:0:
64,192,107603,128,0,107761:0:0:0:0:
320,192,107603,128,0,107761:0:0:0:0:
192,192,107603,128,0,108235:0:0:0:0:
320,192,108235,128,0,108866:0:0:0:0:
64,192,108866,128,0,109024:0:0:0:0:
192,192,108866,128,0,109024:0:0:0:0:
448,192,108866,128,0,109498:0:0:0:0:
192,192,110129,128,0,110682:0:0:0:0:
320,192,110129,128,0,110761:0:0:0:0:
448,192,110129,128,0,110682:0:0:0:0:
64,192,110761,128,0,111313:0:0:0:0:
192,192,110761,128,0,111313:0:0:0:0:
448,192,110761,128,0,111392:0:0:0:0:
64,192,111392,128,0,111550:0:0:0:0:
192,192,111392,128,0,111550:0:0:0:0:
320,192,111392,128,0,112024:0:0:0:0:
64,192,112656,128,0,113287:0:0:0:0:
320,192,112656,128,0,113208:0:0:0:0:
448,192,112656,128,0,113208:0:0:0:0:
192,192,113287,1,0,0:0:0:0:
448,192,113287,1,0,0:0:0:0:
320,192,113287,1,0,0:0:0:0:
64,192,113445,1,0,0:0:0:0:
320,192,113445,1,0,0:0:0:0:
192,192,113603,1,0,0:0:0:0:
64,192,113603,1,0,0:0:0:0:
320,192,113682,1,0,0:0:0:0:
448,192,113682,1,0,0:0:0:0:
192,192,113761,1,0,0:0:0:0:
64,192,113761,1,0,0:0:0:0:
320,192,113840,1,0,0:0:0:0:
448,192,113840,1,0,0:0:0:0:
192,192,113919,1,0,0:0:0:0:
320,192,113998,1,0,0:0:0:0:
64,192,114077,1,0,0:0:0:0:
192,192,114156,1,0,0:0:0:0:
448,192,114235,1,0,0:0:0:0:
320,192,114235,1,0,0:0:0:0:
192,192,114313,1,0,0:0:0:0:
448,192,114392,1,0,0:0:0:0:
64,192,114471,1,0,0:0:0:0:
320,192,114550,1,0,0:0:0:0:
192,192,114629,1,0,0:0:0:0:
448,192,114708,1,0,0:0:0:0:
64,192,114787,1,0,0:0:0:0:
192,192,114866,1,0,0:0:0:0:
448,192,114866,1,0,0:0:0:0:
320,192,114945,1,0,0:0:0:0:
64,192,115024,1,0,0:0:0:0:
192,192,115103,1,0,0:0:0:0:
320,192,115182,1,0,0:0:0:0:
192,192,115261,1,0,0:0:0:0:
448,192,115340,1,0,0:0:0:0:
64,192,115419,1,0,0:0:0:0:
192,192,115498,1,0,0:0:0:0:
448,192,115498,1,0,0:0:0:0:
320,192,115577,1,0,0:0:0:0:
64,192,115656,1,0,0:0:0:0:
192,192,115735,1,0,0:0:0:0:
448,192,115813,1,0,0:0:0:0:
320,192,115892,1,0,0:0:0:0:
192,192,115971,1,0,0:0:0:0:
64,192,116050,1,0,0:0:0:0:
192,192,116129,1,0,0:0:0:0:
448,192,116129,1,0,0:0:0:0:
320,192,116208,1,0,0:0:0:0:
192,192,116287,1,0,0:0:0:0:
64,192,116366,1,0,0:0:0:0:
320,192,116445,1,0,0:0:0:0:
448,192,116445,1,0,0:0:0:0:
192,192,116524,1,0,0:0:0:0:
448,192,116603,1,0,0:0:0:0:
64,192,116682,1,0,0:0:0:0:
192,192,116761,1,0,0:0:0:0:
320,192,116761,1,0,0:0:0:0:
64,192,116840,1,0,0:0:0:0:
448,192,116919,1,0,0:0:0:0:
192,192,116998,1,0,0:0:0:0:
320,192,117077,1,0,0:0:0:0:
64,192,117156,1,0,0:0:0:0:
320,192,117235,1,0,0:0:0:0:
192,192,117313,1,0,0:0:0:0:
64,192,117392,1,0,0:0:0:0:
448,192,117392,1,0,0:0:0:0:
320,192,117471,1,0,0:0:0:0:
192,192,117550,1,0,0:0:0:0:
320,192,117629,1,0,0:0:0:0:
64,192,117708,1,0,0:0:0:0:
192,192,117787,1,0,0:0:0:0:
448,192,117866,1,0,0:0:0:0:
64,192,117945,1,0,0:0:0:0:
192,192,118024,1,0,0:0:0:0:
448,192,118024,1,0,0:0:0:0:
320,192,118103,1,0,0:0:0:0:
64,192,118182,1,0,0:0:0:0:
448,192,118261,1,0,0:0:0:0:
64,192,118340,128,0,118656:0:0:0:0:
192,192,118340,128,0,118577:0:0:0:0:
320,192,118340,128,0,118577:0:0:0:0:
448,192,118656,128,0,118892:0:0:0:0:
320,192,118656,128,0,118892:0:0:0:0:
192,192,118656,128,0,118971:0:0:0:0:
448,192,118971,1,0,0:0:0:0:
320,192,118971,1,0,0:0:0:0:
64,192,118971,1,0,0:0:0:0:
192,192,119050,1,0,0:0:0:0:
320,192,119129,1,0,0:0:0:0:
64,192,119208,1,0,0:0:0:0:
192,192,119287,1,0,0:0:0:0:
448,192,119287,1,0,0:0:0:0:
320,192,119366,1,0,0:0:0:0:
64,192,119445,1,0,0:0:0:0:
448,192,119524,1,0,0:0:0:0:
320,192,119603,1,0,0:0:0:0:
192,192,119682,1,0,0:0:0:0:
320,192,119761,1,0,0:0:0:0:
64,192,119840,1,0,0:0:0:0:
192,192,119919,1,0,0:0:0:0:
448,192,119919,1,0,0:0:0:0:
320,192,119998,1,0,0:0:0:0:
64,192,120077,1,0,0:0:0:0:
448,192,120156,1,0,0:0:0:0:
192,192,120235,1,0,0:0:0:0:
320,192,120313,1,0,0:0:0:0:
192,192,120392,1,0,0:0:0:0:
448,192,120471,1,0,0:0:0:0:
320,192,120550,1,0,0:0:0:0:
64,192,120550,1,0,0:0:0:0:
192,192,120629,1,0,0:0:0:0:
448,192,120708,1,0,0:0:0:0:
64,192,120787,1,0,0:0:0:0:
320,192,120866,1,0,0:0:0:0:
192,192,120866,1,0,0:0:0:0:
64,192,120945,1,0,0:0:0:0:
448,192,120945,1,0,0:0:0:0:
320,192,121024,1,0,0:0:0:0:
192,192,121024,1,0,0:0:0:0:
64,192,121103,1,0,0:0:0:0:
448,192,121103,1,0,0:0:0:0:
320,192,121182,1,0,0:0:0:0:
192,192,121261,1,0,0:0:0:0:
64,192,121340,1,0,0:0:0:0:
192,192,121419,1,0,0:0:0:0:
64,192,121498,1,0,0:0:0:0:
320,192,121498,1,0,0:0:0:0:
448,192,121498,1,0,0:0:0:0:
192,192,121656,1,0,0:0:0:0:
192,192,121813,1,0,0:0:0:0:
320,192,121813,1,0,0:0:0:0:
64,192,121971,1,0,0:0:0:0:
448,192,121971,1,0,0:0:0:0:
320,192,122129,1,0,0:0:0:0:
192,192,122129,1,0,0:0:0:0:
320,192,122287,1,0,0:0:0:0:
64,192,122445,1,0,0:0:0:0:
192,192,122445,1,0,0:0:0:0:
64,192,122603,1,0,0:0:0:0:
448,192,122603,1,0,0:0:0:0:
192,192,122761,1,0,0:0:0:0:
320,192,122761,1,0,0:0:0:0:
64,192,122919,1,0,0:0:0:0:
64,192,123077,1,0,0:0:0:0:
448,192,123077,1,0,0:0:0:0:
448,192,123235,1,0,0:0:0:0:
192,192,123235,1,0,0:0:0:0:
320,192,123392,1,0,0:0:0:0:
64,192,123392,1,0,0:0:0:0:
320,192,123550,1,0,0:0:0:0:
192,192,123708,1,0,0:0:0:0:
64,192,123708,1,0,0:0:0:0:
64,192,123866,1,0,0:0:0:0:
448,192,123866,1,0,0:0:0:0:
448,192,124024,1,0,0:0:0:0:
192,192,124024,128,0,124656:0:0:0:0:
448,192,124656,128,0,125287:0:0:0:0:
320,192,125287,1,0,0:0:0:0:
192,192,125287,1,0,0:0:0:0:
64,192,125287,128,0,125919:0:0:0:0:
192,192,125919,1,0,0:0:0:0:
448,192,125919,1,0,0:0:0:0:
320,192,126077,1,0,0:0:0:0:
192,192,126077,1,0,0:0:0:0:
64,192,126235,1,0,0:0:0:0:
192,192,126313,1,0,0:0:0:0:
320,192,126392,1,0,0:0:0:0:
448,192,126392,1,0,0:0:0:0:
192,192,126471,1,0,0:0:0:0:
64,192,126471,1,0,0:0:0:0:
320,192,126550,1,0,0:0:0:0:
64,192,126629,1,0,0:0:0:0:
448,192,126708,1,0,0:0:0:0:
192,192,126787,1,0,0:0:0:0:
320,192,126866,1,0,0:0:0:0:
448,192,126866,1,0,0:0:0:0:
64,192,126945,1,0,0:0:0:0:
320,192,127024,1,0,0:0:0:0:
192,192,127103,1,0,0:0:0:0:
448,192,127182,1,0,0:0:0:0:
64,192,127261,1,0,0:0:0:0:
448,192,127340,1,0,0:0:0:0:
320,192,127419,1,0,0:0:0:0:
192,192,127498,1,0,0:0:0:0:
64,192,127498,1,0,0:0:0:0:
320,192,127577,1,0,0:0:0:0:
192,192,127656,1,0,0:0:0:0:
448,192,127735,1,0,0:0:0:0:
64,192,127813,1,0,0:0:0:0:
192,192,127892,1,0,0:0:0:0:
320,192,127971,1,0,0:0:0:0:
64,192,128050,1,0,0:0:0:0:
192,192,128129,1,0,0:0:0:0:
448,192,128129,1,0,0:0:0:0:
320,192,128208,1,0,0:0:0:0:
64,192,128287,1,0,0:0:0:0:
320,192,128366,1,0,0:0:0:0:
192,192,128445,1,0,0:0:0:0:
448,192,128524,1,0,0:0:0:0:
320,192,128603,1,0,0:0:0:0:
64,192,128682,1,0,0:0:0:0:
192,192,128761,1,0,0:0:0:0:
448,192,128761,1,0,0:0:0:0:
320,192,128840,1,0,0:0:0:0:
64,192,128919,1,0,0:0:0:0:
192,192,128998,1,0,0:0:0:0:
320,192,129077,1,0,0:0:0:0:
64,192,129156,1,0,0:0:0:0:
448,192,129235,1,0,0:0:0:0:
192,192,129313,1,0,0:0:0:0:
320,192,129392,1,0,0:0:0:0:
448,192,129392,1,0,0:0:0:0:
64,192,129471,1,0,0:0:0:0:
192,192,129550,1,0,0:0:0:0:
320,192,129629,1,0,0:0:0:0:
64,192,129708,1,0,0:0:0:0:
320,192,129787,1,0,0:0:0:0:
192,192,129866,1,0,0:0:0:0:
448,192,129945,1,0,0:0:0:0:
64,192,130024,1,0,0:0:0:0:
192,192,130024,1,0,0:0:0:0:
320,192,130103,1,0,0:0:0:0:
64,192,130182,1,0,0:0:0:0:
192,192,130261,1,0,0:0:0:0:
448,192,130340,1,0,0:0:0:0:
64,192,130419,1,0,0:0:0:0:
320,192,130498,1,0,0:0:0:0:
192,192,130577,1,0,0:0:0:0:
320,192,130656,1,0,0:0:0:0:
448,192,130656,1,0,0:0:0:0:
64,192,130735,1,0,0:0:0:0:
192,192,130813,1,0,0:0:0:0:
448,192,130892,1,0,0:0:0:0:
64,192,130971,1,0,0:0:0:0:
320,192,131050,1,0,0:0:0:0:
64,192,131129,1,0,0:0:0:0:
448,192,131208,1,0,0:0:0:0:
320,192,131287,1,0,0:0:0:0:
192,192,131287,1,0,0:0:0:0:
64,192,131366,1,0,0:0:0:0:
448,192,131445,1,0,0:0:0:0:
320,192,131524,1,0,0:0:0:0:
192,192,131603,1,0,0:0:0:0:
448,192,131682,1,0,0:0:0:0:
64,192,131761,1,0,0:0:0:0:
192,192,131840,1,0,0:0:0:0:
320,192,131919,1,0,0:0:0:0:
448,192,131919,1,0,0:0:0:0:
192,192,131998,1,0,0:0:0:0:
320,192,132077,1,0,0:0:0:0:
64,192,132156,1,0,0:0:0:0:
448,192,132235,1,0,0:0:0:0:
192,192,132313,1,0,0:0:0:0:
320,192,132392,1,0,0:0:0:0:
64,192,132471,1,0,0:0:0:0:
192,192,132550,1,0,0:0:0:0:
320,192,132550,1,0,0:0:0:0:
448,192,132629,1,0,0:0:0:0:
64,192,132708,1,0,0:0:0:0:
320,192,132787,1,0,0:0:0:0:
192,192,132866,1,0,0:0:0:0:
448,192,132945,1,0,0:0:0:0:
192,192,133024,1,0,0:0:0:0:
320,192,133103,1,0,0:0:0:0:
64,192,133182,1,0,0:0:0:0:
448,192,133182,1,0,0:0:0:0:
192,192,133261,1,0,0:0:0:0:
320,192,133340,1,0,0:0:0:0:
192,192,133419,1,0,0:0:0:0:
448,192,133498,1,0,0:0:0:0:
64,192,133577,1,0,0:0:0:0:
448,192,133656,1,0,0:0:0:0:
320,192,133735,1,0,0:0:0:0:
192,192,133813,1,0,0:0:0:0:
64,192,133813,1,0,0:0:0:0:
448,192,133892,1,0,0:0:0:0:
64,192,133971,1,0,0:0:0:0:
192,192,134050,1,0,0:0:0:0:
320,192,134129,1,0,0:0:0:0:
320,192,134287,1,0,0:0:0:0:
192,192,134445,1,0,0:0:0:0:
64,192,134445,1,0,0:0:0:0:
448,192,134603,1,0,0:0:0:0:
448,192,134761,1,0,0:0:0:0:
64,192,134919,1,0,0:0:0:0:
192,192,135077,1,0,0:0:0:0:
448,192,135077,1,0,0:0:0:0:
320,192,135235,1,0,0:0:0:0:
192,192,135313,1,0,0:0:0:0:
64,192,135392,1,0,0:0:0:0:
320,192,135550,1,0,0:0:0:0:
448,192,135550,1,0,0:0:0:0:
320,192,135866,1,0,0:0:0:0:
448,192,135866,1,0,0:0:0:0:
320,192,136182,1,0,0:0:0:0:
448,192,136182,1,0,0:0:0:0:
320,192,136498,1,0,0:0:0:0:
448,192,136498,1,0,0:0:0:0:
64,192,136656,1,0,0:0:0:0:
448,192,136656,1,0,0:0:0:0:
192,192,136735,1,0,0:0:0:0:
320,192,136813,1,0,0:0:0:0:
64,192,136892,1,0,0:0:0:0:
192,192,136971,1,0,0:0:0:0:
320,192,136971,1,0,0:0:0:0:
448,192,137050,1,0,0:0:0:0:
64,192,137129,1,0,0:0:0:0:
320,192,137208,1,0,0:0:0:0:
192,192,137287,1,0,0:0:0:0:
448,192,137366,1,0,0:0:0:0:
64,192,137445,1,0,0:0:0:0:
192,192,137524,1,0,0:0:0:0:
320,192,137603,1,0,0:0:0:0:
448,192,137603,1,0,0:0:0:0:
192,192,137682,1,0,0:0:0:0:
320,192,137761,1,0,0:0:0:0:
64,192,137840,1,0,0:0:0:0:
448,192,137919,1,0,0:0:0:0:
64,192,137998,1,0,0:0:0:0:
320,192,138077,1,0,0:0:0:0:
192,192,138156,1,0,0:0:0:0:
64,192,138235,1,0,0:0:0:0:
448,192,138235,1,0,0:0:0:0:
320,192,138313,1,0,0:0:0:0:
192,192,138392,1,0,0:0:0:0:
448,192,138471,1,0,0:0:0:0:
64,192,138550,1,0,0:0:0:0:
320,192,138629,1,0,0:0:0:0:
64,192,138708,1,0,0:0:0:0:
192,192,138787,1,0,0:0:0:0:
320,192,138866,1,0,0:0:0:0:
448,192,138866,1,0,0:0:0:0:
64,192,138945,1,0,0:0:0:0:
448,192,139024,1,0,0:0:0:0:
64,192,139103,1,0,0:0:0:0:
320,192,139182,1,0,0:0:0:0:
192,192,139261,1,0,0:0:0:0:
320,192,139340,1,0,0:0:0:0:
64,192,139419,1,0,0:0:0:0:
192,192,139498,1,0,0:0:0:0:
448,192,139498,1,0,0:0:0:0:
320,192,139577,1,0,0:0:0:0:
64,192,139656,1,0,0:0:0:0:
192,192,139735,1,0,0:0:0:0:
448,192,139813,1,0,0:0:0:0:
192,192,139892,1,0,0:0:0:0:
320,192,139971,1,0,0:0:0:0:
64,192,140050,1,0,0:0:0:0:
192,192,140129,1,0,0:0:0:0:
448,192,140129,1,0,0:0:0:0:
320,192,140208,1,0,0:0:0:0:
64,192,140287,1,0,0:0:0:0:
320,192,140366,1,0,0:0:0:0:
192,192,140445,1,0,0:0:0:0:
448,192,140524,1,0,0:0:0:0:
320,192,140603,1,0,0:0:0:0:
64,192,140682,1,0,0:0:0:0:
192,192,140761,1,0,0:0:0:0:
320,192,140761,1,0,0:0:0:0:
448,192,140840,1,0,0:0:0:0:
64,192,140919,1,0,0:0:0:0:
448,192,140998,1,0,0:0:0:0:
64,192,141077,1,0,0:0:0:0:
192,192,141156,1,0,0:0:0:0:
320,192,141235,1,0,0:0:0:0:
64,192,141313,1,0,0:0:0:0:
192,192,141392,1,0,0:0:0:0:
448,192,141392,1,0,0:0:0:0:
320,192,141471,1,0,0:0:0:0:
64,192,141550,1,0,0:0:0:0:
448,192,141629,1,0,0:0:0:0:
320,192,141708,1,0,0:0:0:0:
192,192,141787,1,0,0:0:0:0:
320,192,141866,1,0,0:0:0:0:
192,192,141945,1,0,0:0:0:0:
64,192,142024,1,0,0:0:0:0:
448,192,142024,1,0,0:0:0:0:
320,192,142103,1,0,0:0:0:0:
192,192,142182,1,0,0:0:0:0:
448,192,142261,1,0,0:0:0:0:
64,192,142340,1,0,0:0:0:0:
192,192,142419,1,0,0:0:0:0:
320,192,142498,1,0,0:0:0:0:
64,192,142577,1,0,0:0:0:0:
192,192,142656,1,0,0:0:0:0:
320,192,142656,1,0,0:0:0:0:
448,192,142735,1,0,0:0:0:0:
64,192,142813,1,0,0:0:0:0:
448,192,142892,1,0,0:0:0:0:
192,192,142971,1,0,0:0:0:0:
320,192,143050,1,0,0:0:0:0:
64,192,143129,1,0,0:0:0:0:
192,192,143208,1,0,0:0:0:0:
320,192,143287,1,0,0:0:0:0:
448,192,143287,1,0,0:0:0:0:
192,192,143366,1,0,0:0:0:0:
320,192,143445,1,0,0:0:0:0:
64,192,143524,1,0,0:0:0:0:
448,192,143603,1,0,0:0:0:0:
320,192,143682,1,0,0:0:0:0:
64,192,143761,1,0,0:0:0:0:
320,192,143840,1,0,0:0:0:0:
192,192,143919,1,0,0:0:0:0:
64,192,143919,1,0,0:0:0:0:
448,192,143998,1,0,0:0:0:0:
320,192,144077,1,0,0:0:0:0:
64,192,144156,1,0,0:0:0:0:
448,192,144235,1,0,0:0:0:0:
64,192,144313,1,0,0:0:0:0:
192,192,144392,1,0,0:0:0:0:
320,192,144471,1,0,0:0:0:0:
64,192,144550,1,0,0:0:0:0:
448,192,144550,1,0,0:0:0:0:
320,192,144629,1,0,0:0:0:0:
192,192,144708,1,0,0:0:0:0:
320,192,144787,1,0,0:0:0:0:
64,192,144866,1,0,0:0:0:0:
192,192,144945,1,0,0:0:0:0:
448,192,145024,1,0,0:0:0:0:
320,192,145103,1,0,0:0:0:0:
192,192,145182,1,0,0:0:0:0:
64,192,145182,1,0,0:0:0:0:
448,192,145261,1,0,0:0:0:0:
64,192,145340,1,0,0:0:0:0:
192,192,145419,1,0,0:0:0:0:
320,192,145498,1,0,0:0:0:0:
192,192,145577,1,0,0:0:0:0:
448,192,145656,1,0,0:0:0:0:
64,192,145735,1,0,0:0:0:0:
192,192,145813,1,0,0:0:0:0:
448,192,145813,1,0,0:0:0:0:
320,192,145892,1,0,0:0:0:0:
64,192,145971,1,0,0:0:0:0:
448,192,146050,1,0,0:0:0:0:
192,192,146129,1,0,0:0:0:0:
320,192,146208,1,0,0:0:0:0:
64,192,146366,1,0,0:0:0:0:
192,192,146445,1,0,0:0:0:0:
64,192,146524,1,0,0:0:0:0:
192,192,146603,1,0,0:0:0:0:
320,192,146682,1,0,0:0:0:0:
64,192,146761,1,0,0:0:0:0:
192,192,146761,1,0,0:0:0:0:
448,192,146761,1,0,0:0:0:0:
320,192,146919,1,0,0:0:0:0:
320,192,147077,1,0,0:0:0:0:
192,192,147077,1,0,0:0:0:0:
64,192,147235,1,0,0:0:0:0:
64,192,147392,1,0,0:0:0:0:
448,192,147392,1,0,0:0:0:0:
192,192,147550,1,0,0:0:0:0:
320,192,147708,1,0,0:0:0:0:
448,192,147708,1,0,0:0:0:0:
320,192,147866,1,0,0:0:0:0:
64,192,148024,1,0,0:0:0:0:
448,192,148024,1,0,0:0:0:0:
320,192,148182,1,0,0:0:0:0:
192,192,148340,1,0,0:0:0:0:
320,192,148340,1,0,0:0:0:0:
192,192,148498,1,0,0:0:0:0:
64,192,148577,1,0,0:0:0:0:
320,192,148656,1,0,0:0:0:0:
448,192,148656,1,0,0:0:0:0:
192,192,148813,1,0,0:0:0:0:
320,192,148971,1,0,0:0:0:0:
448,192,148971,1,0,0:0:0:0:
64,192,149129,1,0,0:0:0:0:
192,192,149287,1,0,0:0:0:0:
320,192,149287,1,0,0:0:0:0:
320,192,149445,1,0,0:0:0:0:
64,192,149603,1,0,0:0:0:0:
448,192,149603,1,0,0:0:0:0:
192,192,149761,1,0,0:0:0:0:
192,192,149919,1,0,0:0:0:0:
448,192,149919,1,0,0:0:0:0:
320,192,150077,1,0,0:0:0:0:
192,192,150235,1,0,0:0:0:0:
64,192,150235,1,0,0:0:0:0:
64,192,150392,1,0,0:0:0:0:
192,192,150550,1,0,0:0:0:0:
448,192,150550,1,0,0:0:0:0:
320,192,150708,1,0,0:0:0:0:
320,192,150866,1,0,0:0:0:0:
192,192,150866,1,0,0:0:0:0:
64,192,151024,1,0,0:0:0:0:
192,192,151103,1,0,0:0:0:0:
320,192,151182,1,0,0:0:0:0:
448,192,151182,1,0,0:0:0:0:
64,192,151340,1,0,0:0:0:0:
320,192,151498,1,0,0:0:0:0:
448,192,151498,1,0,0:0:0:0:
192,192,151656,1,0,0:0:0:0:
64,192,151813,1,0,0:0:0:0:
448,192,151813,1,0,0:0:0:0:
448,192,151971,1,0,0:0:0:0:
320,192,152129,1,0,0:0:0:0:
64,192,152129,1,0,0:0:0:0:
192,192,152287,1,0,0:0:0:0:
192,192,152445,1,0,0:0:0:0:
320,192,152445,1,0,0:0:0:0:
64,192,152603,1,0,0:0:0:0:
192,192,152761,1,0,0:0:0:0:
448,192,152761,1,0,0:0:0:0:
448,192,152919,1,0,0:0:0:0:
320,192,153077,1,0,0:0:0:0:
64,192,153077,1,0,0:0:0:0:
192,192,153235,1,0,0:0:0:0:
192,192,153392,1,0,0:0:0:0:
320,192,153392,1,0,0:0:0:0:
64,192,153550,1,0,0:0:0:0:
192,192,153629,1,0,0:0:0:0:
320,192,153708,1,0,0:0:0:0:
448,192,153708,1,0,0:0:0:0:
64,192,153866,1,0,0:0:0:0:
320,192,154024,1,0,0:0:0:0:
448,192,154024,1,0,0:0:0:0:
192,192,154182,1,0,0:0:0:0:
64,192,154340,1,0,0:0:0:0:
448,192,154340,1,0,0:0:0:0:
320,192,154498,1,0,0:0:0:0:
320,192,154656,1,0,0:0:0:0:
192,192,154656,1,0,0:0:0:0:
64,192,154813,1,0,0:0:0:0:
64,192,154971,1,0,0:0:0:0:
320,192,155129,1,0,0:0:0:0:
448,192,155129,1,0,0:0:0:0:
320,192,155287,1,0,0:0:0:0:
448,192,155287,1,0,0:0:0:0:
192,192,155445,1,0,0:0:0:0:
448,192,155498,1,0,0:0:0:0:
320,192,155550,1,0,0:0:0:0:
192,192,155603,1,0,0:0:0:0:
64,192,155603,1,0,0:0:0:0:
320,192,155761,1,0,0:0:0:0:
64,192,155919,1,0,0:0:0:0:
192,192,156077,1,0,0:0:0:0:
320,192,156235,1,0,0:0:0:0:
448,192,156235,1,0,0:0:0:0:
64,192,156313,1,0,0:0:0:0:
320,192,156392,1,0,0:0:0:0:
192,192,156471,1,0,0:0:0:0:
64,192,156550,1,0,0:0:0:0:
192,192,156629,1,0,0:0:0:0:
448,192,156708,1,0,0:0:0:0:
320,192,156787,1,0,0:0:0:0:
192,192,156866,1,0,0:0:0:0:
64,192,156866,1,0,0:0:0:0:
448,192,156945,1,0,0:0:0:0:
64,192,157024,1,0,0:0:0:0:
192,192,157103,1,0,0:0:0:0:
448,192,157182,1,0,0:0:0:0:
320,192,157182,1,0,0:0:0:0:
192,192,157261,1,0,0:0:0:0:
320,192,157340,1,0,0:0:0:0:
64,192,157419,1,0,0:0:0:0:
448,192,157498,1,0,0:0:0:0:
320,192,157577,1,0,0:0:0:0:
192,192,157656,1,0,0:0:0:0:
448,192,157735,1,0,0:0:0:0:
320,192,157813,1,0,0:0:0:0:
64,192,157813,1,0,0:0:0:0:
192,192,157892,1,0,0:0:0:0:
448,192,157971,1,0,0:0:0:0:
64,192,158050,1,0,0:0:0:0:
192,192,158129,1,0,0:0:0:0:
320,192,158208,1,0,0:0:0:0:
192,192,158287,1,0,0:0:0:0:
448,192,158366,1,0,0:0:0:0:
320,192,158445,1,0,0:0:0:0:
192,192,158445,1,0,0:0:0:0:
64,192,158524,1,0,0:0:0:0:
448,192,158603,1,0,0:0:0:0:
64,192,158682,1,0,0:0:0:0:
320,192,158761,1,0,0:0:0:0:
192,192,158840,1,0,0:0:0:0:
448,192,158919,1,0,0:0:0:0:
64,192,158998,1,0,0:0:0:0:
192,192,159077,1,0,0:0:0:0:
448,192,159077,1,0,0:0:0:0:
320,192,159156,1,0,0:0:0:0:
64,192,159235,1,0,0:0:0:0:
192,192,159313,1,0,0:0:0:0:
320,192,159392,1,0,0:0:0:0:
448,192,159392,1,0,0:0:0:0:
192,192,159471,1,0,0:0:0:0:
320,192,159550,1,0,0:0:0:0:
64,192,159629,1,0,0:0:0:0:
448,192,159708,1,0,0:0:0:0:
192,192,159708,1,0,0:0:0:0:
320,192,159787,1,0,0:0:0:0:
64,192,159866,1,0,0:0:0:0:
320,192,159945,1,0,0:0:0:0:
192,192,160024,1,0,0:0:0:0:
448,192,160103,1,0,0:0:0:0:
64,192,160182,1,0,0:0:0:0:
320,192,160261,1,0,0:0:0:0:
192,192,160340,1,0,0:0:0:0:
64,192,160340,1,0,0:0:0:0:
448,192,160419,1,0,0:0:0:0:
192,192,160498,1,0,0:0:0:0:
320,192,160577,1,0,0:0:0:0:
64,192,160656,1,0,0:0:0:0:
192,192,160735,1,0,0:0:0:0:
448,192,160813,1,0,0:0:0:0:
64,192,160892,1,0,0:0:0:0:
320,192,160971,1,0,0:0:0:0:
192,192,160971,1,0,0:0:0:0:
448,192,161050,1,0,0:0:0:0:
64,192,161129,1,0,0:0:0:0:
448,192,161208,1,0,0:0:0:0:
320,192,161287,1,0,0:0:0:0:
192,192,161366,1,0,0:0:0:0:
448,192,161445,1,0,0:0:0:0:
64,192,161524,1,0,0:0:0:0:
192,192,161603,1,0,0:0:0:0:
320,192,161603,1,0,0:0:0:0:
448,192,161682,1,0,0:0:0:0:
192,192,161761,1,0,0:0:0:0:
320,192,161840,1,0,0:0:0:0:
448,192,161919,1,0,0:0:0:0:
64,192,161919,1,0,0:0:0:0:
320,192,161998,1,0,0:0:0:0:
192,192,162077,1,0,0:0:0:0:
320,192,162156,1,0,0:0:0:0:
64,192,162235,1,0,0:0:0:0:
192,192,162235,1,0,0:0:0:0:
448,192,162313,1,0,0:0:0:0:
64,192,162392,1,0,0:0:0:0:
320,192,162471,1,0,0:0:0:0:
192,192,162550,1,0,0:0:0:0:
448,192,162629,1,0,0:0:0:0:
64,192,162708,1,0,0:0:0:0:
320,192,162787,1,0,0:0:0:0:
192,192,162866,1,0,0:0:0:0:
64,192,162866,1,0,0:0:0:0:
448,192,162945,1,0,0:0:0:0:
320,192,163024,1,0,0:0:0:0:
192,192,163103,1,0,0:0:0:0:
448,192,163182,1,0,0:0:0:0:
64,192,163261,1,0,0:0:0:0:
320,192,163340,1,0,0:0:0:0:
64,192,163419,1,0,0:0:0:0:
192,192,163498,1,0,0:0:0:0:
320,192,163498,1,0,0:0:0:0:
448,192,163577,1,0,0:0:0:0:
64,192,163656,1,0,0:0:0:0:
320,192,163735,1,0,0:0:0:0:
192,192,163813,1,0,0:0:0:0:
448,192,163892,1,0,0:0:0:0:
64,192,163971,1,0,0:0:0:0:
320,192,164050,1,0,0:0:0:0:
448,192,164129,1,0,0:0:0:0:
64,192,164129,1,0,0:0:0:0:
192,192,164208,1,0,0:0:0:0:
320,192,164287,1,0,0:0:0:0:
192,192,164366,1,0,0:0:0:0:
448,192,164445,1,0,0:0:0:0:
320,192,164445,1,0,0:0:0:0:
64,192,164524,1,0,0:0:0:0:
192,192,164603,1,0,0:0:0:0:
448,192,164682,1,0,0:0:0:0:
320,192,164761,1,0,0:0:0:0:
192,192,164761,1,0,0:0:0:0:
64,192,164840,1,0,0:0:0:0:
448,192,164919,1,0,0:0:0:0:
192,192,164998,1,0,0:0:0:0:
320,192,165077,1,0,0:0:0:0:
64,192,165156,1,0,0:0:0:0:
448,192,165235,1,0,0:0:0:0:
64,192,165313,1,0,0:0:0:0:
192,192,165392,1,0,0:0:0:0:
448,192,165392,1,0,0:0:0:0:
320,192,165471,1,0,0:0:0:0:
192,192,165550,1,0,0:0:0:0:
448,192,165629,1,0,0:0:0:0:
320,192,165708,1,0,0:0:0:0:
64,192,165787,1,0,0:0:0:0:
448,192,165866,1,0,0:0:0:0:
64,192,165945,1,0,0:0:0:0:
192,192,166024,1,0,0:0:0:0:
448,192,166024,1,0,0:0:0:0:
320,192,166103,1,0,0:0:0:0:
64,192,166182,1,0,0:0:0:0:
320,192,166261,1,0,0:0:0:0:
64,192,166340,1,0,0:0:0:0:
448,192,166340,1,0,0:0:0:0:
192,192,166419,1,0,0:0:0:0:
320,192,166498,1,0,0:0:0:0:
448,192,166498,1,0,0:0:0:0:
64,192,166577,1,0,0:0:0:0:
192,192,166656,1,0,0:0:0:0:
64,192,166735,1,0,0:0:0:0:
448,192,166813,1,0,0:0:0:0:
320,192,166892,1,0,0:0:0:0:
192,192,166971,1,0,0:0:0:0:
64,192,166971,1,0,0:0:0:0:
320,192,167050,1,0,0:0:0:0:
64,192,167129,1,0,0:0:0:0:
448,192,167208,1,0,0:0:0:0:
320,192,167287,1,0,0:0:0:0:
192,192,167287,1,0,0:0:0:0:
64,192,167366,1,0,0:0:0:0:
448,192,167445,1,0,0:0:0:0:
192,192,167524,1,0,0:0:0:0:
320,192,167603,1,0,0:0:0:0:
64,192,167682,1,0,0:0:0:0:
448,192,167761,1,0,0:0:0:0:
192,192,167840,1,0,0:0:0:0:
320,192,167919,1,0,0:0:0:0:
448,192,167919,1,0,0:0:0:0:
64,192,167998,1,0,0:0:0:0:
192,192,168077,1,0,0:0:0:0:
320,192,168156,1,0,0:0:0:0:
192,192,168235,1,0,0:0:0:0:
448,192,168313,1,0,0:0:0:0:
320,192,168392,1,0,0:0:0:0:
64,192,168471,1,0,0:0:0:0:
192,192,168550,1,0,0:0:0:0:
448,192,168550,1,0,0:0:0:0:
320,192,168629,1,0,0:0:0:0:
192,192,168708,1,0,0:0:0:0:
320,192,168787,1,0,0:0:0:0:
64,192,168866,1,0,0:0:0:0:
448,192,168945,1,0,0:0:0:0:
64,192,169024,1,0,0:0:0:0:
192,192,169103,1,0,0:0:0:0:
320,192,169182,1,0,0:0:0:0:
448,192,169182,1,0,0:0:0:0:
64,192,169261,1,0,0:0:0:0:
320,192,169340,1,0,0:0:0:0:
192,192,169419,1,0,0:0:0:0:
448,192,169498,1,0,0:0:0:0:
64,192,169498,1,0,0:0:0:0:
320,192,169577,1,0,0:0:0:0:
64,192,169656,1,0,0:0:0:0:
192,192,169735,1,0,0:0:0:0:
448,192,169813,1,0,0:0:0:0:
320,192,169813,1,0,0:0:0:0:
192,192,169892,1,0,0:0:0:0:
448,192,169971,1,0,0:0:0:0:
64,192,170050,1,0,0:0:0:0:
320,192,170129,1,0,0:0:0:0:
192,192,170208,1,0,0:0:0:0:
448,192,170287,1,0,0:0:0:0:
192,192,170366,1,0,0:0:0:0:
320,192,170445,1,0,0:0:0:0:
448,192,170445,1,0,0:0:0:0:
64,192,170524,1,0,0:0:0:0:
192,192,170603,1,0,0:0:0:0:
448,192,170682,1,0,0:0:0:0:
64,192,170761,1,0,0:0:0:0:
320,192,170840,1,0,0:0:0:0:
64,192,170919,1,0,0:0:0:0:
192,192,170998,1,0,0:0:0:0:
320,192,171077,1,0,0:0:0:0:
448,192,171077,1,0,0:0:0:0:
192,192,171156,1,0,0:0:0:0:
320,192,171235,1,0,0:0:0:0:
64,192,171313,1,0,0:0:0:0:
448,192,171392,1,0,0:0:0:0:
192,192,171471,1,0,0:0:0:0:
320,192,171550,1,0,0:0:0:0:
192,192,171629,1,0,0:0:0:0:
64,192,171708,1,0,0:0:0:0:
448,192,171708,1,0,0:0:0:0:
320,192,171787,1,0,0:0:0:0:
192,192,171866,1,0,0:0:0:0:
320,192,171945,1,0,0:0:0:0:
192,192,172024,1,0,0:0:0:0:
64,192,172024,1,0,0:0:0:0:
448,192,172103,1,0,0:0:0:0:
64,192,172182,1,0,0:0:0:0:
320,192,172261,1,0,0:0:0:0:
192,192,172340,1,0,0:0:0:0:
64,192,172340,1,0,0:0:0:0:
448,192,172419,1,0,0:0:0:0:
192,192,172498,1,0,0:0:0:0:
320,192,172577,1,0,0:0:0:0:
64,192,172656,1,0,0:0:0:0:
448,192,172735,1,0,0:0:0:0:
192,192,172813,1,0,0:0:0:0:
320,192,172892,1,0,0:0:0:0:
192,192,172971,1,0,0:0:0:0:
64,192,172971,1,0,0:0:0:0:
448,192,173050,1,0,0:0:0:0:
64,192,173129,1,0,0:0:0:0:
320,192,173208,1,0,0:0:0:0:
192,192,173287,1,0,0:0:0:0:
448,192,173366,1,0,0:0:0:0:
64,192,173445,1,0,0:0:0:0:
448,192,173524,1,0,0:0:0:0:
192,192,173603,1,0,0:0:0:0:
64,192,173603,1,0,0:0:0:0:
320,192,173682,1,0,0:0:0:0:
192,192,173761,1,0,0:0:0:0:
448,192,173840,1,0,0:0:0:0:
64,192,173919,1,0,0:0:0:0:
192,192,173998,1,0,0:0:0:0:
320,192,174077,1,0,0:0:0:0:
64,192,174156,1,0,0:0:0:0:
192,192,174235,1,0,0:0:0:0:
320,192,174235,1,0,0:0:0:0:
448,192,174313,1,0,0:0:0:0:
192,192,174392,1,0,0:0:0:0:
448,192,174471,1,0,0:0:0:0:
320,192,174550,1,0,0:0:0:0:
64,192,174550,1,0,0:0:0:0:
192,192,174629,1,0,0:0:0:0:
448,192,174708,1,0,0:0:0:0:
320,192,174787,1,0,0:0:0:0:
64,192,174866,1,0,0:0:0:0:
192,192,174866,1,0,0:0:0:0:
448,192,174945,1,0,0:0:0:0:
192,192,175024,1,0,0:0:0:0:
320,192,175103,1,0,0:0:0:0:
64,192,175182,1,0,0:0:0:0:
448,192,175261,1,0,0:0:0:0:
192,192,175340,1,0,0:0:0:0:
320,192,175419,1,0,0:0:0:0:
192,192,175498,1,0,0:0:0:0:
64,192,175498,1,0,0:0:0:0:
448,192,175577,1,0,0:0:0:0:
64,192,175656,1,0,0:0:0:0:
448,192,175735,1,0,0:0:0:0:
320,192,175813,1,0,0:0:0:0:
192,192,175892,1,0,0:0:0:0:
320,192,175971,1,0,0:0:0:0:
192,192,176050,1,0,0:0:0:0:
64,192,176129,1,0,0:0:0:0:
448,192,176129,1,0,0:0:0:0:
192,192,176208,1,0,0:0:0:0:
320,192,176287,1,0,0:0:0:0:
64,192,176366,1,0,0:0:0:0:
448,192,176445,1,0,0:0:0:0:
320,192,176445,1,0,0:0:0:0:
192,192,176524,1,0,0:0:0:0:
64,192,176524,1,0,0:0:0:0:
448,192,176603,1,0,0:0:0:0:
320,192,176603,1,0,0:0:0:0:
192,192,176682,1,0,0:0:0:0:
64,192,176682,1,0,0:0:0:0:
320,192,176761,1,0,0:0:0:0:
192,192,176840,1,0,0:0:0:0:
64,192,176919,1,0,0:0:0:0:
320,192,176998,1,0,0:0:0:0:
64,192,177077,128,0,177235:0:0:0:0:
192,192,177077,128,0,177235:0:0:0:0:
448,192,177077,128,0,178340:0:0:0:0:
320,192,178340,128,0,178498:0:0:0:0:
64,192,178340,128,0,178498:0:0:0:0:
192,192,178340,128,0,178971:0:0:0:0:
448,192,178971,128,0,179603:0:0:0:0:
64,192,179603,128,0,179761:0:0:0:0:
192,192,179603,128,0,179761:0:0:0:0:
320,192,179603,128,0,180235:0:0:0:0:
64,192,180235,128,0,180866:0:0:0:0:
192,192,180866,128,0,181024:0:0:0:0:
320,192,180866,128,0,181024:0:0:0:0:
448,192,180866,128,0,181498:0:0:0:0:
64,192,181498,128,0,182129:0:0:0:0:
192,192,182129,128,0,182287:0:0:0:0:
448,192,182129,128,0,182287:0:0:0:0:
320,192,182129,128,0,182761:0:0:0:0:
64,192,183392,128,0,183945:0:0:0:0:
192,192,183392,128,0,183945:0:0:0:0:
320,192,183392,128,0,184024:0:0:0:0:
64,192,184024,128,0,184656:0:0:0:0:
448,192,184024,128,0,184577:0:0:0:0:
192,192,184024,128,0,184577:0:0:0:0:
192,192,184656,128,0,184813:0:0:0:0:
320,192,184656,128,0,184813:0:0:0:0:
448,192,184656,128,0,185287:0:0:0:0:
64,192,185919,128,0,186471:0:0:0:0:
192,192,185919,128,0,186471:0:0:0:0:
448,192,185919,128,0,186550:0:0:0:0:
64,192,186550,1,0,0:0:0:0:
192,192,186550,1,0,0:0:0:0:
320,192,186550,1,0,0:0:0:0:
320,192,186708,1,0,0:0:0:0:
64,192,186708,1,0,0:0:0:0:
320,192,186866,1,0,0:0:0:0:
448,192,186866,1,0,0:0:0:0:
192,192,186945,1,0,0:0:0:0:
64,192,186945,1,0,0:0:0:0:
320,192,187024,1,0,0:0:0:0:
448,192,187024,1,0,0:0:0:0:
192,192,187103,1,0,0:0:0:0:
64,192,187103,1,0,0:0:0:0:
320,192,187182,1,0,0:0:0:0:
192,192,187261,1,0,0:0:0:0:
448,192,187340,1,0,0:0:0:0:
64,192,187419,1,0,0:0:0:0:
192,192,187498,1,0,0:0:0:0:
448,192,187498,1,0,0:0:0:0:
320,192,187577,1,0,0:0:0:0:
64,192,187656,1,0,0:0:0:0:
192,192,187735,1,0,0:0:0:0:
448,192,187813,1,0,0:0:0:0:
64,192,187892,1,0,0:0:0:0:
320,192,187971,1,0,0:0:0:0:
192,192,188050,1,0,0:0:0:0:
320,192,188129,1,0,0:0:0:0:
448,192,188129,1,0,0:0:0:0:
64,192,188208,1,0,0:0:0:0:
448,192,188287,1,0,0:0:0:0:
64,192,188366,1,0,0:0:0:0:
192,192,188445,1,0,0:0:0:0:
320,192,188524,1,0,0:0:0:0:
192,192,188603,1,0,0:0:0:0:
320,192,188682,1,0,0:0:0:0:
64,192,188761,1,0,0:0:0:0:
448,192,188761,1,0,0:0:0:0:
192,192,188840,1,0,0:0:0:0:
320,192,188919,1,0,0:0:0:0:
64,192,188998,1,0,0:0:0:0:
448,192,189077,1,0,0:0:0:0:
320,192,189156,1,0,0:0:0:0:
192,192,189235,1,0,0:0:0:0:
64,192,189313,1,0,0:0:0:0:
192,192,189392,1,0,0:0:0:0:
448,192,189392,1,0,0:0:0:0:
320,192,189471,1,0,0:0:0:0:
192,192,189550,1,0,0:0:0:0:
64,192,189629,1,0,0:0:0:0:
320,192,189708,1,0,0:0:0:0:
192,192,189787,1,0,0:0:0:0:
448,192,189866,1,0,0:0:0:0:
192,192,189945,1,0,0:0:0:0:
64,192,190024,1,0,0:0:0:0:
448,192,190024,1,0,0:0:0:0:
320,192,190103,1,0,0:0:0:0:
192,192,190182,1,0,0:0:0:0:
320,192,190261,1,0,0:0:0:0:
64,192,190340,1,0,0:0:0:0:
192,192,190419,1,0,0:0:0:0:
320,192,190498,1,0,0:0:0:0:
192,192,190577,1,0,0:0:0:0:
320,192,190656,1,0,0:0:0:0:
448,192,190656,1,0,0:0:0:0:
64,192,190735,1,0,0:0:0:0:
192,192,190813,1,0,0:0:0:0:
448,192,190892,1,0,0:0:0:0:
192,192,190971,1,0,0:0:0:0:
320,192,191050,1,0,0:0:0:0:
64,192,191129,1,0,0:0:0:0:
448,192,191208,1,0,0:0:0:0:
320,192,191287,1,0,0:0:0:0:
192,192,191287,1,0,0:0:0:0:
64,192,191366,1,0,0:0:0:0:
320,192,191445,1,0,0:0:0:0:
64,192,191524,1,0,0:0:0:0:
192,192,191603,128,0,191840:0:0:0:0:
320,192,191603,128,0,191840:0:0:0:0:
448,192,191603,128,0,191919:0:0:0:0:
64,192,191919,128,0,192235:0:0:0:0:
192,192,191919,128,0,192156:0:0:0:0:
320,192,191919,128,0,192156:0:0:0:0:
192,192,192235,1,0,0:0:0:0:
448,192,192235,1,0,0:0:0:0:
320,192,192235,1,0,0:0:0:0:
64,192,192313,1,0,0:0:0:0:
448,192,192392,1,0,0:0:0:0:
192,192,192471,1,0,0:0:0:0:
320,192,192550,1,0,0:0:0:0:
64,192,192550,1,0,0:0:0:0:
448,192,192629,1,0,0:0:0:0:
192,192,192708,1,0,0:0:0:0:
320,192,192787,1,0,0:0:0:0:
64,192,192866,1,0,0:0:0:0:
448,192,192945,1,0,0:0:0:0:
192,192,193024,1,0,0:0:0:0:
320,192,193103,1,0,0:0:0:0:
192,192,193182,1,0,0:0:0:0:
64,192,193182,1,0,0:0:0:0:
448,192,193261,1,0,0:0:0:0:
64,192,193340,1,0,0:0:0:0:
320,192,193419,1,0,0:0:0:0:
192,192,193498,1,0,0:0:0:0:
448,192,193577,1,0,0:0:0:0:
64,192,193656,1,0,0:0:0:0:
320,192,193735,1,0,0:0:0:0:
192,192,193813,1,0,0:0:0:0:
64,192,193813,1,0,0:0:0:0:
320,192,193892,1,0,0:0:0:0:
192,192,193971,1,0,0:0:0:0:
448,192,194050,1,0,0:0:0:0:
64,192,194129,1,0,0:0:0:0:
192,192,194129,1,0,0:0:0:0:
320,192,194208,1,0,0:0:0:0:
448,192,194208,1,0,0:0:0:0:
192,192,194287,1,0,0:0:0:0:
64,192,194287,1,0,0:0:0:0:
320,192,194366,1,0,0:0:0:0:
448,192,194366,1,0,0:0:0:0:
64,192,194445,1,0,0:0:0:0:
192,192,194524,1,0,0:0:0:0:
320,192,194603,1,0,0:0:0:0:
192,192,194682,1,0,0:0:0:0:
320,192,194761,1,0,0:0:0:0:
448,192,194761,1,0,0:0:0:0:
64,192,194761,1,0,0:0:0:0:
192,192,194971,1,0,0:0:0:0:
64,192,194971,1,0,0:0:0:0:
64,192,195077,1,0,0:0:0:0:
448,192,195077,1,0,0:0:0:0:
320,192,195077,1,0,0:0:0:0:
192,192,195235,1,0,0:0:0:0:
320,192,195235,1,0,0:0:0:0:
64,192,195392,1,0,0:0:0:0:
192,192,195550,1,0,0:0:0:0:
448,192,195550,1,0,0:0:0:0:
320,192,195708,1,0,0:0:0:0:
192,192,195708,1,0,0:0:0:0:
64,192,195708,1,0,0:0:0:0:
64,192,195866,1,0,0:0:0:0:
448,192,195866,1,0,0:0:0:0:
192,192,196024,1,0,0:0:0:0:
320,192,196024,1,0,0:0:0:0:
448,192,196024,1,0,0:0:0:0:
64,192,196182,5,0,0:0:0:0:
192,192,196340,1,0,0:0:0:0:
448,192,196340,1,0,0:0:0:0:
320,192,196498,1,0,0:0:0:0:
192,192,196498,1,0,0:0:0:0:
64,192,196498,1,0,0:0:0:0:
448,192,196656,1,0,0:0:0:0:
64,192,196813,1,0,0:0:0:0:
192,192,196813,1,0,0:0:0:0:
64,192,196971,1,0,0:0:0:0:
320,192,196971,1,0,0:0:0:0:
448,192,196971,1,0,0:0:0:0:
192,192,197129,1,0,0:0:0:0:
320,192,197129,1,0,0:0:0:0:
448,192,197287,5,0,0:0:0:0:
64,192,197287,1,0,0:0:0:0:
192,192,197366,1,0,0:0:0:0:
320,192,197445,1,0,0:0:0:0:
192,192,197524,1,0,0:0:0:0:
448,192,197603,1,0,0:0:0:0:
64,192,197682,1,0,0:0:0:0:
320,192,197761,1,0,0:0:0:0:
64,192,197840,1,0,0:0:0:0:
448,192,197919,1,0,0:0:0:0:
192,192,197998,1,0,0:0:0:0:
320,192,198077,1,0,0:0:0:0:
192,192,198156,1,0,0:0:0:0:
448,192,198235,1,0,0:0:0:0:
64,192,198313,1,0,0:0:0:0:
320,192,198392,1,0,0:0:0:0:
64,192,198471,1,0,0:0:0:0:
192,192,198550,1,0,0:0:0:0:
448,192,198550,1,0,0:0:0:0:
320,192,198629,1,0,0:0:0:0:
64,192,198708,1,0,0:0:0:0:
320,192,198787,1,0,0:0:0:0:
192,192,198866,1,0,0:0:0:0:
448,192,198945,1,0,0:0:0:0:
64,192,199024,1,0,0:0:0:0:
448,192,199103,1,0,0:0:0:0:
64,192,199182,1,0,0:0:0:0:
192,192,199235,1,0,0:0:0:0:
320,192,199287,1,0,0:0:0:0:
448,192,199340,1,0,0:0:0:0:
192,192,199392,1,0,0:0:0:0:
320,192,199445,1,0,0:0:0:0:
64,192,199498,1,0,0:0:0:0:
192,192,199550,1,0,0:0:0:0:
320,192,199603,1,0,0:0:0:0:
448,192,199656,1,0,0:0:0:0:
192,192,199708,1,0,0:0:0:0:
320,192,199761,1,0,0:0:0:0:
64,192,199813,1,0,0:0:0:0:
448,192,199813,1,0,0:0:0:0:
192,192,199892,1,0,0:0:0:0:
320,192,199971,1,0,0:0:0:0:
192,192,200050,1,0,0:0:0:0:
448,192,200129,1,0,0:0:0:0:
64,192,200208,1,0,0:0:0:0:
320,192,200287,1,0,0:0:0:0:
64,192,200366,1,0,0:0:0:0:
448,192,200445,1,0,0:0:0:0:
192,192,200524,1,0,0:0:0:0:
320,192,200603,1,0,0:0:0:0:
192,192,200682,1,0,0:0:0:0:
448,192,200761,1,0,0:0:0:0:
64,192,200840,1,0,0:0:0:0:
320,192,200919,1,0,0:0:0:0:
64,192,200998,1,0,0:0:0:0:
448,192,201077,1,0,0:0:0:0:
320,192,201077,1,0,0:0:0:0:
64,192,201156,1,0,0:0:0:0:
448,192,201235,1,0,0:0:0:0:
192,192,201313,1,0,0:0:0:0:
320,192,201392,1,0,0:0:0:0:
64,192,201471,1,0,0:0:0:0:
320,192,201550,1,0,0:0:0:0:
192,192,201629,1,0,0:0:0:0:
64,192,201708,1,0,0:0:0:0:
192,192,201761,1,0,0:0:0:0:
320,192,201813,1,0,0:0:0:0:
448,192,201866,1,0,0:0:0:0:
192,192,201919,1,0,0:0:0:0:
320,192,201971,1,0,0:0:0:0:
64,192,202024,1,0,0:0:0:0:
192,192,202077,1,0,0:0:0:0:
320,192,202129,1,0,0:0:0:0:
448,192,202182,1,0,0:0:0:0:
192,192,202235,1,0,0:0:0:0:
320,192,202287,1,0,0:0:0:0:
64,192,202340,1,0,0:0:0:0:
448,192,202340,1,0,0:0:0:0:
192,192,202419,1,0,0:0:0:0:
320,192,202498,1,0,0:0:0:0:
192,192,202577,1,0,0:0:0:0:
448,192,202656,1,0,0:0:0:0:
64,192,202735,1,0,0:0:0:0:
320,192,202813,1,0,0:0:0:0:
64,192,202892,1,0,0:0:0:0:
448,192,202971,1,0,0:0:0:0:
192,192,203050,1,0,0:0:0:0:
320,192,203129,1,0,0:0:0:0:
192,192,203208,1,0,0:0:0:0:
448,192,203287,1,0,0:0:0:0:
64,192,203366,1,0,0:0:0:0:
320,192,203445,1,0,0:0:0:0:
64,192,203524,1,0,0:0:0:0:
448,192,203603,1,0,0:0:0:0:
192,192,203603,1,0,0:0:0:0:
320,192,203682,1,0,0:0:0:0:
64,192,203761,1,0,0:0:0:0:
320,192,203840,1,0,0:0:0:0:
192,192,203919,1,0,0:0:0:0:
448,192,203998,1,0,0:0:0:0:
64,192,204077,1,0,0:0:0:0:
448,192,204156,1,0,0:0:0:0:
64,192,204235,1,0,0:0:0:0:
192,192,204287,1,0,0:0:0:0:
320,192,204340,1,0,0:0:0:0:
448,192,204392,1,0,0:0:0:0:
192,192,204445,1,0,0:0:0:0:
320,192,204498,1,0,0:0:0:0:
64,192,204550,1,0,0:0:0:0:
192,192,204603,1,0,0:0:0:0:
320,192,204656,1,0,0:0:0:0:
448,192,204708,1,0,0:0:0:0:
192,192,204761,1,0,0:0:0:0:
320,192,204813,1,0,0:0:0:0:
64,192,204866,1,0,0:0:0:0:
448,192,204866,1,0,0:0:0:0:
192,192,204945,1,0,0:0:0:0:
320,192,205024,1,0,0:0:0:0:
192,192,205103,1,0,0:0:0:0:
448,192,205182,1,0,0:0:0:0:
64,192,205261,1,0,0:0:0:0:
320,192,205340,1,0,0:0:0:0:
64,192,205419,1,0,0:0:0:0:
448,192,205498,1,0,0:0:0:0:
192,192,205577,1,0,0:0:0:0:
320,192,205656,1,0,0:0:0:0:
192,192,205735,1,0,0:0:0:0:
448,192,205813,1,0,0:0:0:0:
64,192,205892,1,0,0:0:0:0:
320,192,205971,1,0,0:0:0:0:
64,192,206050,1,0,0:0:0:0:
192,192,206129,1,0,0:0:0:0:
448,192,206129,1,0,0:0:0:0:
320,192,206208,1,0,0:0:0:0:
64,192,206287,1,0,0:0:0:0:
192,192,206287,1,0,0:0:0:0:
320,192,206366,1,0,0:0:0:0:
448,192,206366,1,0,0:0:0:0:
192,192,206445,1,0,0:0:0:0:
64,192,206445,1,0,0:0:0:0:
320,192,206524,1,0,0:0:0:0:
448,192,206524,1,0,0:0:0:0:
64,192,206603,1,0,0:0:0:0:
192,192,206682,1,0,0:0:0:0:
320,192,206761,1,0,0:0:0:0:
448,192,206761,1,0,0:0:0:0:
64,192,206840,1,0,0:0:0:0:
320,192,206919,1,0,0:0:0:0:
192,192,206998,1,0,0:0:0:0:
448,192,207077,1,0,0:0:0:0:
320,192,207156,1,0,0:0:0:0:
192,192,207235,1,0,0:0:0:0:
64,192,207313,1,0,0:0:0:0:
192,192,207392,1,0,0:0:0:0:
320,192,207392,1,0,0:0:0:0:
448,192,207471,1,0,0:0:0:0:
64,192,207550,1,0,0:0:0:0:
448,192,207629,1,0,0:0:0:0:
64,192,207708,1,0,0:0:0:0:
320,192,207708,1,0,0:0:0:0:
192,192,207787,1,0,0:0:0:0:
448,192,207866,1,0,0:0:0:0:
192,192,207945,1,0,0:0:0:0:
320,192,208024,1,0,0:0:0:0:
64,192,208103,1,0,0:0:0:0:
448,192,208182,1,0,0:0:0:0:
64,192,208261,1,0,0:0:0:0:
320,192,208340,1,0,0:0:0:0:
192,192,208340,1,0,0:0:0:0:
448,192,208419,1,0,0:0:0:0:
64,192,208498,1,0,0:0:0:0:
448,192,208577,1,0,0:0:0:0:
192,192,208656,1,0,0:0:0:0:
320,192,208735,1,0,0:0:0:0:
64,192,208813,1,0,0:0:0:0:
320,192,208892,1,0,0:0:0:0:
64,192,208971,1,0,0:0:0:0:
448,192,208971,1,0,0:0:0:0:
192,192,209050,1,0,0:0:0:0:
320,192,209129,1,0,0:0:0:0:
192,192,209208,1,0,0:0:0:0:
448,192,209287,1,0,0:0:0:0:
320,192,209340,1,0,0:0:0:0:
192,192,209392,1,0,0:0:0:0:
64,192,209445,1,0,0:0:0:0:
320,192,209498,1,0,0:0:0:0:
192,192,209550,1,0,0:0:0:0:
448,192,209603,1,0,0:0:0:0:
320,192,209656,1,0,0:0:0:0:
192,192,209708,1,0,0:0:0:0:
64,192,209761,1,0,0:0:0:0:
320,192,209813,1,0,0:0:0:0:
192,192,209866,1,0,0:0:0:0:
64,192,209919,1,0,0:0:0:0:
448,192,209919,1,0,0:0:0:0:
320,192,209998,1,0,0:0:0:0:
192,192,210077,1,0,0:0:0:0:
320,192,210156,1,0,0:0:0:0:
448,192,210235,1,0,0:0:0:0:
192,192,210235,1,0,0:0:0:0:
64,192,210313,1,0,0:0:0:0:
320,192,210392,1,0,0:0:0:0:
64,192,210471,1,0,0:0:0:0:
448,192,210550,1,0,0:0:0:0:
192,192,210629,1,0,0:0:0:0:
320,192,210708,1,0,0:0:0:0:
192,192,210787,1,0,0:0:0:0:
64,192,210866,1,0,0:0:0:0:
320,192,210866,1,0,0:0:0:0:
448,192,210945,1,0,0:0:0:0:
192,192,211024,1,0,0:0:0:0:
448,192,211103,1,0,0:0:0:0:
64,192,211182,1,0,0:0:0:0:
320,192,211261,1,0,0:0:0:0:
192,192,211340,1,0,0:0:0:0:
320,192,211419,1,0,0:0:0:0:
448,192,211498,1,0,0:0:0:0:
64,192,211498,1,0,0:0:0:0:
192,192,211577,1,0,0:0:0:0:
320,192,211656,1,0,0:0:0:0:
192,192,211735,1,0,0:0:0:0:
448,192,211813,1,0,0:0:0:0:
320,192,211866,1,0,0:0:0:0:
192,192,211919,1,0,0:0:0:0:
64,192,211971,1,0,0:0:0:0:
320,192,212024,1,0,0:0:0:0:
192,192,212077,1,0,0:0:0:0:
448,192,212129,1,0,0:0:0:0:
320,192,212182,1,0,0:0:0:0:
192,192,212235,1,0,0:0:0:0:
64,192,212287,1,0,0:0:0:0:
320,192,212340,1,0,0:0:0:0:
192,192,212392,1,0,0:0:0:0:
448,192,212445,1,0,0:0:0:0:
64,192,212445,1,0,0:0:0:0:
320,192,212524,1,0,0:0:0:0:
192,192,212603,1,0,0:0:0:0:
320,192,212682,1,0,0:0:0:0:
192,192,212761,1,0,0:0:0:0:
448,192,212761,1,0,0:0:0:0:
64,192,212840,1,0,0:0:0:0:
320,192,212919,1,0,0:0:0:0:
64,192,212998,1,0,0:0:0:0:
448,192,213077,1,0,0:0:0:0:
192,192,213156,1,0,0:0:0:0:
320,192,213235,1,0,0:0:0:0:
192,192,213313,1,0,0:0:0:0:
64,192,213392,1,0,0:0:0:0:
320,192,213392,1,0,0:0:0:0:
448,192,213471,1,0,0:0:0:0:
64,192,213550,1,0,0:0:0:0:
448,192,213629,1,0,0:0:0:0:
192,192,213708,1,0,0:0:0:0:
320,192,213787,1,0,0:0:0:0:
64,192,213866,1,0,0:0:0:0:
320,192,213945,1,0,0:0:0:0:
192,192,214024,1,0,0:0:0:0:
448,192,214024,1,0,0:0:0:0:
64,192,214103,1,0,0:0:0:0:
320,192,214182,1,0,0:0:0:0:
64,192,214261,1,0,0:0:0:0:
320,192,214340,1,0,0:0:0:0:
448,192,214340,1,0,0:0:0:0:
192,192,214419,1,0,0:0:0:0:
64,192,214419,1,0,0:0:0:0:
320,192,214498,1,0,0:0:0:0:
448,192,214498,1,0,0:0:0:0:
192,192,214577,1,0,0:0:0:0:
64,192,214577,1,0,0:0:0:0:
320,192,214656,1,0,0:0:0:0:
192,192,214735,1,0,0:0:0:0:
64,192,214813,1,0,0:0:0:0:
448,192,214853,1,0,0:0:0:0:
320,192,214892,1,0,0:0:0:0:
192,192,214971,1,0,0:0:0:0:
448,192,215050,1,0,0:0:0:0:
64,192,215129,1,0,0:0:0:0:
448,192,215208,1,0,0:0:0:0:
192,192,215287,1,0,0:0:0:0:
320,192,215287,1,0,0:0:0:0:
64,192,215366,1,0,0:0:0:0:
448,192,215445,1,0,0:0:0:0:
320,192,215445,1,0,0:0:0:0:
64,192,215524,1,0,0:0:0:0:
192,192,215603,1,0,0:0:0:0:
448,192,215603,1,0,0:0:0:0:
320,192,215682,1,0,0:0:0:0:
192,192,215761,1,0,0:0:0:0:
64,192,215761,1,0,0:0:0:0:
320,192,215840,1,0,0:0:0:0:
64,192,215919,1,0,0:0:0:0:
448,192,215919,1,0,0:0:0:0:
192,192,215998,1,0,0:0:0:0:
320,192,216077,1,0,0:0:0:0:
448,192,216077,1,0,0:0:0:0:
192,192,216156,1,0,0:0:0:0:
64,192,216235,1,0,0:0:0:0:
320,192,216235,1,0,0:0:0:0:
448,192,216313,1,0,0:0:0:0:
192,192,216392,1,0,0:0:0:0:
64,192,216392,1,0,0:0:0:0:
448,192,216471,1,0,0:0:0:0:
320,192,216471,1,0,0:0:0:0:
192,192,216550,1,0,0:0:0:0:
64,192,216550,1,0,0:0:0:0:
320,192,216629,1,0,0:0:0:0:
448,192,216629,1,0,0:0:0:0:
64,192,216708,1,0,0:0:0:0:
192,192,216787,1,0,0:0:0:0:
448,192,216866,1,0,0:0:0:0:
64,192,216866,1,0,0:0:0:0:
192,192,216919,1,0,0:0:0:0:
320,192,216971,1,0,0:0:0:0:
448,192,217024,1,0,0:0:0:0:
192,192,217077,1,0,0:0:0:0:
320,192,217129,1,0,0:0:0:0:
64,192,217182,1,0,0:0:0:0:
192,192,217235,1,0,0:0:0:0:
320,192,217287,1,0,0:0:0:0:
448,192,217340,1,0,0:0:0:0:
192,192,217392,1,0,0:0:0:0:
320,192,217445,1,0,0:0:0:0:
448,192,217498,1,0,0:0:0:0:
64,192,217498,1,0,0:0:0:0:
192,192,217577,1,0,0:0:0:0:
320,192,217656,1,0,0:0:0:0:
192,192,217735,1,0,0:0:0:0:
448,192,217813,1,0,0:0:0:0:
64,192,217813,1,0,0:0:0:0:
320,192,217892,1,0,0:0:0:0:
192,192,217971,1,0,0:0:0:0:
320,192,218050,1,0,0:0:0:0:
64,192,218129,1,0,0:0:0:0:
448,192,218208,1,0,0:0:0:0:
192,192,218287,1,0,0:0:0:0:
448,192,218366,1,0,0:0:0:0:
192,192,218445,1,0,0:0:0:0:
320,192,218445,1,0,0:0:0:0:
64,192,218524,1,0,0:0:0:0:
448,192,218603,1,0,0:0:0:0:
64,192,218682,1,0,0:0:0:0:
320,192,218761,1,0,0:0:0:0:
192,192,218840,1,0,0:0:0:0:
448,192,218919,1,0,0:0:0:0:
192,192,218998,1,0,0:0:0:0:
320,192,219077,1,0,0:0:0:0:
64,192,219077,1,0,0:0:0:0:
448,192,219156,1,0,0:0:0:0:
192,192,219235,1,0,0:0:0:0:
448,192,219313,1,0,0:0:0:0:
64,192,219392,1,0,0:0:0:0:
192,192,219445,1,0,0:0:0:0:
320,192,219498,1,0,0:0:0:0:
448,192,219550,1,0,0:0:0:0:
192,192,219603,1,0,0:0:0:0:
320,192,219656,1,0,0:0:0:0:
64,192,219708,1,0,0:0:0:0:
192,192,219761,1,0,0:0:0:0:
320,192,219813,1,0,0:0:0:0:
448,192,219866,1,0,0:0:0:0:
192,192,219919,1,0,0:0:0:0:
320,192,219971,1,0,0:0:0:0:
64,192,220024,1,0,0:0:0:0:
448,192,220024,1,0,0:0:0:0:
192,192,220103,1,0,0:0:0:0:
320,192,220182,1,0,0:0:0:0:
192,192,220261,1,0,0:0:0:0:
64,192,220340,1,0,0:0:0:0:
320,192,220340,1,0,0:0:0:0:
448,192,220419,1,0,0:0:0:0:
64,192,220498,1,0,0:0:0:0:
448,192,220577,1,0,0:0:0:0:
192,192,220656,1,0,0:0:0:0:
320,192,220735,1,0,0:0:0:0:
64,192,220813,1,0,0:0:0:0:
320,192,220892,1,0,0:0:0:0:
192,192,220971,1,0,0:0:0:0:
448,192,220971,1,0,0:0:0:0:
64,192,221050,1,0,0:0:0:0:
320,192,221129,1,0,0:0:0:0:
64,192,221208,1,0,0:0:0:0:
448,192,221287,1,0,0:0:0:0:
192,192,221366,1,0,0:0:0:0:
320,192,221445,1,0,0:0:0:0:
192,192,221524,1,0,0:0:0:0:
64,192,221603,1,0,0:0:0:0:
320,192,221603,1,0,0:0:0:0:
448,192,221682,1,0,0:0:0:0:
192,192,221761,1,0,0:0:0:0:
448,192,221840,1,0,0:0:0:0:
64,192,221919,1,0,0:0:0:0:
192,192,221971,1,0,0:0:0:0:
320,192,222024,1,0,0:0:0:0:
448,192,222077,1,0,0:0:0:0:
192,192,222129,1,0,0:0:0:0:
320,192,222182,1,0,0:0:0:0:
64,192,222235,1,0,0:0:0:0:
192,192,222287,1,0,0:0:0:0:
320,192,222340,1,0,0:0:0:0:
448,192,222392,1,0,0:0:0:0:
192,192,222445,1,0,0:0:0:0:
320,192,222498,1,0,0:0:0:0:
64,192,222550,1,0,0:0:0:0:
448,192,222550,1,0,0:0:0:0:
192,192,222629,1,0,0:0:0:0:
320,192,222708,1,0,0:0:0:0:
192,192,222787,1,0,0:0:0:0:
64,192,222866,1,0,0:0:0:0:
320,192,222866,1,0,0:0:0:0:
448,192,222945,1,0,0:0:0:0:
64,192,223024,1,0,0:0:0:0:
448,192,223103,1,0,0:0:0:0:
192,192,223182,1,0,0:0:0:0:
320,192,223261,1,0,0:0:0:0:
64,192,223340,1,0,0:0:0:0:
320,192,223419,1,0,0:0:0:0:
192,192,223498,1,0,0:0:0:0:
448,192,223498,1,0,0:0:0:0:
64,192,223577,1,0,0:0:0:0:
320,192,223656,1,0,0:0:0:0:
64,192,223735,1,0,0:0:0:0:
448,192,223813,1,0,0:0:0:0:
192,192,223892,1,0,0:0:0:0:
320,192,223971,1,0,0:0:0:0:
192,192,224050,1,0,0:0:0:0:
320,192,224129,1,0,0:0:0:0:
64,192,224129,1,0,0:0:0:0:
448,192,224208,1,0,0:0:0:0:
64,192,224287,1,0,0:0:0:0:
448,192,224366,1,0,0:0:0:0:
192,192,224445,1,0,0:0:0:0:
320,192,224445,1,0,0:0:0:0:
64,192,224524,1,0,0:0:0:0:
448,192,224524,1,0,0:0:0:0:
320,192,224603,1,0,0:0:0:0:
192,192,224603,1,0,0:0:0:0:
64,192,224682,1,0,0:0:0:0:
448,192,224682,1,0,0:0:0:0:
320,192,224761,1,0,0:0:0:0:
192,192,224840,1,0,0:0:0:0:
64,192,224998,1,0,0:0:0:0:
192,192,225077,1,0,0:0:0:0:
320,192,225077,1,0,0:0:0:0:
448,192,225156,1,0,0:0:0:0:
192,192,225235,1,0,0:0:0:0:
64,192,225235,1,0,0:0:0:0:
448,192,225313,1,0,0:0:0:0:
320,192,225392,1,0,0:0:0:0:
192,192,225392,1,0,0:0:0:0:
64,192,225471,1,0,0:0:0:0:
192,192,225550,1,0,0:0:0:0:
448,192,225550,1,0,0:0:0:0:
64,192,225629,1,0,0:0:0:0:
320,192,225708,1,0,0:0:0:0:
192,192,225708,1,0,0:0:0:0:
448,192,225787,1,0,0:0:0:0:
64,192,225866,1,0,0:0:0:0:
320,192,225866,1,0,0:0:0:0:
448,192,225945,1,0,0:0:0:0:
192,192,226024,1,0,0:0:0:0:
320,192,226024,1,0,0:0:0:0:
64,192,226103,1,0,0:0:0:0:
192,192,226182,1,0,0:0:0:0:
448,192,226182,1,0,0:0:0:0:
64,192,226261,1,0,0:0:0:0:
320,192,226340,1,0,0:0:0:0:
192,192,226340,1,0,0:0:0:0:
448,192,226419,1,0,0:0:0:0:
320,192,226498,1,0,0:0:0:0:
64,192,226498,1,0,0:0:0:0:
448,192,226577,1,0,0:0:0:0:
192,192,226656,1,0,0:0:0:0:
64,192,226656,1,0,0:0:0:0:
320,192,226735,1,0,0:0:0:0:
192,192,226813,1,0,0:0:0:0:
64,192,226813,1,0,0:0:0:0:
320,192,226892,1,0,0:0:0:0:
64,192,226971,1,0,0:0:0:0:
192,192,227024,1,0,0:0:0:0:
320,192,227077,1,0,0:0:0:0:
448,192,227129,1,0,0:0:0:0:
192,192,227182,1,0,0:0:0:0:
320,192,227235,1,0,0:0:0:0:
64,192,227287,1,0,0:0:0:0:
192,192,227340,1,0,0:0:0:0:
320,192,227392,1,0,0:0:0:0:
448,192,227445,1,0,0:0:0:0:
192,192,227498,1,0,0:0:0:0:
320,192,227550,1,0,0:0:0:0:
448,192,227603,1,0,0:0:0:0:
64,192,227603,128,0,228235:0:0:0:0:
320,192,228235,128,0,228866:0:0:0:0:
64,192,228866,1,0,0:0:0:0:
448,192,228866,1,0,0:0:0:0:
192,192,228866,128,0,229498:0:0:0:0:
320,192,229498,128,0,230129:0:0:0:0:
448,192,230129,1,0,0:0:0:0:
192,192,230129,1,0,0:0:0:0:
64,192,230129,128,0,231077:0:0:0:0:
448,192,230761,1,0,0:0:0:0:
320,192,231077,128,0,231392:0:0:0:0:
448,192,231392,1,0,0:0:0:0:
64,192,231392,128,0,232024:0:0:0:0:
448,192,231708,1,0,0:0:0:0:
192,192,231787,1,0,0:0:0:0:
448,192,231866,1,0,0:0:0:0:
192,192,231945,1,0,0:0:0:0:
448,192,232024,1,0,0:0:0:0:
320,192,232024,128,0,232656:0:0:0:0:
448,192,232656,1,0,0:0:0:0:
64,192,232656,1,0,0:0:0:0:
192,192,232656,128,0,233603:0:0:0:0:
320,192,233287,1,0,0:0:0:0:
448,192,233603,128,0,233919:0:0:0:0:
64,192,233682,1,0,0:0:0:0:
320,192,233761,1,0,0:0:0:0:
64,192,233840,1,0,0:0:0:0:
192,192,233919,1,0,0:0:0:0:
320,192,233919,128,0,235182:0:0:0:0:
448,192,234235,1,0,0:0:0:0:
192,192,234392,1,0,0:0:0:0:
64,192,234392,1,0,0:0:0:0:
192,192,234550,1,0,0:0:0:0:
64,192,234550,1,0,0:0:0:0:
64,192,234866,1,0,0:0:0:0:
64,192,235182,1,0,0:0:0:0:
448,192,235182,1,0,0:0:0:0:
192,192,235182,128,0,236129:0:0:0:0:
448,192,235498,1,0,0:0:0:0:
320,192,235813,1,0,0:0:0:0:
448,192,235813,1,0,0:0:0:0:
448,192,236129,128,0,236445:0:0:0:0:
64,192,236287,1,0,0:0:0:0:
320,192,236287,1,0,0:0:0:0:
64,192,236445,1,0,0:0:0:0:
192,192,236445,128,0,237077:0:0:0:0:
64,192,236761,1,0,0:0:0:0:
448,192,236919,1,0,0:0:0:0:
320,192,236919,1,0,0:0:0:0:
64,192,237077,1,0,0:0:0:0:
320,192,237077,1,0,0:0:0:0:
448,192,237077,128,0,237708:0:0:0:0:
192,192,237708,1,0,0:0:0:0:
320,192,237708,1,0,0:0:0:0:
64,192,237708,128,0,238656:0:0:0:0:
320,192,238340,1,0,0:0:0:0:
320,192,238498,1,0,0:0:0:0:
448,192,238656,128,0,238971:0:0:0:0:
192,192,238735,1,0,0:0:0:0:
320,192,238813,1,0,0:0:0:0:
192,192,238892,1,0,0:0:0:0:
320,192,238971,1,0,0:0:0:0:
64,192,238971,128,0,240235:0:0:0:0:
192,192,239129,1,0,0:0:0:0:
192,192,239287,1,0,0:0:0:0:
320,192,239445,1,0,0:0:0:0:
448,192,239445,1,0,0:0:0:0:
192,192,239603,1,0,0:0:0:0:
448,192,239603,1,0,0:0:0:0:
320,192,239919,1,0,0:0:0:0:
192,192,239919,1,0,0:0:0:0:
192,192,240235,1,0,0:0:0:0:
320,192,240235,1,0,0:0:0:0:
448,192,240235,128,0,241182:0:0:0:0:
64,192,240866,1,0,0:0:0:0:
320,192,240866,1,0,0:0:0:0:
64,192,241182,128,0,241498:0:0:0:0:
320,192,241498,128,0,242129:0:0:0:0:
192,192,241498,1,0,0:0:0:0:
64,192,241971,1,0,0:0:0:0:
192,192,241971,1,0,0:0:0:0:
64,192,242129,1,0,0:0:0:0:
192,192,242129,128,0,242761:0:0:0:0:
64,192,242761,1,0,0:0:0:0:
320,192,242761,1,0,0:0:0:0:
448,192,242761,128,0,243708:0:0:0:0:
192,192,243077,1,0,0:0:0:0:
192,192,243392,1,0,0:0:0:0:
320,192,243392,1,0,0:0:0:0:
64,192,243708,128,0,244024:0:0:0:0:
320,192,244024,128,0,245287:0:0:0:0:
192,192,244024,1,0,0:0:0:0:
64,192,244498,1,0,0:0:0:0:
192,192,244498,1,0,0:0:0:0:
64,192,244656,1,0,0:0:0:0:
192,192,244656,1,0,0:0:0:0:
64,192,244971,1,0,0:0:0:0:
64,192,245287,1,0,0:0:0:0:
448,192,245287,1,0,0:0:0:0:
192,192,245287,128,0,246235:0:0:0:0:
320,192,245919,1,0,0:0:0:0:
448,192,245919,1,0,0:0:0:0:
448,192,246235,128,0,246550:0:0:0:0:
64,192,246392,1,0,0:0:0:0:
320,192,246392,1,0,0:0:0:0:
320,192,246550,1,0,0:0:0:0:
64,192,246550,128,0,247182:0:0:0:0:
192,192,247024,1,0,0:0:0:0:
320,192,247024,1,0,0:0:0:0:
192,192,247182,1,0,0:0:0:0:
320,192,247182,1,0,0:0:0:0:
448,192,247182,128,0,247735:0:0:0:0:
64,192,247813,1,0,0:0:0:0:
192,192,247813,1,0,0:0:0:0:
448,192,247813,128,0,248761:0:0:0:0:
320,192,248129,1,0,0:0:0:0:
320,192,248445,1,0,0:0:0:0:
192,192,248445,1,0,0:0:0:0:
64,192,248761,128,0,249077:0:0:0:0:
192,192,248919,1,0,0:0:0:0:
320,192,248919,1,0,0:0:0:0:
192,192,249077,1,0,0:0:0:0:
448,192,249077,1,0,0:0:0:0:
320,192,249235,1,0,0:0:0:0:
448,192,249235,1,0,0:0:0:0:
192,192,249313,1,0,0:0:0:0:
64,192,249313,1,0,0:0:0:0:
448,192,249392,1,0,0:0:0:0:
320,192,249392,1,0,0:0:0:0:
64,192,249471,1,0,0:0:0:0:
192,192,249471,1,0,0:0:0:0:
320,192,249550,1,0,0:0:0:0:
64,192,249629,1,0,0:0:0:0:
320,192,249708,1,0,0:0:0:0:
64,192,249787,1,0,0:0:0:0:
192,192,249866,1,0,0:0:0:0:
320,192,249945,1,0,0:0:0:0:
448,192,250024,1,0,0:0:0:0:
192,192,250103,1,0,0:0:0:0:
448,192,250182,1,0,0:0:0:0:
192,192,250261,1,0,0:0:0:0:
448,192,250340,1,0,0:0:0:0:
64,192,250340,1,0,0:0:0:0:
320,192,250419,1,0,0:0:0:0:
192,192,250498,1,0,0:0:0:0:
320,192,250577,1,0,0:0:0:0:
192,192,250656,1,0,0:0:0:0:
64,192,250656,1,0,0:0:0:0:
448,192,250735,1,0,0:0:0:0:
320,192,250813,1,0,0:0:0:0:
64,192,250892,1,0,0:0:0:0:
192,192,250971,1,0,0:0:0:0:
320,192,251050,1,0,0:0:0:0:
192,192,251129,1,0,0:0:0:0:
448,192,251208,1,0,0:0:0:0:
320,192,251287,1,0,0:0:0:0:
64,192,251287,1,0,0:0:0:0:
192,192,251366,1,0,0:0:0:0:
320,192,251445,1,0,0:0:0:0:
192,192,251524,1,0,0:0:0:0:
64,192,251603,1,0,0:0:0:0:
448,192,251682,1,0,0:0:0:0:
64,192,251761,1,0,0:0:0:0:
192,192,251840,1,0,0:0:0:0:
448,192,251919,1,0,0:0:0:0:
320,192,251919,1,0,0:0:0:0:
192,192,251998,1,0,0:0:0:0:
320,192,252077,1,0,0:0:0:0:
64,192,252156,1,0,0:0:0:0:
448,192,252235,1,0,0:0:0:0:
64,192,252313,1,0,0:0:0:0:
320,192,252392,1,0,0:0:0:0:
192,192,252471,1,0,0:0:0:0:
64,192,252550,1,0,0:0:0:0:
448,192,252550,1,0,0:0:0:0:
320,192,252629,1,0,0:0:0:0:
64,192,252708,1,0,0:0:0:0:
192,192,252787,1,0,0:0:0:0:
320,192,252866,1,0,0:0:0:0:
448,192,252866,1,0,0:0:0:0:
64,192,252945,1,0,0:0:0:0:
192,192,253024,1,0,0:0:0:0:
448,192,253103,1,0,0:0:0:0:
64,192,253182,1,0,0:0:0:0:
320,192,253182,1,0,0:0:0:0:
192,192,253261,1,0,0:0:0:0:
448,192,253340,1,0,0:0:0:0:
192,192,253419,1,0,0:0:0:0:
448,192,253498,1,0,0:0:0:0:
320,192,253577,1,0,0:0:0:0:
64,192,253656,1,0,0:0:0:0:
448,192,253735,1,0,0:0:0:0:
320,192,253813,1,0,0:0:0:0:
64,192,253813,1,0,0:0:0:0:
192,192,253892,1,0,0:0:0:0:
448,192,253971,1,0,0:0:0:0:
64,192,254050,1,0,0:0:0:0:
192,192,254129,1,0,0:0:0:0:
320,192,254208,1,0,0:0:0:0:
192,192,254287,1,0,0:0:0:0:
320,192,254366,1,0,0:0:0:0:
64,192,254445,1,0,0:0:0:0:
448,192,254445,1,0,0:0:0:0:
192,192,254524,1,0,0:0:0:0:
320,192,254603,1,0,0:0:0:0:
64,192,254682,1,0,0:0:0:0:
448,192,254761,1,0,0:0:0:0:
320,192,254840,1,0,0:0:0:0:
192,192,254919,1,0,0:0:0:0:
448,192,254998,1,0,0:0:0:0:
320,192,255077,1,0,0:0:0:0:
64,192,255077,1,0,0:0:0:0:
192,192,255156,1,0,0:0:0:0:
320,192,255235,1,0,0:0:0:0:
192,192,255313,1,0,0:0:0:0:
64,192,255392,1,0,0:0:0:0:
448,192,255392,1,0,0:0:0:0:
320,192,255471,1,0,0:0:0:0:
192,192,255550,1,0,0:0:0:0:
448,192,255629,1,0,0:0:0:0:
64,192,255708,1,0,0:0:0:0:
320,192,255708,1,0,0:0:0:0:
192,192,255787,1,0,0:0:0:0:
448,192,255866,1,0,0:0:0:0:
64,192,255945,1,0,0:0:0:0:
192,192,256024,1,0,0:0:0:0:
448,192,256103,1,0,0:0:0:0:
192,192,256182,1,0,0:0:0:0:
448,192,256261,1,0,0:0:0:0:
320,192,256340,1,0,0:0:0:0:
64,192,256340,1,0,0:0:0:0:
192,192,256419,1,0,0:0:0:0:
448,192,256498,1,0,0:0:0:0:
192,192,256577,1,0,0:0:0:0:
448,192,256656,1,0,0:0:0:0:
320,192,256735,1,0,0:0:0:0:
64,192,256813,1,0,0:0:0:0:
448,192,256892,1,0,0:0:0:0:
320,192,256971,1,0,0:0:0:0:
64,192,256971,1,0,0:0:0:0:
192,192,257050,1,0,0:0:0:0:
320,192,257129,1,0,0:0:0:0:
64,192,257208,1,0,0:0:0:0:
448,192,257287,1,0,0:0:0:0:
192,192,257366,1,0,0:0:0:0:
448,192,257445,1,0,0:0:0:0:
192,192,257524,1,0,0:0:0:0:
64,192,257603,1,0,0:0:0:0:
320,192,257603,1,0,0:0:0:0:
448,192,257682,1,0,0:0:0:0:
192,192,257761,1,0,0:0:0:0:
320,192,257840,1,0,0:0:0:0:
192,192,257919,1,0,0:0:0:0:
64,192,257919,1,0,0:0:0:0:
448,192,257998,1,0,0:0:0:0:
320,192,258077,1,0,0:0:0:0:
64,192,258156,1,0,0:0:0:0:
448,192,258235,1,0,0:0:0:0:
192,192,258235,1,0,0:0:0:0:
320,192,258313,1,0,0:0:0:0:
64,192,258392,1,0,0:0:0:0:
192,192,258471,1,0,0:0:0:0:
320,192,258550,1,0,0:0:0:0:
192,192,258629,1,0,0:0:0:0:
320,192,258708,1,0,0:0:0:0:
64,192,258787,1,0,0:0:0:0:
192,192,258866,1,0,0:0:0:0:
448,192,258866,1,0,0:0:0:0:
320,192,258945,1,0,0:0:0:0:
64,192,259024,1,0,0:0:0:0:
320,192,259103,1,0,0:0:0:0:
64,192,259182,1,0,0:0:0:0:
448,192,259261,1,0,0:0:0:0:
320,192,259340,1,0,0:0:0:0:
192,192,259419,1,0,0:0:0:0:
64,192,259498,1,0,0:0:0:0:
448,192,259498,1,0,0:0:0:0:
192,192,259577,1,0,0:0:0:0:
448,192,259656,1,0,0:0:0:0:
320,192,259735,1,0,0:0:0:0:
64,192,259813,1,0,0:0:0:0:
192,192,259892,1,0,0:0:0:0:
64,192,259971,1,0,0:0:0:0:
192,192,260050,1,0,0:0:0:0:
448,192,260129,1,0,0:0:0:0:
64,192,260208,1,0,0:0:0:0:
448,192,260287,1,0,0:0:0:0:
64,192,260366,1,0,0:0:0:0:
192,192,260445,1,0,0:0:0:0:
320,192,260445,1,0,0:0:0:0:
448,192,260524,1,0,0:0:0:0:
64,192,260603,1,0,0:0:0:0:
320,192,260682,1,0,0:0:0:0:
192,192,260761,1,0,0:0:0:0:
64,192,260761,1,0,0:0:0:0:
448,192,260840,1,0,0:0:0:0:
192,192,260919,1,0,0:0:0:0:
320,192,260998,1,0,0:0:0:0:
64,192,261077,1,0,0:0:0:0:
192,192,261156,1,0,0:0:0:0:
448,192,261235,1,0,0:0:0:0:
64,192,261313,1,0,0:0:0:0:
320,192,261392,1,0,0:0:0:0:
192,192,261392,1,0,0:0:0:0:
448,192,261471,1,0,0:0:0:0:
64,192,261550,1,0,0:0:0:0:
448,192,261629,1,0,0:0:0:0:
192,192,261708,1,0,0:0:0:0:
320,192,261787,1,0,0:0:0:0:
64,192,261866,1,0,0:0:0:0:
448,192,261945,1,0,0:0:0:0:
64,192,262024,1,0,0:0:0:0:
192,192,262024,1,0,0:0:0:0:
320,192,262103,1,0,0:0:0:0:
192,192,262182,1,0,0:0:0:0:
320,192,262261,1,0,0:0:0:0:
64,192,262340,1,0,0:0:0:0:
448,192,262419,1,0,0:0:0:0:
192,192,262498,1,0,0:0:0:0:
448,192,262577,1,0,0:0:0:0:
64,192,262656,1,0,0:0:0:0:
320,192,262656,1,0,0:0:0:0:
192,192,262735,1,0,0:0:0:0:
320,192,262813,1,0,0:0:0:0:
192,192,262892,1,0,0:0:0:0:
448,192,262971,1,0,0:0:0:0:
320,192,262971,1,0,0:0:0:0:
64,192,263050,1,0,0:0:0:0:
192,192,263129,1,0,0:0:0:0:
448,192,263208,1,0,0:0:0:0:
64,192,263287,1,0,0:0:0:0:
320,192,263287,1,0,0:0:0:0:
192,192,263366,1,0,0:0:0:0:
448,192,263445,1,0,0:0:0:0:
192,192,263524,1,0,0:0:0:0:
448,192,263603,1,0,0:0:0:0:
320,192,263682,1,0,0:0:0:0:
64,192,263761,1,0,0:0:0:0:
448,192,263840,1,0,0:0:0:0:
64,192,263919,1,0,0:0:0:0:
320,192,263919,1,0,0:0:0:0:
192,192,263998,1,0,0:0:0:0:
448,192,264077,1,0,0:0:0:0:
64,192,264156,1,0,0:0:0:0:
192,192,264235,1,0,0:0:0:0:
448,192,264313,1,0,0:0:0:0:
64,192,264392,1,0,0:0:0:0:
320,192,264471,1,0,0:0:0:0:
192,192,264550,1,0,0:0:0:0:
64,192,264550,1,0,0:0:0:0:
320,192,264629,1,0,0:0:0:0:
192,192,264708,1,0,0:0:0:0:
448,192,264787,1,0,0:0:0:0:
64,192,264866,1,0,0:0:0:0:
320,192,264945,1,0,0:0:0:0:
64,192,265024,1,0,0:0:0:0:
192,192,265103,1,0,0:0:0:0:
320,192,265182,1,0,0:0:0:0:
448,192,265182,1,0,0:0:0:0:
64,192,265261,1,0,0:0:0:0:
192,192,265340,1,0,0:0:0:0:
64,192,265419,1,0,0:0:0:0:
320,192,265498,1,0,0:0:0:0:
448,192,265498,1,0,0:0:0:0:
192,192,265577,1,0,0:0:0:0:
448,192,265656,1,0,0:0:0:0:
64,192,265735,1,0,0:0:0:0:
192,192,265813,1,0,0:0:0:0:
320,192,265813,1,0,0:0:0:0:
448,192,265892,1,0,0:0:0:0:
64,192,265971,1,0,0:0:0:0:
320,192,266050,1,0,0:0:0:0:
192,192,266129,1,0,0:0:0:0:
320,192,266208,1,0,0:0:0:0:
64,192,266287,1,0,0:0:0:0:
192,192,266366,1,0,0:0:0:0:
320,192,266445,1,0,0:0:0:0:
448,192,266445,1,0,0:0:0:0:
64,192,266524,1,0,0:0:0:0:
448,192,266603,1,0,0:0:0:0:
64,192,266682,1,0,0:0:0:0:
320,192,266761,1,0,0:0:0:0:
192,192,266840,1,0,0:0:0:0:
320,192,266919,1,0,0:0:0:0:
192,192,266998,1,0,0:0:0:0:
64,192,267077,1,0,0:0:0:0:
448,192,267077,1,0,0:0:0:0:
320,192,267156,1,0,0:0:0:0:
192,192,267235,1,0,0:0:0:0:
448,192,267313,1,0,0:0:0:0:
64,192,267392,1,0,0:0:0:0:
192,192,267471,1,0,0:0:0:0:
320,192,267550,1,0,0:0:0:0:
192,192,267629,1,0,0:0:0:0:
320,192,267708,1,0,0:0:0:0:
448,192,267708,1,0,0:0:0:0:
64,192,267787,1,0,0:0:0:0:
448,192,267866,1,0,0:0:0:0:
320,192,267945,1,0,0:0:0:0:
192,192,268024,1,0,0:0:0:0:
64,192,268024,1,0,0:0:0:0:
320,192,268103,1,0,0:0:0:0:
64,192,268182,1,0,0:0:0:0:
192,192,268261,1,0,0:0:0:0:
320,192,268340,1,0,0:0:0:0:
448,192,268340,1,0,0:0:0:0:
64,192,268419,1,0,0:0:0:0:
192,192,268498,1,0,0:0:0:0:
320,192,268577,1,0,0:0:0:0:
64,192,268656,1,0,0:0:0:0:
320,192,268735,1,0,0:0:0:0:
192,192,268813,1,0,0:0:0:0:
448,192,268892,1,0,0:0:0:0:
320,192,268971,1,0,0:0:0:0:
64,192,268971,1,0,0:0:0:0:
192,192,269050,1,0,0:0:0:0:
448,192,269129,1,0,0:0:0:0:
192,192,269208,1,0,0:0:0:0:
448,192,269287,1,0,0:0:0:0:
320,192,269366,1,0,0:0:0:0:
64,192,269445,1,0,0:0:0:0:
192,192,269524,1,0,0:0:0:0:
320,192,269603,1,0,0:0:0:0:
448,192,269603,1,0,0:0:0:0:
192,192,269682,1,0,0:0:0:0:
448,192,269761,1,0,0:0:0:0:
320,192,269840,1,0,0:0:0:0:
192,192,269919,1,0,0:0:0:0:
64,192,269919,1,0,0:0:0:0:
320,192,269998,1,0,0:0:0:0:
448,192,269998,1,0,0:0:0:0:
192,192,270077,1,0,0:0:0:0:
64,192,270077,1,0,0:0:0:0:
320,192,270156,1,0,0:0:0:0:
448,192,270156,1,0,0:0:0:0:
64,192,270235,1,0,0:0:0:0:
192,192,270313,1,0,0:0:0:0:
448,192,270392,1,0,0:0:0:0:
64,192,270471,1,0,0:0:0:0:
320,192,270550,1,0,0:0:0:0:
448,192,270550,1,0,0:0:0:0:
192,192,270550,1,0,0:0:0:0:
64,192,270708,1,0,0:0:0:0:
320,192,270708,1,0,0:0:0:0:
192,192,270866,1,0,0:0:0:0:
64,192,270866,1,0,0:0:0:0:
448,192,270866,1,0,0:0:0:0:
320,192,271024,1,0,0:0:0:0:
192,192,271024,1,0,0:0:0:0:
64,192,271182,1,0,0:0:0:0:
320,192,271182,1,0,0:0:0:0:
192,192,271340,1,0,0:0:0:0:
448,192,271340,1,0,0:0:0:0:
320,192,271498,1,0,0:0:0:0:
192,192,271498,1,0,0:0:0:0:
64,192,271498,1,0,0:0:0:0:
64,192,271656,1,0,0:0:0:0:
448,192,271656,1,0,0:0:0:0:
192,192,271813,1,0,0:0:0:0:
320,192,271813,1,0,0:0:0:0:
448,192,271813,1,0,0:0:0:0:
320,192,271971,1,0,0:0:0:0:
64,192,271971,1,0,0:0:0:0:
192,192,272129,1,0,0:0:0:0:
64,192,272129,1,0,0:0:0:0:
448,192,272129,1,0,0:0:0:0:
320,192,272287,1,0,0:0:0:0:
192,192,272287,1,0,0:0:0:0:
64,192,272445,1,0,0:0:0:0:
320,192,272445,1,0,0:0:0:0:
192,192,272603,1,0,0:0:0:0:
64,192,272603,1,0,0:0:0:0:
192,192,272761,1,0,0:0:0:0:
320,192,272761,1,0,0:0:0:0:
448,192,272761,1,0,0:0:0:0:
64,192,272919,1,0,0:0:0:0:
448,192,272919,1,0,0:0:0:0:
320,192,273077,1,0,0:0:0:0:
64,192,273077,1,0,0:0:0:0:
192,192,273235,1,0,0:0:0:0:
320,192,273235,1,0,0:0:0:0:
192,192,273392,1,0,0:0:0:0:
64,192,273392,1,0,0:0:0:0:
448,192,273392,1,0,0:0:0:0:
320,192,273550,1,0,0:0:0:0:
64,192,273550,1,0,0:0:0:0:
320,192,273708,1,0,0:0:0:0:
448,192,273708,1,0,0:0:0:0:
192,192,273866,1,0,0:0:0:0:
64,192,273866,1,0,0:0:0:0:
448,192,273866,1,0,0:0:0:0:
64,192,274024,1,0,0:0:0:0:
192,192,274024,1,0,0:0:0:0:
320,192,274103,1,0,0:0:0:0:
448,192,274103,1,0,0:0:0:0:
192,192,274182,1,0,0:0:0:0:
320,192,274261,1,0,0:0:0:0:
64,192,274340,1,0,0:0:0:0:
192,192,274340,1,0,0:0:0:0:
448,192,274419,1,0,0:0:0:0:
320,192,274498,1,0,0:0:0:0:
192,192,274577,1,0,0:0:0:0:
448,192,274656,1,0,0:0:0:0:
64,192,274735,1,0,0:0:0:0:
320,192,274813,1,0,0:0:0:0:
448,192,274813,1,0,0:0:0:0:
192,192,274892,1,0,0:0:0:0:
64,192,274892,1,0,0:0:0:0:
320,192,274971,1,0,0:0:0:0:
448,192,274971,1,0,0:0:0:0:
192,192,275050,1,0,0:0:0:0:
64,192,275050,1,0,0:0:0:0:
320,192,275129,1,0,0:0:0:0:
192,192,275208,1,0,0:0:0:0:
64,192,275287,1,0,0:0:0:0:
448,192,275366,1,0,0:0:0:0:
192,192,275445,1,0,0:0:0:0:
320,192,275524,1,0,0:0:0:0:
192,192,275603,1,0,0:0:0:0:
64,192,275603,1,0,0:0:0:0:
448,192,275682,1,0,0:0:0:0:
320,192,275761,1,0,0:0:0:0:
192,192,275840,1,0,0:0:0:0:
320,192,275919,1,0,0:0:0:0:
192,192,275998,1,0,0:0:0:0:
448,192,276077,1,0,0:0:0:0:
64,192,276156,1,0,0:0:0:0:
320,192,276235,1,0,0:0:0:0:
64,192,276313,1,0,0:0:0:0:
320,192,276392,1,0,0:0:0:0:
192,192,276471,1,0,0:0:0:0:
64,192,276550,1,0,0:0:0:0:
448,192,276550,1,0,0:0:0:0:
320,192,276629,1,0,0:0:0:0:
192,192,276708,1,0,0:0:0:0:
320,192,276787,1,0,0:0:0:0:
64,192,276866,1,0,0:0:0:0:
448,192,276945,1,0,0:0:0:0:
64,192,277024,1,0,0:0:0:0:
448,192,277103,1,0,0:0:0:0:
320,192,277182,1,0,0:0:0:0:
64,192,277182,1,0,0:0:0:0:
192,192,277261,1,0,0:0:0:0:
448,192,277340,1,0,0:0:0:0:
320,192,277419,1,0,0:0:0:0:
192,192,277498,1,0,0:0:0:0:
448,192,277577,1,0,0:0:0:0:
64,192,277656,1,0,0:0:0:0:
320,192,277735,1,0,0:0:0:0:
192,192,277813,1,0,0:0:0:0:
64,192,277813,1,0,0:0:0:0:
448,192,277892,1,0,0:0:0:0:
320,192,277971,1,0,0:0:0:0:
64,192,278050,1,0,0:0:0:0:
320,192,278129,1,0,0:0:0:0:
64,192,278208,1,0,0:0:0:0:
448,192,278287,1,0,0:0:0:0:
192,192,278366,1,0,0:0:0:0:
320,192,278445,1,0,0:0:0:0:
448,192,278445,1,0,0:0:0:0:
64,192,278524,1,0,0:0:0:0:
192,192,278603,1,0,0:0:0:0:
448,192,278682,1,0,0:0:0:0:
64,192,278761,1,0,0:0:0:0:
320,192,278840,1,0,0:0:0:0:
192,192,278919,1,0,0:0:0:0:
448,192,278998,1,0,0:0:0:0:
320,192,279077,1,0,0:0:0:0:
192,192,279077,1,0,0:0:0:0:
64,192,279156,1,0,0:0:0:0:
448,192,279235,1,0,0:0:0:0:
64,192,279313,1,0,0:0:0:0:
320,192,279392,1,0,0:0:0:0:
192,192,279471,1,0,0:0:0:0:
320,192,279550,1,0,0:0:0:0:
64,192,279629,1,0,0:0:0:0:
192,192,279708,1,0,0:0:0:0:
448,192,279708,1,0,0:0:0:0:
320,192,279787,1,0,0:0:0:0:
64,192,279866,1,0,0:0:0:0:
192,192,279945,1,0,0:0:0:0:
448,192,280024,1,0,0:0:0:0:
64,192,280103,1,0,0:0:0:0:
448,192,280182,1,0,0:0:0:0:
320,192,280261,1,0,0:0:0:0:
192,192,280340,1,0,0:0:0:0:
64,192,280340,1,0,0:0:0:0:
448,192,280419,1,0,0:0:0:0:
320,192,280498,1,0,0:0:0:0:
64,192,280577,1,0,0:0:0:0:
320,192,280656,1,0,0:0:0:0:
192,192,280656,1,0,0:0:0:0:
448,192,280735,1,0,0:0:0:0:
64,192,280813,1,0,0:0:0:0:
320,192,280892,1,0,0:0:0:0:
192,192,280971,1,0,0:0:0:0:
64,192,280971,1,0,0:0:0:0:
448,192,281050,1,0,0:0:0:0:
320,192,281129,1,0,0:0:0:0:
192,192,281208,1,0,0:0:0:0:
320,192,281287,1,0,0:0:0:0:
192,192,281366,1,0,0:0:0:0:
448,192,281445,1,0,0:0:0:0:
64,192,281524,1,0,0:0:0:0:
192,192,281603,1,0,0:0:0:0:
448,192,281603,1,0,0:0:0:0:
320,192,281682,1,0,0:0:0:0:
64,192,281761,1,0,0:0:0:0:
192,192,281840,1,0,0:0:0:0:
448,192,281919,1,0,0:0:0:0:
192,192,281998,1,0,0:0:0:0:
320,192,282077,1,0,0:0:0:0:
64,192,282156,1,0,0:0:0:0:
192,192,282235,1,0,0:0:0:0:
448,192,282235,1,0,0:0:0:0:
320,192,282313,1,0,0:0:0:0:
192,192,282392,1,0,0:0:0:0:
320,192,282471,1,0,0:0:0:0:
64,192,282550,1,0,0:0:0:0:
448,192,282629,1,0,0:0:0:0:
192,192,282708,1,0,0:0:0:0:
320,192,282787,1,0,0:0:0:0:
192,192,282866,1,0,0:0:0:0:
64,192,282866,1,0,0:0:0:0:
448,192,282945,1,0,0:0:0:0:
320,192,283024,1,0,0:0:0:0:
64,192,283103,1,0,0:0:0:0:
192,192,283182,1,0,0:0:0:0:
448,192,283182,1,0,0:0:0:0:
320,192,283261,1,0,0:0:0:0:
192,192,283340,1,0,0:0:0:0:
320,192,283419,1,0,0:0:0:0:
64,192,283498,1,0,0:0:0:0:
448,192,283498,1,0,0:0:0:0:
192,192,283577,1,0,0:0:0:0:
320,192,283656,1,0,0:0:0:0:
64,192,283735,1,0,0:0:0:0:
448,192,283813,1,0,0:0:0:0:
192,192,283892,1,0,0:0:0:0:
448,192,283971,1,0,0:0:0:0:
320,192,284050,1,0,0:0:0:0:
192,192,284129,1,0,0:0:0:0:
64,192,284129,1,0,0:0:0:0:
448,192,284208,1,0,0:0:0:0:
64,192,284287,1,0,0:0:0:0:
192,192,284366,1,0,0:0:0:0:
448,192,284445,1,0,0:0:0:0:
64,192,284524,1,0,0:0:0:0:
320,192,284603,1,0,0:0:0:0:
64,192,284682,1,0,0:0:0:0:
192,192,284761,1,0,0:0:0:0:
448,192,284761,1,0,0:0:0:0:
320,192,284840,1,0,0:0:0:0:
192,192,284919,1,0,0:0:0:0:
320,192,284998,1,0,0:0:0:0:
64,192,285077,1,0,0:0:0:0:
192,192,285156,1,0,0:0:0:0:
448,192,285235,1,0,0:0:0:0:
192,192,285313,1,0,0:0:0:0:
448,192,285392,1,0,0:0:0:0:
320,192,285471,1,0,0:0:0:0:
192,192,285550,1,0,0:0:0:0:
320,192,285629,1,0,0:0:0:0:
192,192,285708,1,0,0:0:0:0:
64,192,285708,1,0,0:0:0:0:
448,192,285787,1,0,0:0:0:0:
320,192,285866,1,0,0:0:0:0:
64,192,285945,1,0,0:0:0:0:
192,192,286024,1,0,0:0:0:0:
448,192,286024,1,0,0:0:0:0:
320,192,286103,1,0,0:0:0:0:
192,192,286182,1,0,0:0:0:0:
320,192,286261,1,0,0:0:0:0:
64,192,286340,1,0,0:0:0:0:
448,192,286419,1,0,0:0:0:0:
320,192,286498,1,0,0:0:0:0:
192,192,286577,1,0,0:0:0:0:
64,192,286656,1,0,0:0:0:0:
448,192,286656,1,0,0:0:0:0:
192,192,286735,1,0,0:0:0:0:
320,192,286813,1,0,0:0:0:0:
64,192,286892,1,0,0:0:0:0:
448,192,286971,1,0,0:0:0:0:
64,192,287050,1,0,0:0:0:0:
448,192,287129,1,0,0:0:0:0:
320,192,287208,1,0,0:0:0:0:
192,192,287287,1,0,0:0:0:0:
64,192,287287,1,0,0:0:0:0:
320,192,287366,1,0,0:0:0:0:
192,192,287445,1,0,0:0:0:0:
448,192,287524,1,0,0:0:0:0:
64,192,287603,1,0,0:0:0:0:
320,192,287682,1,0,0:0:0:0:
192,192,287761,1,0,0:0:0:0:
320,192,287840,1,0,0:0:0:0:
192,192,287919,1,0,0:0:0:0:
64,192,287919,1,0,0:0:0:0:
448,192,287998,1,0,0:0:0:0:
320,192,288077,1,0,0:0:0:0:
64,192,288156,1,0,0:0:0:0:
320,192,288235,1,0,0:0:0:0:
192,192,288235,1,0,0:0:0:0:
448,192,288313,1,0,0:0:0:0:
64,192,288392,1,0,0:0:0:0:
448,192,288471,1,0,0:0:0:0:
192,192,288550,1,0,0:0:0:0:
64,192,288550,1,0,0:0:0:0:
320,192,288629,1,0,0:0:0:0:
192,192,288708,1,0,0:0:0:0:
448,192,288787,1,0,0:0:0:0:
64,192,288866,1,0,0:0:0:0:
320,192,288945,1,0,0:0:0:0:
64,192,289024,1,0,0:0:0:0:
320,192,289103,1,0,0:0:0:0:
192,192,289182,1,0,0:0:0:0:
448,192,289182,1,0,0:0:0:0:
64,192,289261,1,0,0:0:0:0:
320,192,289340,1,0,0:0:0:0:
192,192,289419,1,0,0:0:0:0:
448,192,289498,1,0,0:0:0:0:
64,192,289577,1,0,0:0:0:0:
448,192,289656,1,0,0:0:0:0:
320,192,289735,1,0,0:0:0:0:
192,192,289813,1,0,0:0:0:0:
64,192,289813,1,0,0:0:0:0:
320,192,289892,1,0,0:0:0:0:
192,192,289971,1,0,0:0:0:0:
448,192,290050,1,0,0:0:0:0:
64,192,290129,1,0,0:0:0:0:
320,192,290208,1,0,0:0:0:0:
192,192,290287,1,0,0:0:0:0:
448,192,290366,1,0,0:0:0:0:
64,192,290445,1,0,0:0:0:0:
320,192,290445,1,0,0:0:0:0:
192,192,290524,1,0,0:0:0:0:
320,192,290603,1,0,0:0:0:0:
192,192,290682,1,0,0:0:0:0:
64,192,290761,1,0,0:0:0:0:
448,192,290761,1,0,0:0:0:0:
320,192,290840,1,0,0:0:0:0:
192,192,290919,1,0,0:0:0:0:
448,192,290998,1,0,0:0:0:0:
64,192,291077,1,0,0:0:0:0:
192,192,291077,1,0,0:0:0:0:
320,192,291156,1,0,0:0:0:0:
64,192,291235,1,0,0:0:0:0:
320,192,291313,1,0,0:0:0:0:
192,192,291392,1,0,0:0:0:0:
448,192,291471,1,0,0:0:0:0:
320,192,291550,1,0,0:0:0:0:
64,192,291629,1,0,0:0:0:0:
192,192,291708,1,0,0:0:0:0:
320,192,291708,1,0,0:0:0:0:
448,192,291787,1,0,0:0:0:0:
64,192,291866,1,0,0:0:0:0:
320,192,291945,1,0,0:0:0:0:
192,192,292024,1,0,0:0:0:0:
320,192,292103,1,0,0:0:0:0:
192,192,292182,1,0,0:0:0:0:
448,192,292261,1,0,0:0:0:0:
320,192,292340,1,0,0:0:0:0:
64,192,292340,1,0,0:0:0:0:
192,192,292419,1,0,0:0:0:0:
448,192,292498,1,0,0:0:0:0:
64,192,292577,1,0,0:0:0:0:
320,192,292656,1,0,0:0:0:0:
64,192,292735,1,0,0:0:0:0:
192,192,292813,1,0,0:0:0:0:
320,192,292892,1,0,0:0:0:0:
192,192,292971,1,0,0:0:0:0:
64,192,292971,1,0,0:0:0:0:
448,192,293050,1,0,0:0:0:0:
64,192,293129,1,0,0:0:0:0:
192,192,293208,1,0,0:0:0:0:
320,192,293287,1,0,0:0:0:0:
448,192,293287,1,0,0:0:0:0:
64,192,293366,1,0,0:0:0:0:
320,192,293445,1,0,0:0:0:0:
64,192,293524,1,0,0:0:0:0:
192,192,293603,1,0,0:0:0:0:
448,192,293603,1,0,0:0:0:0:
320,192,293682,1,0,0:0:0:0:
64,192,293761,1,0,0:0:0:0:
448,192,293840,1,0,0:0:0:0:
64,192,293919,1,0,0:0:0:0:
320,192,293998,1,0,0:0:0:0:
192,192,294077,1,0,0:0:0:0:
320,192,294156,1,0,0:0:0:0:
192,192,294235,1,0,0:0:0:0:
64,192,294235,1,0,0:0:0:0:
448,192,294313,1,0,0:0:0:0:
64,192,294392,1,0,0:0:0:0:
192,192,294471,1,0,0:0:0:0:
320,192,294550,1,0,0:0:0:0:
64,192,294629,1,0,0:0:0:0:
448,192,294708,1,0,0:0:0:0:
64,192,294787,1,0,0:0:0:0:
192,192,294866,1,0,0:0:0:0:
448,192,294866,1,0,0:0:0:0:
320,192,294945,1,0,0:0:0:0:
64,192,295024,1,0,0:0:0:0:
192,192,295103,1,0,0:0:0:0:
448,192,295182,1,0,0:0:0:0:
320,192,295261,1,0,0:0:0:0:
192,192,295340,1,0,0:0:0:0:
64,192,295419,1,0,0:0:0:0:
448,192,295498,1,0,0:0:0:0:
320,192,295577,1,0,0:0:0:0:
192,192,295656,1,0,0:0:0:0:
64,192,295735,1,0,0:0:0:0:
320,192,295813,1,0,0:0:0:0:
448,192,295813,1,0,0:0:0:0:
192,192,295892,1,0,0:0:0:0:
448,192,295971,1,0,0:0:0:0:
64,192,296050,1,0,0:0:0:0:
192,192,296129,1,0,0:0:0:0:
320,192,296129,1,0,0:0:0:0:
448,192,296208,1,0,0:0:0:0:
64,192,296287,1,0,0:0:0:0:
320,192,296366,1,0,0:0:0:0:
64,192,296445,1,0,0:0:0:0:
320,192,296524,1,0,0:0:0:0:
192,192,296603,1,0,0:0:0:0:
448,192,296682,1,0,0:0:0:0:
320,192,296761,1,0,0:0:0:0:
64,192,296761,1,0,0:0:0:0:
192,192,296840,1,0,0:0:0:0:
448,192,296919,1,0,0:0:0:0:
192,192,296998,1,0,0:0:0:0:
64,192,297077,1,0,0:0:0:0:
448,192,297156,1,0,0:0:0:0:
320,192,297235,1,0,0:0:0:0:
192,192,297313,1,0,0:0:0:0:
64,192,297392,1,0,0:0:0:0:
448,192,297392,1,0,0:0:0:0:
320,192,297471,1,0,0:0:0:0:
192,192,297550,1,0,0:0:0:0:
320,192,297629,1,0,0:0:0:0:
64,192,297708,1,0,0:0:0:0:
448,192,297787,1,0,0:0:0:0:
64,192,297866,1,0,0:0:0:0:
448,192,297945,1,0,0:0:0:0:
320,192,298024,1,0,0:0:0:0:
64,192,298024,1,0,0:0:0:0:
192,192,298103,1,0,0:0:0:0:
320,192,298182,1,0,0:0:0:0:
64,192,298261,1,0,0:0:0:0:
192,192,298340,1,0,0:0:0:0:
448,192,298340,1,0,0:0:0:0:
320,192,298419,1,0,0:0:0:0:
64,192,298498,1,0,0:0:0:0:
448,192,298577,1,0,0:0:0:0:
320,192,298656,1,0,0:0:0:0:
64,192,298656,1,0,0:0:0:0:
192,192,298735,1,0,0:0:0:0:
448,192,298813,1,0,0:0:0:0:
64,192,298892,1,0,0:0:0:0:
192,192,298971,1,0,0:0:0:0:
448,192,299050,1,0,0:0:0:0:
192,192,299129,1,0,0:0:0:0:
320,192,299208,1,0,0:0:0:0:
64,192,299287,1,0,0:0:0:0:
448,192,299287,1,0,0:0:0:0:
192,192,299366,1,0,0:0:0:0:
320,192,299445,1,0,0:0:0:0:
192,192,299524,1,0,0:0:0:0:
320,192,299603,1,0,0:0:0:0:
448,192,299603,1,0,0:0:0:0:
64,192,299682,1,0,0:0:0:0:
192,192,299761,1,0,0:0:0:0:
448,192,299840,1,0,0:0:0:0:
320,192,299919,1,0,0:0:0:0:
64,192,299919,1,0,0:0:0:0:
192,192,299998,1,0,0:0:0:0:
448,192,300077,1,0,0:0:0:0:
64,192,300156,1,0,0:0:0:0:
192,192,300235,1,0,0:0:0:0:
320,192,300313,1,0,0:0:0:0:
64,192,300392,1,0,0:0:0:0:
448,192,300471,1,0,0:0:0:0:
320,192,300550,1,0,0:0:0:0:
64,192,300550,1,0,0:0:0:0:
192,192,300629,1,0,0:0:0:0:
448,192,300708,1,0,0:0:0:0:
192,192,300787,1,0,0:0:0:0:
320,192,300866,1,0,0:0:0:0:
448,192,300866,1,0,0:0:0:0:
64,192,300945,1,0,0:0:0:0:
192,192,301024,1,0,0:0:0:0:
448,192,301103,1,0,0:0:0:0:
320,192,301182,1,0,0:0:0:0:
64,192,301182,1,0,0:0:0:0:
192,192,301261,1,0,0:0:0:0:
320,192,301340,1,0,0:0:0:0:
192,192,301419,1,0,0:0:0:0:
448,192,301498,1,0,0:0:0:0:
64,192,301577,1,0,0:0:0:0:
320,192,301656,1,0,0:0:0:0:
192,192,301735,1,0,0:0:0:0:
64,192,301813,1,0,0:0:0:0:
448,192,301813,1,0,0:0:0:0:
320,192,301892,1,0,0:0:0:0:
64,192,301971,1,0,0:0:0:0:
320,192,302050,1,0,0:0:0:0:
192,192,302129,1,0,0:0:0:0:
448,192,302208,1,0,0:0:0:0:
64,192,302287,1,0,0:0:0:0:
192,192,302366,1,0,0:0:0:0:
320,192,302445,1,0,0:0:0:0:
448,192,302445,1,0,0:0:0:0:
192,192,302524,1,0,0:0:0:0:
320,192,302603,1,0,0:0:0:0:
64,192,302682,1,0,0:0:0:0:
448,192,302761,1,0,0:0:0:0:
320,192,302840,1,0,0:0:0:0:
64,192,302919,1,0,0:0:0:0:
320,192,302998,1,0,0:0:0:0:
192,192,303077,1,0,0:0:0:0:
64,192,303077,1,0,0:0:0:0:
448,192,303156,1,0,0:0:0:0:
192,192,303235,1,0,0:0:0:0:
320,192,303313,1,0,0:0:0:0:
64,192,303392,1,0,0:0:0:0:
192,192,303392,1,0,0:0:0:0:
448,192,303471,1,0,0:0:0:0:
64,192,303550,1,0,0:0:0:0:
448,192,303629,1,0,0:0:0:0:
320,192,303708,1,0,0:0:0:0:
192,192,303708,1,0,0:0:0:0:
64,192,303787,1,0,0:0:0:0:
448,192,303866,1,0,0:0:0:0:
64,192,303945,1,0,0:0:0:0:
192,192,304024,1,0,0:0:0:0:
448,192,304103,1,0,0:0:0:0:
320,192,304182,1,0,0:0:0:0:
192,192,304261,1,0,0:0:0:0:
64,192,304340,1,0,0:0:0:0:
448,192,304340,1,0,0:0:0:0:
320,192,304419,1,0,0:0:0:0:
64,192,304498,1,0,0:0:0:0:
192,192,304577,1,0,0:0:0:0:
320,192,304656,1,0,0:0:0:0:
64,192,304735,1,0,0:0:0:0:
320,192,304813,1,0,0:0:0:0:
448,192,304813,1,0,0:0:0:0:
64,192,304892,1,0,0:0:0:0:
192,192,304971,1,0,0:0:0:0:
320,192,305050,1,0,0:0:0:0:
64,192,305129,1,0,0:0:0:0:
192,192,305208,1,0,0:0:0:0:
320,192,305287,1,0,0:0:0:0:
448,192,305287,1,0,0:0:0:0:
192,192,305366,1,0,0:0:0:0:
64,192,305445,1,0,0:0:0:0:
448,192,305603,1,0,0:0:0:0:
320,192,305682,1,0,0:0:0:0:
192,192,305761,1,0,0:0:0:0:
320,192,305840,1,0,0:0:0:0:
64,192,305919,1,0,0:0:0:0:
192,192,305919,1,0,0:0:0:0:
448,192,305998,1,0,0:0:0:0:
64,192,306077,1,0,0:0:0:0:
448,192,306156,1,0,0:0:0:0:
320,192,306235,1,0,0:0:0:0:
192,192,306235,1,0,0:0:0:0:
64,192,306313,1,0,0:0:0:0:
320,192,306392,1,0,0:0:0:0:
64,192,306471,1,0,0:0:0:0:
448,192,306550,1,0,0:0:0:0:
192,192,306629,1,0,0:0:0:0:
320,192,306708,1,0,0:0:0:0:
192,192,306787,1,0,0:0:0:0:
64,192,306866,1,0,0:0:0:0:
448,192,306866,1,0,0:0:0:0:
320,192,306945,1,0,0:0:0:0:
192,192,307024,1,0,0:0:0:0:
320,192,307103,1,0,0:0:0:0:
64,192,307182,1,0,0:0:0:0:
448,192,307261,1,0,0:0:0:0:
192,192,307340,1,0,0:0:0:0:
448,192,307419,1,0,0:0:0:0:
320,192,307498,1,0,0:0:0:0:
64,192,307498,1,0,0:0:0:0:
192,192,307577,1,0,0:0:0:0:
448,192,307656,1,0,0:0:0:0:
192,192,307735,1,0,0:0:0:0:
448,192,307813,1,0,0:0:0:0:
320,192,307866,1,0,0:0:0:0:
192,192,307919,1,0,0:0:0:0:
64,192,307971,1,0,0:0:0:0:
320,192,308024,1,0,0:0:0:0:
192,192,308077,1,0,0:0:0:0:
448,192,308129,1,0,0:0:0:0:
320,192,308182,1,0,0:0:0:0:
192,192,308235,1,0,0:0:0:0:
64,192,308287,1,0,0:0:0:0:
320,192,308340,1,0,0:0:0:0:
192,192,308392,1,0,0:0:0:0:
64,192,308445,1,0,0:0:0:0:
448,192,308445,1,0,0:0:0:0:
320,192,308524,1,0,0:0:0:0:
192,192,308603,1,0,0:0:0:0:
320,192,308682,1,0,0:0:0:0:
448,192,308761,1,0,0:0:0:0:
192,192,308761,1,0,0:0:0:0:
64,192,308840,1,0,0:0:0:0:
320,192,308919,1,0,0:0:0:0:
64,192,308998,1,0,0:0:0:0:
448,192,309077,1,0,0:0:0:0:
192,192,309156,1,0,0:0:0:0:
320,192,309235,1,0,0:0:0:0:
192,192,309313,1,0,0:0:0:0:
320,192,309392,1,0,0:0:0:0:
64,192,309392,1,0,0:0:0:0:
448,192,309471,1,0,0:0:0:0:
192,192,309550,1,0,0:0:0:0:
448,192,309629,1,0,0:0:0:0:
64,192,309708,1,0,0:0:0:0:
320,192,309787,1,0,0:0:0:0:
192,192,309866,1,0,0:0:0:0:
320,192,309945,1,0,0:0:0:0:
448,192,310024,1,0,0:0:0:0:
192,192,310024,1,0,0:0:0:0:
64,192,310103,1,0,0:0:0:0:
320,192,310182,1,0,0:0:0:0:
64,192,310261,1,0,0:0:0:0:
448,192,310340,1,0,0:0:0:0:
320,192,310392,1,0,0:0:0:0:
192,192,310445,1,0,0:0:0:0:
64,192,310498,1,0,0:0:0:0:
320,192,310550,1,0,0:0:0:0:
192,192,310603,1,0,0:0:0:0:
448,192,310656,1,0,0:0:0:0:
320,192,310708,1,0,0:0:0:0:
192,192,310761,1,0,0:0:0:0:
64,192,310813,1,0,0:0:0:0:
320,192,310866,1,0,0:0:0:0:
192,192,310919,1,0,0:0:0:0:
64,192,310971,1,0,0:0:0:0:
448,192,310971,1,0,0:0:0:0:
320,192,311050,1,0,0:0:0:0:
64,192,311129,1,0,0:0:0:0:
320,192,311208,1,0,0:0:0:0:
192,192,311287,1,0,0:0:0:0:
448,192,311287,1,0,0:0:0:0:
64,192,311366,1,0,0:0:0:0:
320,192,311445,1,0,0:0:0:0:
64,192,311524,1,0,0:0:0:0:
448,192,311603,1,0,0:0:0:0:
192,192,311682,1,0,0:0:0:0:
320,192,311761,1,0,0:0:0:0:
192,192,311840,1,0,0:0:0:0:
64,192,311919,1,0,0:0:0:0:
320,192,311919,1,0,0:0:0:0:
448,192,311998,1,0,0:0:0:0:
192,192,312077,1,0,0:0:0:0:
448,192,312156,1,0,0:0:0:0:
64,192,312235,1,0,0:0:0:0:
320,192,312313,1,0,0:0:0:0:
192,192,312392,1,0,0:0:0:0:
320,192,312471,1,0,0:0:0:0:
192,192,312550,1,0,0:0:0:0:
448,192,312550,1,0,0:0:0:0:
64,192,312629,1,0,0:0:0:0:
320,192,312708,1,0,0:0:0:0:
64,192,312787,1,0,0:0:0:0:
448,192,312866,1,0,0:0:0:0:
320,192,312866,1,0,0:0:0:0:
192,192,312945,1,0,0:0:0:0:
64,192,312945,1,0,0:0:0:0:
320,192,313024,1,0,0:0:0:0:
448,192,313024,1,0,0:0:0:0:
192,192,313103,1,0,0:0:0:0:
64,192,313103,1,0,0:0:0:0:
320,192,313182,1,0,0:0:0:0:
192,192,313261,1,0,0:0:0:0:
64,192,313340,1,0,0:0:0:0:
320,192,313419,1,0,0:0:0:0:
192,192,313498,1,0,0:0:0:0:
448,192,313498,1,0,0:0:0:0:
64,192,313577,1,0,0:0:0:0:
320,192,313656,1,0,0:0:0:0:
448,192,313656,1,0,0:0:0:0:
64,192,313735,1,0,0:0:0:0:
192,192,313813,1,0,0:0:0:0:
448,192,313813,1,0,0:0:0:0:
320,192,313892,1,0,0:0:0:0:
192,192,313971,1,0,0:0:0:0:
64,192,313971,1,0,0:0:0:0:
320,192,314050,1,0,0:0:0:0:
64,192,314129,1,0,0:0:0:0:
448,192,314208,1,0,0:0:0:0:
192,192,314287,1,0,0:0:0:0:
320,192,314287,1,0,0:0:0:0:
448,192,314366,1,0,0:0:0:0:
320,192,314445,1,0,0:0:0:0:
64,192,314445,1,0,0:0:0:0:
192,192,314524,1,0,0:0:0:0:
320,192,314603,1,0,0:0:0:0:
448,192,314603,1,0,0:0:0:0:
192,192,314682,1,0,0:0:0:0:
64,192,314761,1,0,0:0:0:0:
320,192,314761,1,0,0:0:0:0:
448,192,314840,1,0,0:0:0:0:
192,192,314919,1,0,0:0:0:0:
64,192,314919,1,0,0:0:0:0:
448,192,314998,1,0,0:0:0:0:
320,192,314998,1,0,0:0:0:0:
192,192,315077,1,0,0:0:0:0:
64,192,315077,1,0,0:0:0:0:
320,192,315156,1,0,0:0:0:0:
448,192,315156,1,0,0:0:0:0:
64,192,315235,1,0,0:0:0:0:
192,192,315313,1,0,0:0:0:0:
320,192,315392,1,0,0:0:0:0:
448,192,315392,1,0,0:0:0:0:
192,192,315471,1,0,0:0:0:0:
64,192,315550,1,0,0:0:0:0:
448,192,315550,1,0,0:0:0:0:
320,192,315629,1,0,0:0:0:0:
192,192,315708,1,0,0:0:0:0:
64,192,315708,1,0,0:0:0:0:
320,192,315787,1,0,0:0:0:0:
64,192,315866,1,0,0:0:0:0:
192,192,315945,1,0,0:0:0:0:
320,192,316024,1,0,0:0:0:0:
448,192,316024,1,0,0:0:0:0:
64,192,316103,1,0,0:0:0:0:
320,192,316182,1,0,0:0:0:0:
64,192,316261,1,0,0:0:0:0:
448,192,316340,1,0,0:0:0:0:
192,192,316340,1,0,0:0:0:0:
320,192,316419,1,0,0:0:0:0:
64,192,316498,1,0,0:0:0:0:
320,192,316577,1,0,0:0:0:0:
192,192,316656,1,0,0:0:0:0:
448,192,316735,1,0,0:0:0:0:
64,192,316813,1,0,0:0:0:0:
448,192,316892,1,0,0:0:0:0:
192,192,316971,1,0,0:0:0:0:
320,192,316971,1,0,0:0:0:0:
64,192,317050,1,0,0:0:0:0:
448,192,317129,1,0,0:0:0:0:
64,192,317208,1,0,0:0:0:0:
320,192,317287,1,0,0:0:0:0:
192,192,317366,1,0,0:0:0:0:
448,192,317445,1,0,0:0:0:0:
192,192,317524,1,0,0:0:0:0:
320,192,317603,1,0,0:0:0:0:
64,192,317603,1,0,0:0:0:0:
448,192,317682,1,0,0:0:0:0:
192,192,317761,1,0,0:0:0:0:
448,192,317840,1,0,0:0:0:0:
64,192,317919,1,0,0:0:0:0:
192,192,317971,1,0,0:0:0:0:
320,192,318024,1,0,0:0:0:0:
448,192,318077,1,0,0:0:0:0:
192,192,318129,1,0,0:0:0:0:
320,192,318182,1,0,0:0:0:0:
64,192,318235,1,0,0:0:0:0:
192,192,318287,1,0,0:0:0:0:
320,192,318340,1,0,0:0:0:0:
448,192,318392,1,0,0:0:0:0:
192,192,318445,1,0,0:0:0:0:
320,192,318498,1,0,0:0:0:0:
64,192,318550,1,0,0:0:0:0:
448,192,318550,1,0,0:0:0:0:
192,192,318629,1,0,0:0:0:0:
320,192,318708,1,0,0:0:0:0:
192,192,318787,1,0,0:0:0:0:
448,192,318866,1,0,0:0:0:0:
64,192,318866,1,0,0:0:0:0:
320,192,318945,1,0,0:0:0:0:
64,192,319024,1,0,0:0:0:0:
320,192,319103,1,0,0:0:0:0:
192,192,319182,1,0,0:0:0:0:
448,192,319261,1,0,0:0:0:0:
64,192,319340,1,0,0:0:0:0:
448,192,319419,1,0,0:0:0:0:
64,192,319498,1,0,0:0:0:0:
320,192,319498,1,0,0:0:0:0:
192,192,319577,1,0,0:0:0:0:
448,192,319656,1,0,0:0:0:0:
192,192,319735,1,0,0:0:0:0:
320,192,319813,1,0,0:0:0:0:
64,192,319892,1,0,0:0:0:0:
448,192,319971,1,0,0:0:0:0:
64,192,320050,1,0,0:0:0:0:
192,192,320129,1,0,0:0:0:0:
320,192,320129,1,0,0:0:0:0:
448,192,320208,1,0,0:0:0:0:
64,192,320287,1,0,0:0:0:0:
448,192,320366,1,0,0:0:0:0:
192,192,320445,1,0,0:0:0:0:
64,192,320445,1,0,0:0:0:0:
320,192,320524,1,0,0:0:0:0:
192,192,320603,1,0,0:0:0:0:
448,192,320682,1,0,0:0:0:0:
64,192,320761,1,0,0:0:0:0:
192,192,320840,1,0,0:0:0:0:
320,192,320919,1,0,0:0:0:0:
64,192,320998,1,0,0:0:0:0:
192,192,321077,1,0,0:0:0:0:
448,192,321077,1,0,0:0:0:0:
320,192,321156,1,0,0:0:0:0:
64,192,321235,1,0,0:0:0:0:
320,192,321313,1,0,0:0:0:0:
64,192,321392,1,0,0:0:0:0:
448,192,321392,1,0,0:0:0:0:
192,192,321471,1,0,0:0:0:0:
320,192,321550,1,0,0:0:0:0:
192,192,321629,1,0,0:0:0:0:
64,192,321708,1,0,0:0:0:0:
320,192,321708,1,0,0:0:0:0:
448,192,321787,1,0,0:0:0:0:
192,192,321866,1,0,0:0:0:0:
448,192,321945,1,0,0:0:0:0:
320,192,322024,1,0,0:0:0:0:
64,192,322024,1,0,0:0:0:0:
192,192,322103,1,0,0:0:0:0:
320,192,322182,1,0,0:0:0:0:
192,192,322261,1,0,0:0:0:0:
64,192,322340,1,0,0:0:0:0:
448,192,322340,1,0,0:0:0:0:
320,192,322419,1,0,0:0:0:0:
64,192,322498,1,0,0:0:0:0:
320,192,322577,1,0,0:0:0:0:
192,192,322656,1,0,0:0:0:0:
448,192,322656,1,0,0:0:0:0:
64,192,322735,1,0,0:0:0:0:
320,192,322813,1,0,0:0:0:0:
64,192,322892,1,0,0:0:0:0:
320,192,322971,1,0,0:0:0:0:
448,192,322971,1,0,0:0:0:0:
192,192,323050,1,0,0:0:0:0:
64,192,323050,1,0,0:0:0:0:
320,192,323129,1,0,0:0:0:0:
448,192,323129,1,0,0:0:0:0:
192,192,323208,1,0,0:0:0:0:
64,192,323208,1,0,0:0:0:0:
320,192,323287,1,0,0:0:0:0:
192,192,323366,1,0,0:0:0:0:
64,192,323445,1,0,0:0:0:0:
320,192,323524,1,0,0:0:0:0:
192,192,323603,1,0,0:0:0:0:
64,192,323603,1,0,0:0:0:0:
448,192,323603,1,0,0:0:0:0:
320,192,323761,1,0,0:0:0:0:
192,192,323761,1,0,0:0:0:0:
64,192,323919,1,0,0:0:0:0:
320,192,323919,1,0,0:0:0:0:
192,192,324077,1,0,0:0:0:0:
320,192,324077,1,0,0:0:0:0:
448,192,324077,1,0,0:0:0:0:
192,192,324235,1,0,0:0:0:0:
64,192,324235,1,0,0:0:0:0:
448,192,324392,1,0,0:0:0:0:
64,192,324392,1,0,0:0:0:0:
192,192,324550,1,0,0:0:0:0:
320,192,324708,1,0,0:0:0:0:
448,192,324708,1,0,0:0:0:0:
192,192,324866,1,0,0:0:0:0:
64,192,324866,1,0,0:0:0:0:
448,192,324866,1,0,0:0:0:0:
320,192,325024,1,0,0:0:0:0:
64,192,325024,1,0,0:0:0:0:
192,192,325182,1,0,0:0:0:0:
320,192,325182,1,0,0:0:0:0:
64,192,325340,1,0,0:0:0:0:
192,192,325340,1,0,0:0:0:0:
448,192,325340,1,0,0:0:0:0:
320,192,325498,1,0,0:0:0:0:
64,192,325498,1,0,0:0:0:0:
192,192,325656,1,0,0:0:0:0:
320,192,325656,1,0,0:0:0:0:
64,192,325813,1,0,0:0:0:0:
448,192,325813,1,0,0:0:0:0:
192,192,325892,1,0,0:0:0:0:
320,192,325971,1,0,0:0:0:0:
192,192,326050,1,0,0:0:0:0:
64,192,326129,1,0,0:0:0:0:
320,192,326129,1,0,0:0:0:0:
448,192,326129,1,0,0:0:0:0:
