osu file format v14

[General]
AudioFilename: audio140.mp3
AudioLeadIn: 0
PreviewTime: 59716
Countdown: 0
SampleSet: Normal
StackLeniency: 0.7
Mode: 3
LetterboxInBreaks: 0
SpecialStyle: 0
WidescreenStoryboard: 0

[Editor]
DistanceSpacing: 0.8
BeatDivisor: 4
GridSize: 8
TimelineZoom: 1.5

[Metadata]
Title:Master of Peace
TitleUnicode:Master of Peace
Artist:Rhapsody of Fire
ArtistUnicode:Rhapsody of Fire
Creator:Cokiiplay
Version:Peacful 1,4x
Source:
Tags:
BeatmapID:1964575
BeatmapSetID:940666

[Difficulty]
HPDrainRate:8
CircleSize:4
OverallDifficulty:8
ApproachRate:5
SliderMultiplier:1.4
SliderTickRate:1

[Events]
//Background and Video events
0,0,"The-Hippie-Philosophy-the-60s-21800923-1280-800.jpg",0,0
//Break Periods
//Storyboard Layer 0 (Background)
//Storyboard Layer 1 (Fail)
//Storyboard Layer 2 (Pass)
//Storyboard Layer 3 (Foreground)
//Storyboard Sound Samples

[TimingPoints]
208,225.563909774436,4,1,0,50,1,0

[HitObjects]
64,192,208,5,0,0:0:0:0:
320,192,208,1,0,0:0:0:0:
448,192,208,1,0,0:0:0:0:
192,192,320,1,0,0:0:0:0:
448,192,376,1,0,0:0:0:0:
64,192,433,1,0,0:0:0:0:
320,192,489,1,0,0:0:0:0:
192,192,546,128,0,602:0:0:0:0:
448,192,659,1,0,0:0:0:0:
320,192,715,1,0,0:0:0:0:
64,192,771,1,0,0:0:0:0:
448,192,828,1,0,0:0:0:0:
192,192,884,128,0,941:0:0:0:0:
320,192,997,1,0,0:0:0:0:
192,192,1054,1,0,0:0:0:0:
448,192,1110,1,0,0:0:0:0:
64,192,1166,1,0,0:0:0:0:
320,192,1223,128,0,1279:0:0:0:0:
192,192,1335,1,0,0:0:0:0:
320,192,1391,1,0,0:0:0:0:
64,192,1448,1,0,0:0:0:0:
192,192,1504,1,0,0:0:0:0:
448,192,1561,1,0,0:0:0:0:
192,192,1617,1,0,0:0:0:0:
448,192,1674,1,0,0:0:0:0:
192,192,1730,1,0,0:0:0:0:
320,192,1786,1,0,0:0:0:0:
64,192,1843,1,0,0:0:0:0:
320,192,1899,1,0,0:0:0:0:
64,192,1956,1,0,0:0:0:0:
192,192,2012,1,0,0:0:0:0:
448,192,2012,1,0,0:0:0:0:
320,192,2012,1,0,0:0:0:0:
64,192,2125,1,0,0:0:0:0:
448,192,2181,1,0,0:0:0:0:
192,192,2238,1,0,0:0:0:0:
320,192,2294,1,0,0:0:0:0:
64,192,2351,128,0,2406:0:0:0:0:
448,192,2463,1,0,0:0:0:0:
192,192,2519,1,0,0:0:0:0:
320,192,2576,1,0,0:0:0:0:
64,192,2632,1,0,0:0:0:0:
448,192,2689,128,0,2745:0:0:0:0:
192,192,2801,1,0,0:0:0:0:
320,192,2858,1,0,0:0:0:0:
64,192,2914,1,0,0:0:0:0:
192,192,2971,1,0,0:0:0:0:
448,192,3027,128,0,3084:0:0:0:0:
320,192,3140,1,0,0:0:0:0:
192,192,3196,1,0,0:0:0:0:
64,192,3253,1,0,0:0:0:0:
320,192,3309,1,0,0:0:0:0:
192,192,3366,128,0,3534:0:0:0:0:
64,192,3366,128,0,3534:0:0:0:0:
448,192,3366,128,0,3591:0:0:0:0:
64,192,3591,128,0,3816:0:0:0:0:
192,192,3591,128,0,3760:0:0:0:0:
320,192,3591,128,0,3760:0:0:0:0:
192,192,3816,1,0,0:0:0:0:
320,192,3816,1,0,0:0:0:0:
448,192,3816,1,0,0:0:0:0:
64,192,3929,1,0,0:0:0:0:
448,192,3986,1,0,0:0:0:0:
192,192,4042,1,0,0:0:0:0:
320,192,4099,1,0,0:0:0:0:
64,192,4155,128,0,4211:0:0:0:0:
448,192,4268,1,0,0:0:0:0:
192,192,4324,1,0,0:0:0:0:
320,192,4381,1,0,0:0:0:0:
64,192,4437,1,0,0:0:0:0:
448,192,4494,128,0,4549:0:0:0:0:
320,192,4606,1,0,0:0:0:0:
192,192,4662,1,0,0:0:0:0:
448,192,4719,1,0,0:0:0:0:
64,192,4775,1,0,0:0:0:0:
192,192,4831,128,0,4888:0:0:0:0:
320,192,4944,1,0,0:0:0:0:
64,192,5001,1,0,0:0:0:0:
448,192,5057,1,0,0:0:0:0:
192,192,5114,1,0,0:0:0:0:
320,192,5170,1,0,0:0:0:0:
64,192,5226,1,0,0:0:0:0:
320,192,5283,1,0,0:0:0:0:
64,192,5339,1,0,0:0:0:0:
192,192,5396,1,0,0:0:0:0:
448,192,5452,1,0,0:0:0:0:
192,192,5509,1,0,0:0:0:0:
448,192,5565,1,0,0:0:0:0:
320,192,5621,1,0,0:0:0:0:
192,192,5621,1,0,0:0:0:0:
64,192,5621,1,0,0:0:0:0:
448,192,5734,1,0,0:0:0:0:
320,192,5846,1,0,0:0:0:0:
448,192,5846,1,0,0:0:0:0:
64,192,5959,1,0,0:0:0:0:
192,192,5959,1,0,0:0:0:0:
448,192,5959,1,0,0:0:0:0:
320,192,6072,1,0,0:0:0:0:
320,192,6185,1,0,0:0:0:0:
64,192,6185,1,0,0:0:0:0:
192,192,6298,1,0,0:0:0:0:
64,192,6298,1,0,0:0:0:0:
448,192,6298,1,0,0:0:0:0:
192,192,6411,1,0,0:0:0:0:
320,192,6411,1,0,0:0:0:0:
64,192,6524,1,0,0:0:0:0:
320,192,6524,1,0,0:0:0:0:
448,192,6524,1,0,0:0:0:0:
64,192,6636,1,0,0:0:0:0:
192,192,6692,1,0,0:0:0:0:
320,192,6749,1,0,0:0:0:0:
448,192,6805,1,0,0:0:0:0:
192,192,6861,1,0,0:0:0:0:
64,192,6918,1,0,0:0:0:0:
448,192,6974,1,0,0:0:0:0:
192,192,7031,1,0,0:0:0:0:
320,192,7087,1,0,0:0:0:0:
448,192,7144,1,0,0:0:0:0:
192,192,7200,1,0,0:0:0:0:
64,192,7256,1,0,0:0:0:0:
320,192,7313,1,0,0:0:0:0:
192,192,7369,1,0,0:0:0:0:
64,192,7426,1,0,0:0:0:0:
448,192,7426,1,0,0:0:0:0:
320,192,7482,1,0,0:0:0:0:
192,192,7539,1,0,0:0:0:0:
448,192,7595,1,0,0:0:0:0:
64,192,7651,1,0,0:0:0:0:
192,192,7651,1,0,0:0:0:0:
448,192,7708,1,0,0:0:0:0:
320,192,7764,1,0,0:0:0:0:
64,192,7820,1,0,0:0:0:0:
192,192,7876,1,0,0:0:0:0:
448,192,7933,1,0,0:0:0:0:
64,192,7989,1,0,0:0:0:0:
192,192,8046,1,0,0:0:0:0:
320,192,8102,1,0,0:0:0:0:
448,192,8102,1,0,0:0:0:0:
192,192,8159,1,0,0:0:0:0:
448,192,8215,1,0,0:0:0:0:
64,192,8271,1,0,0:0:0:0:
320,192,8328,1,0,0:0:0:0:
64,192,8384,1,0,0:0:0:0:
192,192,8441,1,0,0:0:0:0:
448,192,8497,1,0,0:0:0:0:
320,192,8554,1,0,0:0:0:0:
192,192,8554,1,0,0:0:0:0:
448,192,8610,1,0,0:0:0:0:
64,192,8666,1,0,0:0:0:0:
192,192,8723,1,0,0:0:0:0:
448,192,8779,1,0,0:0:0:0:
320,192,8835,1,0,0:0:0:0:
192,192,8891,1,0,0:0:0:0:
64,192,8948,1,0,0:0:0:0:
448,192,9004,1,0,0:0:0:0:
192,192,9004,1,0,0:0:0:0:
320,192,9061,1,0,0:0:0:0:
192,192,9117,1,0,0:0:0:0:
64,192,9174,1,0,0:0:0:0:
448,192,9230,1,0,0:0:0:0:
320,192,9286,1,0,0:0:0:0:
192,192,9343,1,0,0:0:0:0:
448,192,9399,1,0,0:0:0:0:
320,192,9456,1,0,0:0:0:0:
64,192,9456,1,0,0:0:0:0:
448,192,9512,1,0,0:0:0:0:
64,192,9569,1,0,0:0:0:0:
192,192,9625,1,0,0:0:0:0:
320,192,9681,1,0,0:0:0:0:
64,192,9738,1,0,0:0:0:0:
448,192,9794,1,0,0:0:0:0:
320,192,9851,1,0,0:0:0:0:
64,192,9906,1,0,0:0:0:0:
192,192,9906,1,0,0:0:0:0:
320,192,9963,1,0,0:0:0:0:
192,192,10019,1,0,0:0:0:0:
64,192,10076,1,0,0:0:0:0:
448,192,10132,1,0,0:0:0:0:
192,192,10189,1,0,0:0:0:0:
320,192,10245,1,0,0:0:0:0:
64,192,10301,1,0,0:0:0:0:
192,192,10358,1,0,0:0:0:0:
448,192,10358,1,0,0:0:0:0:
64,192,10414,1,0,0:0:0:0:
448,192,10471,1,0,0:0:0:0:
320,192,10527,1,0,0:0:0:0:
64,192,10584,128,0,10809:0:0:0:0:
192,192,10584,128,0,10753:0:0:0:0:
448,192,10584,128,0,10753:0:0:0:0:
192,192,10809,128,0,10978:0:0:0:0:
320,192,10809,128,0,10978:0:0:0:0:
448,192,10809,128,0,11034:0:0:0:0:
192,192,11034,1,0,0:0:0:0:
320,192,11034,1,0,0:0:0:0:
64,192,11034,1,0,0:0:0:0:
448,192,11091,1,0,0:0:0:0:
64,192,11147,1,0,0:0:0:0:
192,192,11204,1,0,0:0:0:0:
320,192,11260,1,0,0:0:0:0:
448,192,11260,1,0,0:0:0:0:
192,192,11316,1,0,0:0:0:0:
448,192,11373,1,0,0:0:0:0:
64,192,11429,1,0,0:0:0:0:
320,192,11486,1,0,0:0:0:0:
64,192,11542,1,0,0:0:0:0:
192,192,11599,1,0,0:0:0:0:
448,192,11655,1,0,0:0:0:0:
320,192,11711,1,0,0:0:0:0:
192,192,11711,1,0,0:0:0:0:
448,192,11768,1,0,0:0:0:0:
64,192,11824,1,0,0:0:0:0:
320,192,11881,1,0,0:0:0:0:
192,192,11937,1,0,0:0:0:0:
320,192,11994,1,0,0:0:0:0:
64,192,12049,1,0,0:0:0:0:
192,192,12106,1,0,0:0:0:0:
448,192,12162,1,0,0:0:0:0:
320,192,12162,1,0,0:0:0:0:
64,192,12219,1,0,0:0:0:0:
192,192,12275,1,0,0:0:0:0:
448,192,12331,1,0,0:0:0:0:
192,192,12388,1,0,0:0:0:0:
64,192,12388,1,0,0:0:0:0:
320,192,12444,1,0,0:0:0:0:
448,192,12444,1,0,0:0:0:0:
192,192,12501,1,0,0:0:0:0:
64,192,12501,1,0,0:0:0:0:
320,192,12557,1,0,0:0:0:0:
448,192,12557,1,0,0:0:0:0:
64,192,12614,1,0,0:0:0:0:
320,192,12670,1,0,0:0:0:0:
64,192,12726,1,0,0:0:0:0:
320,192,12783,1,0,0:0:0:0:
448,192,12839,1,0,0:0:0:0:
64,192,12839,1,0,0:0:0:0:
192,192,12839,1,0,0:0:0:0:
320,192,12952,1,0,0:0:0:0:
320,192,13065,1,0,0:0:0:0:
192,192,13065,1,0,0:0:0:0:
64,192,13177,1,0,0:0:0:0:
192,192,13177,1,0,0:0:0:0:
448,192,13177,1,0,0:0:0:0:
320,192,13290,1,0,0:0:0:0:
64,192,13403,1,0,0:0:0:0:
448,192,13403,1,0,0:0:0:0:
192,192,13516,1,0,0:0:0:0:
320,192,13516,1,0,0:0:0:0:
448,192,13516,1,0,0:0:0:0:
64,192,13629,1,0,0:0:0:0:
320,192,13629,1,0,0:0:0:0:
64,192,13741,1,0,0:0:0:0:
192,192,13741,1,0,0:0:0:0:
448,192,13741,1,0,0:0:0:0:
320,192,13854,1,0,0:0:0:0:
192,192,13967,1,0,0:0:0:0:
320,192,13967,1,0,0:0:0:0:
192,192,14080,1,0,0:0:0:0:
64,192,14080,1,0,0:0:0:0:
448,192,14080,1,0,0:0:0:0:
320,192,14192,1,0,0:0:0:0:
64,192,14192,1,0,0:0:0:0:
64,192,14305,1,0,0:0:0:0:
320,192,14305,1,0,0:0:0:0:
192,192,14418,1,0,0:0:0:0:
320,192,14418,1,0,0:0:0:0:
448,192,14418,1,0,0:0:0:0:
64,192,14531,1,0,0:0:0:0:
448,192,14531,1,0,0:0:0:0:
320,192,14644,1,0,0:0:0:0:
64,192,14644,1,0,0:0:0:0:
192,192,14644,1,0,0:0:0:0:
64,192,15095,1,0,0:0:0:0:
192,192,15151,1,0,0:0:0:0:
320,192,15208,1,0,0:0:0:0:
64,192,15264,1,0,0:0:0:0:
192,192,15320,1,0,0:0:0:0:
448,192,15376,1,0,0:0:0:0:
64,192,15433,1,0,0:0:0:0:
192,192,15489,1,0,0:0:0:0:
320,192,15546,1,0,0:0:0:0:
448,192,15546,1,0,0:0:0:0:
64,192,15546,1,0,0:0:0:0:
64,192,16448,1,0,0:0:0:0:
448,192,16448,1,0,0:0:0:0:
320,192,16504,1,0,0:0:0:0:
192,192,16561,1,0,0:0:0:0:
448,192,16617,1,0,0:0:0:0:
320,192,16674,1,0,0:0:0:0:
64,192,16674,1,0,0:0:0:0:
192,192,16730,1,0,0:0:0:0:
448,192,16786,1,0,0:0:0:0:
192,192,16843,1,0,0:0:0:0:
320,192,16899,1,0,0:0:0:0:
64,192,16956,1,0,0:0:0:0:
192,192,17012,1,0,0:0:0:0:
448,192,17069,1,0,0:0:0:0:
320,192,17125,1,0,0:0:0:0:
64,192,17125,1,0,0:0:0:0:
192,192,17181,1,0,0:0:0:0:
448,192,17238,1,0,0:0:0:0:
320,192,17294,1,0,0:0:0:0:
64,192,17351,1,0,0:0:0:0:
448,192,17406,1,0,0:0:0:0:
192,192,17463,1,0,0:0:0:0:
320,192,17519,1,0,0:0:0:0:
64,192,17576,1,0,0:0:0:0:
192,192,17576,1,0,0:0:0:0:
448,192,17632,1,0,0:0:0:0:
320,192,17689,1,0,0:0:0:0:
64,192,17745,1,0,0:0:0:0:
192,192,17801,1,0,0:0:0:0:
448,192,17858,1,0,0:0:0:0:
192,192,17914,1,0,0:0:0:0:
320,192,17971,1,0,0:0:0:0:
448,192,18027,1,0,0:0:0:0:
64,192,18027,1,0,0:0:0:0:
192,192,18084,1,0,0:0:0:0:
320,192,18140,1,0,0:0:0:0:
64,192,18196,1,0,0:0:0:0:
448,192,18253,1,0,0:0:0:0:
320,192,18309,1,0,0:0:0:0:
64,192,18366,1,0,0:0:0:0:
320,192,18422,1,0,0:0:0:0:
192,192,18478,1,0,0:0:0:0:
64,192,18478,1,0,0:0:0:0:
448,192,18534,1,0,0:0:0:0:
320,192,18591,1,0,0:0:0:0:
64,192,18647,1,0,0:0:0:0:
448,192,18704,1,0,0:0:0:0:
320,192,18760,1,0,0:0:0:0:
64,192,18816,1,0,0:0:0:0:
448,192,18873,1,0,0:0:0:0:
320,192,18929,1,0,0:0:0:0:
192,192,18929,1,0,0:0:0:0:
64,192,18986,1,0,0:0:0:0:
448,192,19042,1,0,0:0:0:0:
64,192,19099,1,0,0:0:0:0:
192,192,19155,1,0,0:0:0:0:
320,192,19211,1,0,0:0:0:0:
64,192,19268,1,0,0:0:0:0:
448,192,19324,1,0,0:0:0:0:
320,192,19381,1,0,0:0:0:0:
192,192,19381,1,0,0:0:0:0:
64,192,19437,1,0,0:0:0:0:
448,192,19494,1,0,0:0:0:0:
320,192,19549,1,0,0:0:0:0:
192,192,19606,1,0,0:0:0:0:
320,192,19662,1,0,0:0:0:0:
64,192,19719,1,0,0:0:0:0:
192,192,19775,1,0,0:0:0:0:
320,192,19831,1,0,0:0:0:0:
448,192,19831,1,0,0:0:0:0:
64,192,19888,1,0,0:0:0:0:
448,192,19944,1,0,0:0:0:0:
192,192,20001,1,0,0:0:0:0:
320,192,20057,1,0,0:0:0:0:
64,192,20114,1,0,0:0:0:0:
192,192,20170,1,0,0:0:0:0:
448,192,20226,1,0,0:0:0:0:
320,192,20283,1,0,0:0:0:0:
64,192,20283,1,0,0:0:0:0:
192,192,20339,1,0,0:0:0:0:
448,192,20396,1,0,0:0:0:0:
64,192,20452,1,0,0:0:0:0:
320,192,20509,1,0,0:0:0:0:
64,192,20565,1,0,0:0:0:0:
192,192,20621,1,0,0:0:0:0:
320,192,20677,1,0,0:0:0:0:
64,192,20734,1,0,0:0:0:0:
448,192,20734,1,0,0:0:0:0:
192,192,20790,1,0,0:0:0:0:
320,192,20846,1,0,0:0:0:0:
192,192,20903,1,0,0:0:0:0:
320,192,20959,1,0,0:0:0:0:
64,192,21016,1,0,0:0:0:0:
448,192,21072,1,0,0:0:0:0:
320,192,21129,1,0,0:0:0:0:
192,192,21185,1,0,0:0:0:0:
64,192,21185,1,0,0:0:0:0:
448,192,21241,1,0,0:0:0:0:
320,192,21298,1,0,0:0:0:0:
192,192,21354,1,0,0:0:0:0:
448,192,21411,1,0,0:0:0:0:
64,192,21411,1,0,0:0:0:0:
320,192,21467,1,0,0:0:0:0:
192,192,21467,1,0,0:0:0:0:
64,192,21524,1,0,0:0:0:0:
448,192,21524,1,0,0:0:0:0:
192,192,21580,1,0,0:0:0:0:
320,192,21580,1,0,0:0:0:0:
64,192,21636,1,0,0:0:0:0:
320,192,21692,1,0,0:0:0:0:
64,192,21749,1,0,0:0:0:0:
320,192,21805,1,0,0:0:0:0:
448,192,21861,1,0,0:0:0:0:
64,192,21861,1,0,0:0:0:0:
192,192,21861,1,0,0:0:0:0:
320,192,22087,1,0,0:0:0:0:
192,192,22087,1,0,0:0:0:0:
64,192,22313,1,0,0:0:0:0:
64,192,22426,1,0,0:0:0:0:
192,192,22539,1,0,0:0:0:0:
320,192,22539,1,0,0:0:0:0:
64,192,22651,1,0,0:0:0:0:
192,192,22708,1,0,0:0:0:0:
320,192,22764,1,0,0:0:0:0:
320,192,22876,1,0,0:0:0:0:
448,192,22876,1,0,0:0:0:0:
320,192,23102,1,0,0:0:0:0:
448,192,23102,1,0,0:0:0:0:
320,192,23328,1,0,0:0:0:0:
448,192,23328,1,0,0:0:0:0:
320,192,23554,1,0,0:0:0:0:
448,192,23554,1,0,0:0:0:0:
192,192,23666,1,0,0:0:0:0:
64,192,23666,1,0,0:0:0:0:
448,192,23666,1,0,0:0:0:0:
320,192,23723,1,0,0:0:0:0:
64,192,23779,1,0,0:0:0:0:
448,192,23835,1,0,0:0:0:0:
320,192,23891,1,0,0:0:0:0:
192,192,23891,1,0,0:0:0:0:
64,192,23948,1,0,0:0:0:0:
448,192,24004,1,0,0:0:0:0:
192,192,24061,1,0,0:0:0:0:
320,192,24117,1,0,0:0:0:0:
192,192,24174,1,0,0:0:0:0:
448,192,24230,1,0,0:0:0:0:
320,192,24286,1,0,0:0:0:0:
192,192,24343,1,0,0:0:0:0:
64,192,24343,1,0,0:0:0:0:
448,192,24399,1,0,0:0:0:0:
64,192,24456,1,0,0:0:0:0:
192,192,24512,1,0,0:0:0:0:
320,192,24569,1,0,0:0:0:0:
192,192,24625,1,0,0:0:0:0:
448,192,24681,1,0,0:0:0:0:
320,192,24738,1,0,0:0:0:0:
192,192,24794,1,0,0:0:0:0:
64,192,24794,1,0,0:0:0:0:
320,192,24851,1,0,0:0:0:0:
64,192,24906,1,0,0:0:0:0:
192,192,24963,1,0,0:0:0:0:
320,192,25019,1,0,0:0:0:0:
64,192,25076,1,0,0:0:0:0:
448,192,25132,1,0,0:0:0:0:
192,192,25189,1,0,0:0:0:0:
320,192,25245,1,0,0:0:0:0:
448,192,25245,1,0,0:0:0:0:
64,192,25301,1,0,0:0:0:0:
192,192,25358,1,0,0:0:0:0:
448,192,25414,1,0,0:0:0:0:
64,192,25471,1,0,0:0:0:0:
320,192,25527,1,0,0:0:0:0:
64,192,25584,1,0,0:0:0:0:
448,192,25640,1,0,0:0:0:0:
320,192,25696,1,0,0:0:0:0:
192,192,25696,1,0,0:0:0:0:
64,192,25753,1,0,0:0:0:0:
448,192,25809,1,0,0:0:0:0:
320,192,25866,1,0,0:0:0:0:
192,192,25922,1,0,0:0:0:0:
320,192,25978,1,0,0:0:0:0:
64,192,26034,1,0,0:0:0:0:
192,192,26091,1,0,0:0:0:0:
320,192,26147,1,0,0:0:0:0:
448,192,26147,1,0,0:0:0:0:
192,192,26204,1,0,0:0:0:0:
448,192,26260,1,0,0:0:0:0:
320,192,26316,1,0,0:0:0:0:
64,192,26373,1,0,0:0:0:0:
448,192,26429,1,0,0:0:0:0:
192,192,26486,1,0,0:0:0:0:
320,192,26542,1,0,0:0:0:0:
192,192,26599,1,0,0:0:0:0:
64,192,26599,1,0,0:0:0:0:
448,192,26655,1,0,0:0:0:0:
320,192,26711,1,0,0:0:0:0:
64,192,26768,1,0,0:0:0:0:
320,192,26824,1,0,0:0:0:0:
192,192,26881,1,0,0:0:0:0:
448,192,26937,1,0,0:0:0:0:
64,192,26994,1,0,0:0:0:0:
192,192,27049,1,0,0:0:0:0:
448,192,27049,1,0,0:0:0:0:
320,192,27106,1,0,0:0:0:0:
192,192,27162,1,0,0:0:0:0:
320,192,27219,1,0,0:0:0:0:
64,192,27275,1,0,0:0:0:0:
192,192,27331,1,0,0:0:0:0:
448,192,27388,1,0,0:0:0:0:
64,192,27444,1,0,0:0:0:0:
192,192,27501,1,0,0:0:0:0:
448,192,27501,1,0,0:0:0:0:
320,192,27557,1,0,0:0:0:0:
192,192,27614,1,0,0:0:0:0:
448,192,27670,1,0,0:0:0:0:
64,192,27726,1,0,0:0:0:0:
320,192,27783,1,0,0:0:0:0:
192,192,27839,1,0,0:0:0:0:
448,192,27896,1,0,0:0:0:0:
320,192,27952,1,0,0:0:0:0:
64,192,27952,1,0,0:0:0:0:
192,192,28009,1,0,0:0:0:0:
448,192,28065,1,0,0:0:0:0:
64,192,28121,1,0,0:0:0:0:
192,192,28177,1,0,0:0:0:0:
320,192,28234,1,0,0:0:0:0:
64,192,28290,1,0,0:0:0:0:
448,192,28346,1,0,0:0:0:0:
320,192,28403,1,0,0:0:0:0:
64,192,28403,1,0,0:0:0:0:
192,192,28459,1,0,0:0:0:0:
320,192,28516,1,0,0:0:0:0:
64,192,28572,1,0,0:0:0:0:
192,192,28629,1,0,0:0:0:0:
448,192,28685,1,0,0:0:0:0:
192,192,28741,1,0,0:0:0:0:
320,192,28798,1,0,0:0:0:0:
448,192,28854,1,0,0:0:0:0:
64,192,28854,1,0,0:0:0:0:
192,192,28911,1,0,0:0:0:0:
320,192,28967,1,0,0:0:0:0:
192,192,29024,1,0,0:0:0:0:
448,192,29080,1,0,0:0:0:0:
320,192,29136,1,0,0:0:0:0:
192,192,29192,1,0,0:0:0:0:
448,192,29249,1,0,0:0:0:0:
320,192,29305,1,0,0:0:0:0:
64,192,29305,1,0,0:0:0:0:
192,192,29361,1,0,0:0:0:0:
448,192,29418,1,0,0:0:0:0:
64,192,29474,1,0,0:0:0:0:
320,192,29531,1,0,0:0:0:0:
64,192,29587,1,0,0:0:0:0:
448,192,29644,1,0,0:0:0:0:
192,192,29700,1,0,0:0:0:0:
320,192,29756,1,0,0:0:0:0:
448,192,29756,1,0,0:0:0:0:
64,192,29813,1,0,0:0:0:0:
192,192,29869,1,0,0:0:0:0:
448,192,29926,1,0,0:0:0:0:
64,192,29982,1,0,0:0:0:0:
320,192,30039,1,0,0:0:0:0:
192,192,30095,1,0,0:0:0:0:
448,192,30151,1,0,0:0:0:0:
320,192,30208,1,0,0:0:0:0:
64,192,30208,1,0,0:0:0:0:
192,192,30264,1,0,0:0:0:0:
448,192,30320,1,0,0:0:0:0:
64,192,30376,1,0,0:0:0:0:
448,192,30433,1,0,0:0:0:0:
320,192,30433,1,0,0:0:0:0:
192,192,30489,1,0,0:0:0:0:
64,192,30489,1,0,0:0:0:0:
448,192,30546,1,0,0:0:0:0:
320,192,30602,1,0,0:0:0:0:
64,192,30659,1,0,0:0:0:0:
192,192,30715,1,0,0:0:0:0:
64,192,30771,1,0,0:0:0:0:
192,192,30828,1,0,0:0:0:0:
320,192,30884,1,0,0:0:0:0:
448,192,30884,1,0,0:0:0:0:
320,192,30997,1,0,0:0:0:0:
64,192,31110,1,0,0:0:0:0:
448,192,31110,1,0,0:0:0:0:
192,192,31223,1,0,0:0:0:0:
320,192,31223,1,0,0:0:0:0:
192,192,31335,1,0,0:0:0:0:
64,192,31448,1,0,0:0:0:0:
320,192,31561,1,0,0:0:0:0:
448,192,31561,1,0,0:0:0:0:
320,192,31674,1,0,0:0:0:0:
192,192,31786,1,0,0:0:0:0:
64,192,31899,1,0,0:0:0:0:
320,192,31899,1,0,0:0:0:0:
192,192,32012,1,0,0:0:0:0:
320,192,32012,1,0,0:0:0:0:
64,192,32125,1,0,0:0:0:0:
192,192,32181,1,0,0:0:0:0:
320,192,32238,1,0,0:0:0:0:
448,192,32238,1,0,0:0:0:0:
64,192,32351,1,0,0:0:0:0:
320,192,32463,1,0,0:0:0:0:
448,192,32463,1,0,0:0:0:0:
192,192,32576,1,0,0:0:0:0:
64,192,32689,1,0,0:0:0:0:
448,192,32689,1,0,0:0:0:0:
448,192,32801,1,0,0:0:0:0:
320,192,32914,1,0,0:0:0:0:
192,192,32914,1,0,0:0:0:0:
64,192,33027,1,0,0:0:0:0:
320,192,33027,1,0,0:0:0:0:
64,192,33140,1,0,0:0:0:0:
192,192,33253,1,0,0:0:0:0:
320,192,33366,1,0,0:0:0:0:
448,192,33366,1,0,0:0:0:0:
320,192,33478,1,0,0:0:0:0:
64,192,33591,1,0,0:0:0:0:
192,192,33704,1,0,0:0:0:0:
448,192,33704,1,0,0:0:0:0:
320,192,33816,1,0,0:0:0:0:
192,192,33816,1,0,0:0:0:0:
64,192,33929,1,0,0:0:0:0:
192,192,33986,1,0,0:0:0:0:
320,192,34042,1,0,0:0:0:0:
448,192,34042,1,0,0:0:0:0:
64,192,34155,1,0,0:0:0:0:
320,192,34268,1,0,0:0:0:0:
448,192,34268,1,0,0:0:0:0:
192,192,34381,1,0,0:0:0:0:
64,192,34494,1,0,0:0:0:0:
448,192,34494,1,0,0:0:0:0:
448,192,34606,1,0,0:0:0:0:
192,192,34719,1,0,0:0:0:0:
64,192,34719,1,0,0:0:0:0:
192,192,34831,1,0,0:0:0:0:
320,192,34831,1,0,0:0:0:0:
320,192,34944,1,0,0:0:0:0:
64,192,35057,1,0,0:0:0:0:
320,192,35170,1,0,0:0:0:0:
448,192,35170,1,0,0:0:0:0:
448,192,35283,1,0,0:0:0:0:
64,192,35396,1,0,0:0:0:0:
192,192,35509,1,0,0:0:0:0:
448,192,35509,1,0,0:0:0:0:
320,192,35621,1,0,0:0:0:0:
192,192,35621,1,0,0:0:0:0:
64,192,35734,1,0,0:0:0:0:
192,192,35790,1,0,0:0:0:0:
320,192,35846,1,0,0:0:0:0:
448,192,35846,1,0,0:0:0:0:
64,192,35959,1,0,0:0:0:0:
320,192,36072,1,0,0:0:0:0:
448,192,36072,1,0,0:0:0:0:
192,192,36185,1,0,0:0:0:0:
64,192,36298,1,0,0:0:0:0:
448,192,36298,1,0,0:0:0:0:
448,192,36411,1,0,0:0:0:0:
192,192,36524,1,0,0:0:0:0:
320,192,36524,1,0,0:0:0:0:
64,192,36636,1,0,0:0:0:0:
64,192,36749,1,0,0:0:0:0:
192,192,36861,1,0,0:0:0:0:
448,192,36861,1,0,0:0:0:0:
192,192,36974,1,0,0:0:0:0:
448,192,36974,1,0,0:0:0:0:
320,192,37087,1,0,0:0:0:0:
192,192,37144,1,0,0:0:0:0:
64,192,37200,1,0,0:0:0:0:
320,192,37200,1,0,0:0:0:0:
448,192,37200,1,0,0:0:0:0:
192,192,37313,1,0,0:0:0:0:
448,192,37426,1,0,0:0:0:0:
192,192,37539,1,0,0:0:0:0:
320,192,37651,1,0,0:0:0:0:
448,192,37651,1,0,0:0:0:0:
64,192,37708,1,0,0:0:0:0:
192,192,37764,1,0,0:0:0:0:
320,192,37820,1,0,0:0:0:0:
64,192,37876,1,0,0:0:0:0:
192,192,37876,1,0,0:0:0:0:
320,192,37933,1,0,0:0:0:0:
448,192,37933,1,0,0:0:0:0:
64,192,37989,1,0,0:0:0:0:
192,192,37989,1,0,0:0:0:0:
320,192,38046,1,0,0:0:0:0:
448,192,38046,1,0,0:0:0:0:
64,192,38102,1,0,0:0:0:0:
192,192,38159,1,0,0:0:0:0:
448,192,38215,1,0,0:0:0:0:
64,192,38271,1,0,0:0:0:0:
192,192,38328,1,0,0:0:0:0:
320,192,38328,1,0,0:0:0:0:
448,192,38384,1,0,0:0:0:0:
192,192,38441,1,0,0:0:0:0:
320,192,38497,1,0,0:0:0:0:
64,192,38554,1,0,0:0:0:0:
448,192,38610,1,0,0:0:0:0:
320,192,38666,1,0,0:0:0:0:
192,192,38723,1,0,0:0:0:0:
64,192,38779,1,0,0:0:0:0:
448,192,38779,1,0,0:0:0:0:
192,192,38835,1,0,0:0:0:0:
320,192,38891,1,0,0:0:0:0:
64,192,38948,1,0,0:0:0:0:
192,192,39004,1,0,0:0:0:0:
448,192,39061,1,0,0:0:0:0:
64,192,39117,1,0,0:0:0:0:
320,192,39174,1,0,0:0:0:0:
64,192,39230,1,0,0:0:0:0:
192,192,39230,1,0,0:0:0:0:
448,192,39286,1,0,0:0:0:0:
320,192,39343,1,0,0:0:0:0:
64,192,39399,1,0,0:0:0:0:
448,192,39456,1,0,0:0:0:0:
192,192,39512,1,0,0:0:0:0:
448,192,39569,1,0,0:0:0:0:
64,192,39625,1,0,0:0:0:0:
192,192,39681,1,0,0:0:0:0:
320,192,39681,1,0,0:0:0:0:
448,192,39738,1,0,0:0:0:0:
64,192,39794,1,0,0:0:0:0:
192,192,39851,1,0,0:0:0:0:
448,192,39906,1,0,0:0:0:0:
64,192,39963,1,0,0:0:0:0:
320,192,40019,1,0,0:0:0:0:
192,192,40076,1,0,0:0:0:0:
64,192,40132,1,0,0:0:0:0:
448,192,40132,1,0,0:0:0:0:
320,192,40189,1,0,0:0:0:0:
192,192,40245,1,0,0:0:0:0:
320,192,40301,1,0,0:0:0:0:
192,192,40358,1,0,0:0:0:0:
64,192,40414,1,0,0:0:0:0:
448,192,40471,1,0,0:0:0:0:
192,192,40527,1,0,0:0:0:0:
64,192,40584,1,0,0:0:0:0:
448,192,40584,1,0,0:0:0:0:
320,192,40640,1,0,0:0:0:0:
192,192,40696,1,0,0:0:0:0:
448,192,40753,1,0,0:0:0:0:
320,192,40809,1,0,0:0:0:0:
64,192,40866,1,0,0:0:0:0:
192,192,40922,1,0,0:0:0:0:
320,192,40978,1,0,0:0:0:0:
192,192,41034,1,0,0:0:0:0:
64,192,41034,1,0,0:0:0:0:
448,192,41091,1,0,0:0:0:0:
320,192,41147,1,0,0:0:0:0:
64,192,41204,1,0,0:0:0:0:
448,192,41260,1,0,0:0:0:0:
192,192,41316,1,0,0:0:0:0:
320,192,41373,1,0,0:0:0:0:
64,192,41429,1,0,0:0:0:0:
192,192,41486,1,0,0:0:0:0:
448,192,41486,1,0,0:0:0:0:
320,192,41542,1,0,0:0:0:0:
192,192,41599,1,0,0:0:0:0:
320,192,41655,1,0,0:0:0:0:
448,192,41711,1,0,0:0:0:0:
64,192,41768,1,0,0:0:0:0:
320,192,41824,1,0,0:0:0:0:
192,192,41881,1,0,0:0:0:0:
64,192,41937,1,0,0:0:0:0:
448,192,41937,1,0,0:0:0:0:
320,192,41994,1,0,0:0:0:0:
192,192,42049,1,0,0:0:0:0:
448,192,42106,1,0,0:0:0:0:
64,192,42162,1,0,0:0:0:0:
448,192,42219,1,0,0:0:0:0:
320,192,42275,1,0,0:0:0:0:
192,192,42331,1,0,0:0:0:0:
64,192,42388,1,0,0:0:0:0:
448,192,42388,1,0,0:0:0:0:
192,192,42444,1,0,0:0:0:0:
320,192,42501,1,0,0:0:0:0:
64,192,42557,1,0,0:0:0:0:
320,192,42614,1,0,0:0:0:0:
192,192,42670,1,0,0:0:0:0:
448,192,42726,1,0,0:0:0:0:
320,192,42783,1,0,0:0:0:0:
64,192,42839,1,0,0:0:0:0:
192,192,42839,1,0,0:0:0:0:
448,192,42896,1,0,0:0:0:0:
320,192,42952,1,0,0:0:0:0:
64,192,43009,1,0,0:0:0:0:
192,192,43065,1,0,0:0:0:0:
448,192,43121,1,0,0:0:0:0:
64,192,43177,1,0,0:0:0:0:
192,192,43234,1,0,0:0:0:0:
320,192,43290,1,0,0:0:0:0:
448,192,43290,1,0,0:0:0:0:
192,192,43346,1,0,0:0:0:0:
64,192,43346,1,0,0:0:0:0:
448,192,43403,1,0,0:0:0:0:
320,192,43403,1,0,0:0:0:0:
192,192,43459,1,0,0:0:0:0:
64,192,43459,1,0,0:0:0:0:
320,192,43516,1,0,0:0:0:0:
192,192,43741,1,0,0:0:0:0:
448,192,43741,1,0,0:0:0:0:
64,192,43967,1,0,0:0:0:0:
64,192,44080,1,0,0:0:0:0:
192,192,44192,1,0,0:0:0:0:
448,192,44192,1,0,0:0:0:0:
320,192,44305,1,0,0:0:0:0:
192,192,44361,1,0,0:0:0:0:
64,192,44418,1,0,0:0:0:0:
320,192,44531,1,0,0:0:0:0:
448,192,44531,1,0,0:0:0:0:
320,192,44756,1,0,0:0:0:0:
448,192,44756,1,0,0:0:0:0:
320,192,44982,1,0,0:0:0:0:
448,192,44982,1,0,0:0:0:0:
320,192,45208,1,0,0:0:0:0:
448,192,45208,1,0,0:0:0:0:
192,192,45320,1,0,0:0:0:0:
64,192,45320,1,0,0:0:0:0:
448,192,45320,1,0,0:0:0:0:
320,192,45376,1,0,0:0:0:0:
192,192,45433,1,0,0:0:0:0:
448,192,45489,1,0,0:0:0:0:
320,192,45546,1,0,0:0:0:0:
64,192,45546,1,0,0:0:0:0:
192,192,45602,1,0,0:0:0:0:
448,192,45659,1,0,0:0:0:0:
64,192,45715,1,0,0:0:0:0:
320,192,45771,1,0,0:0:0:0:
192,192,45828,1,0,0:0:0:0:
320,192,45884,1,0,0:0:0:0:
64,192,45941,1,0,0:0:0:0:
192,192,45997,1,0,0:0:0:0:
448,192,45997,1,0,0:0:0:0:
320,192,46054,1,0,0:0:0:0:
64,192,46110,1,0,0:0:0:0:
192,192,46166,1,0,0:0:0:0:
448,192,46223,1,0,0:0:0:0:
64,192,46279,1,0,0:0:0:0:
320,192,46335,1,0,0:0:0:0:
192,192,46391,1,0,0:0:0:0:
320,192,46448,1,0,0:0:0:0:
448,192,46448,1,0,0:0:0:0:
64,192,46504,1,0,0:0:0:0:
192,192,46561,1,0,0:0:0:0:
448,192,46617,1,0,0:0:0:0:
64,192,46674,1,0,0:0:0:0:
320,192,46730,1,0,0:0:0:0:
192,192,46786,1,0,0:0:0:0:
448,192,46843,1,0,0:0:0:0:
320,192,46899,1,0,0:0:0:0:
192,192,46899,1,0,0:0:0:0:
64,192,46956,1,0,0:0:0:0:
448,192,47012,1,0,0:0:0:0:
192,192,47069,1,0,0:0:0:0:
320,192,47125,1,0,0:0:0:0:
64,192,47181,1,0,0:0:0:0:
320,192,47238,1,0,0:0:0:0:
64,192,47294,1,0,0:0:0:0:
192,192,47351,1,0,0:0:0:0:
448,192,47351,1,0,0:0:0:0:
320,192,47406,1,0,0:0:0:0:
64,192,47463,1,0,0:0:0:0:
192,192,47519,1,0,0:0:0:0:
448,192,47576,1,0,0:0:0:0:
64,192,47632,1,0,0:0:0:0:
320,192,47689,1,0,0:0:0:0:
192,192,47745,1,0,0:0:0:0:
320,192,47801,1,0,0:0:0:0:
448,192,47801,1,0,0:0:0:0:
64,192,47858,1,0,0:0:0:0:
192,192,47914,1,0,0:0:0:0:
448,192,47971,1,0,0:0:0:0:
64,192,48027,1,0,0:0:0:0:
320,192,48084,1,0,0:0:0:0:
192,192,48140,1,0,0:0:0:0:
448,192,48196,1,0,0:0:0:0:
320,192,48253,1,0,0:0:0:0:
64,192,48253,1,0,0:0:0:0:
192,192,48309,1,0,0:0:0:0:
448,192,48366,1,0,0:0:0:0:
64,192,48422,1,0,0:0:0:0:
192,192,48478,1,0,0:0:0:0:
320,192,48534,1,0,0:0:0:0:
64,192,48591,1,0,0:0:0:0:
448,192,48647,1,0,0:0:0:0:
320,192,48704,1,0,0:0:0:0:
64,192,48704,1,0,0:0:0:0:
192,192,48760,1,0,0:0:0:0:
448,192,48816,1,0,0:0:0:0:
320,192,48873,1,0,0:0:0:0:
192,192,48929,1,0,0:0:0:0:
320,192,48986,1,0,0:0:0:0:
192,192,49042,1,0,0:0:0:0:
448,192,49099,1,0,0:0:0:0:
320,192,49155,1,0,0:0:0:0:
64,192,49155,1,0,0:0:0:0:
192,192,49211,1,0,0:0:0:0:
448,192,49268,1,0,0:0:0:0:
64,192,49324,1,0,0:0:0:0:
448,192,49381,1,0,0:0:0:0:
320,192,49437,1,0,0:0:0:0:
192,192,49494,1,0,0:0:0:0:
320,192,49549,1,0,0:0:0:0:
192,192,49606,1,0,0:0:0:0:
64,192,49606,1,0,0:0:0:0:
448,192,49662,1,0,0:0:0:0:
320,192,49719,1,0,0:0:0:0:
64,192,49775,1,0,0:0:0:0:
192,192,49831,1,0,0:0:0:0:
448,192,49888,1,0,0:0:0:0:
192,192,49944,1,0,0:0:0:0:
320,192,50001,1,0,0:0:0:0:
64,192,50057,1,0,0:0:0:0:
448,192,50057,1,0,0:0:0:0:
192,192,50114,1,0,0:0:0:0:
320,192,50170,1,0,0:0:0:0:
192,192,50226,1,0,0:0:0:0:
448,192,50283,1,0,0:0:0:0:
320,192,50339,1,0,0:0:0:0:
64,192,50396,1,0,0:0:0:0:
448,192,50452,1,0,0:0:0:0:
320,192,50509,1,0,0:0:0:0:
64,192,50509,1,0,0:0:0:0:
192,192,50565,1,0,0:0:0:0:
448,192,50621,1,0,0:0:0:0:
64,192,50677,1,0,0:0:0:0:
192,192,50734,1,0,0:0:0:0:
320,192,50790,1,0,0:0:0:0:
64,192,50846,1,0,0:0:0:0:
192,192,50903,1,0,0:0:0:0:
320,192,50959,1,0,0:0:0:0:
448,192,50959,1,0,0:0:0:0:
192,192,51016,1,0,0:0:0:0:
448,192,51072,1,0,0:0:0:0:
320,192,51129,1,0,0:0:0:0:
64,192,51185,1,0,0:0:0:0:
448,192,51241,1,0,0:0:0:0:
320,192,51298,1,0,0:0:0:0:
192,192,51354,1,0,0:0:0:0:
448,192,51411,1,0,0:0:0:0:
64,192,51411,1,0,0:0:0:0:
192,192,51467,1,0,0:0:0:0:
320,192,51524,1,0,0:0:0:0:
192,192,51580,1,0,0:0:0:0:
448,192,51636,1,0,0:0:0:0:
320,192,51692,1,0,0:0:0:0:
64,192,51749,1,0,0:0:0:0:
448,192,51805,1,0,0:0:0:0:
320,192,51861,1,0,0:0:0:0:
64,192,51861,1,0,0:0:0:0:
192,192,51918,1,0,0:0:0:0:
448,192,51974,1,0,0:0:0:0:
64,192,52031,1,0,0:0:0:0:
320,192,52087,1,0,0:0:0:0:
448,192,52087,1,0,0:0:0:0:
192,192,52144,1,0,0:0:0:0:
64,192,52144,1,0,0:0:0:0:
320,192,52200,1,0,0:0:0:0:
448,192,52200,1,0,0:0:0:0:
192,192,52256,1,0,0:0:0:0:
64,192,52256,1,0,0:0:0:0:
320,192,52313,1,0,0:0:0:0:
64,192,52369,1,0,0:0:0:0:
320,192,52426,1,0,0:0:0:0:
64,192,52482,1,0,0:0:0:0:
192,192,52539,1,0,0:0:0:0:
320,192,52539,1,0,0:0:0:0:
448,192,52539,1,0,0:0:0:0:
64,192,52651,1,0,0:0:0:0:
448,192,52651,1,0,0:0:0:0:
64,192,52764,1,0,0:0:0:0:
192,192,52764,1,0,0:0:0:0:
448,192,52876,1,0,0:0:0:0:
320,192,52876,1,0,0:0:0:0:
448,192,52989,1,0,0:0:0:0:
64,192,53102,1,0,0:0:0:0:
64,192,53215,1,0,0:0:0:0:
448,192,53215,1,0,0:0:0:0:
192,192,53328,1,0,0:0:0:0:
320,192,53328,1,0,0:0:0:0:
192,192,53441,1,0,0:0:0:0:
448,192,53554,1,0,0:0:0:0:
320,192,53554,1,0,0:0:0:0:
192,192,53666,1,0,0:0:0:0:
448,192,53666,1,0,0:0:0:0:
64,192,53779,1,0,0:0:0:0:
192,192,53835,1,0,0:0:0:0:
320,192,53891,1,0,0:0:0:0:
448,192,53891,1,0,0:0:0:0:
64,192,54004,1,0,0:0:0:0:
320,192,54117,1,0,0:0:0:0:
448,192,54117,1,0,0:0:0:0:
192,192,54230,1,0,0:0:0:0:
64,192,54343,1,0,0:0:0:0:
448,192,54343,1,0,0:0:0:0:
448,192,54456,1,0,0:0:0:0:
320,192,54569,1,0,0:0:0:0:
192,192,54569,1,0,0:0:0:0:
448,192,54681,1,0,0:0:0:0:
64,192,54681,1,0,0:0:0:0:
448,192,54794,1,0,0:0:0:0:
320,192,54794,1,0,0:0:0:0:
192,192,54906,1,0,0:0:0:0:
448,192,55019,1,0,0:0:0:0:
64,192,55019,1,0,0:0:0:0:
64,192,55132,1,0,0:0:0:0:
320,192,55245,1,0,0:0:0:0:
192,192,55358,1,0,0:0:0:0:
320,192,55358,1,0,0:0:0:0:
192,192,55471,1,0,0:0:0:0:
448,192,55471,1,0,0:0:0:0:
64,192,55584,1,0,0:0:0:0:
192,192,55640,1,0,0:0:0:0:
320,192,55696,1,0,0:0:0:0:
448,192,55696,1,0,0:0:0:0:
64,192,55809,1,0,0:0:0:0:
320,192,55922,1,0,0:0:0:0:
448,192,55922,1,0,0:0:0:0:
192,192,56034,1,0,0:0:0:0:
64,192,56147,1,0,0:0:0:0:
448,192,56147,1,0,0:0:0:0:
64,192,56260,1,0,0:0:0:0:
192,192,56373,1,0,0:0:0:0:
448,192,56373,1,0,0:0:0:0:
192,192,56486,1,0,0:0:0:0:
320,192,56599,1,0,0:0:0:0:
448,192,56599,1,0,0:0:0:0:
320,192,56711,1,0,0:0:0:0:
64,192,56824,1,0,0:0:0:0:
448,192,56824,1,0,0:0:0:0:
448,192,56937,1,0,0:0:0:0:
64,192,57049,1,0,0:0:0:0:
192,192,57049,1,0,0:0:0:0:
192,192,57162,1,0,0:0:0:0:
448,192,57275,1,0,0:0:0:0:
320,192,57275,1,0,0:0:0:0:
64,192,57388,1,0,0:0:0:0:
192,192,57444,1,0,0:0:0:0:
320,192,57501,1,0,0:0:0:0:
448,192,57501,1,0,0:0:0:0:
64,192,57614,1,0,0:0:0:0:
320,192,57726,1,0,0:0:0:0:
448,192,57726,1,0,0:0:0:0:
192,192,57839,1,0,0:0:0:0:
64,192,57952,1,0,0:0:0:0:
448,192,57952,1,0,0:0:0:0:
448,192,58065,1,0,0:0:0:0:
64,192,58177,1,0,0:0:0:0:
320,192,58177,1,0,0:0:0:0:
320,192,58290,1,0,0:0:0:0:
192,192,58403,1,0,0:0:0:0:
64,192,58516,1,0,0:0:0:0:
448,192,58516,1,0,0:0:0:0:
64,192,58629,1,0,0:0:0:0:
448,192,58629,1,0,0:0:0:0:
320,192,58713,1,0,0:0:0:0:
192,192,58769,1,0,0:0:0:0:
320,192,58826,1,0,0:0:0:0:
448,192,58854,1,0,0:0:0:0:
64,192,58854,1,0,0:0:0:0:
192,192,58967,1,0,0:0:0:0:
448,192,59080,1,0,0:0:0:0:
64,192,59192,1,0,0:0:0:0:
192,192,59249,1,0,0:0:0:0:
448,192,59305,1,0,0:0:0:0:
320,192,59305,1,0,0:0:0:0:
64,192,59361,1,0,0:0:0:0:
320,192,59418,1,0,0:0:0:0:
192,192,59474,1,0,0:0:0:0:
64,192,59531,1,0,0:0:0:0:
448,192,59644,1,0,0:0:0:0:
320,192,59700,1,0,0:0:0:0:
192,192,59756,1,0,0:0:0:0:
64,192,59756,1,0,0:0:0:0:
448,192,59756,1,0,0:0:0:0:
320,192,59813,1,0,0:0:0:0:
64,192,59869,1,0,0:0:0:0:
192,192,59926,1,0,0:0:0:0:
320,192,59982,1,0,0:0:0:0:
448,192,59982,1,0,0:0:0:0:
192,192,60039,1,0,0:0:0:0:
448,192,60095,1,0,0:0:0:0:
64,192,60151,1,0,0:0:0:0:
320,192,60208,1,0,0:0:0:0:
192,192,60264,1,0,0:0:0:0:
320,192,60320,1,0,0:0:0:0:
192,192,60376,1,0,0:0:0:0:
64,192,60433,1,0,0:0:0:0:
448,192,60433,1,0,0:0:0:0:
320,192,60489,1,0,0:0:0:0:
192,192,60546,1,0,0:0:0:0:
448,192,60602,1,0,0:0:0:0:
64,192,60659,1,0,0:0:0:0:
448,192,60715,1,0,0:0:0:0:
64,192,60771,1,0,0:0:0:0:
192,192,60828,1,0,0:0:0:0:
320,192,60884,1,0,0:0:0:0:
448,192,60884,1,0,0:0:0:0:
192,192,60941,1,0,0:0:0:0:
320,192,60997,1,0,0:0:0:0:
64,192,61054,1,0,0:0:0:0:
448,192,61110,1,0,0:0:0:0:
320,192,61166,1,0,0:0:0:0:
192,192,61223,1,0,0:0:0:0:
448,192,61279,1,0,0:0:0:0:
320,192,61335,1,0,0:0:0:0:
64,192,61335,1,0,0:0:0:0:
192,192,61391,1,0,0:0:0:0:
448,192,61448,1,0,0:0:0:0:
320,192,61504,1,0,0:0:0:0:
192,192,61561,1,0,0:0:0:0:
64,192,61561,1,0,0:0:0:0:
320,192,61617,1,0,0:0:0:0:
64,192,61674,1,0,0:0:0:0:
192,192,61730,1,0,0:0:0:0:
320,192,61786,1,0,0:0:0:0:
448,192,61786,1,0,0:0:0:0:
192,192,61843,1,0,0:0:0:0:
448,192,61899,1,0,0:0:0:0:
64,192,61956,1,0,0:0:0:0:
320,192,62012,1,0,0:0:0:0:
192,192,62069,1,0,0:0:0:0:
448,192,62125,1,0,0:0:0:0:
320,192,62181,1,0,0:0:0:0:
192,192,62238,1,0,0:0:0:0:
64,192,62238,1,0,0:0:0:0:
448,192,62294,1,0,0:0:0:0:
64,192,62351,1,0,0:0:0:0:
192,192,62406,1,0,0:0:0:0:
320,192,62463,1,0,0:0:0:0:
192,192,62519,1,0,0:0:0:0:
320,192,62576,1,0,0:0:0:0:
64,192,62632,1,0,0:0:0:0:
192,192,62689,1,0,0:0:0:0:
448,192,62689,1,0,0:0:0:0:
320,192,62745,1,0,0:0:0:0:
64,192,62801,1,0,0:0:0:0:
448,192,62858,1,0,0:0:0:0:
320,192,62914,1,0,0:0:0:0:
192,192,62971,1,0,0:0:0:0:
448,192,63027,1,0,0:0:0:0:
320,192,63084,1,0,0:0:0:0:
192,192,63140,1,0,0:0:0:0:
64,192,63140,1,0,0:0:0:0:
320,192,63196,1,0,0:0:0:0:
64,192,63253,1,0,0:0:0:0:
448,192,63309,1,0,0:0:0:0:
192,192,63366,1,0,0:0:0:0:
320,192,63366,1,0,0:0:0:0:
64,192,63422,1,0,0:0:0:0:
448,192,63478,1,0,0:0:0:0:
192,192,63534,1,0,0:0:0:0:
320,192,63591,1,0,0:0:0:0:
448,192,63591,1,0,0:0:0:0:
64,192,63647,1,0,0:0:0:0:
320,192,63704,1,0,0:0:0:0:
64,192,63760,1,0,0:0:0:0:
192,192,63816,1,0,0:0:0:0:
448,192,63873,1,0,0:0:0:0:
64,192,63929,1,0,0:0:0:0:
320,192,63986,1,0,0:0:0:0:
192,192,64042,1,0,0:0:0:0:
64,192,64042,1,0,0:0:0:0:
448,192,64099,1,0,0:0:0:0:
320,192,64155,1,0,0:0:0:0:
64,192,64211,1,0,0:0:0:0:
192,192,64268,1,0,0:0:0:0:
320,192,64324,1,0,0:0:0:0:
192,192,64381,1,0,0:0:0:0:
448,192,64437,1,0,0:0:0:0:
320,192,64494,1,0,0:0:0:0:
64,192,64494,1,0,0:0:0:0:
192,192,64549,1,0,0:0:0:0:
448,192,64606,1,0,0:0:0:0:
320,192,64662,1,0,0:0:0:0:
192,192,64719,1,0,0:0:0:0:
448,192,64775,1,0,0:0:0:0:
64,192,64831,1,0,0:0:0:0:
192,192,64888,1,0,0:0:0:0:
320,192,64944,1,0,0:0:0:0:
448,192,64944,1,0,0:0:0:0:
192,192,65001,1,0,0:0:0:0:
448,192,65057,1,0,0:0:0:0:
320,192,65114,1,0,0:0:0:0:
192,192,65170,1,0,0:0:0:0:
64,192,65170,1,0,0:0:0:0:
448,192,65226,1,0,0:0:0:0:
64,192,65283,1,0,0:0:0:0:
192,192,65339,1,0,0:0:0:0:
320,192,65396,1,0,0:0:0:0:
448,192,65396,1,0,0:0:0:0:
64,192,65452,1,0,0:0:0:0:
448,192,65509,1,0,0:0:0:0:
320,192,65565,1,0,0:0:0:0:
192,192,65621,1,0,0:0:0:0:
320,192,65677,1,0,0:0:0:0:
64,192,65734,1,0,0:0:0:0:
192,192,65790,1,0,0:0:0:0:
320,192,65846,1,0,0:0:0:0:
448,192,65846,1,0,0:0:0:0:
192,192,65903,1,0,0:0:0:0:
448,192,65959,1,0,0:0:0:0:
320,192,66016,1,0,0:0:0:0:
64,192,66072,1,0,0:0:0:0:
448,192,66129,1,0,0:0:0:0:
64,192,66185,1,0,0:0:0:0:
320,192,66241,1,0,0:0:0:0:
192,192,66298,1,0,0:0:0:0:
64,192,66298,1,0,0:0:0:0:
448,192,66354,1,0,0:0:0:0:
320,192,66411,1,0,0:0:0:0:
64,192,66467,1,0,0:0:0:0:
448,192,66524,1,0,0:0:0:0:
320,192,66524,1,0,0:0:0:0:
192,192,66580,1,0,0:0:0:0:
320,192,66636,1,0,0:0:0:0:
448,192,66636,1,0,0:0:0:0:
192,192,66692,1,0,0:0:0:0:
64,192,66749,1,0,0:0:0:0:
448,192,66805,1,0,0:0:0:0:
320,192,66861,1,0,0:0:0:0:
192,192,66890,1,0,0:0:0:0:
64,192,66918,1,0,0:0:0:0:
320,192,66974,1,0,0:0:0:0:
448,192,66974,1,0,0:0:0:0:
64,192,67031,1,0,0:0:0:0:
448,192,67087,1,0,0:0:0:0:
192,192,67144,1,0,0:0:0:0:
320,192,67200,1,0,0:0:0:0:
64,192,67200,1,0,0:0:0:0:
448,192,67256,1,0,0:0:0:0:
192,192,67313,1,0,0:0:0:0:
320,192,67369,1,0,0:0:0:0:
64,192,67426,1,0,0:0:0:0:
448,192,67482,1,0,0:0:0:0:
320,192,67539,1,0,0:0:0:0:
192,192,67595,1,0,0:0:0:0:
64,192,67651,1,0,0:0:0:0:
448,192,67651,1,0,0:0:0:0:
192,192,67708,1,0,0:0:0:0:
320,192,67764,1,0,0:0:0:0:
64,192,67820,1,0,0:0:0:0:
448,192,67876,1,0,0:0:0:0:
64,192,67933,1,0,0:0:0:0:
320,192,67989,1,0,0:0:0:0:
192,192,68046,1,0,0:0:0:0:
64,192,68102,1,0,0:0:0:0:
448,192,68102,1,0,0:0:0:0:
192,192,68159,1,0,0:0:0:0:
448,192,68215,1,0,0:0:0:0:
320,192,68271,1,0,0:0:0:0:
64,192,68328,1,0,0:0:0:0:
448,192,68384,1,0,0:0:0:0:
192,192,68441,1,0,0:0:0:0:
320,192,68497,1,0,0:0:0:0:
192,192,68554,1,0,0:0:0:0:
64,192,68554,1,0,0:0:0:0:
448,192,68610,1,0,0:0:0:0:
64,192,68666,1,0,0:0:0:0:
192,192,68723,1,0,0:0:0:0:
448,192,68779,1,0,0:0:0:0:
320,192,68779,1,0,0:0:0:0:
64,192,68835,1,0,0:0:0:0:
320,192,68891,1,0,0:0:0:0:
192,192,68948,1,0,0:0:0:0:
448,192,69004,1,0,0:0:0:0:
64,192,69004,1,0,0:0:0:0:
192,192,69061,1,0,0:0:0:0:
320,192,69117,1,0,0:0:0:0:
64,192,69174,1,0,0:0:0:0:
192,192,69230,1,0,0:0:0:0:
448,192,69286,1,0,0:0:0:0:
64,192,69343,1,0,0:0:0:0:
448,192,69399,1,0,0:0:0:0:
320,192,69456,1,0,0:0:0:0:
64,192,69456,1,0,0:0:0:0:
192,192,69512,1,0,0:0:0:0:
448,192,69569,1,0,0:0:0:0:
320,192,69625,1,0,0:0:0:0:
64,192,69681,1,0,0:0:0:0:
448,192,69738,1,0,0:0:0:0:
192,192,69794,1,0,0:0:0:0:
320,192,69851,1,0,0:0:0:0:
64,192,69906,1,0,0:0:0:0:
448,192,69906,1,0,0:0:0:0:
320,192,69963,1,0,0:0:0:0:
192,192,70019,1,0,0:0:0:0:
320,192,70076,1,0,0:0:0:0:
64,192,70132,1,0,0:0:0:0:
192,192,70189,1,0,0:0:0:0:
448,192,70245,1,0,0:0:0:0:
64,192,70301,1,0,0:0:0:0:
192,192,70358,1,0,0:0:0:0:
448,192,70358,1,0,0:0:0:0:
320,192,70414,1,0,0:0:0:0:
64,192,70471,1,0,0:0:0:0:
192,192,70527,1,0,0:0:0:0:
320,192,70584,1,0,0:0:0:0:
448,192,70584,1,0,0:0:0:0:
192,192,70640,1,0,0:0:0:0:
448,192,70696,1,0,0:0:0:0:
320,192,70753,1,0,0:0:0:0:
192,192,70809,1,0,0:0:0:0:
64,192,70809,1,0,0:0:0:0:
320,192,70866,1,0,0:0:0:0:
64,192,70922,1,0,0:0:0:0:
448,192,70978,1,0,0:0:0:0:
192,192,71034,1,0,0:0:0:0:
320,192,71091,1,0,0:0:0:0:
192,192,71147,1,0,0:0:0:0:
448,192,71204,1,0,0:0:0:0:
320,192,71260,1,0,0:0:0:0:
64,192,71260,1,0,0:0:0:0:
192,192,71316,1,0,0:0:0:0:
448,192,71373,1,0,0:0:0:0:
64,192,71429,1,0,0:0:0:0:
192,192,71486,1,0,0:0:0:0:
320,192,71542,1,0,0:0:0:0:
64,192,71599,1,0,0:0:0:0:
448,192,71655,1,0,0:0:0:0:
320,192,71711,1,0,0:0:0:0:
64,192,71711,1,0,0:0:0:0:
192,192,71768,1,0,0:0:0:0:
448,192,71824,1,0,0:0:0:0:
192,192,71881,1,0,0:0:0:0:
320,192,71937,1,0,0:0:0:0:
64,192,71994,1,0,0:0:0:0:
192,192,72049,1,0,0:0:0:0:
448,192,72106,1,0,0:0:0:0:
320,192,72162,1,0,0:0:0:0:
192,192,72162,1,0,0:0:0:0:
64,192,72219,1,0,0:0:0:0:
448,192,72275,1,0,0:0:0:0:
320,192,72331,1,0,0:0:0:0:
192,192,72388,1,0,0:0:0:0:
64,192,72388,1,0,0:0:0:0:
448,192,72444,1,0,0:0:0:0:
192,192,72501,1,0,0:0:0:0:
320,192,72557,1,0,0:0:0:0:
64,192,72614,1,0,0:0:0:0:
448,192,72614,1,0,0:0:0:0:
192,192,72670,1,0,0:0:0:0:
320,192,72726,1,0,0:0:0:0:
192,192,72783,1,0,0:0:0:0:
448,192,72839,1,0,0:0:0:0:
64,192,72896,1,0,0:0:0:0:
320,192,72952,1,0,0:0:0:0:
192,192,73009,1,0,0:0:0:0:
320,192,73065,1,0,0:0:0:0:
448,192,73065,1,0,0:0:0:0:
64,192,73121,1,0,0:0:0:0:
192,192,73177,1,0,0:0:0:0:
448,192,73234,1,0,0:0:0:0:
64,192,73290,1,0,0:0:0:0:
320,192,73346,1,0,0:0:0:0:
64,192,73403,1,0,0:0:0:0:
192,192,73459,1,0,0:0:0:0:
320,192,73516,1,0,0:0:0:0:
448,192,73516,1,0,0:0:0:0:
64,192,73572,1,0,0:0:0:0:
448,192,73629,1,0,0:0:0:0:
320,192,73685,1,0,0:0:0:0:
192,192,73741,1,0,0:0:0:0:
64,192,73741,1,0,0:0:0:0:
320,192,73798,1,0,0:0:0:0:
448,192,73798,1,0,0:0:0:0:
192,192,73854,1,0,0:0:0:0:
64,192,73854,1,0,0:0:0:0:
320,192,73911,1,0,0:0:0:0:
448,192,73911,1,0,0:0:0:0:
64,192,73967,1,0,0:0:0:0:
192,192,74024,1,0,0:0:0:0:
448,192,74080,1,0,0:0:0:0:
192,192,74136,1,0,0:0:0:0:
448,192,74192,128,0,74305:0:0:0:0:
64,192,74192,128,0,75095:0:0:0:0:
320,192,74192,128,0,74305:0:0:0:0:
192,192,75095,128,0,75208:0:0:0:0:
448,192,75095,128,0,75208:0:0:0:0:
320,192,75095,128,0,75546:0:0:0:0:
192,192,75546,128,0,75997:0:0:0:0:
448,192,75997,128,0,76110:0:0:0:0:
320,192,75997,128,0,76110:0:0:0:0:
64,192,75997,128,0,76448:0:0:0:0:
448,192,76448,128,0,76899:0:0:0:0:
64,192,76899,128,0,77012:0:0:0:0:
320,192,76899,128,0,77012:0:0:0:0:
192,192,76899,128,0,77351:0:0:0:0:
320,192,77351,128,0,77801:0:0:0:0:
64,192,77801,128,0,77914:0:0:0:0:
192,192,77801,128,0,77914:0:0:0:0:
448,192,77801,128,0,78253:0:0:0:0:
192,192,78704,128,0,79099:0:0:0:0:
320,192,78704,128,0,79155:0:0:0:0:
448,192,78704,128,0,79099:0:0:0:0:
64,192,79155,128,0,79549:0:0:0:0:
192,192,79155,128,0,79549:0:0:0:0:
448,192,79155,128,0,79606:0:0:0:0:
64,192,79606,128,0,79719:0:0:0:0:
192,192,79606,128,0,79719:0:0:0:0:
320,192,79606,128,0,80057:0:0:0:0:
64,192,80509,128,0,80959:0:0:0:0:
320,192,80509,128,0,80903:0:0:0:0:
448,192,80509,128,0,80903:0:0:0:0:
192,192,80959,1,0,0:0:0:0:
448,192,80959,1,0,0:0:0:0:
320,192,80959,1,0,0:0:0:0:
64,192,81072,1,0,0:0:0:0:
320,192,81072,1,0,0:0:0:0:
192,192,81185,1,0,0:0:0:0:
64,192,81185,1,0,0:0:0:0:
320,192,81241,1,0,0:0:0:0:
448,192,81241,1,0,0:0:0:0:
192,192,81298,1,0,0:0:0:0:
64,192,81298,1,0,0:0:0:0:
320,192,81354,1,0,0:0:0:0:
448,192,81354,1,0,0:0:0:0:
192,192,81411,1,0,0:0:0:0:
320,192,81467,1,0,0:0:0:0:
64,192,81524,1,0,0:0:0:0:
192,192,81580,1,0,0:0:0:0:
448,192,81636,1,0,0:0:0:0:
320,192,81636,1,0,0:0:0:0:
192,192,81692,1,0,0:0:0:0:
448,192,81749,1,0,0:0:0:0:
64,192,81805,1,0,0:0:0:0:
320,192,81861,1,0,0:0:0:0:
192,192,81918,1,0,0:0:0:0:
448,192,81974,1,0,0:0:0:0:
64,192,82031,1,0,0:0:0:0:
192,192,82087,1,0,0:0:0:0:
448,192,82087,1,0,0:0:0:0:
320,192,82144,1,0,0:0:0:0:
64,192,82200,1,0,0:0:0:0:
192,192,82256,1,0,0:0:0:0:
320,192,82313,1,0,0:0:0:0:
192,192,82369,1,0,0:0:0:0:
448,192,82426,1,0,0:0:0:0:
64,192,82482,1,0,0:0:0:0:
192,192,82539,1,0,0:0:0:0:
448,192,82539,1,0,0:0:0:0:
320,192,82595,1,0,0:0:0:0:
64,192,82651,1,0,0:0:0:0:
192,192,82708,1,0,0:0:0:0:
448,192,82764,1,0,0:0:0:0:
320,192,82820,1,0,0:0:0:0:
192,192,82876,1,0,0:0:0:0:
64,192,82933,1,0,0:0:0:0:
192,192,82989,1,0,0:0:0:0:
448,192,82989,1,0,0:0:0:0:
320,192,83046,1,0,0:0:0:0:
192,192,83102,1,0,0:0:0:0:
64,192,83159,1,0,0:0:0:0:
320,192,83215,1,0,0:0:0:0:
448,192,83215,1,0,0:0:0:0:
192,192,83271,1,0,0:0:0:0:
448,192,83328,1,0,0:0:0:0:
64,192,83384,1,0,0:0:0:0:
192,192,83441,1,0,0:0:0:0:
320,192,83441,1,0,0:0:0:0:
64,192,83497,1,0,0:0:0:0:
448,192,83554,1,0,0:0:0:0:
192,192,83610,1,0,0:0:0:0:
320,192,83666,1,0,0:0:0:0:
64,192,83723,1,0,0:0:0:0:
320,192,83779,1,0,0:0:0:0:
192,192,83835,1,0,0:0:0:0:
64,192,83891,1,0,0:0:0:0:
448,192,83891,1,0,0:0:0:0:
320,192,83948,1,0,0:0:0:0:
192,192,84004,1,0,0:0:0:0:
320,192,84061,1,0,0:0:0:0:
64,192,84117,1,0,0:0:0:0:
192,192,84174,1,0,0:0:0:0:
448,192,84230,1,0,0:0:0:0:
64,192,84286,1,0,0:0:0:0:
192,192,84343,1,0,0:0:0:0:
448,192,84343,1,0,0:0:0:0:
320,192,84399,1,0,0:0:0:0:
64,192,84456,1,0,0:0:0:0:
448,192,84512,1,0,0:0:0:0:
64,192,84569,128,0,84794:0:0:0:0:
192,192,84569,128,0,84738:0:0:0:0:
320,192,84569,128,0,84738:0:0:0:0:
448,192,84794,128,0,84963:0:0:0:0:
320,192,84794,128,0,84963:0:0:0:0:
192,192,84794,128,0,85019:0:0:0:0:
448,192,85019,1,0,0:0:0:0:
320,192,85019,1,0,0:0:0:0:
64,192,85019,1,0,0:0:0:0:
192,192,85076,1,0,0:0:0:0:
320,192,85132,1,0,0:0:0:0:
64,192,85189,1,0,0:0:0:0:
192,192,85245,1,0,0:0:0:0:
448,192,85245,1,0,0:0:0:0:
320,192,85301,1,0,0:0:0:0:
64,192,85358,1,0,0:0:0:0:
448,192,85414,1,0,0:0:0:0:
320,192,85471,1,0,0:0:0:0:
192,192,85527,1,0,0:0:0:0:
320,192,85584,1,0,0:0:0:0:
64,192,85640,1,0,0:0:0:0:
192,192,85696,1,0,0:0:0:0:
448,192,85696,1,0,0:0:0:0:
320,192,85753,1,0,0:0:0:0:
64,192,85809,1,0,0:0:0:0:
448,192,85866,1,0,0:0:0:0:
192,192,85922,1,0,0:0:0:0:
320,192,85978,1,0,0:0:0:0:
192,192,86034,1,0,0:0:0:0:
448,192,86091,1,0,0:0:0:0:
320,192,86147,1,0,0:0:0:0:
64,192,86147,1,0,0:0:0:0:
192,192,86204,1,0,0:0:0:0:
448,192,86260,1,0,0:0:0:0:
64,192,86316,1,0,0:0:0:0:
320,192,86373,1,0,0:0:0:0:
192,192,86373,1,0,0:0:0:0:
64,192,86429,1,0,0:0:0:0:
448,192,86429,1,0,0:0:0:0:
320,192,86486,1,0,0:0:0:0:
192,192,86486,1,0,0:0:0:0:
64,192,86542,1,0,0:0:0:0:
448,192,86542,1,0,0:0:0:0:
320,192,86599,1,0,0:0:0:0:
192,192,86655,1,0,0:0:0:0:
64,192,86711,1,0,0:0:0:0:
192,192,86768,1,0,0:0:0:0:
64,192,86824,1,0,0:0:0:0:
320,192,86824,1,0,0:0:0:0:
448,192,86824,1,0,0:0:0:0:
192,192,86937,1,0,0:0:0:0:
192,192,87049,1,0,0:0:0:0:
320,192,87049,1,0,0:0:0:0:
64,192,87162,1,0,0:0:0:0:
448,192,87162,1,0,0:0:0:0:
320,192,87275,1,0,0:0:0:0:
192,192,87275,1,0,0:0:0:0:
320,192,87388,1,0,0:0:0:0:
64,192,87501,1,0,0:0:0:0:
192,192,87501,1,0,0:0:0:0:
64,192,87614,1,0,0:0:0:0:
448,192,87614,1,0,0:0:0:0:
192,192,87726,1,0,0:0:0:0:
320,192,87726,1,0,0:0:0:0:
64,192,87839,1,0,0:0:0:0:
64,192,87952,1,0,0:0:0:0:
448,192,87952,1,0,0:0:0:0:
448,192,88065,1,0,0:0:0:0:
192,192,88065,1,0,0:0:0:0:
320,192,88177,1,0,0:0:0:0:
64,192,88177,1,0,0:0:0:0:
320,192,88290,1,0,0:0:0:0:
192,192,88403,1,0,0:0:0:0:
64,192,88403,1,0,0:0:0:0:
64,192,88516,1,0,0:0:0:0:
448,192,88516,1,0,0:0:0:0:
448,192,88629,1,0,0:0:0:0:
192,192,88629,128,0,89080:0:0:0:0:
448,192,89080,128,0,89531:0:0:0:0:
320,192,89531,1,0,0:0:0:0:
192,192,89531,1,0,0:0:0:0:
64,192,89531,128,0,89982:0:0:0:0:
192,192,89982,1,0,0:0:0:0:
448,192,89982,1,0,0:0:0:0:
320,192,90095,1,0,0:0:0:0:
192,192,90095,1,0,0:0:0:0:
64,192,90208,1,0,0:0:0:0:
192,192,90264,1,0,0:0:0:0:
320,192,90320,1,0,0:0:0:0:
448,192,90320,1,0,0:0:0:0:
192,192,90376,1,0,0:0:0:0:
64,192,90376,1,0,0:0:0:0:
320,192,90433,1,0,0:0:0:0:
64,192,90489,1,0,0:0:0:0:
448,192,90546,1,0,0:0:0:0:
192,192,90602,1,0,0:0:0:0:
320,192,90659,1,0,0:0:0:0:
448,192,90659,1,0,0:0:0:0:
64,192,90715,1,0,0:0:0:0:
320,192,90771,1,0,0:0:0:0:
192,192,90828,1,0,0:0:0:0:
448,192,90884,1,0,0:0:0:0:
64,192,90941,1,0,0:0:0:0:
448,192,90997,1,0,0:0:0:0:
320,192,91054,1,0,0:0:0:0:
192,192,91110,1,0,0:0:0:0:
64,192,91110,1,0,0:0:0:0:
320,192,91166,1,0,0:0:0:0:
192,192,91223,1,0,0:0:0:0:
448,192,91279,1,0,0:0:0:0:
64,192,91335,1,0,0:0:0:0:
192,192,91391,1,0,0:0:0:0:
320,192,91448,1,0,0:0:0:0:
64,192,91504,1,0,0:0:0:0:
192,192,91561,1,0,0:0:0:0:
448,192,91561,1,0,0:0:0:0:
320,192,91617,1,0,0:0:0:0:
64,192,91674,1,0,0:0:0:0:
320,192,91730,1,0,0:0:0:0:
192,192,91786,1,0,0:0:0:0:
448,192,91843,1,0,0:0:0:0:
320,192,91899,1,0,0:0:0:0:
64,192,91956,1,0,0:0:0:0:
192,192,92012,1,0,0:0:0:0:
448,192,92012,1,0,0:0:0:0:
320,192,92069,1,0,0:0:0:0:
64,192,92125,1,0,0:0:0:0:
192,192,92181,1,0,0:0:0:0:
320,192,92238,1,0,0:0:0:0:
64,192,92294,1,0,0:0:0:0:
448,192,92351,1,0,0:0:0:0:
192,192,92406,1,0,0:0:0:0:
320,192,92463,1,0,0:0:0:0:
448,192,92463,1,0,0:0:0:0:
64,192,92519,1,0,0:0:0:0:
192,192,92576,1,0,0:0:0:0:
320,192,92632,1,0,0:0:0:0:
64,192,92689,1,0,0:0:0:0:
320,192,92745,1,0,0:0:0:0:
192,192,92801,1,0,0:0:0:0:
448,192,92858,1,0,0:0:0:0:
64,192,92914,1,0,0:0:0:0:
192,192,92914,1,0,0:0:0:0:
320,192,92971,1,0,0:0:0:0:
64,192,93027,1,0,0:0:0:0:
192,192,93084,1,0,0:0:0:0:
448,192,93140,1,0,0:0:0:0:
64,192,93196,1,0,0:0:0:0:
320,192,93253,1,0,0:0:0:0:
192,192,93309,1,0,0:0:0:0:
320,192,93366,1,0,0:0:0:0:
448,192,93366,1,0,0:0:0:0:
64,192,93422,1,0,0:0:0:0:
192,192,93478,1,0,0:0:0:0:
448,192,93534,1,0,0:0:0:0:
64,192,93591,1,0,0:0:0:0:
320,192,93647,1,0,0:0:0:0:
64,192,93704,1,0,0:0:0:0:
448,192,93760,1,0,0:0:0:0:
320,192,93816,1,0,0:0:0:0:
192,192,93816,1,0,0:0:0:0:
64,192,93873,1,0,0:0:0:0:
448,192,93929,1,0,0:0:0:0:
320,192,93986,1,0,0:0:0:0:
192,192,94042,1,0,0:0:0:0:
448,192,94099,1,0,0:0:0:0:
64,192,94155,1,0,0:0:0:0:
192,192,94211,1,0,0:0:0:0:
320,192,94268,1,0,0:0:0:0:
448,192,94268,1,0,0:0:0:0:
192,192,94324,1,0,0:0:0:0:
320,192,94381,1,0,0:0:0:0:
64,192,94437,1,0,0:0:0:0:
448,192,94494,1,0,0:0:0:0:
192,192,94549,1,0,0:0:0:0:
320,192,94606,1,0,0:0:0:0:
64,192,94662,1,0,0:0:0:0:
192,192,94719,1,0,0:0:0:0:
320,192,94719,1,0,0:0:0:0:
448,192,94775,1,0,0:0:0:0:
64,192,94831,1,0,0:0:0:0:
320,192,94888,1,0,0:0:0:0:
192,192,94944,1,0,0:0:0:0:
448,192,95001,1,0,0:0:0:0:
192,192,95057,1,0,0:0:0:0:
320,192,95114,1,0,0:0:0:0:
64,192,95170,1,0,0:0:0:0:
448,192,95170,1,0,0:0:0:0:
192,192,95226,1,0,0:0:0:0:
320,192,95283,1,0,0:0:0:0:
192,192,95339,1,0,0:0:0:0:
448,192,95396,1,0,0:0:0:0:
64,192,95452,1,0,0:0:0:0:
448,192,95509,1,0,0:0:0:0:
320,192,95565,1,0,0:0:0:0:
192,192,95621,1,0,0:0:0:0:
64,192,95621,1,0,0:0:0:0:
448,192,95677,1,0,0:0:0:0:
64,192,95734,1,0,0:0:0:0:
192,192,95790,1,0,0:0:0:0:
320,192,95846,1,0,0:0:0:0:
320,192,95959,1,0,0:0:0:0:
192,192,96072,1,0,0:0:0:0:
64,192,96072,1,0,0:0:0:0:
448,192,96185,1,0,0:0:0:0:
448,192,96298,1,0,0:0:0:0:
64,192,96411,1,0,0:0:0:0:
192,192,96524,1,0,0:0:0:0:
448,192,96524,1,0,0:0:0:0:
320,192,96636,1,0,0:0:0:0:
192,192,96692,1,0,0:0:0:0:
64,192,96749,1,0,0:0:0:0:
320,192,96861,1,0,0:0:0:0:
448,192,96861,1,0,0:0:0:0:
320,192,97087,1,0,0:0:0:0:
448,192,97087,1,0,0:0:0:0:
320,192,97313,1,0,0:0:0:0:
448,192,97313,1,0,0:0:0:0:
320,192,97539,1,0,0:0:0:0:
448,192,97539,1,0,0:0:0:0:
64,192,97651,1,0,0:0:0:0:
448,192,97651,1,0,0:0:0:0:
192,192,97708,1,0,0:0:0:0:
320,192,97764,1,0,0:0:0:0:
64,192,97820,1,0,0:0:0:0:
192,192,97876,1,0,0:0:0:0:
320,192,97876,1,0,0:0:0:0:
448,192,97933,1,0,0:0:0:0:
64,192,97989,1,0,0:0:0:0:
320,192,98046,1,0,0:0:0:0:
192,192,98102,1,0,0:0:0:0:
448,192,98159,1,0,0:0:0:0:
64,192,98215,1,0,0:0:0:0:
192,192,98271,1,0,0:0:0:0:
320,192,98328,1,0,0:0:0:0:
448,192,98328,1,0,0:0:0:0:
192,192,98384,1,0,0:0:0:0:
320,192,98441,1,0,0:0:0:0:
64,192,98497,1,0,0:0:0:0:
448,192,98554,1,0,0:0:0:0:
64,192,98610,1,0,0:0:0:0:
320,192,98666,1,0,0:0:0:0:
192,192,98723,1,0,0:0:0:0:
64,192,98779,1,0,0:0:0:0:
448,192,98779,1,0,0:0:0:0:
320,192,98835,1,0,0:0:0:0:
192,192,98891,1,0,0:0:0:0:
448,192,98948,1,0,0:0:0:0:
64,192,99004,1,0,0:0:0:0:
320,192,99061,1,0,0:0:0:0:
64,192,99117,1,0,0:0:0:0:
192,192,99174,1,0,0:0:0:0:
320,192,99230,1,0,0:0:0:0:
448,192,99230,1,0,0:0:0:0:
64,192,99286,1,0,0:0:0:0:
448,192,99343,1,0,0:0:0:0:
64,192,99399,1,0,0:0:0:0:
320,192,99456,1,0,0:0:0:0:
192,192,99512,1,0,0:0:0:0:
320,192,99569,1,0,0:0:0:0:
64,192,99625,1,0,0:0:0:0:
192,192,99681,1,0,0:0:0:0:
448,192,99681,1,0,0:0:0:0:
320,192,99738,1,0,0:0:0:0:
64,192,99794,1,0,0:0:0:0:
192,192,99851,1,0,0:0:0:0:
448,192,99906,1,0,0:0:0:0:
192,192,99963,1,0,0:0:0:0:
320,192,100019,1,0,0:0:0:0:
64,192,100076,1,0,0:0:0:0:
192,192,100132,1,0,0:0:0:0:
448,192,100132,1,0,0:0:0:0:
320,192,100189,1,0,0:0:0:0:
64,192,100245,1,0,0:0:0:0:
320,192,100301,1,0,0:0:0:0:
192,192,100358,1,0,0:0:0:0:
448,192,100414,1,0,0:0:0:0:
320,192,100471,1,0,0:0:0:0:
64,192,100527,1,0,0:0:0:0:
192,192,100584,1,0,0:0:0:0:
320,192,100584,1,0,0:0:0:0:
448,192,100640,1,0,0:0:0:0:
64,192,100696,1,0,0:0:0:0:
448,192,100753,1,0,0:0:0:0:
64,192,100809,1,0,0:0:0:0:
192,192,100866,1,0,0:0:0:0:
320,192,100922,1,0,0:0:0:0:
64,192,100978,1,0,0:0:0:0:
192,192,101034,1,0,0:0:0:0:
448,192,101034,1,0,0:0:0:0:
320,192,101091,1,0,0:0:0:0:
64,192,101147,1,0,0:0:0:0:
448,192,101204,1,0,0:0:0:0:
320,192,101260,1,0,0:0:0:0:
192,192,101316,1,0,0:0:0:0:
320,192,101373,1,0,0:0:0:0:
192,192,101429,1,0,0:0:0:0:
64,192,101486,1,0,0:0:0:0:
448,192,101486,1,0,0:0:0:0:
320,192,101542,1,0,0:0:0:0:
192,192,101599,1,0,0:0:0:0:
448,192,101655,1,0,0:0:0:0:
64,192,101711,1,0,0:0:0:0:
192,192,101768,1,0,0:0:0:0:
320,192,101824,1,0,0:0:0:0:
64,192,101881,1,0,0:0:0:0:
192,192,101937,1,0,0:0:0:0:
320,192,101937,1,0,0:0:0:0:
448,192,101994,1,0,0:0:0:0:
64,192,102049,1,0,0:0:0:0:
448,192,102106,1,0,0:0:0:0:
192,192,102162,1,0,0:0:0:0:
320,192,102219,1,0,0:0:0:0:
64,192,102275,1,0,0:0:0:0:
192,192,102331,1,0,0:0:0:0:
320,192,102388,1,0,0:0:0:0:
448,192,102388,1,0,0:0:0:0:
192,192,102444,1,0,0:0:0:0:
320,192,102501,1,0,0:0:0:0:
64,192,102557,1,0,0:0:0:0:
448,192,102614,1,0,0:0:0:0:
320,192,102670,1,0,0:0:0:0:
64,192,102726,1,0,0:0:0:0:
320,192,102783,1,0,0:0:0:0:
192,192,102839,1,0,0:0:0:0:
64,192,102839,1,0,0:0:0:0:
448,192,102896,1,0,0:0:0:0:
320,192,102952,1,0,0:0:0:0:
64,192,103009,1,0,0:0:0:0:
448,192,103065,1,0,0:0:0:0:
64,192,103121,1,0,0:0:0:0:
192,192,103177,1,0,0:0:0:0:
320,192,103234,1,0,0:0:0:0:
64,192,103290,1,0,0:0:0:0:
448,192,103290,1,0,0:0:0:0:
320,192,103346,1,0,0:0:0:0:
192,192,103403,1,0,0:0:0:0:
320,192,103459,1,0,0:0:0:0:
64,192,103516,1,0,0:0:0:0:
192,192,103572,1,0,0:0:0:0:
448,192,103629,1,0,0:0:0:0:
320,192,103685,1,0,0:0:0:0:
192,192,103741,1,0,0:0:0:0:
64,192,103741,1,0,0:0:0:0:
448,192,103798,1,0,0:0:0:0:
64,192,103854,1,0,0:0:0:0:
192,192,103911,1,0,0:0:0:0:
320,192,103967,1,0,0:0:0:0:
192,192,104024,1,0,0:0:0:0:
448,192,104080,1,0,0:0:0:0:
64,192,104136,1,0,0:0:0:0:
192,192,104192,1,0,0:0:0:0:
448,192,104192,1,0,0:0:0:0:
320,192,104249,1,0,0:0:0:0:
64,192,104305,1,0,0:0:0:0:
448,192,104361,1,0,0:0:0:0:
192,192,104418,1,0,0:0:0:0:
320,192,104474,1,0,0:0:0:0:
64,192,104587,1,0,0:0:0:0:
192,192,104644,1,0,0:0:0:0:
64,192,104700,1,0,0:0:0:0:
192,192,104756,1,0,0:0:0:0:
320,192,104813,1,0,0:0:0:0:
64,192,104869,1,0,0:0:0:0:
192,192,104869,1,0,0:0:0:0:
448,192,104869,1,0,0:0:0:0:
320,192,104982,1,0,0:0:0:0:
320,192,105095,1,0,0:0:0:0:
192,192,105095,1,0,0:0:0:0:
64,192,105208,1,0,0:0:0:0:
64,192,105320,1,0,0:0:0:0:
448,192,105320,1,0,0:0:0:0:
192,192,105433,1,0,0:0:0:0:
320,192,105546,1,0,0:0:0:0:
448,192,105546,1,0,0:0:0:0:
320,192,105659,1,0,0:0:0:0:
64,192,105771,1,0,0:0:0:0:
448,192,105771,1,0,0:0:0:0:
320,192,105884,1,0,0:0:0:0:
192,192,105997,1,0,0:0:0:0:
320,192,105997,1,0,0:0:0:0:
192,192,106110,1,0,0:0:0:0:
64,192,106166,1,0,0:0:0:0:
320,192,106223,1,0,0:0:0:0:
448,192,106223,1,0,0:0:0:0:
192,192,106335,1,0,0:0:0:0:
320,192,106448,1,0,0:0:0:0:
448,192,106448,1,0,0:0:0:0:
64,192,106561,1,0,0:0:0:0:
192,192,106674,1,0,0:0:0:0:
320,192,106674,1,0,0:0:0:0:
320,192,106786,1,0,0:0:0:0:
64,192,106899,1,0,0:0:0:0:
448,192,106899,1,0,0:0:0:0:
192,192,107012,1,0,0:0:0:0:
192,192,107125,1,0,0:0:0:0:
448,192,107125,1,0,0:0:0:0:
320,192,107238,1,0,0:0:0:0:
192,192,107351,1,0,0:0:0:0:
64,192,107351,1,0,0:0:0:0:
64,192,107463,1,0,0:0:0:0:
192,192,107576,1,0,0:0:0:0:
448,192,107576,1,0,0:0:0:0:
320,192,107689,1,0,0:0:0:0:
320,192,107801,1,0,0:0:0:0:
192,192,107801,1,0,0:0:0:0:
64,192,107914,1,0,0:0:0:0:
192,192,107971,1,0,0:0:0:0:
320,192,108027,1,0,0:0:0:0:
448,192,108027,1,0,0:0:0:0:
64,192,108140,1,0,0:0:0:0:
320,192,108253,1,0,0:0:0:0:
448,192,108253,1,0,0:0:0:0:
192,192,108366,1,0,0:0:0:0:
64,192,108478,1,0,0:0:0:0:
448,192,108478,1,0,0:0:0:0:
448,192,108591,1,0,0:0:0:0:
320,192,108704,1,0,0:0:0:0:
64,192,108704,1,0,0:0:0:0:
192,192,108816,1,0,0:0:0:0:
192,192,108929,1,0,0:0:0:0:
320,192,108929,1,0,0:0:0:0:
64,192,109042,1,0,0:0:0:0:
192,192,109155,1,0,0:0:0:0:
448,192,109155,1,0,0:0:0:0:
448,192,109268,1,0,0:0:0:0:
320,192,109381,1,0,0:0:0:0:
64,192,109381,1,0,0:0:0:0:
192,192,109494,1,0,0:0:0:0:
192,192,109606,1,0,0:0:0:0:
320,192,109606,1,0,0:0:0:0:
64,192,109719,1,0,0:0:0:0:
192,192,109775,1,0,0:0:0:0:
320,192,109831,1,0,0:0:0:0:
448,192,109831,1,0,0:0:0:0:
64,192,109944,1,0,0:0:0:0:
320,192,110057,1,0,0:0:0:0:
448,192,110057,1,0,0:0:0:0:
192,192,110170,1,0,0:0:0:0:
64,192,110283,1,0,0:0:0:0:
448,192,110283,1,0,0:0:0:0:
320,192,110396,1,0,0:0:0:0:
320,192,110509,1,0,0:0:0:0:
192,192,110509,1,0,0:0:0:0:
64,192,110621,1,0,0:0:0:0:
64,192,110734,1,0,0:0:0:0:
320,192,110846,1,0,0:0:0:0:
448,192,110846,1,0,0:0:0:0:
320,192,110959,1,0,0:0:0:0:
448,192,110959,1,0,0:0:0:0:
192,192,111072,1,0,0:0:0:0:
448,192,111110,1,0,0:0:0:0:
320,192,111147,1,0,0:0:0:0:
192,192,111185,1,0,0:0:0:0:
64,192,111185,1,0,0:0:0:0:
320,192,111298,1,0,0:0:0:0:
64,192,111411,1,0,0:0:0:0:
192,192,111524,1,0,0:0:0:0:
320,192,111636,1,0,0:0:0:0:
448,192,111636,1,0,0:0:0:0:
64,192,111692,1,0,0:0:0:0:
320,192,111749,1,0,0:0:0:0:
192,192,111805,1,0,0:0:0:0:
64,192,111861,1,0,0:0:0:0:
192,192,111918,1,0,0:0:0:0:
448,192,111974,1,0,0:0:0:0:
320,192,112031,1,0,0:0:0:0:
192,192,112087,1,0,0:0:0:0:
64,192,112087,1,0,0:0:0:0:
448,192,112144,1,0,0:0:0:0:
64,192,112200,1,0,0:0:0:0:
192,192,112256,1,0,0:0:0:0:
448,192,112313,1,0,0:0:0:0:
320,192,112313,1,0,0:0:0:0:
192,192,112369,1,0,0:0:0:0:
320,192,112426,1,0,0:0:0:0:
64,192,112482,1,0,0:0:0:0:
448,192,112539,1,0,0:0:0:0:
320,192,112595,1,0,0:0:0:0:
192,192,112651,1,0,0:0:0:0:
448,192,112708,1,0,0:0:0:0:
320,192,112764,1,0,0:0:0:0:
64,192,112764,1,0,0:0:0:0:
192,192,112820,1,0,0:0:0:0:
448,192,112876,1,0,0:0:0:0:
64,192,112933,1,0,0:0:0:0:
192,192,112989,1,0,0:0:0:0:
320,192,113046,1,0,0:0:0:0:
192,192,113102,1,0,0:0:0:0:
448,192,113159,1,0,0:0:0:0:
320,192,113215,1,0,0:0:0:0:
192,192,113215,1,0,0:0:0:0:
64,192,113271,1,0,0:0:0:0:
448,192,113328,1,0,0:0:0:0:
64,192,113384,1,0,0:0:0:0:
320,192,113441,1,0,0:0:0:0:
192,192,113497,1,0,0:0:0:0:
448,192,113554,1,0,0:0:0:0:
64,192,113610,1,0,0:0:0:0:
192,192,113666,1,0,0:0:0:0:
448,192,113666,1,0,0:0:0:0:
320,192,113723,1,0,0:0:0:0:
64,192,113779,1,0,0:0:0:0:
192,192,113835,1,0,0:0:0:0:
320,192,113891,1,0,0:0:0:0:
448,192,113891,1,0,0:0:0:0:
192,192,113948,1,0,0:0:0:0:
320,192,114004,1,0,0:0:0:0:
64,192,114061,1,0,0:0:0:0:
448,192,114117,1,0,0:0:0:0:
192,192,114117,1,0,0:0:0:0:
320,192,114174,1,0,0:0:0:0:
64,192,114230,1,0,0:0:0:0:
320,192,114286,1,0,0:0:0:0:
192,192,114343,1,0,0:0:0:0:
448,192,114399,1,0,0:0:0:0:
64,192,114456,1,0,0:0:0:0:
320,192,114512,1,0,0:0:0:0:
192,192,114569,1,0,0:0:0:0:
64,192,114569,1,0,0:0:0:0:
448,192,114625,1,0,0:0:0:0:
192,192,114681,1,0,0:0:0:0:
320,192,114738,1,0,0:0:0:0:
64,192,114794,1,0,0:0:0:0:
192,192,114851,1,0,0:0:0:0:
448,192,114906,1,0,0:0:0:0:
64,192,114963,1,0,0:0:0:0:
320,192,115019,1,0,0:0:0:0:
192,192,115019,1,0,0:0:0:0:
448,192,115076,1,0,0:0:0:0:
64,192,115132,1,0,0:0:0:0:
448,192,115189,1,0,0:0:0:0:
320,192,115245,1,0,0:0:0:0:
192,192,115301,1,0,0:0:0:0:
448,192,115358,1,0,0:0:0:0:
64,192,115414,1,0,0:0:0:0:
192,192,115471,1,0,0:0:0:0:
320,192,115471,1,0,0:0:0:0:
448,192,115527,1,0,0:0:0:0:
192,192,115584,1,0,0:0:0:0:
320,192,115640,1,0,0:0:0:0:
448,192,115696,1,0,0:0:0:0:
64,192,115696,1,0,0:0:0:0:
320,192,115753,1,0,0:0:0:0:
192,192,115809,1,0,0:0:0:0:
320,192,115866,1,0,0:0:0:0:
64,192,115922,1,0,0:0:0:0:
192,192,115922,1,0,0:0:0:0:
448,192,115978,1,0,0:0:0:0:
64,192,116034,1,0,0:0:0:0:
320,192,116091,1,0,0:0:0:0:
192,192,116147,1,0,0:0:0:0:
448,192,116204,1,0,0:0:0:0:
64,192,116260,1,0,0:0:0:0:
320,192,116316,1,0,0:0:0:0:
192,192,116373,1,0,0:0:0:0:
64,192,116373,1,0,0:0:0:0:
448,192,116429,1,0,0:0:0:0:
320,192,116486,1,0,0:0:0:0:
192,192,116542,1,0,0:0:0:0:
448,192,116599,1,0,0:0:0:0:
64,192,116655,1,0,0:0:0:0:
320,192,116711,1,0,0:0:0:0:
64,192,116768,1,0,0:0:0:0:
192,192,116824,1,0,0:0:0:0:
320,192,116824,1,0,0:0:0:0:
448,192,116881,1,0,0:0:0:0:
64,192,116937,1,0,0:0:0:0:
320,192,116994,1,0,0:0:0:0:
192,192,117049,1,0,0:0:0:0:
448,192,117106,1,0,0:0:0:0:
64,192,117162,1,0,0:0:0:0:
320,192,117219,1,0,0:0:0:0:
448,192,117275,1,0,0:0:0:0:
64,192,117275,1,0,0:0:0:0:
192,192,117331,1,0,0:0:0:0:
320,192,117388,1,0,0:0:0:0:
192,192,117444,1,0,0:0:0:0:
448,192,117501,1,0,0:0:0:0:
320,192,117501,1,0,0:0:0:0:
64,192,117557,1,0,0:0:0:0:
192,192,117614,1,0,0:0:0:0:
448,192,117670,1,0,0:0:0:0:
320,192,117726,1,0,0:0:0:0:
192,192,117726,1,0,0:0:0:0:
64,192,117783,1,0,0:0:0:0:
448,192,117839,1,0,0:0:0:0:
192,192,117896,1,0,0:0:0:0:
320,192,117952,1,0,0:0:0:0:
64,192,118009,1,0,0:0:0:0:
448,192,118065,1,0,0:0:0:0:
64,192,118121,1,0,0:0:0:0:
192,192,118177,1,0,0:0:0:0:
448,192,118177,1,0,0:0:0:0:
320,192,118234,1,0,0:0:0:0:
192,192,118290,1,0,0:0:0:0:
448,192,118346,1,0,0:0:0:0:
320,192,118403,1,0,0:0:0:0:
64,192,118459,1,0,0:0:0:0:
448,192,118516,1,0,0:0:0:0:
64,192,118572,1,0,0:0:0:0:
192,192,118629,1,0,0:0:0:0:
448,192,118629,1,0,0:0:0:0:
320,192,118685,1,0,0:0:0:0:
64,192,118741,1,0,0:0:0:0:
320,192,118798,1,0,0:0:0:0:
64,192,118854,1,0,0:0:0:0:
448,192,118854,1,0,0:0:0:0:
192,192,118911,1,0,0:0:0:0:
320,192,118967,1,0,0:0:0:0:
448,192,118967,1,0,0:0:0:0:
64,192,119024,1,0,0:0:0:0:
192,192,119080,1,0,0:0:0:0:
64,192,119136,1,0,0:0:0:0:
448,192,119192,1,0,0:0:0:0:
320,192,119249,1,0,0:0:0:0:
192,192,119305,1,0,0:0:0:0:
64,192,119305,1,0,0:0:0:0:
320,192,119361,1,0,0:0:0:0:
64,192,119418,1,0,0:0:0:0:
448,192,119474,1,0,0:0:0:0:
320,192,119531,1,0,0:0:0:0:
192,192,119531,1,0,0:0:0:0:
64,192,119587,1,0,0:0:0:0:
448,192,119644,1,0,0:0:0:0:
192,192,119700,1,0,0:0:0:0:
320,192,119756,1,0,0:0:0:0:
64,192,119813,1,0,0:0:0:0:
448,192,119869,1,0,0:0:0:0:
192,192,119926,1,0,0:0:0:0:
320,192,119982,1,0,0:0:0:0:
448,192,119982,1,0,0:0:0:0:
64,192,120039,1,0,0:0:0:0:
192,192,120095,1,0,0:0:0:0:
320,192,120151,1,0,0:0:0:0:
192,192,120208,1,0,0:0:0:0:
448,192,120264,1,0,0:0:0:0:
320,192,120320,1,0,0:0:0:0:
64,192,120376,1,0,0:0:0:0:
192,192,120433,1,0,0:0:0:0:
448,192,120433,1,0,0:0:0:0:
320,192,120489,1,0,0:0:0:0:
192,192,120546,1,0,0:0:0:0:
320,192,120602,1,0,0:0:0:0:
64,192,120659,1,0,0:0:0:0:
448,192,120715,1,0,0:0:0:0:
64,192,120771,1,0,0:0:0:0:
192,192,120828,1,0,0:0:0:0:
320,192,120884,1,0,0:0:0:0:
448,192,120884,1,0,0:0:0:0:
64,192,120941,1,0,0:0:0:0:
320,192,120997,1,0,0:0:0:0:
192,192,121054,1,0,0:0:0:0:
448,192,121110,1,0,0:0:0:0:
64,192,121110,1,0,0:0:0:0:
320,192,121166,1,0,0:0:0:0:
64,192,121223,1,0,0:0:0:0:
192,192,121279,1,0,0:0:0:0:
448,192,121335,1,0,0:0:0:0:
320,192,121335,1,0,0:0:0:0:
192,192,121391,1,0,0:0:0:0:
448,192,121448,1,0,0:0:0:0:
64,192,121504,1,0,0:0:0:0:
320,192,121561,1,0,0:0:0:0:
192,192,121617,1,0,0:0:0:0:
448,192,121674,1,0,0:0:0:0:
192,192,121730,1,0,0:0:0:0:
320,192,121786,1,0,0:0:0:0:
448,192,121786,1,0,0:0:0:0:
64,192,121843,1,0,0:0:0:0:
192,192,121899,1,0,0:0:0:0:
448,192,121956,1,0,0:0:0:0:
64,192,122012,1,0,0:0:0:0:
320,192,122069,1,0,0:0:0:0:
64,192,122125,1,0,0:0:0:0:
192,192,122181,1,0,0:0:0:0:
320,192,122238,1,0,0:0:0:0:
448,192,122238,1,0,0:0:0:0:
192,192,122294,1,0,0:0:0:0:
320,192,122351,1,0,0:0:0:0:
64,192,122406,1,0,0:0:0:0:
448,192,122463,1,0,0:0:0:0:
192,192,122519,1,0,0:0:0:0:
320,192,122576,1,0,0:0:0:0:
192,192,122632,1,0,0:0:0:0:
64,192,122689,1,0,0:0:0:0:
448,192,122689,1,0,0:0:0:0:
320,192,122745,1,0,0:0:0:0:
192,192,122801,1,0,0:0:0:0:
320,192,122858,1,0,0:0:0:0:
192,192,122914,1,0,0:0:0:0:
64,192,122914,1,0,0:0:0:0:
448,192,122971,1,0,0:0:0:0:
64,192,123027,1,0,0:0:0:0:
320,192,123084,1,0,0:0:0:0:
192,192,123140,1,0,0:0:0:0:
64,192,123140,1,0,0:0:0:0:
448,192,123196,1,0,0:0:0:0:
192,192,123253,1,0,0:0:0:0:
320,192,123309,1,0,0:0:0:0:
64,192,123366,1,0,0:0:0:0:
448,192,123422,1,0,0:0:0:0:
192,192,123478,1,0,0:0:0:0:
320,192,123534,1,0,0:0:0:0:
192,192,123591,1,0,0:0:0:0:
64,192,123591,1,0,0:0:0:0:
448,192,123647,1,0,0:0:0:0:
64,192,123704,1,0,0:0:0:0:
320,192,123760,1,0,0:0:0:0:
192,192,123816,1,0,0:0:0:0:
448,192,123873,1,0,0:0:0:0:
64,192,123929,1,0,0:0:0:0:
448,192,123986,1,0,0:0:0:0:
192,192,124042,1,0,0:0:0:0:
64,192,124042,1,0,0:0:0:0:
320,192,124099,1,0,0:0:0:0:
192,192,124155,1,0,0:0:0:0:
448,192,124211,1,0,0:0:0:0:
64,192,124268,1,0,0:0:0:0:
192,192,124324,1,0,0:0:0:0:
320,192,124381,1,0,0:0:0:0:
64,192,124437,1,0,0:0:0:0:
192,192,124494,1,0,0:0:0:0:
320,192,124494,1,0,0:0:0:0:
448,192,124549,1,0,0:0:0:0:
192,192,124606,1,0,0:0:0:0:
448,192,124662,1,0,0:0:0:0:
320,192,124719,1,0,0:0:0:0:
64,192,124719,1,0,0:0:0:0:
192,192,124775,1,0,0:0:0:0:
448,192,124831,1,0,0:0:0:0:
320,192,124888,1,0,0:0:0:0:
64,192,124944,1,0,0:0:0:0:
192,192,124944,1,0,0:0:0:0:
448,192,125001,1,0,0:0:0:0:
192,192,125057,1,0,0:0:0:0:
320,192,125114,1,0,0:0:0:0:
64,192,125170,1,0,0:0:0:0:
448,192,125226,1,0,0:0:0:0:
192,192,125283,1,0,0:0:0:0:
320,192,125339,1,0,0:0:0:0:
192,192,125396,1,0,0:0:0:0:
64,192,125396,1,0,0:0:0:0:
448,192,125452,1,0,0:0:0:0:
64,192,125509,1,0,0:0:0:0:
448,192,125565,1,0,0:0:0:0:
320,192,125621,1,0,0:0:0:0:
192,192,125677,1,0,0:0:0:0:
320,192,125734,1,0,0:0:0:0:
192,192,125790,1,0,0:0:0:0:
64,192,125846,1,0,0:0:0:0:
448,192,125846,1,0,0:0:0:0:
192,192,125903,1,0,0:0:0:0:
320,192,125959,1,0,0:0:0:0:
64,192,126016,1,0,0:0:0:0:
448,192,126072,1,0,0:0:0:0:
320,192,126072,1,0,0:0:0:0:
192,192,126129,1,0,0:0:0:0:
64,192,126129,1,0,0:0:0:0:
448,192,126185,1,0,0:0:0:0:
320,192,126185,1,0,0:0:0:0:
192,192,126241,1,0,0:0:0:0:
64,192,126241,1,0,0:0:0:0:
320,192,126298,1,0,0:0:0:0:
192,192,126354,1,0,0:0:0:0:
64,192,126411,1,0,0:0:0:0:
320,192,126467,1,0,0:0:0:0:
64,192,126524,128,0,126636:0:0:0:0:
192,192,126524,128,0,126636:0:0:0:0:
448,192,126524,128,0,127426:0:0:0:0:
320,192,127426,128,0,127539:0:0:0:0:
64,192,127426,128,0,127539:0:0:0:0:
192,192,127426,128,0,127876:0:0:0:0:
448,192,127876,128,0,128328:0:0:0:0:
64,192,128328,128,0,128441:0:0:0:0:
192,192,128328,128,0,128441:0:0:0:0:
320,192,128328,128,0,128779:0:0:0:0:
64,192,128779,128,0,129230:0:0:0:0:
192,192,129230,128,0,129343:0:0:0:0:
320,192,129230,128,0,129343:0:0:0:0:
448,192,129230,128,0,129681:0:0:0:0:
64,192,129681,128,0,130132:0:0:0:0:
192,192,130132,128,0,130245:0:0:0:0:
448,192,130132,128,0,130245:0:0:0:0:
320,192,130132,128,0,130584:0:0:0:0:
64,192,131034,128,0,131429:0:0:0:0:
192,192,131034,128,0,131429:0:0:0:0:
320,192,131034,128,0,131486:0:0:0:0:
64,192,131486,128,0,131937:0:0:0:0:
448,192,131486,128,0,131881:0:0:0:0:
192,192,131486,128,0,131881:0:0:0:0:
192,192,131937,128,0,132049:0:0:0:0:
320,192,131937,128,0,132049:0:0:0:0:
448,192,131937,128,0,132388:0:0:0:0:
64,192,132839,128,0,133234:0:0:0:0:
192,192,132839,128,0,133234:0:0:0:0:
448,192,132839,128,0,133290:0:0:0:0:
64,192,133290,1,0,0:0:0:0:
192,192,133290,1,0,0:0:0:0:
320,192,133290,1,0,0:0:0:0:
320,192,133403,1,0,0:0:0:0:
64,192,133403,1,0,0:0:0:0:
320,192,133516,1,0,0:0:0:0:
448,192,133516,1,0,0:0:0:0:
192,192,133572,1,0,0:0:0:0:
64,192,133572,1,0,0:0:0:0:
320,192,133629,1,0,0:0:0:0:
448,192,133629,1,0,0:0:0:0:
192,192,133685,1,0,0:0:0:0:
64,192,133685,1,0,0:0:0:0:
320,192,133741,1,0,0:0:0:0:
192,192,133798,1,0,0:0:0:0:
448,192,133854,1,0,0:0:0:0:
64,192,133911,1,0,0:0:0:0:
192,192,133967,1,0,0:0:0:0:
448,192,133967,1,0,0:0:0:0:
320,192,134024,1,0,0:0:0:0:
64,192,134080,1,0,0:0:0:0:
192,192,134136,1,0,0:0:0:0:
448,192,134192,1,0,0:0:0:0:
64,192,134249,1,0,0:0:0:0:
320,192,134305,1,0,0:0:0:0:
192,192,134361,1,0,0:0:0:0:
320,192,134418,1,0,0:0:0:0:
448,192,134418,1,0,0:0:0:0:
64,192,134474,1,0,0:0:0:0:
448,192,134531,1,0,0:0:0:0:
64,192,134587,1,0,0:0:0:0:
192,192,134644,1,0,0:0:0:0:
320,192,134700,1,0,0:0:0:0:
192,192,134756,1,0,0:0:0:0:
320,192,134813,1,0,0:0:0:0:
64,192,134869,1,0,0:0:0:0:
448,192,134869,1,0,0:0:0:0:
192,192,134926,1,0,0:0:0:0:
320,192,134982,1,0,0:0:0:0:
64,192,135039,1,0,0:0:0:0:
448,192,135095,1,0,0:0:0:0:
320,192,135151,1,0,0:0:0:0:
192,192,135208,1,0,0:0:0:0:
64,192,135264,1,0,0:0:0:0:
192,192,135320,1,0,0:0:0:0:
448,192,135320,1,0,0:0:0:0:
320,192,135376,1,0,0:0:0:0:
192,192,135433,1,0,0:0:0:0:
64,192,135489,1,0,0:0:0:0:
320,192,135546,1,0,0:0:0:0:
192,192,135602,1,0,0:0:0:0:
448,192,135659,1,0,0:0:0:0:
192,192,135715,1,0,0:0:0:0:
64,192,135771,1,0,0:0:0:0:
448,192,135771,1,0,0:0:0:0:
320,192,135828,1,0,0:0:0:0:
192,192,135884,1,0,0:0:0:0:
320,192,135941,1,0,0:0:0:0:
64,192,135997,1,0,0:0:0:0:
192,192,136054,1,0,0:0:0:0:
320,192,136110,1,0,0:0:0:0:
192,192,136166,1,0,0:0:0:0:
320,192,136223,1,0,0:0:0:0:
448,192,136223,1,0,0:0:0:0:
64,192,136279,1,0,0:0:0:0:
192,192,136335,1,0,0:0:0:0:
448,192,136391,1,0,0:0:0:0:
192,192,136448,1,0,0:0:0:0:
320,192,136504,1,0,0:0:0:0:
64,192,136561,1,0,0:0:0:0:
448,192,136617,1,0,0:0:0:0:
320,192,136674,1,0,0:0:0:0:
192,192,136674,1,0,0:0:0:0:
64,192,136730,1,0,0:0:0:0:
320,192,136786,1,0,0:0:0:0:
64,192,136843,1,0,0:0:0:0:
192,192,136899,128,0,137069:0:0:0:0:
320,192,136899,128,0,137069:0:0:0:0:
448,192,136899,128,0,137125:0:0:0:0:
64,192,137125,128,0,137351:0:0:0:0:
192,192,137125,128,0,137294:0:0:0:0:
320,192,137125,128,0,137294:0:0:0:0:
192,192,137351,1,0,0:0:0:0:
448,192,137351,1,0,0:0:0:0:
320,192,137351,1,0,0:0:0:0:
64,192,137406,1,0,0:0:0:0:
448,192,137463,1,0,0:0:0:0:
192,192,137519,1,0,0:0:0:0:
320,192,137576,1,0,0:0:0:0:
64,192,137576,1,0,0:0:0:0:
448,192,137632,1,0,0:0:0:0:
192,192,137689,1,0,0:0:0:0:
320,192,137745,1,0,0:0:0:0:
64,192,137801,1,0,0:0:0:0:
448,192,137858,1,0,0:0:0:0:
192,192,137914,1,0,0:0:0:0:
320,192,137971,1,0,0:0:0:0:
192,192,138027,1,0,0:0:0:0:
64,192,138027,1,0,0:0:0:0:
448,192,138084,1,0,0:0:0:0:
64,192,138140,1,0,0:0:0:0:
320,192,138196,1,0,0:0:0:0:
192,192,138253,1,0,0:0:0:0:
448,192,138309,1,0,0:0:0:0:
64,192,138366,1,0,0:0:0:0:
320,192,138422,1,0,0:0:0:0:
192,192,138478,1,0,0:0:0:0:
64,192,138478,1,0,0:0:0:0:
320,192,138534,1,0,0:0:0:0:
192,192,138591,1,0,0:0:0:0:
448,192,138647,1,0,0:0:0:0:
64,192,138704,1,0,0:0:0:0:
192,192,138704,1,0,0:0:0:0:
320,192,138760,1,0,0:0:0:0:
448,192,138760,1,0,0:0:0:0:
192,192,138816,1,0,0:0:0:0:
64,192,138816,1,0,0:0:0:0:
320,192,138873,1,0,0:0:0:0:
448,192,138873,1,0,0:0:0:0:
64,192,138929,1,0,0:0:0:0:
192,192,138986,1,0,0:0:0:0:
320,192,139042,1,0,0:0:0:0:
192,192,139099,1,0,0:0:0:0:
320,192,139155,1,0,0:0:0:0:
448,192,139155,1,0,0:0:0:0:
64,192,139155,1,0,0:0:0:0:
192,192,139305,1,0,0:0:0:0:
64,192,139305,1,0,0:0:0:0:
64,192,139381,1,0,0:0:0:0:
448,192,139381,1,0,0:0:0:0:
320,192,139381,1,0,0:0:0:0:
192,192,139494,1,0,0:0:0:0:
320,192,139494,1,0,0:0:0:0:
64,192,139606,1,0,0:0:0:0:
192,192,139719,1,0,0:0:0:0:
448,192,139719,1,0,0:0:0:0:
320,192,139831,1,0,0:0:0:0:
192,192,139831,1,0,0:0:0:0:
64,192,139831,1,0,0:0:0:0:
64,192,139944,1,0,0:0:0:0:
448,192,139944,1,0,0:0:0:0:
192,192,140057,1,0,0:0:0:0:
320,192,140057,1,0,0:0:0:0:
448,192,140057,1,0,0:0:0:0:
64,192,140170,5,0,0:0:0:0:
192,192,140283,1,0,0:0:0:0:
448,192,140283,1,0,0:0:0:0:
320,192,140396,1,0,0:0:0:0:
192,192,140396,1,0,0:0:0:0:
64,192,140396,1,0,0:0:0:0:
448,192,140509,1,0,0:0:0:0:
64,192,140621,1,0,0:0:0:0:
192,192,140621,1,0,0:0:0:0:
64,192,140734,1,0,0:0:0:0:
320,192,140734,1,0,0:0:0:0:
448,192,140734,1,0,0:0:0:0:
192,192,140846,1,0,0:0:0:0:
320,192,140846,1,0,0:0:0:0:
448,192,140959,5,0,0:0:0:0:
64,192,140959,1,0,0:0:0:0:
192,192,141016,1,0,0:0:0:0:
320,192,141072,1,0,0:0:0:0:
192,192,141129,1,0,0:0:0:0:
448,192,141185,1,0,0:0:0:0:
64,192,141241,1,0,0:0:0:0:
320,192,141298,1,0,0:0:0:0:
64,192,141354,1,0,0:0:0:0:
448,192,141411,1,0,0:0:0:0:
192,192,141467,1,0,0:0:0:0:
320,192,141524,1,0,0:0:0:0:
192,192,141580,1,0,0:0:0:0:
448,192,141636,1,0,0:0:0:0:
64,192,141692,1,0,0:0:0:0:
320,192,141749,1,0,0:0:0:0:
64,192,141805,1,0,0:0:0:0:
192,192,141861,1,0,0:0:0:0:
448,192,141861,1,0,0:0:0:0:
320,192,141918,1,0,0:0:0:0:
64,192,141974,1,0,0:0:0:0:
320,192,142031,1,0,0:0:0:0:
192,192,142087,1,0,0:0:0:0:
448,192,142144,1,0,0:0:0:0:
64,192,142200,1,0,0:0:0:0:
448,192,142256,1,0,0:0:0:0:
64,192,142313,1,0,0:0:0:0:
192,192,142351,1,0,0:0:0:0:
320,192,142388,1,0,0:0:0:0:
448,192,142426,1,0,0:0:0:0:
192,192,142463,1,0,0:0:0:0:
320,192,142501,1,0,0:0:0:0:
64,192,142539,1,0,0:0:0:0:
192,192,142576,1,0,0:0:0:0:
320,192,142614,1,0,0:0:0:0:
448,192,142651,1,0,0:0:0:0:
192,192,142689,1,0,0:0:0:0:
320,192,142726,1,0,0:0:0:0:
64,192,142764,1,0,0:0:0:0:
448,192,142764,1,0,0:0:0:0:
192,192,142820,1,0,0:0:0:0:
320,192,142876,1,0,0:0:0:0:
192,192,142933,1,0,0:0:0:0:
448,192,142989,1,0,0:0:0:0:
64,192,143046,1,0,0:0:0:0:
320,192,143102,1,0,0:0:0:0:
64,192,143159,1,0,0:0:0:0:
448,192,143215,1,0,0:0:0:0:
192,192,143271,1,0,0:0:0:0:
320,192,143328,1,0,0:0:0:0:
192,192,143384,1,0,0:0:0:0:
448,192,143441,1,0,0:0:0:0:
64,192,143497,1,0,0:0:0:0:
320,192,143554,1,0,0:0:0:0:
64,192,143610,1,0,0:0:0:0:
448,192,143666,1,0,0:0:0:0:
320,192,143666,1,0,0:0:0:0:
64,192,143723,1,0,0:0:0:0:
448,192,143779,1,0,0:0:0:0:
192,192,143835,1,0,0:0:0:0:
320,192,143891,1,0,0:0:0:0:
64,192,143948,1,0,0:0:0:0:
320,192,144004,1,0,0:0:0:0:
192,192,144061,1,0,0:0:0:0:
64,192,144117,1,0,0:0:0:0:
192,192,144155,1,0,0:0:0:0:
320,192,144192,1,0,0:0:0:0:
448,192,144230,1,0,0:0:0:0:
192,192,144268,1,0,0:0:0:0:
320,192,144305,1,0,0:0:0:0:
64,192,144343,1,0,0:0:0:0:
192,192,144381,1,0,0:0:0:0:
320,192,144418,1,0,0:0:0:0:
448,192,144456,1,0,0:0:0:0:
192,192,144494,1,0,0:0:0:0:
320,192,144531,1,0,0:0:0:0:
64,192,144569,1,0,0:0:0:0:
448,192,144569,1,0,0:0:0:0:
192,192,144625,1,0,0:0:0:0:
320,192,144681,1,0,0:0:0:0:
192,192,144738,1,0,0:0:0:0:
448,192,144794,1,0,0:0:0:0:
64,192,144851,1,0,0:0:0:0:
320,192,144906,1,0,0:0:0:0:
64,192,144963,1,0,0:0:0:0:
448,192,145019,1,0,0:0:0:0:
192,192,145076,1,0,0:0:0:0:
320,192,145132,1,0,0:0:0:0:
192,192,145189,1,0,0:0:0:0:
448,192,145245,1,0,0:0:0:0:
64,192,145301,1,0,0:0:0:0:
320,192,145358,1,0,0:0:0:0:
64,192,145414,1,0,0:0:0:0:
448,192,145471,1,0,0:0:0:0:
192,192,145471,1,0,0:0:0:0:
320,192,145527,1,0,0:0:0:0:
64,192,145584,1,0,0:0:0:0:
320,192,145640,1,0,0:0:0:0:
192,192,145696,1,0,0:0:0:0:
448,192,145753,1,0,0:0:0:0:
64,192,145809,1,0,0:0:0:0:
448,192,145866,1,0,0:0:0:0:
64,192,145922,1,0,0:0:0:0:
192,192,145959,1,0,0:0:0:0:
320,192,145997,1,0,0:0:0:0:
448,192,146034,1,0,0:0:0:0:
192,192,146072,1,0,0:0:0:0:
320,192,146110,1,0,0:0:0:0:
64,192,146147,1,0,0:0:0:0:
192,192,146185,1,0,0:0:0:0:
320,192,146223,1,0,0:0:0:0:
448,192,146260,1,0,0:0:0:0:
192,192,146298,1,0,0:0:0:0:
320,192,146335,1,0,0:0:0:0:
64,192,146373,1,0,0:0:0:0:
448,192,146373,1,0,0:0:0:0:
192,192,146429,1,0,0:0:0:0:
320,192,146486,1,0,0:0:0:0:
192,192,146542,1,0,0:0:0:0:
448,192,146599,1,0,0:0:0:0:
64,192,146655,1,0,0:0:0:0:
320,192,146711,1,0,0:0:0:0:
64,192,146768,1,0,0:0:0:0:
448,192,146824,1,0,0:0:0:0:
192,192,146881,1,0,0:0:0:0:
320,192,146937,1,0,0:0:0:0:
192,192,146994,1,0,0:0:0:0:
448,192,147049,1,0,0:0:0:0:
64,192,147106,1,0,0:0:0:0:
320,192,147162,1,0,0:0:0:0:
64,192,147219,1,0,0:0:0:0:
192,192,147275,1,0,0:0:0:0:
448,192,147275,1,0,0:0:0:0:
320,192,147331,1,0,0:0:0:0:
64,192,147388,1,0,0:0:0:0:
192,192,147388,1,0,0:0:0:0:
320,192,147444,1,0,0:0:0:0:
448,192,147444,1,0,0:0:0:0:
192,192,147501,1,0,0:0:0:0:
64,192,147501,1,0,0:0:0:0:
320,192,147557,1,0,0:0:0:0:
448,192,147557,1,0,0:0:0:0:
64,192,147614,1,0,0:0:0:0:
192,192,147670,1,0,0:0:0:0:
320,192,147726,1,0,0:0:0:0:
448,192,147726,1,0,0:0:0:0:
64,192,147783,1,0,0:0:0:0:
320,192,147839,1,0,0:0:0:0:
192,192,147896,1,0,0:0:0:0:
448,192,147952,1,0,0:0:0:0:
320,192,148009,1,0,0:0:0:0:
192,192,148065,1,0,0:0:0:0:
64,192,148121,1,0,0:0:0:0:
192,192,148177,1,0,0:0:0:0:
320,192,148177,1,0,0:0:0:0:
448,192,148234,1,0,0:0:0:0:
64,192,148290,1,0,0:0:0:0:
448,192,148346,1,0,0:0:0:0:
64,192,148403,1,0,0:0:0:0:
320,192,148403,1,0,0:0:0:0:
192,192,148459,1,0,0:0:0:0:
448,192,148516,1,0,0:0:0:0:
192,192,148572,1,0,0:0:0:0:
320,192,148629,1,0,0:0:0:0:
64,192,148685,1,0,0:0:0:0:
448,192,148741,1,0,0:0:0:0:
64,192,148798,1,0,0:0:0:0:
320,192,148854,1,0,0:0:0:0:
192,192,148854,1,0,0:0:0:0:
448,192,148911,1,0,0:0:0:0:
64,192,148967,1,0,0:0:0:0:
448,192,149024,1,0,0:0:0:0:
192,192,149080,1,0,0:0:0:0:
320,192,149136,1,0,0:0:0:0:
64,192,149192,1,0,0:0:0:0:
320,192,149249,1,0,0:0:0:0:
64,192,149305,1,0,0:0:0:0:
448,192,149305,1,0,0:0:0:0:
192,192,149361,1,0,0:0:0:0:
320,192,149418,1,0,0:0:0:0:
192,192,149474,1,0,0:0:0:0:
448,192,149531,1,0,0:0:0:0:
320,192,149569,1,0,0:0:0:0:
192,192,149606,1,0,0:0:0:0:
64,192,149644,1,0,0:0:0:0:
320,192,149681,1,0,0:0:0:0:
192,192,149719,1,0,0:0:0:0:
448,192,149756,1,0,0:0:0:0:
320,192,149794,1,0,0:0:0:0:
192,192,149831,1,0,0:0:0:0:
64,192,149869,1,0,0:0:0:0:
320,192,149906,1,0,0:0:0:0:
192,192,149944,1,0,0:0:0:0:
64,192,149982,1,0,0:0:0:0:
448,192,149982,1,0,0:0:0:0:
320,192,150039,1,0,0:0:0:0:
192,192,150095,1,0,0:0:0:0:
320,192,150151,1,0,0:0:0:0:
448,192,150208,1,0,0:0:0:0:
192,192,150208,1,0,0:0:0:0:
64,192,150264,1,0,0:0:0:0:
320,192,150320,1,0,0:0:0:0:
64,192,150376,1,0,0:0:0:0:
448,192,150433,1,0,0:0:0:0:
192,192,150489,1,0,0:0:0:0:
320,192,150546,1,0,0:0:0:0:
192,192,150602,1,0,0:0:0:0:
64,192,150659,1,0,0:0:0:0:
320,192,150659,1,0,0:0:0:0:
448,192,150715,1,0,0:0:0:0:
192,192,150771,1,0,0:0:0:0:
448,192,150828,1,0,0:0:0:0:
64,192,150884,1,0,0:0:0:0:
320,192,150941,1,0,0:0:0:0:
192,192,150997,1,0,0:0:0:0:
320,192,151054,1,0,0:0:0:0:
448,192,151110,1,0,0:0:0:0:
64,192,151110,1,0,0:0:0:0:
192,192,151166,1,0,0:0:0:0:
320,192,151223,1,0,0:0:0:0:
192,192,151279,1,0,0:0:0:0:
448,192,151335,1,0,0:0:0:0:
320,192,151373,1,0,0:0:0:0:
192,192,151411,1,0,0:0:0:0:
64,192,151448,1,0,0:0:0:0:
320,192,151486,1,0,0:0:0:0:
192,192,151524,1,0,0:0:0:0:
448,192,151561,1,0,0:0:0:0:
320,192,151599,1,0,0:0:0:0:
192,192,151636,1,0,0:0:0:0:
64,192,151674,1,0,0:0:0:0:
320,192,151711,1,0,0:0:0:0:
192,192,151749,1,0,0:0:0:0:
448,192,151786,1,0,0:0:0:0:
64,192,151786,1,0,0:0:0:0:
320,192,151843,1,0,0:0:0:0:
192,192,151899,1,0,0:0:0:0:
320,192,151956,1,0,0:0:0:0:
192,192,152012,1,0,0:0:0:0:
448,192,152012,1,0,0:0:0:0:
64,192,152069,1,0,0:0:0:0:
320,192,152125,1,0,0:0:0:0:
64,192,152181,1,0,0:0:0:0:
448,192,152238,1,0,0:0:0:0:
192,192,152294,1,0,0:0:0:0:
320,192,152351,1,0,0:0:0:0:
192,192,152406,1,0,0:0:0:0:
64,192,152463,1,0,0:0:0:0:
320,192,152463,1,0,0:0:0:0:
448,192,152519,1,0,0:0:0:0:
64,192,152576,1,0,0:0:0:0:
448,192,152632,1,0,0:0:0:0:
192,192,152689,1,0,0:0:0:0:
320,192,152745,1,0,0:0:0:0:
64,192,152801,1,0,0:0:0:0:
320,192,152858,1,0,0:0:0:0:
192,192,152914,1,0,0:0:0:0:
448,192,152914,1,0,0:0:0:0:
64,192,152971,1,0,0:0:0:0:
320,192,153027,1,0,0:0:0:0:
64,192,153084,1,0,0:0:0:0:
320,192,153140,1,0,0:0:0:0:
448,192,153140,1,0,0:0:0:0:
192,192,153196,1,0,0:0:0:0:
64,192,153196,1,0,0:0:0:0:
320,192,153253,1,0,0:0:0:0:
448,192,153253,1,0,0:0:0:0:
192,192,153309,1,0,0:0:0:0:
64,192,153309,1,0,0:0:0:0:
320,192,153366,1,0,0:0:0:0:
192,192,153422,1,0,0:0:0:0:
64,192,153478,1,0,0:0:0:0:
448,192,153506,1,0,0:0:0:0:
320,192,153534,1,0,0:0:0:0:
192,192,153591,1,0,0:0:0:0:
448,192,153647,1,0,0:0:0:0:
64,192,153704,1,0,0:0:0:0:
448,192,153760,1,0,0:0:0:0:
192,192,153816,1,0,0:0:0:0:
320,192,153816,1,0,0:0:0:0:
64,192,153873,1,0,0:0:0:0:
448,192,153929,1,0,0:0:0:0:
320,192,153929,1,0,0:0:0:0:
64,192,153986,1,0,0:0:0:0:
192,192,154042,1,0,0:0:0:0:
448,192,154042,1,0,0:0:0:0:
320,192,154099,1,0,0:0:0:0:
192,192,154155,1,0,0:0:0:0:
64,192,154155,1,0,0:0:0:0:
320,192,154211,1,0,0:0:0:0:
64,192,154268,1,0,0:0:0:0:
448,192,154268,1,0,0:0:0:0:
192,192,154324,1,0,0:0:0:0:
320,192,154381,1,0,0:0:0:0:
448,192,154381,1,0,0:0:0:0:
192,192,154437,1,0,0:0:0:0:
64,192,154494,1,0,0:0:0:0:
320,192,154494,1,0,0:0:0:0:
448,192,154549,1,0,0:0:0:0:
192,192,154606,1,0,0:0:0:0:
64,192,154606,1,0,0:0:0:0:
448,192,154662,1,0,0:0:0:0:
320,192,154662,1,0,0:0:0:0:
192,192,154719,1,0,0:0:0:0:
64,192,154719,1,0,0:0:0:0:
320,192,154775,1,0,0:0:0:0:
448,192,154775,1,0,0:0:0:0:
64,192,154831,1,0,0:0:0:0:
192,192,154888,1,0,0:0:0:0:
448,192,154944,1,0,0:0:0:0:
64,192,154944,1,0,0:0:0:0:
192,192,154982,1,0,0:0:0:0:
320,192,155019,1,0,0:0:0:0:
448,192,155057,1,0,0:0:0:0:
192,192,155095,1,0,0:0:0:0:
320,192,155132,1,0,0:0:0:0:
64,192,155170,1,0,0:0:0:0:
192,192,155208,1,0,0:0:0:0:
320,192,155245,1,0,0:0:0:0:
448,192,155283,1,0,0:0:0:0:
192,192,155320,1,0,0:0:0:0:
320,192,155358,1,0,0:0:0:0:
448,192,155396,1,0,0:0:0:0:
64,192,155396,1,0,0:0:0:0:
192,192,155452,1,0,0:0:0:0:
320,192,155509,1,0,0:0:0:0:
192,192,155565,1,0,0:0:0:0:
448,192,155621,1,0,0:0:0:0:
64,192,155621,1,0,0:0:0:0:
320,192,155677,1,0,0:0:0:0:
192,192,155734,1,0,0:0:0:0:
320,192,155790,1,0,0:0:0:0:
64,192,155846,1,0,0:0:0:0:
448,192,155903,1,0,0:0:0:0:
192,192,155959,1,0,0:0:0:0:
448,192,156016,1,0,0:0:0:0:
192,192,156072,1,0,0:0:0:0:
320,192,156072,1,0,0:0:0:0:
64,192,156129,1,0,0:0:0:0:
448,192,156185,1,0,0:0:0:0:
64,192,156241,1,0,0:0:0:0:
320,192,156298,1,0,0:0:0:0:
192,192,156354,1,0,0:0:0:0:
448,192,156411,1,0,0:0:0:0:
192,192,156467,1,0,0:0:0:0:
320,192,156524,1,0,0:0:0:0:
64,192,156524,1,0,0:0:0:0:
448,192,156580,1,0,0:0:0:0:
192,192,156636,1,0,0:0:0:0:
448,192,156692,1,0,0:0:0:0:
64,192,156749,1,0,0:0:0:0:
192,192,156786,1,0,0:0:0:0:
320,192,156824,1,0,0:0:0:0:
448,192,156861,1,0,0:0:0:0:
192,192,156899,1,0,0:0:0:0:
320,192,156937,1,0,0:0:0:0:
64,192,156974,1,0,0:0:0:0:
192,192,157012,1,0,0:0:0:0:
320,192,157049,1,0,0:0:0:0:
448,192,157087,1,0,0:0:0:0:
192,192,157125,1,0,0:0:0:0:
320,192,157162,1,0,0:0:0:0:
64,192,157200,1,0,0:0:0:0:
448,192,157200,1,0,0:0:0:0:
192,192,157256,1,0,0:0:0:0:
320,192,157313,1,0,0:0:0:0:
192,192,157369,1,0,0:0:0:0:
64,192,157426,1,0,0:0:0:0:
320,192,157426,1,0,0:0:0:0:
448,192,157482,1,0,0:0:0:0:
64,192,157539,1,0,0:0:0:0:
448,192,157595,1,0,0:0:0:0:
192,192,157651,1,0,0:0:0:0:
320,192,157708,1,0,0:0:0:0:
64,192,157764,1,0,0:0:0:0:
320,192,157820,1,0,0:0:0:0:
192,192,157876,1,0,0:0:0:0:
448,192,157876,1,0,0:0:0:0:
64,192,157933,1,0,0:0:0:0:
320,192,157989,1,0,0:0:0:0:
64,192,158046,1,0,0:0:0:0:
448,192,158102,1,0,0:0:0:0:
192,192,158159,1,0,0:0:0:0:
320,192,158215,1,0,0:0:0:0:
192,192,158271,1,0,0:0:0:0:
64,192,158328,1,0,0:0:0:0:
320,192,158328,1,0,0:0:0:0:
448,192,158384,1,0,0:0:0:0:
192,192,158441,1,0,0:0:0:0:
448,192,158497,1,0,0:0:0:0:
64,192,158554,1,0,0:0:0:0:
192,192,158591,1,0,0:0:0:0:
320,192,158629,1,0,0:0:0:0:
448,192,158666,1,0,0:0:0:0:
192,192,158704,1,0,0:0:0:0:
320,192,158741,1,0,0:0:0:0:
64,192,158779,1,0,0:0:0:0:
192,192,158816,1,0,0:0:0:0:
320,192,158854,1,0,0:0:0:0:
448,192,158891,1,0,0:0:0:0:
192,192,158929,1,0,0:0:0:0:
320,192,158967,1,0,0:0:0:0:
64,192,159004,1,0,0:0:0:0:
448,192,159004,1,0,0:0:0:0:
192,192,159061,1,0,0:0:0:0:
320,192,159117,1,0,0:0:0:0:
192,192,159174,1,0,0:0:0:0:
64,192,159230,1,0,0:0:0:0:
320,192,159230,1,0,0:0:0:0:
448,192,159286,1,0,0:0:0:0:
64,192,159343,1,0,0:0:0:0:
448,192,159399,1,0,0:0:0:0:
192,192,159456,1,0,0:0:0:0:
320,192,159512,1,0,0:0:0:0:
64,192,159569,1,0,0:0:0:0:
320,192,159625,1,0,0:0:0:0:
192,192,159681,1,0,0:0:0:0:
448,192,159681,1,0,0:0:0:0:
64,192,159738,1,0,0:0:0:0:
320,192,159794,1,0,0:0:0:0:
64,192,159851,1,0,0:0:0:0:
448,192,159906,1,0,0:0:0:0:
192,192,159963,1,0,0:0:0:0:
320,192,160019,1,0,0:0:0:0:
192,192,160076,1,0,0:0:0:0:
320,192,160132,1,0,0:0:0:0:
64,192,160132,1,0,0:0:0:0:
448,192,160189,1,0,0:0:0:0:
64,192,160245,1,0,0:0:0:0:
448,192,160301,1,0,0:0:0:0:
192,192,160358,1,0,0:0:0:0:
320,192,160358,1,0,0:0:0:0:
64,192,160414,1,0,0:0:0:0:
448,192,160414,1,0,0:0:0:0:
320,192,160471,1,0,0:0:0:0:
192,192,160471,1,0,0:0:0:0:
64,192,160527,1,0,0:0:0:0:
448,192,160527,1,0,0:0:0:0:
320,192,160584,1,0,0:0:0:0:
192,192,160640,1,0,0:0:0:0:
64,192,160753,1,0,0:0:0:0:
192,192,160809,1,0,0:0:0:0:
320,192,160809,1,0,0:0:0:0:
448,192,160866,1,0,0:0:0:0:
192,192,160922,1,0,0:0:0:0:
64,192,160922,1,0,0:0:0:0:
448,192,160978,1,0,0:0:0:0:
320,192,161034,1,0,0:0:0:0:
192,192,161034,1,0,0:0:0:0:
64,192,161091,1,0,0:0:0:0:
192,192,161147,1,0,0:0:0:0:
448,192,161147,1,0,0:0:0:0:
64,192,161204,1,0,0:0:0:0:
320,192,161260,1,0,0:0:0:0:
192,192,161260,1,0,0:0:0:0:
448,192,161316,1,0,0:0:0:0:
64,192,161373,1,0,0:0:0:0:
320,192,161373,1,0,0:0:0:0:
448,192,161429,1,0,0:0:0:0:
192,192,161486,1,0,0:0:0:0:
320,192,161486,1,0,0:0:0:0:
64,192,161542,1,0,0:0:0:0:
192,192,161599,1,0,0:0:0:0:
448,192,161599,1,0,0:0:0:0:
64,192,161655,1,0,0:0:0:0:
320,192,161711,1,0,0:0:0:0:
192,192,161711,1,0,0:0:0:0:
448,192,161768,1,0,0:0:0:0:
320,192,161824,1,0,0:0:0:0:
64,192,161824,1,0,0:0:0:0:
448,192,161881,1,0,0:0:0:0:
192,192,161937,1,0,0:0:0:0:
64,192,161937,1,0,0:0:0:0:
320,192,161994,1,0,0:0:0:0:
192,192,162049,1,0,0:0:0:0:
64,192,162049,1,0,0:0:0:0:
320,192,162106,1,0,0:0:0:0:
64,192,162162,1,0,0:0:0:0:
192,192,162200,1,0,0:0:0:0:
320,192,162238,1,0,0:0:0:0:
448,192,162275,1,0,0:0:0:0:
192,192,162313,1,0,0:0:0:0:
320,192,162351,1,0,0:0:0:0:
64,192,162388,1,0,0:0:0:0:
192,192,162426,1,0,0:0:0:0:
320,192,162463,1,0,0:0:0:0:
448,192,162501,1,0,0:0:0:0:
192,192,162539,1,0,0:0:0:0:
320,192,162576,1,0,0:0:0:0:
448,192,162614,1,0,0:0:0:0:
64,192,162614,128,0,163065:0:0:0:0:
320,192,163065,128,0,163516:0:0:0:0:
64,192,163516,1,0,0:0:0:0:
448,192,163516,1,0,0:0:0:0:
192,192,163516,128,0,163967:0:0:0:0:
320,192,163967,128,0,164418:0:0:0:0:
448,192,164418,1,0,0:0:0:0:
192,192,164418,1,0,0:0:0:0:
64,192,164418,128,0,165095:0:0:0:0:
448,192,164869,1,0,0:0:0:0:
320,192,165095,128,0,165320:0:0:0:0:
448,192,165320,1,0,0:0:0:0:
64,192,165320,128,0,165771:0:0:0:0:
448,192,165546,1,0,0:0:0:0:
192,192,165602,1,0,0:0:0:0:
448,192,165659,1,0,0:0:0:0:
192,192,165715,1,0,0:0:0:0:
448,192,165771,1,0,0:0:0:0:
320,192,165771,128,0,166223:0:0:0:0:
448,192,166223,1,0,0:0:0:0:
64,192,166223,1,0,0:0:0:0:
192,192,166223,128,0,166899:0:0:0:0:
320,192,166674,1,0,0:0:0:0:
448,192,166899,128,0,167125:0:0:0:0:
64,192,166956,1,0,0:0:0:0:
320,192,167012,1,0,0:0:0:0:
64,192,167069,1,0,0:0:0:0:
192,192,167125,1,0,0:0:0:0:
320,192,167125,128,0,168027:0:0:0:0:
448,192,167351,1,0,0:0:0:0:
192,192,167463,1,0,0:0:0:0:
64,192,167463,1,0,0:0:0:0:
192,192,167576,1,0,0:0:0:0:
64,192,167576,1,0,0:0:0:0:
64,192,167801,1,0,0:0:0:0:
64,192,168027,1,0,0:0:0:0:
448,192,168027,1,0,0:0:0:0:
192,192,168027,128,0,168704:0:0:0:0:
448,192,168253,1,0,0:0:0:0:
320,192,168478,1,0,0:0:0:0:
448,192,168478,1,0,0:0:0:0:
448,192,168704,128,0,168929:0:0:0:0:
64,192,168816,1,0,0:0:0:0:
320,192,168816,1,0,0:0:0:0:
64,192,168929,1,0,0:0:0:0:
192,192,168929,128,0,169381:0:0:0:0:
64,192,169155,1,0,0:0:0:0:
448,192,169268,1,0,0:0:0:0:
320,192,169268,1,0,0:0:0:0:
64,192,169381,1,0,0:0:0:0:
320,192,169381,1,0,0:0:0:0:
448,192,169381,128,0,169831:0:0:0:0:
192,192,169831,1,0,0:0:0:0:
320,192,169831,1,0,0:0:0:0:
64,192,169831,128,0,170509:0:0:0:0:
320,192,170283,1,0,0:0:0:0:
320,192,170396,1,0,0:0:0:0:
448,192,170509,128,0,170734:0:0:0:0:
192,192,170565,1,0,0:0:0:0:
320,192,170621,1,0,0:0:0:0:
192,192,170677,1,0,0:0:0:0:
320,192,170734,1,0,0:0:0:0:
64,192,170734,128,0,171636:0:0:0:0:
192,192,170846,1,0,0:0:0:0:
192,192,170959,1,0,0:0:0:0:
320,192,171072,1,0,0:0:0:0:
448,192,171072,1,0,0:0:0:0:
192,192,171185,1,0,0:0:0:0:
448,192,171185,1,0,0:0:0:0:
320,192,171411,1,0,0:0:0:0:
192,192,171411,1,0,0:0:0:0:
192,192,171636,1,0,0:0:0:0:
320,192,171636,1,0,0:0:0:0:
448,192,171636,128,0,172313:0:0:0:0:
64,192,172087,1,0,0:0:0:0:
320,192,172087,1,0,0:0:0:0:
64,192,172313,128,0,172539:0:0:0:0:
320,192,172539,128,0,172989:0:0:0:0:
192,192,172539,1,0,0:0:0:0:
64,192,172876,1,0,0:0:0:0:
192,192,172876,1,0,0:0:0:0:
64,192,172989,1,0,0:0:0:0:
192,192,172989,128,0,173441:0:0:0:0:
64,192,173441,1,0,0:0:0:0:
320,192,173441,1,0,0:0:0:0:
448,192,173441,128,0,174117:0:0:0:0:
192,192,173666,1,0,0:0:0:0:
192,192,173891,1,0,0:0:0:0:
320,192,173891,1,0,0:0:0:0:
64,192,174117,128,0,174343:0:0:0:0:
320,192,174343,128,0,175245:0:0:0:0:
192,192,174343,1,0,0:0:0:0:
64,192,174681,1,0,0:0:0:0:
192,192,174681,1,0,0:0:0:0:
64,192,174794,1,0,0:0:0:0:
192,192,174794,1,0,0:0:0:0:
64,192,175019,1,0,0:0:0:0:
64,192,175245,1,0,0:0:0:0:
448,192,175245,1,0,0:0:0:0:
192,192,175245,128,0,175922:0:0:0:0:
320,192,175696,1,0,0:0:0:0:
448,192,175696,1,0,0:0:0:0:
448,192,175922,128,0,176147:0:0:0:0:
64,192,176034,1,0,0:0:0:0:
320,192,176034,1,0,0:0:0:0:
320,192,176147,1,0,0:0:0:0:
64,192,176147,128,0,176599:0:0:0:0:
192,192,176486,1,0,0:0:0:0:
320,192,176486,1,0,0:0:0:0:
192,192,176599,1,0,0:0:0:0:
320,192,176599,1,0,0:0:0:0:
448,192,176599,128,0,176994:0:0:0:0:
64,192,177049,1,0,0:0:0:0:
192,192,177049,1,0,0:0:0:0:
448,192,177049,128,0,177726:0:0:0:0:
320,192,177275,1,0,0:0:0:0:
320,192,177501,1,0,0:0:0:0:
192,192,177501,1,0,0:0:0:0:
64,192,177726,128,0,177952:0:0:0:0:
192,192,177839,1,0,0:0:0:0:
320,192,177839,1,0,0:0:0:0:
192,192,177952,1,0,0:0:0:0:
448,192,177952,1,0,0:0:0:0:
320,192,178065,1,0,0:0:0:0:
448,192,178065,1,0,0:0:0:0:
192,192,178121,1,0,0:0:0:0:
64,192,178121,1,0,0:0:0:0:
448,192,178177,1,0,0:0:0:0:
320,192,178177,1,0,0:0:0:0:
64,192,178234,1,0,0:0:0:0:
192,192,178234,1,0,0:0:0:0:
320,192,178290,1,0,0:0:0:0:
64,192,178346,1,0,0:0:0:0:
320,192,178403,1,0,0:0:0:0:
64,192,178459,1,0,0:0:0:0:
192,192,178516,1,0,0:0:0:0:
320,192,178572,1,0,0:0:0:0:
448,192,178629,1,0,0:0:0:0:
192,192,178685,1,0,0:0:0:0:
448,192,178741,1,0,0:0:0:0:
192,192,178798,1,0,0:0:0:0:
448,192,178854,1,0,0:0:0:0:
64,192,178854,1,0,0:0:0:0:
320,192,178911,1,0,0:0:0:0:
192,192,178967,1,0,0:0:0:0:
320,192,179024,1,0,0:0:0:0:
192,192,179080,1,0,0:0:0:0:
64,192,179080,1,0,0:0:0:0:
448,192,179136,1,0,0:0:0:0:
320,192,179192,1,0,0:0:0:0:
64,192,179249,1,0,0:0:0:0:
192,192,179305,1,0,0:0:0:0:
320,192,179361,1,0,0:0:0:0:
192,192,179418,1,0,0:0:0:0:
448,192,179474,1,0,0:0:0:0:
320,192,179531,1,0,0:0:0:0:
64,192,179531,1,0,0:0:0:0:
192,192,179587,1,0,0:0:0:0:
320,192,179644,1,0,0:0:0:0:
192,192,179700,1,0,0:0:0:0:
64,192,179756,1,0,0:0:0:0:
448,192,179813,1,0,0:0:0:0:
64,192,179869,1,0,0:0:0:0:
192,192,179926,1,0,0:0:0:0:
448,192,179982,1,0,0:0:0:0:
320,192,179982,1,0,0:0:0:0:
192,192,180039,1,0,0:0:0:0:
320,192,180095,1,0,0:0:0:0:
64,192,180151,1,0,0:0:0:0:
448,192,180208,1,0,0:0:0:0:
64,192,180264,1,0,0:0:0:0:
320,192,180320,1,0,0:0:0:0:
192,192,180376,1,0,0:0:0:0:
64,192,180433,1,0,0:0:0:0:
448,192,180433,1,0,0:0:0:0:
320,192,180489,1,0,0:0:0:0:
64,192,180546,1,0,0:0:0:0:
192,192,180602,1,0,0:0:0:0:
320,192,180659,1,0,0:0:0:0:
448,192,180659,1,0,0:0:0:0:
64,192,180715,1,0,0:0:0:0:
192,192,180771,1,0,0:0:0:0:
448,192,180828,1,0,0:0:0:0:
64,192,180884,1,0,0:0:0:0:
320,192,180884,1,0,0:0:0:0:
192,192,180941,1,0,0:0:0:0:
448,192,180997,1,0,0:0:0:0:
192,192,181054,1,0,0:0:0:0:
448,192,181110,1,0,0:0:0:0:
320,192,181166,1,0,0:0:0:0:
64,192,181223,1,0,0:0:0:0:
448,192,181279,1,0,0:0:0:0:
320,192,181335,1,0,0:0:0:0:
64,192,181335,1,0,0:0:0:0:
192,192,181391,1,0,0:0:0:0:
448,192,181448,1,0,0:0:0:0:
64,192,181504,1,0,0:0:0:0:
192,192,181561,1,0,0:0:0:0:
320,192,181617,1,0,0:0:0:0:
192,192,181674,1,0,0:0:0:0:
320,192,181730,1,0,0:0:0:0:
64,192,181786,1,0,0:0:0:0:
448,192,181786,1,0,0:0:0:0:
192,192,181843,1,0,0:0:0:0:
320,192,181899,1,0,0:0:0:0:
64,192,181956,1,0,0:0:0:0:
448,192,182012,1,0,0:0:0:0:
320,192,182069,1,0,0:0:0:0:
192,192,182125,1,0,0:0:0:0:
448,192,182181,1,0,0:0:0:0:
320,192,182238,1,0,0:0:0:0:
64,192,182238,1,0,0:0:0:0:
192,192,182294,1,0,0:0:0:0:
320,192,182351,1,0,0:0:0:0:
192,192,182406,1,0,0:0:0:0:
64,192,182463,1,0,0:0:0:0:
448,192,182463,1,0,0:0:0:0:
320,192,182519,1,0,0:0:0:0:
192,192,182576,1,0,0:0:0:0:
448,192,182632,1,0,0:0:0:0:
64,192,182689,1,0,0:0:0:0:
320,192,182689,1,0,0:0:0:0:
192,192,182745,1,0,0:0:0:0:
448,192,182801,1,0,0:0:0:0:
64,192,182858,1,0,0:0:0:0:
192,192,182914,1,0,0:0:0:0:
448,192,182971,1,0,0:0:0:0:
192,192,183027,1,0,0:0:0:0:
448,192,183084,1,0,0:0:0:0:
320,192,183140,1,0,0:0:0:0:
64,192,183140,1,0,0:0:0:0:
192,192,183196,1,0,0:0:0:0:
448,192,183253,1,0,0:0:0:0:
192,192,183309,1,0,0:0:0:0:
448,192,183366,1,0,0:0:0:0:
320,192,183422,1,0,0:0:0:0:
64,192,183478,1,0,0:0:0:0:
448,192,183534,1,0,0:0:0:0:
320,192,183591,1,0,0:0:0:0:
64,192,183591,1,0,0:0:0:0:
192,192,183647,1,0,0:0:0:0:
320,192,183704,1,0,0:0:0:0:
64,192,183760,1,0,0:0:0:0:
448,192,183816,1,0,0:0:0:0:
192,192,183873,1,0,0:0:0:0:
448,192,183929,1,0,0:0:0:0:
192,192,183986,1,0,0:0:0:0:
64,192,184042,1,0,0:0:0:0:
320,192,184042,1,0,0:0:0:0:
448,192,184099,1,0,0:0:0:0:
192,192,184155,1,0,0:0:0:0:
320,192,184211,1,0,0:0:0:0:
192,192,184268,1,0,0:0:0:0:
64,192,184268,1,0,0:0:0:0:
448,192,184324,1,0,0:0:0:0:
320,192,184381,1,0,0:0:0:0:
64,192,184437,1,0,0:0:0:0:
448,192,184494,1,0,0:0:0:0:
192,192,184494,1,0,0:0:0:0:
320,192,184549,1,0,0:0:0:0:
64,192,184606,1,0,0:0:0:0:
192,192,184662,1,0,0:0:0:0:
320,192,184719,1,0,0:0:0:0:
192,192,184775,1,0,0:0:0:0:
320,192,184831,1,0,0:0:0:0:
64,192,184888,1,0,0:0:0:0:
192,192,184944,1,0,0:0:0:0:
448,192,184944,1,0,0:0:0:0:
320,192,185001,1,0,0:0:0:0:
64,192,185057,1,0,0:0:0:0:
320,192,185114,1,0,0:0:0:0:
64,192,185170,1,0,0:0:0:0:
448,192,185226,1,0,0:0:0:0:
320,192,185283,1,0,0:0:0:0:
192,192,185339,1,0,0:0:0:0:
64,192,185396,1,0,0:0:0:0:
448,192,185396,1,0,0:0:0:0:
192,192,185452,1,0,0:0:0:0:
448,192,185509,1,0,0:0:0:0:
320,192,185565,1,0,0:0:0:0:
64,192,185621,1,0,0:0:0:0:
192,192,185677,1,0,0:0:0:0:
64,192,185734,1,0,0:0:0:0:
192,192,185790,1,0,0:0:0:0:
448,192,185846,1,0,0:0:0:0:
64,192,185903,1,0,0:0:0:0:
448,192,185959,1,0,0:0:0:0:
64,192,186016,1,0,0:0:0:0:
192,192,186072,1,0,0:0:0:0:
320,192,186072,1,0,0:0:0:0:
448,192,186129,1,0,0:0:0:0:
64,192,186185,1,0,0:0:0:0:
320,192,186241,1,0,0:0:0:0:
192,192,186298,1,0,0:0:0:0:
64,192,186298,1,0,0:0:0:0:
448,192,186354,1,0,0:0:0:0:
192,192,186411,1,0,0:0:0:0:
320,192,186467,1,0,0:0:0:0:
64,192,186524,1,0,0:0:0:0:
192,192,186580,1,0,0:0:0:0:
448,192,186636,1,0,0:0:0:0:
64,192,186692,1,0,0:0:0:0:
320,192,186749,1,0,0:0:0:0:
192,192,186749,1,0,0:0:0:0:
448,192,186805,1,0,0:0:0:0:
64,192,186861,1,0,0:0:0:0:
448,192,186918,1,0,0:0:0:0:
192,192,186974,1,0,0:0:0:0:
320,192,187031,1,0,0:0:0:0:
64,192,187087,1,0,0:0:0:0:
448,192,187144,1,0,0:0:0:0:
64,192,187200,1,0,0:0:0:0:
192,192,187200,1,0,0:0:0:0:
320,192,187256,1,0,0:0:0:0:
192,192,187313,1,0,0:0:0:0:
320,192,187369,1,0,0:0:0:0:
64,192,187426,1,0,0:0:0:0:
448,192,187482,1,0,0:0:0:0:
192,192,187539,1,0,0:0:0:0:
448,192,187595,1,0,0:0:0:0:
64,192,187651,1,0,0:0:0:0:
320,192,187651,1,0,0:0:0:0:
192,192,187708,1,0,0:0:0:0:
320,192,187764,1,0,0:0:0:0:
192,192,187820,1,0,0:0:0:0:
448,192,187876,1,0,0:0:0:0:
320,192,187876,1,0,0:0:0:0:
64,192,187933,1,0,0:0:0:0:
192,192,187989,1,0,0:0:0:0:
448,192,188046,1,0,0:0:0:0:
64,192,188102,1,0,0:0:0:0:
320,192,188102,1,0,0:0:0:0:
192,192,188159,1,0,0:0:0:0:
448,192,188215,1,0,0:0:0:0:
192,192,188271,1,0,0:0:0:0:
448,192,188328,1,0,0:0:0:0:
320,192,188384,1,0,0:0:0:0:
64,192,188441,1,0,0:0:0:0:
448,192,188497,1,0,0:0:0:0:
64,192,188554,1,0,0:0:0:0:
320,192,188554,1,0,0:0:0:0:
192,192,188610,1,0,0:0:0:0:
448,192,188666,1,0,0:0:0:0:
64,192,188723,1,0,0:0:0:0:
192,192,188779,1,0,0:0:0:0:
448,192,188835,1,0,0:0:0:0:
64,192,188891,1,0,0:0:0:0:
320,192,188948,1,0,0:0:0:0:
192,192,189004,1,0,0:0:0:0:
64,192,189004,1,0,0:0:0:0:
320,192,189061,1,0,0:0:0:0:
192,192,189117,1,0,0:0:0:0:
448,192,189174,1,0,0:0:0:0:
64,192,189230,1,0,0:0:0:0:
320,192,189286,1,0,0:0:0:0:
64,192,189343,1,0,0:0:0:0:
192,192,189399,1,0,0:0:0:0:
320,192,189456,1,0,0:0:0:0:
448,192,189456,1,0,0:0:0:0:
64,192,189512,1,0,0:0:0:0:
192,192,189569,1,0,0:0:0:0:
64,192,189625,1,0,0:0:0:0:
320,192,189681,1,0,0:0:0:0:
448,192,189681,1,0,0:0:0:0:
192,192,189738,1,0,0:0:0:0:
448,192,189794,1,0,0:0:0:0:
64,192,189851,1,0,0:0:0:0:
192,192,189906,1,0,0:0:0:0:
320,192,189906,1,0,0:0:0:0:
448,192,189963,1,0,0:0:0:0:
64,192,190019,1,0,0:0:0:0:
320,192,190076,1,0,0:0:0:0:
192,192,190132,1,0,0:0:0:0:
320,192,190189,1,0,0:0:0:0:
64,192,190245,1,0,0:0:0:0:
192,192,190301,1,0,0:0:0:0:
320,192,190358,1,0,0:0:0:0:
448,192,190358,1,0,0:0:0:0:
64,192,190414,1,0,0:0:0:0:
448,192,190471,1,0,0:0:0:0:
64,192,190527,1,0,0:0:0:0:
320,192,190584,1,0,0:0:0:0:
192,192,190640,1,0,0:0:0:0:
320,192,190696,1,0,0:0:0:0:
192,192,190753,1,0,0:0:0:0:
64,192,190809,1,0,0:0:0:0:
448,192,190809,1,0,0:0:0:0:
320,192,190866,1,0,0:0:0:0:
192,192,190922,1,0,0:0:0:0:
448,192,190978,1,0,0:0:0:0:
64,192,191034,1,0,0:0:0:0:
192,192,191091,1,0,0:0:0:0:
320,192,191147,1,0,0:0:0:0:
192,192,191204,1,0,0:0:0:0:
320,192,191260,1,0,0:0:0:0:
448,192,191260,1,0,0:0:0:0:
64,192,191316,1,0,0:0:0:0:
448,192,191373,1,0,0:0:0:0:
320,192,191429,1,0,0:0:0:0:
192,192,191486,1,0,0:0:0:0:
64,192,191486,1,0,0:0:0:0:
320,192,191542,1,0,0:0:0:0:
64,192,191599,1,0,0:0:0:0:
192,192,191655,1,0,0:0:0:0:
320,192,191711,1,0,0:0:0:0:
448,192,191711,1,0,0:0:0:0:
64,192,191768,1,0,0:0:0:0:
192,192,191824,1,0,0:0:0:0:
320,192,191881,1,0,0:0:0:0:
64,192,191937,1,0,0:0:0:0:
320,192,191994,1,0,0:0:0:0:
192,192,192049,1,0,0:0:0:0:
448,192,192106,1,0,0:0:0:0:
320,192,192162,1,0,0:0:0:0:
64,192,192162,1,0,0:0:0:0:
192,192,192219,1,0,0:0:0:0:
448,192,192275,1,0,0:0:0:0:
192,192,192331,1,0,0:0:0:0:
448,192,192388,1,0,0:0:0:0:
320,192,192444,1,0,0:0:0:0:
64,192,192501,1,0,0:0:0:0:
192,192,192557,1,0,0:0:0:0:
320,192,192614,1,0,0:0:0:0:
448,192,192614,1,0,0:0:0:0:
192,192,192670,1,0,0:0:0:0:
448,192,192726,1,0,0:0:0:0:
320,192,192783,1,0,0:0:0:0:
192,192,192839,1,0,0:0:0:0:
64,192,192839,1,0,0:0:0:0:
320,192,192896,1,0,0:0:0:0:
448,192,192896,1,0,0:0:0:0:
192,192,192952,1,0,0:0:0:0:
64,192,192952,1,0,0:0:0:0:
320,192,193009,1,0,0:0:0:0:
448,192,193009,1,0,0:0:0:0:
64,192,193065,1,0,0:0:0:0:
192,192,193121,1,0,0:0:0:0:
448,192,193177,1,0,0:0:0:0:
64,192,193234,1,0,0:0:0:0:
320,192,193290,1,0,0:0:0:0:
448,192,193290,1,0,0:0:0:0:
192,192,193290,1,0,0:0:0:0:
64,192,193403,1,0,0:0:0:0:
320,192,193403,1,0,0:0:0:0:
192,192,193516,1,0,0:0:0:0:
64,192,193516,1,0,0:0:0:0:
448,192,193516,1,0,0:0:0:0:
320,192,193629,1,0,0:0:0:0:
192,192,193629,1,0,0:0:0:0:
64,192,193741,1,0,0:0:0:0:
320,192,193741,1,0,0:0:0:0:
192,192,193854,1,0,0:0:0:0:
448,192,193854,1,0,0:0:0:0:
320,192,193967,1,0,0:0:0:0:
192,192,193967,1,0,0:0:0:0:
64,192,193967,1,0,0:0:0:0:
64,192,194080,1,0,0:0:0:0:
448,192,194080,1,0,0:0:0:0:
192,192,194192,1,0,0:0:0:0:
320,192,194192,1,0,0:0:0:0:
448,192,194192,1,0,0:0:0:0:
320,192,194305,1,0,0:0:0:0:
64,192,194305,1,0,0:0:0:0:
192,192,194418,1,0,0:0:0:0:
64,192,194418,1,0,0:0:0:0:
448,192,194418,1,0,0:0:0:0:
320,192,194531,1,0,0:0:0:0:
192,192,194531,1,0,0:0:0:0:
64,192,194644,1,0,0:0:0:0:
320,192,194644,1,0,0:0:0:0:
192,192,194756,1,0,0:0:0:0:
64,192,194756,1,0,0:0:0:0:
192,192,194869,1,0,0:0:0:0:
320,192,194869,1,0,0:0:0:0:
448,192,194869,1,0,0:0:0:0:
64,192,194982,1,0,0:0:0:0:
448,192,194982,1,0,0:0:0:0:
320,192,195095,1,0,0:0:0:0:
64,192,195095,1,0,0:0:0:0:
192,192,195208,1,0,0:0:0:0:
320,192,195208,1,0,0:0:0:0:
192,192,195320,1,0,0:0:0:0:
64,192,195320,1,0,0:0:0:0:
448,192,195320,1,0,0:0:0:0:
320,192,195433,1,0,0:0:0:0:
64,192,195433,1,0,0:0:0:0:
320,192,195546,1,0,0:0:0:0:
448,192,195546,1,0,0:0:0:0:
192,192,195659,1,0,0:0:0:0:
64,192,195659,1,0,0:0:0:0:
448,192,195659,1,0,0:0:0:0:
64,192,195771,1,0,0:0:0:0:
192,192,195771,1,0,0:0:0:0:
320,192,195828,1,0,0:0:0:0:
448,192,195828,1,0,0:0:0:0:
192,192,195884,1,0,0:0:0:0:
320,192,195941,1,0,0:0:0:0:
64,192,195997,1,0,0:0:0:0:
192,192,195997,1,0,0:0:0:0:
448,192,196054,1,0,0:0:0:0:
320,192,196110,1,0,0:0:0:0:
192,192,196166,1,0,0:0:0:0:
448,192,196223,1,0,0:0:0:0:
64,192,196279,1,0,0:0:0:0:
320,192,196335,1,0,0:0:0:0:
448,192,196335,1,0,0:0:0:0:
192,192,196391,1,0,0:0:0:0:
64,192,196391,1,0,0:0:0:0:
320,192,196448,1,0,0:0:0:0:
448,192,196448,1,0,0:0:0:0:
192,192,196504,1,0,0:0:0:0:
64,192,196504,1,0,0:0:0:0:
320,192,196561,1,0,0:0:0:0:
192,192,196617,1,0,0:0:0:0:
64,192,196674,1,0,0:0:0:0:
448,192,196730,1,0,0:0:0:0:
192,192,196786,1,0,0:0:0:0:
320,192,196843,1,0,0:0:0:0:
192,192,196899,1,0,0:0:0:0:
64,192,196899,1,0,0:0:0:0:
448,192,196956,1,0,0:0:0:0:
320,192,197012,1,0,0:0:0:0:
192,192,197069,1,0,0:0:0:0:
320,192,197125,1,0,0:0:0:0:
192,192,197181,1,0,0:0:0:0:
448,192,197238,1,0,0:0:0:0:
64,192,197294,1,0,0:0:0:0:
320,192,197351,1,0,0:0:0:0:
64,192,197406,1,0,0:0:0:0:
320,192,197463,1,0,0:0:0:0:
192,192,197519,1,0,0:0:0:0:
64,192,197576,1,0,0:0:0:0:
448,192,197576,1,0,0:0:0:0:
320,192,197632,1,0,0:0:0:0:
192,192,197689,1,0,0:0:0:0:
320,192,197745,1,0,0:0:0:0:
64,192,197801,1,0,0:0:0:0:
448,192,197858,1,0,0:0:0:0:
64,192,197914,1,0,0:0:0:0:
448,192,197971,1,0,0:0:0:0:
320,192,198027,1,0,0:0:0:0:
64,192,198027,1,0,0:0:0:0:
192,192,198084,1,0,0:0:0:0:
448,192,198140,1,0,0:0:0:0:
320,192,198196,1,0,0:0:0:0:
192,192,198253,1,0,0:0:0:0:
448,192,198309,1,0,0:0:0:0:
64,192,198366,1,0,0:0:0:0:
320,192,198422,1,0,0:0:0:0:
192,192,198478,1,0,0:0:0:0:
64,192,198478,1,0,0:0:0:0:
448,192,198534,1,0,0:0:0:0:
320,192,198591,1,0,0:0:0:0:
64,192,198647,1,0,0:0:0:0:
320,192,198704,1,0,0:0:0:0:
64,192,198760,1,0,0:0:0:0:
448,192,198816,1,0,0:0:0:0:
192,192,198873,1,0,0:0:0:0:
320,192,198929,1,0,0:0:0:0:
448,192,198929,1,0,0:0:0:0:
64,192,198986,1,0,0:0:0:0:
192,192,199042,1,0,0:0:0:0:
448,192,199099,1,0,0:0:0:0:
64,192,199155,1,0,0:0:0:0:
320,192,199211,1,0,0:0:0:0:
192,192,199268,1,0,0:0:0:0:
448,192,199324,1,0,0:0:0:0:
320,192,199381,1,0,0:0:0:0:
192,192,199381,1,0,0:0:0:0:
64,192,199437,1,0,0:0:0:0:
448,192,199494,1,0,0:0:0:0:
64,192,199549,1,0,0:0:0:0:
320,192,199606,1,0,0:0:0:0:
192,192,199662,1,0,0:0:0:0:
320,192,199719,1,0,0:0:0:0:
64,192,199775,1,0,0:0:0:0:
192,192,199831,1,0,0:0:0:0:
448,192,199831,1,0,0:0:0:0:
320,192,199888,1,0,0:0:0:0:
64,192,199944,1,0,0:0:0:0:
192,192,200001,1,0,0:0:0:0:
448,192,200057,1,0,0:0:0:0:
64,192,200114,1,0,0:0:0:0:
448,192,200170,1,0,0:0:0:0:
320,192,200226,1,0,0:0:0:0:
192,192,200283,1,0,0:0:0:0:
64,192,200283,1,0,0:0:0:0:
448,192,200339,1,0,0:0:0:0:
320,192,200396,1,0,0:0:0:0:
64,192,200452,1,0,0:0:0:0:
320,192,200509,1,0,0:0:0:0:
192,192,200509,1,0,0:0:0:0:
448,192,200565,1,0,0:0:0:0:
64,192,200621,1,0,0:0:0:0:
320,192,200677,1,0,0:0:0:0:
192,192,200734,1,0,0:0:0:0:
64,192,200734,1,0,0:0:0:0:
448,192,200790,1,0,0:0:0:0:
320,192,200846,1,0,0:0:0:0:
192,192,200903,1,0,0:0:0:0:
320,192,200959,1,0,0:0:0:0:
192,192,201016,1,0,0:0:0:0:
448,192,201072,1,0,0:0:0:0:
64,192,201129,1,0,0:0:0:0:
192,192,201185,1,0,0:0:0:0:
448,192,201185,1,0,0:0:0:0:
320,192,201241,1,0,0:0:0:0:
64,192,201298,1,0,0:0:0:0:
192,192,201354,1,0,0:0:0:0:
448,192,201411,1,0,0:0:0:0:
192,192,201467,1,0,0:0:0:0:
320,192,201524,1,0,0:0:0:0:
64,192,201580,1,0,0:0:0:0:
192,192,201636,1,0,0:0:0:0:
448,192,201636,1,0,0:0:0:0:
320,192,201692,1,0,0:0:0:0:
192,192,201749,1,0,0:0:0:0:
320,192,201805,1,0,0:0:0:0:
64,192,201861,1,0,0:0:0:0:
448,192,201918,1,0,0:0:0:0:
192,192,201974,1,0,0:0:0:0:
320,192,202031,1,0,0:0:0:0:
192,192,202087,1,0,0:0:0:0:
64,192,202087,1,0,0:0:0:0:
448,192,202144,1,0,0:0:0:0:
320,192,202200,1,0,0:0:0:0:
64,192,202256,1,0,0:0:0:0:
192,192,202313,1,0,0:0:0:0:
448,192,202313,1,0,0:0:0:0:
320,192,202369,1,0,0:0:0:0:
192,192,202426,1,0,0:0:0:0:
320,192,202482,1,0,0:0:0:0:
64,192,202539,1,0,0:0:0:0:
448,192,202539,1,0,0:0:0:0:
192,192,202595,1,0,0:0:0:0:
320,192,202651,1,0,0:0:0:0:
64,192,202708,1,0,0:0:0:0:
448,192,202764,1,0,0:0:0:0:
192,192,202820,1,0,0:0:0:0:
448,192,202876,1,0,0:0:0:0:
320,192,202933,1,0,0:0:0:0:
192,192,202989,1,0,0:0:0:0:
64,192,202989,1,0,0:0:0:0:
448,192,203046,1,0,0:0:0:0:
64,192,203102,1,0,0:0:0:0:
192,192,203159,1,0,0:0:0:0:
448,192,203215,1,0,0:0:0:0:
64,192,203271,1,0,0:0:0:0:
320,192,203328,1,0,0:0:0:0:
64,192,203384,1,0,0:0:0:0:
192,192,203441,1,0,0:0:0:0:
448,192,203441,1,0,0:0:0:0:
320,192,203497,1,0,0:0:0:0:
192,192,203554,1,0,0:0:0:0:
320,192,203610,1,0,0:0:0:0:
64,192,203666,1,0,0:0:0:0:
192,192,203723,1,0,0:0:0:0:
448,192,203779,1,0,0:0:0:0:
192,192,203835,1,0,0:0:0:0:
448,192,203891,1,0,0:0:0:0:
320,192,203948,1,0,0:0:0:0:
192,192,204004,1,0,0:0:0:0:
320,192,204061,1,0,0:0:0:0:
192,192,204117,1,0,0:0:0:0:
64,192,204117,1,0,0:0:0:0:
448,192,204174,1,0,0:0:0:0:
320,192,204230,1,0,0:0:0:0:
64,192,204286,1,0,0:0:0:0:
192,192,204343,1,0,0:0:0:0:
448,192,204343,1,0,0:0:0:0:
320,192,204399,1,0,0:0:0:0:
192,192,204456,1,0,0:0:0:0:
320,192,204512,1,0,0:0:0:0:
64,192,204569,1,0,0:0:0:0:
448,192,204625,1,0,0:0:0:0:
320,192,204681,1,0,0:0:0:0:
192,192,204738,1,0,0:0:0:0:
64,192,204794,1,0,0:0:0:0:
448,192,204794,1,0,0:0:0:0:
192,192,204851,1,0,0:0:0:0:
320,192,204906,1,0,0:0:0:0:
64,192,204963,1,0,0:0:0:0:
448,192,205019,1,0,0:0:0:0:
64,192,205076,1,0,0:0:0:0:
448,192,205132,1,0,0:0:0:0:
320,192,205189,1,0,0:0:0:0:
192,192,205245,1,0,0:0:0:0:
64,192,205245,1,0,0:0:0:0:
320,192,205301,1,0,0:0:0:0:
192,192,205358,1,0,0:0:0:0:
448,192,205414,1,0,0:0:0:0:
64,192,205471,1,0,0:0:0:0:
320,192,205527,1,0,0:0:0:0:
192,192,205584,1,0,0:0:0:0:
320,192,205640,1,0,0:0:0:0:
192,192,205696,1,0,0:0:0:0:
64,192,205696,1,0,0:0:0:0:
448,192,205753,1,0,0:0:0:0:
320,192,205809,1,0,0:0:0:0:
64,192,205866,1,0,0:0:0:0:
320,192,205922,1,0,0:0:0:0:
192,192,205922,1,0,0:0:0:0:
448,192,205978,1,0,0:0:0:0:
64,192,206034,1,0,0:0:0:0:
448,192,206091,1,0,0:0:0:0:
192,192,206147,1,0,0:0:0:0:
64,192,206147,1,0,0:0:0:0:
320,192,206204,1,0,0:0:0:0:
192,192,206260,1,0,0:0:0:0:
448,192,206316,1,0,0:0:0:0:
64,192,206373,1,0,0:0:0:0:
320,192,206429,1,0,0:0:0:0:
64,192,206486,1,0,0:0:0:0:
320,192,206542,1,0,0:0:0:0:
192,192,206599,1,0,0:0:0:0:
448,192,206599,1,0,0:0:0:0:
64,192,206655,1,0,0:0:0:0:
320,192,206711,1,0,0:0:0:0:
192,192,206768,1,0,0:0:0:0:
448,192,206824,1,0,0:0:0:0:
64,192,206881,1,0,0:0:0:0:
448,192,206937,1,0,0:0:0:0:
320,192,206994,1,0,0:0:0:0:
192,192,207049,1,0,0:0:0:0:
64,192,207049,1,0,0:0:0:0:
320,192,207106,1,0,0:0:0:0:
192,192,207162,1,0,0:0:0:0:
448,192,207219,1,0,0:0:0:0:
64,192,207275,1,0,0:0:0:0:
320,192,207331,1,0,0:0:0:0:
192,192,207388,1,0,0:0:0:0:
448,192,207444,1,0,0:0:0:0:
64,192,207501,1,0,0:0:0:0:
320,192,207501,1,0,0:0:0:0:
192,192,207557,1,0,0:0:0:0:
320,192,207614,1,0,0:0:0:0:
192,192,207670,1,0,0:0:0:0:
64,192,207726,1,0,0:0:0:0:
448,192,207726,1,0,0:0:0:0:
320,192,207783,1,0,0:0:0:0:
192,192,207839,1,0,0:0:0:0:
448,192,207896,1,0,0:0:0:0:
64,192,207952,1,0,0:0:0:0:
192,192,207952,1,0,0:0:0:0:
320,192,208009,1,0,0:0:0:0:
64,192,208065,1,0,0:0:0:0:
320,192,208121,1,0,0:0:0:0:
192,192,208177,1,0,0:0:0:0:
448,192,208234,1,0,0:0:0:0:
320,192,208290,1,0,0:0:0:0:
64,192,208346,1,0,0:0:0:0:
192,192,208403,1,0,0:0:0:0:
320,192,208403,1,0,0:0:0:0:
448,192,208459,1,0,0:0:0:0:
64,192,208516,1,0,0:0:0:0:
320,192,208572,1,0,0:0:0:0:
192,192,208629,1,0,0:0:0:0:
320,192,208685,1,0,0:0:0:0:
192,192,208741,1,0,0:0:0:0:
448,192,208798,1,0,0:0:0:0:
320,192,208854,1,0,0:0:0:0:
64,192,208854,1,0,0:0:0:0:
192,192,208911,1,0,0:0:0:0:
448,192,208967,1,0,0:0:0:0:
64,192,209024,1,0,0:0:0:0:
320,192,209080,1,0,0:0:0:0:
64,192,209136,1,0,0:0:0:0:
192,192,209192,1,0,0:0:0:0:
320,192,209249,1,0,0:0:0:0:
192,192,209305,1,0,0:0:0:0:
64,192,209305,1,0,0:0:0:0:
448,192,209361,1,0,0:0:0:0:
64,192,209418,1,0,0:0:0:0:
192,192,209474,1,0,0:0:0:0:
320,192,209531,1,0,0:0:0:0:
448,192,209531,1,0,0:0:0:0:
64,192,209587,1,0,0:0:0:0:
320,192,209644,1,0,0:0:0:0:
64,192,209700,1,0,0:0:0:0:
192,192,209756,1,0,0:0:0:0:
448,192,209756,1,0,0:0:0:0:
320,192,209813,1,0,0:0:0:0:
64,192,209869,1,0,0:0:0:0:
448,192,209926,1,0,0:0:0:0:
64,192,209982,1,0,0:0:0:0:
320,192,210039,1,0,0:0:0:0:
192,192,210095,1,0,0:0:0:0:
320,192,210151,1,0,0:0:0:0:
192,192,210208,1,0,0:0:0:0:
64,192,210208,1,0,0:0:0:0:
448,192,210264,1,0,0:0:0:0:
64,192,210320,1,0,0:0:0:0:
192,192,210376,1,0,0:0:0:0:
320,192,210433,1,0,0:0:0:0:
64,192,210489,1,0,0:0:0:0:
448,192,210546,1,0,0:0:0:0:
64,192,210602,1,0,0:0:0:0:
192,192,210659,1,0,0:0:0:0:
448,192,210659,1,0,0:0:0:0:
320,192,210715,1,0,0:0:0:0:
64,192,210771,1,0,0:0:0:0:
192,192,210828,1,0,0:0:0:0:
448,192,210884,1,0,0:0:0:0:
320,192,210941,1,0,0:0:0:0:
192,192,210997,1,0,0:0:0:0:
64,192,211054,1,0,0:0:0:0:
448,192,211110,1,0,0:0:0:0:
320,192,211166,1,0,0:0:0:0:
192,192,211223,1,0,0:0:0:0:
64,192,211279,1,0,0:0:0:0:
320,192,211335,1,0,0:0:0:0:
448,192,211335,1,0,0:0:0:0:
192,192,211391,1,0,0:0:0:0:
448,192,211448,1,0,0:0:0:0:
64,192,211504,1,0,0:0:0:0:
192,192,211561,1,0,0:0:0:0:
320,192,211561,1,0,0:0:0:0:
448,192,211617,1,0,0:0:0:0:
64,192,211674,1,0,0:0:0:0:
320,192,211730,1,0,0:0:0:0:
64,192,211786,1,0,0:0:0:0:
320,192,211843,1,0,0:0:0:0:
192,192,211899,1,0,0:0:0:0:
448,192,211956,1,0,0:0:0:0:
320,192,212012,1,0,0:0:0:0:
64,192,212012,1,0,0:0:0:0:
192,192,212069,1,0,0:0:0:0:
448,192,212125,1,0,0:0:0:0:
192,192,212181,1,0,0:0:0:0:
64,192,212238,1,0,0:0:0:0:
448,192,212294,1,0,0:0:0:0:
320,192,212351,1,0,0:0:0:0:
192,192,212406,1,0,0:0:0:0:
64,192,212463,1,0,0:0:0:0:
448,192,212463,1,0,0:0:0:0:
320,192,212519,1,0,0:0:0:0:
192,192,212576,1,0,0:0:0:0:
320,192,212632,1,0,0:0:0:0:
64,192,212689,1,0,0:0:0:0:
448,192,212745,1,0,0:0:0:0:
64,192,212801,1,0,0:0:0:0:
448,192,212858,1,0,0:0:0:0:
320,192,212914,1,0,0:0:0:0:
64,192,212914,1,0,0:0:0:0:
192,192,212971,1,0,0:0:0:0:
320,192,213027,1,0,0:0:0:0:
64,192,213084,1,0,0:0:0:0:
192,192,213140,1,0,0:0:0:0:
448,192,213140,1,0,0:0:0:0:
320,192,213196,1,0,0:0:0:0:
64,192,213253,1,0,0:0:0:0:
448,192,213309,1,0,0:0:0:0:
320,192,213366,1,0,0:0:0:0:
64,192,213366,1,0,0:0:0:0:
192,192,213422,1,0,0:0:0:0:
448,192,213478,1,0,0:0:0:0:
64,192,213534,1,0,0:0:0:0:
192,192,213591,1,0,0:0:0:0:
448,192,213647,1,0,0:0:0:0:
192,192,213704,1,0,0:0:0:0:
320,192,213760,1,0,0:0:0:0:
64,192,213816,1,0,0:0:0:0:
448,192,213816,1,0,0:0:0:0:
192,192,213873,1,0,0:0:0:0:
320,192,213929,1,0,0:0:0:0:
192,192,213986,1,0,0:0:0:0:
320,192,214042,1,0,0:0:0:0:
448,192,214042,1,0,0:0:0:0:
64,192,214099,1,0,0:0:0:0:
192,192,214155,1,0,0:0:0:0:
448,192,214211,1,0,0:0:0:0:
320,192,214268,1,0,0:0:0:0:
64,192,214268,1,0,0:0:0:0:
192,192,214324,1,0,0:0:0:0:
448,192,214381,1,0,0:0:0:0:
64,192,214437,1,0,0:0:0:0:
192,192,214494,1,0,0:0:0:0:
320,192,214549,1,0,0:0:0:0:
64,192,214606,1,0,0:0:0:0:
448,192,214662,1,0,0:0:0:0:
320,192,214719,1,0,0:0:0:0:
64,192,214719,1,0,0:0:0:0:
192,192,214775,1,0,0:0:0:0:
448,192,214831,1,0,0:0:0:0:
192,192,214888,1,0,0:0:0:0:
320,192,214944,1,0,0:0:0:0:
448,192,214944,1,0,0:0:0:0:
64,192,215001,1,0,0:0:0:0:
192,192,215057,1,0,0:0:0:0:
448,192,215114,1,0,0:0:0:0:
320,192,215170,1,0,0:0:0:0:
64,192,215170,1,0,0:0:0:0:
192,192,215226,1,0,0:0:0:0:
320,192,215283,1,0,0:0:0:0:
192,192,215339,1,0,0:0:0:0:
448,192,215396,1,0,0:0:0:0:
64,192,215452,1,0,0:0:0:0:
320,192,215509,1,0,0:0:0:0:
192,192,215565,1,0,0:0:0:0:
64,192,215621,1,0,0:0:0:0:
448,192,215621,1,0,0:0:0:0:
320,192,215677,1,0,0:0:0:0:
64,192,215734,1,0,0:0:0:0:
320,192,215790,1,0,0:0:0:0:
192,192,215846,1,0,0:0:0:0:
448,192,215903,1,0,0:0:0:0:
64,192,215959,1,0,0:0:0:0:
192,192,216016,1,0,0:0:0:0:
320,192,216072,1,0,0:0:0:0:
448,192,216072,1,0,0:0:0:0:
192,192,216129,1,0,0:0:0:0:
320,192,216185,1,0,0:0:0:0:
64,192,216241,1,0,0:0:0:0:
448,192,216298,1,0,0:0:0:0:
320,192,216354,1,0,0:0:0:0:
64,192,216411,1,0,0:0:0:0:
320,192,216467,1,0,0:0:0:0:
192,192,216524,1,0,0:0:0:0:
64,192,216524,1,0,0:0:0:0:
448,192,216580,1,0,0:0:0:0:
192,192,216636,1,0,0:0:0:0:
320,192,216692,1,0,0:0:0:0:
64,192,216749,1,0,0:0:0:0:
192,192,216749,1,0,0:0:0:0:
448,192,216805,1,0,0:0:0:0:
64,192,216861,1,0,0:0:0:0:
448,192,216918,1,0,0:0:0:0:
320,192,216974,1,0,0:0:0:0:
192,192,216974,1,0,0:0:0:0:
64,192,217031,1,0,0:0:0:0:
448,192,217087,1,0,0:0:0:0:
64,192,217144,1,0,0:0:0:0:
192,192,217200,1,0,0:0:0:0:
448,192,217256,1,0,0:0:0:0:
320,192,217313,1,0,0:0:0:0:
192,192,217369,1,0,0:0:0:0:
64,192,217426,1,0,0:0:0:0:
448,192,217426,1,0,0:0:0:0:
320,192,217482,1,0,0:0:0:0:
64,192,217539,1,0,0:0:0:0:
192,192,217595,1,0,0:0:0:0:
320,192,217651,1,0,0:0:0:0:
64,192,217708,1,0,0:0:0:0:
320,192,217764,1,0,0:0:0:0:
448,192,217764,1,0,0:0:0:0:
64,192,217820,1,0,0:0:0:0:
192,192,217876,1,0,0:0:0:0:
320,192,217933,1,0,0:0:0:0:
64,192,217989,1,0,0:0:0:0:
192,192,218046,1,0,0:0:0:0:
320,192,218102,1,0,0:0:0:0:
448,192,218102,1,0,0:0:0:0:
192,192,218159,1,0,0:0:0:0:
64,192,218215,1,0,0:0:0:0:
448,192,218328,1,0,0:0:0:0:
320,192,218384,1,0,0:0:0:0:
192,192,218441,1,0,0:0:0:0:
320,192,218497,1,0,0:0:0:0:
64,192,218554,1,0,0:0:0:0:
192,192,218554,1,0,0:0:0:0:
448,192,218610,1,0,0:0:0:0:
64,192,218666,1,0,0:0:0:0:
448,192,218723,1,0,0:0:0:0:
320,192,218779,1,0,0:0:0:0:
192,192,218779,1,0,0:0:0:0:
64,192,218835,1,0,0:0:0:0:
320,192,218891,1,0,0:0:0:0:
64,192,218948,1,0,0:0:0:0:
448,192,219004,1,0,0:0:0:0:
192,192,219061,1,0,0:0:0:0:
320,192,219117,1,0,0:0:0:0:
192,192,219174,1,0,0:0:0:0:
64,192,219230,1,0,0:0:0:0:
448,192,219230,1,0,0:0:0:0:
320,192,219286,1,0,0:0:0:0:
192,192,219343,1,0,0:0:0:0:
320,192,219399,1,0,0:0:0:0:
64,192,219456,1,0,0:0:0:0:
448,192,219512,1,0,0:0:0:0:
192,192,219569,1,0,0:0:0:0:
448,192,219625,1,0,0:0:0:0:
320,192,219681,1,0,0:0:0:0:
64,192,219681,1,0,0:0:0:0:
192,192,219738,1,0,0:0:0:0:
448,192,219794,1,0,0:0:0:0:
192,192,219851,1,0,0:0:0:0:
448,192,219906,1,0,0:0:0:0:
320,192,219944,1,0,0:0:0:0:
192,192,219982,1,0,0:0:0:0:
64,192,220019,1,0,0:0:0:0:
320,192,220057,1,0,0:0:0:0:
192,192,220095,1,0,0:0:0:0:
448,192,220132,1,0,0:0:0:0:
320,192,220170,1,0,0:0:0:0:
192,192,220208,1,0,0:0:0:0:
64,192,220245,1,0,0:0:0:0:
320,192,220283,1,0,0:0:0:0:
192,192,220320,1,0,0:0:0:0:
64,192,220358,1,0,0:0:0:0:
448,192,220358,1,0,0:0:0:0:
320,192,220414,1,0,0:0:0:0:
192,192,220471,1,0,0:0:0:0:
320,192,220527,1,0,0:0:0:0:
448,192,220584,1,0,0:0:0:0:
192,192,220584,1,0,0:0:0:0:
64,192,220640,1,0,0:0:0:0:
320,192,220696,1,0,0:0:0:0:
64,192,220753,1,0,0:0:0:0:
448,192,220809,1,0,0:0:0:0:
192,192,220866,1,0,0:0:0:0:
320,192,220922,1,0,0:0:0:0:
192,192,220978,1,0,0:0:0:0:
320,192,221034,1,0,0:0:0:0:
64,192,221034,1,0,0:0:0:0:
448,192,221091,1,0,0:0:0:0:
192,192,221147,1,0,0:0:0:0:
448,192,221204,1,0,0:0:0:0:
64,192,221260,1,0,0:0:0:0:
320,192,221316,1,0,0:0:0:0:
192,192,221373,1,0,0:0:0:0:
320,192,221429,1,0,0:0:0:0:
448,192,221486,1,0,0:0:0:0:
192,192,221486,1,0,0:0:0:0:
64,192,221542,1,0,0:0:0:0:
320,192,221599,1,0,0:0:0:0:
64,192,221655,1,0,0:0:0:0:
448,192,221711,1,0,0:0:0:0:
320,192,221749,1,0,0:0:0:0:
192,192,221786,1,0,0:0:0:0:
64,192,221824,1,0,0:0:0:0:
320,192,221861,1,0,0:0:0:0:
192,192,221899,1,0,0:0:0:0:
448,192,221937,1,0,0:0:0:0:
320,192,221974,1,0,0:0:0:0:
192,192,222012,1,0,0:0:0:0:
64,192,222049,1,0,0:0:0:0:
320,192,222087,1,0,0:0:0:0:
192,192,222125,1,0,0:0:0:0:
64,192,222162,1,0,0:0:0:0:
448,192,222162,1,0,0:0:0:0:
320,192,222219,1,0,0:0:0:0:
64,192,222275,1,0,0:0:0:0:
320,192,222331,1,0,0:0:0:0:
192,192,222388,1,0,0:0:0:0:
448,192,222388,1,0,0:0:0:0:
64,192,222444,1,0,0:0:0:0:
320,192,222501,1,0,0:0:0:0:
64,192,222557,1,0,0:0:0:0:
448,192,222614,1,0,0:0:0:0:
192,192,222670,1,0,0:0:0:0:
320,192,222726,1,0,0:0:0:0:
192,192,222783,1,0,0:0:0:0:
64,192,222839,1,0,0:0:0:0:
320,192,222839,1,0,0:0:0:0:
448,192,222896,1,0,0:0:0:0:
192,192,222952,1,0,0:0:0:0:
448,192,223009,1,0,0:0:0:0:
64,192,223065,1,0,0:0:0:0:
320,192,223121,1,0,0:0:0:0:
192,192,223177,1,0,0:0:0:0:
320,192,223234,1,0,0:0:0:0:
192,192,223290,1,0,0:0:0:0:
448,192,223290,1,0,0:0:0:0:
64,192,223346,1,0,0:0:0:0:
320,192,223403,1,0,0:0:0:0:
64,192,223459,1,0,0:0:0:0:
448,192,223516,1,0,0:0:0:0:
320,192,223516,1,0,0:0:0:0:
192,192,223572,1,0,0:0:0:0:
64,192,223572,1,0,0:0:0:0:
320,192,223629,1,0,0:0:0:0:
448,192,223629,1,0,0:0:0:0:
192,192,223685,1,0,0:0:0:0:
64,192,223685,1,0,0:0:0:0:
320,192,223741,1,0,0:0:0:0:
192,192,223798,1,0,0:0:0:0:
64,192,223854,1,0,0:0:0:0:
320,192,223911,1,0,0:0:0:0:
192,192,223967,1,0,0:0:0:0:
448,192,223967,1,0,0:0:0:0:
64,192,224024,1,0,0:0:0:0:
320,192,224080,1,0,0:0:0:0:
448,192,224080,1,0,0:0:0:0:
64,192,224136,1,0,0:0:0:0:
192,192,224192,1,0,0:0:0:0:
448,192,224192,1,0,0:0:0:0:
320,192,224249,1,0,0:0:0:0:
192,192,224305,1,0,0:0:0:0:
64,192,224305,1,0,0:0:0:0:
320,192,224361,1,0,0:0:0:0:
64,192,224418,1,0,0:0:0:0:
448,192,224474,1,0,0:0:0:0:
192,192,224531,1,0,0:0:0:0:
320,192,224531,1,0,0:0:0:0:
448,192,224587,1,0,0:0:0:0:
320,192,224644,1,0,0:0:0:0:
64,192,224644,1,0,0:0:0:0:
192,192,224700,1,0,0:0:0:0:
320,192,224756,1,0,0:0:0:0:
448,192,224756,1,0,0:0:0:0:
192,192,224813,1,0,0:0:0:0:
64,192,224869,1,0,0:0:0:0:
320,192,224869,1,0,0:0:0:0:
448,192,224926,1,0,0:0:0:0:
192,192,224982,1,0,0:0:0:0:
64,192,224982,1,0,0:0:0:0:
448,192,225039,1,0,0:0:0:0:
320,192,225039,1,0,0:0:0:0:
192,192,225095,1,0,0:0:0:0:
64,192,225095,1,0,0:0:0:0:
320,192,225151,1,0,0:0:0:0:
448,192,225151,1,0,0:0:0:0:
64,192,225208,1,0,0:0:0:0:
192,192,225264,1,0,0:0:0:0:
320,192,225320,1,0,0:0:0:0:
448,192,225320,1,0,0:0:0:0:
192,192,225376,1,0,0:0:0:0:
64,192,225433,1,0,0:0:0:0:
448,192,225433,1,0,0:0:0:0:
320,192,225489,1,0,0:0:0:0:
192,192,225546,1,0,0:0:0:0:
64,192,225546,1,0,0:0:0:0:
320,192,225602,1,0,0:0:0:0:
64,192,225659,1,0,0:0:0:0:
192,192,225715,1,0,0:0:0:0:
320,192,225771,1,0,0:0:0:0:
448,192,225771,1,0,0:0:0:0:
64,192,225828,1,0,0:0:0:0:
320,192,225884,1,0,0:0:0:0:
64,192,225941,1,0,0:0:0:0:
448,192,225997,1,0,0:0:0:0:
192,192,225997,1,0,0:0:0:0:
320,192,226054,1,0,0:0:0:0:
64,192,226110,1,0,0:0:0:0:
320,192,226166,1,0,0:0:0:0:
192,192,226223,1,0,0:0:0:0:
448,192,226279,1,0,0:0:0:0:
64,192,226335,1,0,0:0:0:0:
448,192,226391,1,0,0:0:0:0:
192,192,226448,1,0,0:0:0:0:
320,192,226448,1,0,0:0:0:0:
64,192,226504,1,0,0:0:0:0:
448,192,226561,1,0,0:0:0:0:
64,192,226617,1,0,0:0:0:0:
320,192,226674,1,0,0:0:0:0:
192,192,226730,1,0,0:0:0:0:
448,192,226786,1,0,0:0:0:0:
192,192,226843,1,0,0:0:0:0:
320,192,226899,1,0,0:0:0:0:
64,192,226899,1,0,0:0:0:0:
448,192,226956,1,0,0:0:0:0:
192,192,227012,1,0,0:0:0:0:
448,192,227069,1,0,0:0:0:0:
64,192,227125,1,0,0:0:0:0:
192,192,227162,1,0,0:0:0:0:
320,192,227200,1,0,0:0:0:0:
448,192,227238,1,0,0:0:0:0:
192,192,227275,1,0,0:0:0:0:
320,192,227313,1,0,0:0:0:0:
64,192,227351,1,0,0:0:0:0:
192,192,227388,1,0,0:0:0:0:
320,192,227426,1,0,0:0:0:0:
448,192,227463,1,0,0:0:0:0:
192,192,227501,1,0,0:0:0:0:
320,192,227539,1,0,0:0:0:0:
64,192,227576,1,0,0:0:0:0:
448,192,227576,1,0,0:0:0:0:
192,192,227632,1,0,0:0:0:0:
320,192,227689,1,0,0:0:0:0:
192,192,227745,1,0,0:0:0:0:
448,192,227801,1,0,0:0:0:0:
64,192,227801,1,0,0:0:0:0:
320,192,227858,1,0,0:0:0:0:
64,192,227914,1,0,0:0:0:0:
320,192,227971,1,0,0:0:0:0:
192,192,228027,1,0,0:0:0:0:
448,192,228084,1,0,0:0:0:0:
64,192,228140,1,0,0:0:0:0:
448,192,228196,1,0,0:0:0:0:
64,192,228253,1,0,0:0:0:0:
320,192,228253,1,0,0:0:0:0:
192,192,228309,1,0,0:0:0:0:
448,192,228366,1,0,0:0:0:0:
192,192,228422,1,0,0:0:0:0:
320,192,228478,1,0,0:0:0:0:
64,192,228534,1,0,0:0:0:0:
448,192,228591,1,0,0:0:0:0:
64,192,228647,1,0,0:0:0:0:
192,192,228704,1,0,0:0:0:0:
320,192,228704,1,0,0:0:0:0:
448,192,228760,1,0,0:0:0:0:
64,192,228816,1,0,0:0:0:0:
448,192,228873,1,0,0:0:0:0:
192,192,228929,1,0,0:0:0:0:
64,192,228929,1,0,0:0:0:0:
320,192,228986,1,0,0:0:0:0:
192,192,229042,1,0,0:0:0:0:
448,192,229099,1,0,0:0:0:0:
64,192,229155,1,0,0:0:0:0:
192,192,229211,1,0,0:0:0:0:
320,192,229268,1,0,0:0:0:0:
64,192,229324,1,0,0:0:0:0:
192,192,229381,1,0,0:0:0:0:
448,192,229381,1,0,0:0:0:0:
320,192,229437,1,0,0:0:0:0:
64,192,229494,1,0,0:0:0:0:
320,192,229549,1,0,0:0:0:0:
64,192,229606,1,0,0:0:0:0:
448,192,229606,1,0,0:0:0:0:
192,192,229662,1,0,0:0:0:0:
320,192,229719,1,0,0:0:0:0:
192,192,229775,1,0,0:0:0:0:
64,192,229831,1,0,0:0:0:0:
320,192,229831,1,0,0:0:0:0:
448,192,229888,1,0,0:0:0:0:
192,192,229944,1,0,0:0:0:0:
448,192,230001,1,0,0:0:0:0:
320,192,230057,1,0,0:0:0:0:
64,192,230057,1,0,0:0:0:0:
192,192,230114,1,0,0:0:0:0:
320,192,230170,1,0,0:0:0:0:
192,192,230226,1,0,0:0:0:0:
64,192,230283,1,0,0:0:0:0:
448,192,230283,1,0,0:0:0:0:
320,192,230339,1,0,0:0:0:0:
64,192,230396,1,0,0:0:0:0:
320,192,230452,1,0,0:0:0:0:
192,192,230509,1,0,0:0:0:0:
448,192,230509,1,0,0:0:0:0:
64,192,230565,1,0,0:0:0:0:
320,192,230621,1,0,0:0:0:0:
64,192,230677,1,0,0:0:0:0:
320,192,230734,1,0,0:0:0:0:
448,192,230734,1,0,0:0:0:0:
192,192,230790,1,0,0:0:0:0:
64,192,230790,1,0,0:0:0:0:
320,192,230846,1,0,0:0:0:0:
448,192,230846,1,0,0:0:0:0:
192,192,230903,1,0,0:0:0:0:
64,192,230903,1,0,0:0:0:0:
320,192,230959,1,0,0:0:0:0:
192,192,231016,1,0,0:0:0:0:
64,192,231072,1,0,0:0:0:0:
320,192,231129,1,0,0:0:0:0:
192,192,231185,1,0,0:0:0:0:
64,192,231185,1,0,0:0:0:0:
448,192,231185,1,0,0:0:0:0:
320,192,231298,1,0,0:0:0:0:
192,192,231298,1,0,0:0:0:0:
64,192,231411,1,0,0:0:0:0:
320,192,231411,1,0,0:0:0:0:
192,192,231524,1,0,0:0:0:0:
320,192,231524,1,0,0:0:0:0:
448,192,231524,1,0,0:0:0:0:
192,192,231636,1,0,0:0:0:0:
64,192,231636,1,0,0:0:0:0:
448,192,231749,1,0,0:0:0:0:
64,192,231749,1,0,0:0:0:0:
192,192,231861,1,0,0:0:0:0:
320,192,231974,1,0,0:0:0:0:
448,192,231974,1,0,0:0:0:0:
192,192,232087,1,0,0:0:0:0:
64,192,232087,1,0,0:0:0:0:
448,192,232087,1,0,0:0:0:0:
320,192,232200,1,0,0:0:0:0:
64,192,232200,1,0,0:0:0:0:
192,192,232313,1,0,0:0:0:0:
320,192,232313,1,0,0:0:0:0:
64,192,232426,1,0,0:0:0:0:
192,192,232426,1,0,0:0:0:0:
448,192,232426,1,0,0:0:0:0:
320,192,232539,1,0,0:0:0:0:
64,192,232539,1,0,0:0:0:0:
192,192,232651,1,0,0:0:0:0:
320,192,232651,1,0,0:0:0:0:
64,192,232764,1,0,0:0:0:0:
448,192,232764,1,0,0:0:0:0:
192,192,232820,1,0,0:0:0:0:
320,192,232876,1,0,0:0:0:0:
192,192,232933,1,0,0:0:0:0:
64,192,232989,1,0,0:0:0:0:
320,192,232989,1,0,0:0:0:0:
448,192,232989,1,0,0:0:0:0:
