osu file format v14

[General]
AudioFilename: audio130.mp3
AudioLeadIn: 0
PreviewTime: 64310
Countdown: 0
SampleSet: Normal
StackLeniency: 0.7
Mode: 3
LetterboxInBreaks: 0
SpecialStyle: 0
WidescreenStoryboard: 0

[Editor]
DistanceSpacing: 0.8
BeatDivisor: 4
GridSize: 8
TimelineZoom: 1.5

[Metadata]
Title:Master of Peace
TitleUnicode:Master of Peace
Artist:Rhapsody of Fire
ArtistUnicode:Rhapsody of Fire
Creator:Cokiiplay
Version:Peacful 1,3x
Source:
Tags:
BeatmapID:1964599
BeatmapSetID:940666

[Difficulty]
HPDrainRate:8
CircleSize:4
OverallDifficulty:8
ApproachRate:5
SliderMultiplier:1.4
SliderTickRate:1

[Events]
//Background and Video events
0,0,"859728.jpg",0,0
//Break Periods
//Storyboard Layer 0 (Background)
//Storyboard Layer 1 (Fail)
//Storyboard Layer 2 (Pass)
//Storyboard Layer 3 (Foreground)
//Storyboard Sound Samples

[TimingPoints]
221,242.914979757085,4,1,0,50,1,0

[HitObjects]
64,192,221,5,0,0:0:0:0:
320,192,221,1,0,0:0:0:0:
448,192,221,1,0,0:0:0:0:
192,192,342,1,0,0:0:0:0:
448,192,402,1,0,0:0:0:0:
64,192,463,1,0,0:0:0:0:
320,192,524,1,0,0:0:0:0:
192,192,585,128,0,645:0:0:0:0:
448,192,706,1,0,0:0:0:0:
320,192,767,1,0,0:0:0:0:
64,192,828,1,0,0:0:0:0:
448,192,888,1,0,0:0:0:0:
192,192,949,128,0,1010:0:0:0:0:
320,192,1071,1,0,0:0:0:0:
192,192,1132,1,0,0:0:0:0:
448,192,1192,1,0,0:0:0:0:
64,192,1253,1,0,0:0:0:0:
320,192,1314,128,0,1375:0:0:0:0:
192,192,1435,1,0,0:0:0:0:
320,192,1495,1,0,0:0:0:0:
64,192,1556,1,0,0:0:0:0:
192,192,1617,1,0,0:0:0:0:
448,192,1678,1,0,0:0:0:0:
192,192,1738,1,0,0:0:0:0:
448,192,1799,1,0,0:0:0:0:
192,192,1860,1,0,0:0:0:0:
320,192,1921,1,0,0:0:0:0:
64,192,1982,1,0,0:0:0:0:
320,192,2042,1,0,0:0:0:0:
64,192,2103,1,0,0:0:0:0:
192,192,2164,1,0,0:0:0:0:
448,192,2164,1,0,0:0:0:0:
320,192,2164,1,0,0:0:0:0:
64,192,2285,1,0,0:0:0:0:
448,192,2346,1,0,0:0:0:0:
192,192,2407,1,0,0:0:0:0:
320,192,2468,1,0,0:0:0:0:
64,192,2528,128,0,2588:0:0:0:0:
448,192,2649,1,0,0:0:0:0:
192,192,2710,1,0,0:0:0:0:
320,192,2771,1,0,0:0:0:0:
64,192,2832,1,0,0:0:0:0:
448,192,2892,128,0,2953:0:0:0:0:
192,192,3014,1,0,0:0:0:0:
320,192,3075,1,0,0:0:0:0:
64,192,3135,1,0,0:0:0:0:
192,192,3196,1,0,0:0:0:0:
448,192,3257,128,0,3318:0:0:0:0:
320,192,3378,1,0,0:0:0:0:
192,192,3439,1,0,0:0:0:0:
64,192,3500,1,0,0:0:0:0:
320,192,3561,1,0,0:0:0:0:
192,192,3622,128,0,3803:0:0:0:0:
64,192,3622,128,0,3803:0:0:0:0:
448,192,3622,128,0,3864:0:0:0:0:
64,192,3864,128,0,4107:0:0:0:0:
192,192,3864,128,0,4046:0:0:0:0:
320,192,3864,128,0,4046:0:0:0:0:
192,192,4107,1,0,0:0:0:0:
320,192,4107,1,0,0:0:0:0:
448,192,4107,1,0,0:0:0:0:
64,192,4228,1,0,0:0:0:0:
448,192,4289,1,0,0:0:0:0:
192,192,4350,1,0,0:0:0:0:
320,192,4411,1,0,0:0:0:0:
64,192,4472,128,0,4532:0:0:0:0:
448,192,4593,1,0,0:0:0:0:
192,192,4654,1,0,0:0:0:0:
320,192,4715,1,0,0:0:0:0:
64,192,4775,1,0,0:0:0:0:
448,192,4836,128,0,4896:0:0:0:0:
320,192,4957,1,0,0:0:0:0:
192,192,5018,1,0,0:0:0:0:
448,192,5078,1,0,0:0:0:0:
64,192,5139,1,0,0:0:0:0:
192,192,5200,128,0,5261:0:0:0:0:
320,192,5322,1,0,0:0:0:0:
64,192,5382,1,0,0:0:0:0:
448,192,5443,1,0,0:0:0:0:
192,192,5504,1,0,0:0:0:0:
320,192,5565,1,0,0:0:0:0:
64,192,5625,1,0,0:0:0:0:
320,192,5686,1,0,0:0:0:0:
64,192,5747,1,0,0:0:0:0:
192,192,5808,1,0,0:0:0:0:
448,192,5868,1,0,0:0:0:0:
192,192,5929,1,0,0:0:0:0:
448,192,5990,1,0,0:0:0:0:
320,192,6050,1,0,0:0:0:0:
192,192,6050,1,0,0:0:0:0:
64,192,6050,1,0,0:0:0:0:
448,192,6172,1,0,0:0:0:0:
320,192,6293,1,0,0:0:0:0:
448,192,6293,1,0,0:0:0:0:
64,192,6415,1,0,0:0:0:0:
192,192,6415,1,0,0:0:0:0:
448,192,6415,1,0,0:0:0:0:
320,192,6536,1,0,0:0:0:0:
320,192,6658,1,0,0:0:0:0:
64,192,6658,1,0,0:0:0:0:
192,192,6779,1,0,0:0:0:0:
64,192,6779,1,0,0:0:0:0:
448,192,6779,1,0,0:0:0:0:
192,192,6901,1,0,0:0:0:0:
320,192,6901,1,0,0:0:0:0:
64,192,7022,1,0,0:0:0:0:
320,192,7022,1,0,0:0:0:0:
448,192,7022,1,0,0:0:0:0:
64,192,7144,1,0,0:0:0:0:
192,192,7204,1,0,0:0:0:0:
320,192,7265,1,0,0:0:0:0:
448,192,7325,1,0,0:0:0:0:
192,192,7386,1,0,0:0:0:0:
64,192,7447,1,0,0:0:0:0:
448,192,7508,1,0,0:0:0:0:
192,192,7568,1,0,0:0:0:0:
320,192,7629,1,0,0:0:0:0:
448,192,7690,1,0,0:0:0:0:
192,192,7751,1,0,0:0:0:0:
64,192,7812,1,0,0:0:0:0:
320,192,7872,1,0,0:0:0:0:
192,192,7933,1,0,0:0:0:0:
64,192,7994,1,0,0:0:0:0:
448,192,7994,1,0,0:0:0:0:
320,192,8055,1,0,0:0:0:0:
192,192,8115,1,0,0:0:0:0:
448,192,8176,1,0,0:0:0:0:
64,192,8237,1,0,0:0:0:0:
192,192,8237,1,0,0:0:0:0:
448,192,8298,1,0,0:0:0:0:
320,192,8358,1,0,0:0:0:0:
64,192,8418,1,0,0:0:0:0:
192,192,8479,1,0,0:0:0:0:
448,192,8540,1,0,0:0:0:0:
64,192,8601,1,0,0:0:0:0:
192,192,8662,1,0,0:0:0:0:
320,192,8722,1,0,0:0:0:0:
448,192,8722,1,0,0:0:0:0:
192,192,8783,1,0,0:0:0:0:
448,192,8844,1,0,0:0:0:0:
64,192,8905,1,0,0:0:0:0:
320,192,8965,1,0,0:0:0:0:
64,192,9026,1,0,0:0:0:0:
192,192,9087,1,0,0:0:0:0:
448,192,9148,1,0,0:0:0:0:
320,192,9208,1,0,0:0:0:0:
192,192,9208,1,0,0:0:0:0:
448,192,9269,1,0,0:0:0:0:
64,192,9330,1,0,0:0:0:0:
192,192,9391,1,0,0:0:0:0:
448,192,9452,1,0,0:0:0:0:
320,192,9512,1,0,0:0:0:0:
192,192,9572,1,0,0:0:0:0:
64,192,9633,1,0,0:0:0:0:
448,192,9694,1,0,0:0:0:0:
192,192,9694,1,0,0:0:0:0:
320,192,9755,1,0,0:0:0:0:
192,192,9815,1,0,0:0:0:0:
64,192,9876,1,0,0:0:0:0:
448,192,9937,1,0,0:0:0:0:
320,192,9998,1,0,0:0:0:0:
192,192,10058,1,0,0:0:0:0:
448,192,10119,1,0,0:0:0:0:
320,192,10180,1,0,0:0:0:0:
64,192,10180,1,0,0:0:0:0:
448,192,10241,1,0,0:0:0:0:
64,192,10302,1,0,0:0:0:0:
192,192,10362,1,0,0:0:0:0:
320,192,10423,1,0,0:0:0:0:
64,192,10484,1,0,0:0:0:0:
448,192,10545,1,0,0:0:0:0:
320,192,10605,1,0,0:0:0:0:
64,192,10665,1,0,0:0:0:0:
192,192,10665,1,0,0:0:0:0:
320,192,10726,1,0,0:0:0:0:
192,192,10787,1,0,0:0:0:0:
64,192,10848,1,0,0:0:0:0:
448,192,10908,1,0,0:0:0:0:
192,192,10969,1,0,0:0:0:0:
320,192,11030,1,0,0:0:0:0:
64,192,11091,1,0,0:0:0:0:
192,192,11152,1,0,0:0:0:0:
448,192,11152,1,0,0:0:0:0:
64,192,11212,1,0,0:0:0:0:
448,192,11273,1,0,0:0:0:0:
320,192,11334,1,0,0:0:0:0:
64,192,11395,128,0,11638:0:0:0:0:
192,192,11395,128,0,11577:0:0:0:0:
448,192,11395,128,0,11577:0:0:0:0:
192,192,11638,128,0,11819:0:0:0:0:
320,192,11638,128,0,11819:0:0:0:0:
448,192,11638,128,0,11880:0:0:0:0:
192,192,11880,1,0,0:0:0:0:
320,192,11880,1,0,0:0:0:0:
64,192,11880,1,0,0:0:0:0:
448,192,11941,1,0,0:0:0:0:
64,192,12002,1,0,0:0:0:0:
192,192,12062,1,0,0:0:0:0:
320,192,12123,1,0,0:0:0:0:
448,192,12123,1,0,0:0:0:0:
192,192,12184,1,0,0:0:0:0:
448,192,12245,1,0,0:0:0:0:
64,192,12305,1,0,0:0:0:0:
320,192,12366,1,0,0:0:0:0:
64,192,12427,1,0,0:0:0:0:
192,192,12488,1,0,0:0:0:0:
448,192,12548,1,0,0:0:0:0:
320,192,12609,1,0,0:0:0:0:
192,192,12609,1,0,0:0:0:0:
448,192,12670,1,0,0:0:0:0:
64,192,12731,1,0,0:0:0:0:
320,192,12792,1,0,0:0:0:0:
192,192,12852,1,0,0:0:0:0:
320,192,12913,1,0,0:0:0:0:
64,192,12973,1,0,0:0:0:0:
192,192,13034,1,0,0:0:0:0:
448,192,13095,1,0,0:0:0:0:
320,192,13095,1,0,0:0:0:0:
64,192,13155,1,0,0:0:0:0:
192,192,13216,1,0,0:0:0:0:
448,192,13277,1,0,0:0:0:0:
192,192,13338,1,0,0:0:0:0:
64,192,13338,1,0,0:0:0:0:
320,192,13398,1,0,0:0:0:0:
448,192,13398,1,0,0:0:0:0:
192,192,13459,1,0,0:0:0:0:
64,192,13459,1,0,0:0:0:0:
320,192,13520,1,0,0:0:0:0:
448,192,13520,1,0,0:0:0:0:
64,192,13581,1,0,0:0:0:0:
320,192,13642,1,0,0:0:0:0:
64,192,13702,1,0,0:0:0:0:
320,192,13763,1,0,0:0:0:0:
448,192,13824,1,0,0:0:0:0:
64,192,13824,1,0,0:0:0:0:
192,192,13824,1,0,0:0:0:0:
320,192,13945,1,0,0:0:0:0:
320,192,14067,1,0,0:0:0:0:
192,192,14067,1,0,0:0:0:0:
64,192,14188,1,0,0:0:0:0:
192,192,14188,1,0,0:0:0:0:
448,192,14188,1,0,0:0:0:0:
320,192,14309,1,0,0:0:0:0:
64,192,14431,1,0,0:0:0:0:
448,192,14431,1,0,0:0:0:0:
192,192,14552,1,0,0:0:0:0:
320,192,14552,1,0,0:0:0:0:
448,192,14552,1,0,0:0:0:0:
64,192,14674,1,0,0:0:0:0:
320,192,14674,1,0,0:0:0:0:
64,192,14795,1,0,0:0:0:0:
192,192,14795,1,0,0:0:0:0:
448,192,14795,1,0,0:0:0:0:
320,192,14917,1,0,0:0:0:0:
192,192,15038,1,0,0:0:0:0:
320,192,15038,1,0,0:0:0:0:
192,192,15160,1,0,0:0:0:0:
64,192,15160,1,0,0:0:0:0:
448,192,15160,1,0,0:0:0:0:
320,192,15281,1,0,0:0:0:0:
64,192,15281,1,0,0:0:0:0:
64,192,15402,1,0,0:0:0:0:
320,192,15402,1,0,0:0:0:0:
192,192,15524,1,0,0:0:0:0:
320,192,15524,1,0,0:0:0:0:
448,192,15524,1,0,0:0:0:0:
64,192,15645,1,0,0:0:0:0:
448,192,15645,1,0,0:0:0:0:
320,192,15767,1,0,0:0:0:0:
64,192,15767,1,0,0:0:0:0:
192,192,15767,1,0,0:0:0:0:
64,192,16253,1,0,0:0:0:0:
192,192,16314,1,0,0:0:0:0:
320,192,16375,1,0,0:0:0:0:
64,192,16435,1,0,0:0:0:0:
192,192,16495,1,0,0:0:0:0:
448,192,16556,1,0,0:0:0:0:
64,192,16617,1,0,0:0:0:0:
192,192,16678,1,0,0:0:0:0:
320,192,16738,1,0,0:0:0:0:
448,192,16738,1,0,0:0:0:0:
64,192,16738,1,0,0:0:0:0:
64,192,17710,1,0,0:0:0:0:
448,192,17710,1,0,0:0:0:0:
320,192,17771,1,0,0:0:0:0:
192,192,17832,1,0,0:0:0:0:
448,192,17892,1,0,0:0:0:0:
320,192,17953,1,0,0:0:0:0:
64,192,17953,1,0,0:0:0:0:
192,192,18014,1,0,0:0:0:0:
448,192,18075,1,0,0:0:0:0:
192,192,18135,1,0,0:0:0:0:
320,192,18196,1,0,0:0:0:0:
64,192,18257,1,0,0:0:0:0:
192,192,18318,1,0,0:0:0:0:
448,192,18378,1,0,0:0:0:0:
320,192,18439,1,0,0:0:0:0:
64,192,18439,1,0,0:0:0:0:
192,192,18500,1,0,0:0:0:0:
448,192,18561,1,0,0:0:0:0:
320,192,18622,1,0,0:0:0:0:
64,192,18682,1,0,0:0:0:0:
448,192,18742,1,0,0:0:0:0:
192,192,18803,1,0,0:0:0:0:
320,192,18864,1,0,0:0:0:0:
64,192,18925,1,0,0:0:0:0:
192,192,18925,1,0,0:0:0:0:
448,192,18985,1,0,0:0:0:0:
320,192,19046,1,0,0:0:0:0:
64,192,19107,1,0,0:0:0:0:
192,192,19168,1,0,0:0:0:0:
448,192,19228,1,0,0:0:0:0:
192,192,19289,1,0,0:0:0:0:
320,192,19350,1,0,0:0:0:0:
448,192,19411,1,0,0:0:0:0:
64,192,19411,1,0,0:0:0:0:
192,192,19472,1,0,0:0:0:0:
320,192,19532,1,0,0:0:0:0:
64,192,19593,1,0,0:0:0:0:
448,192,19654,1,0,0:0:0:0:
320,192,19715,1,0,0:0:0:0:
64,192,19775,1,0,0:0:0:0:
320,192,19836,1,0,0:0:0:0:
192,192,19896,1,0,0:0:0:0:
64,192,19896,1,0,0:0:0:0:
448,192,19957,1,0,0:0:0:0:
320,192,20018,1,0,0:0:0:0:
64,192,20078,1,0,0:0:0:0:
448,192,20139,1,0,0:0:0:0:
320,192,20200,1,0,0:0:0:0:
64,192,20261,1,0,0:0:0:0:
448,192,20322,1,0,0:0:0:0:
320,192,20382,1,0,0:0:0:0:
192,192,20382,1,0,0:0:0:0:
64,192,20443,1,0,0:0:0:0:
448,192,20504,1,0,0:0:0:0:
64,192,20565,1,0,0:0:0:0:
192,192,20625,1,0,0:0:0:0:
320,192,20686,1,0,0:0:0:0:
64,192,20747,1,0,0:0:0:0:
448,192,20808,1,0,0:0:0:0:
320,192,20868,1,0,0:0:0:0:
192,192,20868,1,0,0:0:0:0:
64,192,20929,1,0,0:0:0:0:
448,192,20990,1,0,0:0:0:0:
320,192,21050,1,0,0:0:0:0:
192,192,21111,1,0,0:0:0:0:
320,192,21172,1,0,0:0:0:0:
64,192,21232,1,0,0:0:0:0:
192,192,21293,1,0,0:0:0:0:
320,192,21354,1,0,0:0:0:0:
448,192,21354,1,0,0:0:0:0:
64,192,21415,1,0,0:0:0:0:
448,192,21475,1,0,0:0:0:0:
192,192,21536,1,0,0:0:0:0:
320,192,21597,1,0,0:0:0:0:
64,192,21658,1,0,0:0:0:0:
192,192,21718,1,0,0:0:0:0:
448,192,21779,1,0,0:0:0:0:
320,192,21840,1,0,0:0:0:0:
64,192,21840,1,0,0:0:0:0:
192,192,21901,1,0,0:0:0:0:
448,192,21962,1,0,0:0:0:0:
64,192,22022,1,0,0:0:0:0:
320,192,22083,1,0,0:0:0:0:
64,192,22144,1,0,0:0:0:0:
192,192,22204,1,0,0:0:0:0:
320,192,22265,1,0,0:0:0:0:
64,192,22325,1,0,0:0:0:0:
448,192,22325,1,0,0:0:0:0:
192,192,22386,1,0,0:0:0:0:
320,192,22447,1,0,0:0:0:0:
192,192,22508,1,0,0:0:0:0:
320,192,22568,1,0,0:0:0:0:
64,192,22629,1,0,0:0:0:0:
448,192,22690,1,0,0:0:0:0:
320,192,22751,1,0,0:0:0:0:
192,192,22812,1,0,0:0:0:0:
64,192,22812,1,0,0:0:0:0:
448,192,22872,1,0,0:0:0:0:
320,192,22933,1,0,0:0:0:0:
192,192,22994,1,0,0:0:0:0:
448,192,23055,1,0,0:0:0:0:
64,192,23055,1,0,0:0:0:0:
320,192,23115,1,0,0:0:0:0:
192,192,23115,1,0,0:0:0:0:
64,192,23176,1,0,0:0:0:0:
448,192,23176,1,0,0:0:0:0:
192,192,23237,1,0,0:0:0:0:
320,192,23237,1,0,0:0:0:0:
64,192,23298,1,0,0:0:0:0:
320,192,23358,1,0,0:0:0:0:
64,192,23418,1,0,0:0:0:0:
320,192,23479,1,0,0:0:0:0:
448,192,23540,1,0,0:0:0:0:
64,192,23540,1,0,0:0:0:0:
192,192,23540,1,0,0:0:0:0:
320,192,23783,1,0,0:0:0:0:
192,192,23783,1,0,0:0:0:0:
64,192,24026,1,0,0:0:0:0:
64,192,24148,1,0,0:0:0:0:
192,192,24269,1,0,0:0:0:0:
320,192,24269,1,0,0:0:0:0:
64,192,24391,1,0,0:0:0:0:
192,192,24452,1,0,0:0:0:0:
320,192,24512,1,0,0:0:0:0:
320,192,24633,1,0,0:0:0:0:
448,192,24633,1,0,0:0:0:0:
320,192,24876,1,0,0:0:0:0:
448,192,24876,1,0,0:0:0:0:
320,192,25119,1,0,0:0:0:0:
448,192,25119,1,0,0:0:0:0:
320,192,25362,1,0,0:0:0:0:
448,192,25362,1,0,0:0:0:0:
192,192,25484,1,0,0:0:0:0:
64,192,25484,1,0,0:0:0:0:
448,192,25484,1,0,0:0:0:0:
320,192,25545,1,0,0:0:0:0:
64,192,25605,1,0,0:0:0:0:
448,192,25665,1,0,0:0:0:0:
320,192,25726,1,0,0:0:0:0:
192,192,25726,1,0,0:0:0:0:
64,192,25787,1,0,0:0:0:0:
448,192,25848,1,0,0:0:0:0:
192,192,25908,1,0,0:0:0:0:
320,192,25969,1,0,0:0:0:0:
192,192,26030,1,0,0:0:0:0:
448,192,26091,1,0,0:0:0:0:
320,192,26152,1,0,0:0:0:0:
192,192,26212,1,0,0:0:0:0:
64,192,26212,1,0,0:0:0:0:
448,192,26273,1,0,0:0:0:0:
64,192,26334,1,0,0:0:0:0:
192,192,26395,1,0,0:0:0:0:
320,192,26455,1,0,0:0:0:0:
192,192,26516,1,0,0:0:0:0:
448,192,26577,1,0,0:0:0:0:
320,192,26638,1,0,0:0:0:0:
192,192,26698,1,0,0:0:0:0:
64,192,26698,1,0,0:0:0:0:
320,192,26759,1,0,0:0:0:0:
64,192,26819,1,0,0:0:0:0:
192,192,26880,1,0,0:0:0:0:
320,192,26941,1,0,0:0:0:0:
64,192,27002,1,0,0:0:0:0:
448,192,27062,1,0,0:0:0:0:
192,192,27123,1,0,0:0:0:0:
320,192,27184,1,0,0:0:0:0:
448,192,27184,1,0,0:0:0:0:
64,192,27245,1,0,0:0:0:0:
192,192,27305,1,0,0:0:0:0:
448,192,27366,1,0,0:0:0:0:
64,192,27427,1,0,0:0:0:0:
320,192,27488,1,0,0:0:0:0:
64,192,27548,1,0,0:0:0:0:
448,192,27609,1,0,0:0:0:0:
320,192,27670,1,0,0:0:0:0:
192,192,27670,1,0,0:0:0:0:
64,192,27731,1,0,0:0:0:0:
448,192,27792,1,0,0:0:0:0:
320,192,27852,1,0,0:0:0:0:
192,192,27913,1,0,0:0:0:0:
320,192,27973,1,0,0:0:0:0:
64,192,28034,1,0,0:0:0:0:
192,192,28095,1,0,0:0:0:0:
320,192,28155,1,0,0:0:0:0:
448,192,28155,1,0,0:0:0:0:
192,192,28216,1,0,0:0:0:0:
448,192,28277,1,0,0:0:0:0:
320,192,28338,1,0,0:0:0:0:
64,192,28398,1,0,0:0:0:0:
448,192,28459,1,0,0:0:0:0:
192,192,28520,1,0,0:0:0:0:
320,192,28581,1,0,0:0:0:0:
192,192,28642,1,0,0:0:0:0:
64,192,28642,1,0,0:0:0:0:
448,192,28702,1,0,0:0:0:0:
320,192,28763,1,0,0:0:0:0:
64,192,28824,1,0,0:0:0:0:
320,192,28885,1,0,0:0:0:0:
192,192,28945,1,0,0:0:0:0:
448,192,29006,1,0,0:0:0:0:
64,192,29067,1,0,0:0:0:0:
192,192,29127,1,0,0:0:0:0:
448,192,29127,1,0,0:0:0:0:
320,192,29188,1,0,0:0:0:0:
192,192,29248,1,0,0:0:0:0:
320,192,29309,1,0,0:0:0:0:
64,192,29370,1,0,0:0:0:0:
192,192,29431,1,0,0:0:0:0:
448,192,29492,1,0,0:0:0:0:
64,192,29552,1,0,0:0:0:0:
192,192,29613,1,0,0:0:0:0:
448,192,29613,1,0,0:0:0:0:
320,192,29674,1,0,0:0:0:0:
192,192,29735,1,0,0:0:0:0:
448,192,29795,1,0,0:0:0:0:
64,192,29856,1,0,0:0:0:0:
320,192,29917,1,0,0:0:0:0:
192,192,29978,1,0,0:0:0:0:
448,192,30038,1,0,0:0:0:0:
320,192,30099,1,0,0:0:0:0:
64,192,30099,1,0,0:0:0:0:
192,192,30160,1,0,0:0:0:0:
448,192,30221,1,0,0:0:0:0:
64,192,30281,1,0,0:0:0:0:
192,192,30342,1,0,0:0:0:0:
320,192,30402,1,0,0:0:0:0:
64,192,30463,1,0,0:0:0:0:
448,192,30524,1,0,0:0:0:0:
320,192,30585,1,0,0:0:0:0:
64,192,30585,1,0,0:0:0:0:
192,192,30645,1,0,0:0:0:0:
320,192,30706,1,0,0:0:0:0:
64,192,30767,1,0,0:0:0:0:
192,192,30828,1,0,0:0:0:0:
448,192,30888,1,0,0:0:0:0:
192,192,30949,1,0,0:0:0:0:
320,192,31010,1,0,0:0:0:0:
448,192,31071,1,0,0:0:0:0:
64,192,31071,1,0,0:0:0:0:
192,192,31132,1,0,0:0:0:0:
320,192,31192,1,0,0:0:0:0:
192,192,31253,1,0,0:0:0:0:
448,192,31314,1,0,0:0:0:0:
320,192,31375,1,0,0:0:0:0:
192,192,31435,1,0,0:0:0:0:
448,192,31495,1,0,0:0:0:0:
320,192,31556,1,0,0:0:0:0:
64,192,31556,1,0,0:0:0:0:
192,192,31617,1,0,0:0:0:0:
448,192,31678,1,0,0:0:0:0:
64,192,31738,1,0,0:0:0:0:
320,192,31799,1,0,0:0:0:0:
64,192,31860,1,0,0:0:0:0:
448,192,31921,1,0,0:0:0:0:
192,192,31982,1,0,0:0:0:0:
320,192,32042,1,0,0:0:0:0:
448,192,32042,1,0,0:0:0:0:
64,192,32103,1,0,0:0:0:0:
192,192,32164,1,0,0:0:0:0:
448,192,32225,1,0,0:0:0:0:
64,192,32285,1,0,0:0:0:0:
320,192,32346,1,0,0:0:0:0:
192,192,32407,1,0,0:0:0:0:
448,192,32468,1,0,0:0:0:0:
320,192,32528,1,0,0:0:0:0:
64,192,32528,1,0,0:0:0:0:
192,192,32588,1,0,0:0:0:0:
448,192,32649,1,0,0:0:0:0:
64,192,32710,1,0,0:0:0:0:
448,192,32771,1,0,0:0:0:0:
320,192,32771,1,0,0:0:0:0:
192,192,32832,1,0,0:0:0:0:
64,192,32832,1,0,0:0:0:0:
448,192,32892,1,0,0:0:0:0:
320,192,32953,1,0,0:0:0:0:
64,192,33014,1,0,0:0:0:0:
192,192,33075,1,0,0:0:0:0:
64,192,33135,1,0,0:0:0:0:
192,192,33196,1,0,0:0:0:0:
320,192,33257,1,0,0:0:0:0:
448,192,33257,1,0,0:0:0:0:
320,192,33378,1,0,0:0:0:0:
64,192,33500,1,0,0:0:0:0:
448,192,33500,1,0,0:0:0:0:
192,192,33622,1,0,0:0:0:0:
320,192,33622,1,0,0:0:0:0:
192,192,33742,1,0,0:0:0:0:
64,192,33864,1,0,0:0:0:0:
320,192,33985,1,0,0:0:0:0:
448,192,33985,1,0,0:0:0:0:
320,192,34107,1,0,0:0:0:0:
192,192,34228,1,0,0:0:0:0:
64,192,34350,1,0,0:0:0:0:
320,192,34350,1,0,0:0:0:0:
192,192,34472,1,0,0:0:0:0:
320,192,34472,1,0,0:0:0:0:
64,192,34593,1,0,0:0:0:0:
192,192,34654,1,0,0:0:0:0:
320,192,34715,1,0,0:0:0:0:
448,192,34715,1,0,0:0:0:0:
64,192,34836,1,0,0:0:0:0:
320,192,34957,1,0,0:0:0:0:
448,192,34957,1,0,0:0:0:0:
192,192,35078,1,0,0:0:0:0:
64,192,35200,1,0,0:0:0:0:
448,192,35200,1,0,0:0:0:0:
448,192,35322,1,0,0:0:0:0:
320,192,35443,1,0,0:0:0:0:
192,192,35443,1,0,0:0:0:0:
64,192,35565,1,0,0:0:0:0:
320,192,35565,1,0,0:0:0:0:
64,192,35686,1,0,0:0:0:0:
192,192,35808,1,0,0:0:0:0:
320,192,35929,1,0,0:0:0:0:
448,192,35929,1,0,0:0:0:0:
320,192,36050,1,0,0:0:0:0:
64,192,36172,1,0,0:0:0:0:
192,192,36293,1,0,0:0:0:0:
448,192,36293,1,0,0:0:0:0:
320,192,36415,1,0,0:0:0:0:
192,192,36415,1,0,0:0:0:0:
64,192,36536,1,0,0:0:0:0:
192,192,36597,1,0,0:0:0:0:
320,192,36658,1,0,0:0:0:0:
448,192,36658,1,0,0:0:0:0:
64,192,36779,1,0,0:0:0:0:
320,192,36901,1,0,0:0:0:0:
448,192,36901,1,0,0:0:0:0:
192,192,37022,1,0,0:0:0:0:
64,192,37144,1,0,0:0:0:0:
448,192,37144,1,0,0:0:0:0:
448,192,37265,1,0,0:0:0:0:
192,192,37386,1,0,0:0:0:0:
64,192,37386,1,0,0:0:0:0:
192,192,37508,1,0,0:0:0:0:
320,192,37508,1,0,0:0:0:0:
320,192,37629,1,0,0:0:0:0:
64,192,37751,1,0,0:0:0:0:
320,192,37872,1,0,0:0:0:0:
448,192,37872,1,0,0:0:0:0:
448,192,37994,1,0,0:0:0:0:
64,192,38115,1,0,0:0:0:0:
192,192,38237,1,0,0:0:0:0:
448,192,38237,1,0,0:0:0:0:
320,192,38358,1,0,0:0:0:0:
192,192,38358,1,0,0:0:0:0:
64,192,38479,1,0,0:0:0:0:
192,192,38540,1,0,0:0:0:0:
320,192,38601,1,0,0:0:0:0:
448,192,38601,1,0,0:0:0:0:
64,192,38722,1,0,0:0:0:0:
320,192,38844,1,0,0:0:0:0:
448,192,38844,1,0,0:0:0:0:
192,192,38965,1,0,0:0:0:0:
64,192,39087,1,0,0:0:0:0:
448,192,39087,1,0,0:0:0:0:
448,192,39208,1,0,0:0:0:0:
192,192,39330,1,0,0:0:0:0:
320,192,39330,1,0,0:0:0:0:
64,192,39452,1,0,0:0:0:0:
64,192,39572,1,0,0:0:0:0:
192,192,39694,1,0,0:0:0:0:
448,192,39694,1,0,0:0:0:0:
192,192,39815,1,0,0:0:0:0:
448,192,39815,1,0,0:0:0:0:
320,192,39937,1,0,0:0:0:0:
192,192,39998,1,0,0:0:0:0:
64,192,40058,1,0,0:0:0:0:
320,192,40058,1,0,0:0:0:0:
448,192,40058,1,0,0:0:0:0:
192,192,40180,1,0,0:0:0:0:
448,192,40302,1,0,0:0:0:0:
192,192,40423,1,0,0:0:0:0:
320,192,40545,1,0,0:0:0:0:
448,192,40545,1,0,0:0:0:0:
64,192,40605,1,0,0:0:0:0:
192,192,40665,1,0,0:0:0:0:
320,192,40726,1,0,0:0:0:0:
64,192,40787,1,0,0:0:0:0:
192,192,40787,1,0,0:0:0:0:
320,192,40848,1,0,0:0:0:0:
448,192,40848,1,0,0:0:0:0:
64,192,40908,1,0,0:0:0:0:
192,192,40908,1,0,0:0:0:0:
320,192,40969,1,0,0:0:0:0:
448,192,40969,1,0,0:0:0:0:
64,192,41030,1,0,0:0:0:0:
192,192,41091,1,0,0:0:0:0:
448,192,41152,1,0,0:0:0:0:
64,192,41212,1,0,0:0:0:0:
192,192,41273,1,0,0:0:0:0:
320,192,41273,1,0,0:0:0:0:
448,192,41334,1,0,0:0:0:0:
192,192,41395,1,0,0:0:0:0:
320,192,41455,1,0,0:0:0:0:
64,192,41516,1,0,0:0:0:0:
448,192,41577,1,0,0:0:0:0:
320,192,41638,1,0,0:0:0:0:
192,192,41698,1,0,0:0:0:0:
64,192,41759,1,0,0:0:0:0:
448,192,41759,1,0,0:0:0:0:
192,192,41819,1,0,0:0:0:0:
320,192,41880,1,0,0:0:0:0:
64,192,41941,1,0,0:0:0:0:
192,192,42002,1,0,0:0:0:0:
448,192,42062,1,0,0:0:0:0:
64,192,42123,1,0,0:0:0:0:
320,192,42184,1,0,0:0:0:0:
64,192,42245,1,0,0:0:0:0:
192,192,42245,1,0,0:0:0:0:
448,192,42305,1,0,0:0:0:0:
320,192,42366,1,0,0:0:0:0:
64,192,42427,1,0,0:0:0:0:
448,192,42488,1,0,0:0:0:0:
192,192,42548,1,0,0:0:0:0:
448,192,42609,1,0,0:0:0:0:
64,192,42670,1,0,0:0:0:0:
192,192,42731,1,0,0:0:0:0:
320,192,42731,1,0,0:0:0:0:
448,192,42792,1,0,0:0:0:0:
64,192,42852,1,0,0:0:0:0:
192,192,42913,1,0,0:0:0:0:
448,192,42973,1,0,0:0:0:0:
64,192,43034,1,0,0:0:0:0:
320,192,43095,1,0,0:0:0:0:
192,192,43155,1,0,0:0:0:0:
64,192,43216,1,0,0:0:0:0:
448,192,43216,1,0,0:0:0:0:
320,192,43277,1,0,0:0:0:0:
192,192,43338,1,0,0:0:0:0:
320,192,43398,1,0,0:0:0:0:
192,192,43459,1,0,0:0:0:0:
64,192,43520,1,0,0:0:0:0:
448,192,43581,1,0,0:0:0:0:
192,192,43642,1,0,0:0:0:0:
64,192,43702,1,0,0:0:0:0:
448,192,43702,1,0,0:0:0:0:
320,192,43763,1,0,0:0:0:0:
192,192,43824,1,0,0:0:0:0:
448,192,43885,1,0,0:0:0:0:
320,192,43945,1,0,0:0:0:0:
64,192,44006,1,0,0:0:0:0:
192,192,44067,1,0,0:0:0:0:
320,192,44127,1,0,0:0:0:0:
192,192,44188,1,0,0:0:0:0:
64,192,44188,1,0,0:0:0:0:
448,192,44248,1,0,0:0:0:0:
320,192,44309,1,0,0:0:0:0:
64,192,44370,1,0,0:0:0:0:
448,192,44431,1,0,0:0:0:0:
192,192,44492,1,0,0:0:0:0:
320,192,44552,1,0,0:0:0:0:
64,192,44613,1,0,0:0:0:0:
192,192,44674,1,0,0:0:0:0:
448,192,44674,1,0,0:0:0:0:
320,192,44735,1,0,0:0:0:0:
192,192,44795,1,0,0:0:0:0:
320,192,44856,1,0,0:0:0:0:
448,192,44917,1,0,0:0:0:0:
64,192,44978,1,0,0:0:0:0:
320,192,45038,1,0,0:0:0:0:
192,192,45099,1,0,0:0:0:0:
64,192,45160,1,0,0:0:0:0:
448,192,45160,1,0,0:0:0:0:
320,192,45221,1,0,0:0:0:0:
192,192,45281,1,0,0:0:0:0:
448,192,45342,1,0,0:0:0:0:
64,192,45402,1,0,0:0:0:0:
448,192,45463,1,0,0:0:0:0:
320,192,45524,1,0,0:0:0:0:
192,192,45585,1,0,0:0:0:0:
64,192,45645,1,0,0:0:0:0:
448,192,45645,1,0,0:0:0:0:
192,192,45706,1,0,0:0:0:0:
320,192,45767,1,0,0:0:0:0:
64,192,45828,1,0,0:0:0:0:
320,192,45888,1,0,0:0:0:0:
192,192,45949,1,0,0:0:0:0:
448,192,46010,1,0,0:0:0:0:
320,192,46071,1,0,0:0:0:0:
64,192,46132,1,0,0:0:0:0:
192,192,46132,1,0,0:0:0:0:
448,192,46192,1,0,0:0:0:0:
320,192,46253,1,0,0:0:0:0:
64,192,46314,1,0,0:0:0:0:
192,192,46375,1,0,0:0:0:0:
448,192,46435,1,0,0:0:0:0:
64,192,46495,1,0,0:0:0:0:
192,192,46556,1,0,0:0:0:0:
320,192,46617,1,0,0:0:0:0:
448,192,46617,1,0,0:0:0:0:
192,192,46678,1,0,0:0:0:0:
64,192,46678,1,0,0:0:0:0:
448,192,46738,1,0,0:0:0:0:
320,192,46738,1,0,0:0:0:0:
192,192,46799,1,0,0:0:0:0:
64,192,46799,1,0,0:0:0:0:
320,192,46860,1,0,0:0:0:0:
192,192,47103,1,0,0:0:0:0:
448,192,47103,1,0,0:0:0:0:
64,192,47346,1,0,0:0:0:0:
64,192,47468,1,0,0:0:0:0:
192,192,47588,1,0,0:0:0:0:
448,192,47588,1,0,0:0:0:0:
320,192,47710,1,0,0:0:0:0:
192,192,47771,1,0,0:0:0:0:
64,192,47832,1,0,0:0:0:0:
320,192,47953,1,0,0:0:0:0:
448,192,47953,1,0,0:0:0:0:
320,192,48196,1,0,0:0:0:0:
448,192,48196,1,0,0:0:0:0:
320,192,48439,1,0,0:0:0:0:
448,192,48439,1,0,0:0:0:0:
320,192,48682,1,0,0:0:0:0:
448,192,48682,1,0,0:0:0:0:
192,192,48803,1,0,0:0:0:0:
64,192,48803,1,0,0:0:0:0:
448,192,48803,1,0,0:0:0:0:
320,192,48864,1,0,0:0:0:0:
192,192,48925,1,0,0:0:0:0:
448,192,48985,1,0,0:0:0:0:
320,192,49046,1,0,0:0:0:0:
64,192,49046,1,0,0:0:0:0:
192,192,49107,1,0,0:0:0:0:
448,192,49168,1,0,0:0:0:0:
64,192,49228,1,0,0:0:0:0:
320,192,49289,1,0,0:0:0:0:
192,192,49350,1,0,0:0:0:0:
320,192,49411,1,0,0:0:0:0:
64,192,49472,1,0,0:0:0:0:
192,192,49532,1,0,0:0:0:0:
448,192,49532,1,0,0:0:0:0:
320,192,49593,1,0,0:0:0:0:
64,192,49654,1,0,0:0:0:0:
192,192,49715,1,0,0:0:0:0:
448,192,49775,1,0,0:0:0:0:
64,192,49836,1,0,0:0:0:0:
320,192,49896,1,0,0:0:0:0:
192,192,49957,1,0,0:0:0:0:
320,192,50018,1,0,0:0:0:0:
448,192,50018,1,0,0:0:0:0:
64,192,50078,1,0,0:0:0:0:
192,192,50139,1,0,0:0:0:0:
448,192,50200,1,0,0:0:0:0:
64,192,50261,1,0,0:0:0:0:
320,192,50322,1,0,0:0:0:0:
192,192,50382,1,0,0:0:0:0:
448,192,50443,1,0,0:0:0:0:
320,192,50504,1,0,0:0:0:0:
192,192,50504,1,0,0:0:0:0:
64,192,50565,1,0,0:0:0:0:
448,192,50625,1,0,0:0:0:0:
192,192,50686,1,0,0:0:0:0:
320,192,50747,1,0,0:0:0:0:
64,192,50808,1,0,0:0:0:0:
320,192,50868,1,0,0:0:0:0:
64,192,50929,1,0,0:0:0:0:
192,192,50990,1,0,0:0:0:0:
448,192,50990,1,0,0:0:0:0:
320,192,51050,1,0,0:0:0:0:
64,192,51111,1,0,0:0:0:0:
192,192,51172,1,0,0:0:0:0:
448,192,51232,1,0,0:0:0:0:
64,192,51293,1,0,0:0:0:0:
320,192,51354,1,0,0:0:0:0:
192,192,51415,1,0,0:0:0:0:
320,192,51475,1,0,0:0:0:0:
448,192,51475,1,0,0:0:0:0:
64,192,51536,1,0,0:0:0:0:
192,192,51597,1,0,0:0:0:0:
448,192,51658,1,0,0:0:0:0:
64,192,51718,1,0,0:0:0:0:
320,192,51779,1,0,0:0:0:0:
192,192,51840,1,0,0:0:0:0:
448,192,51901,1,0,0:0:0:0:
320,192,51962,1,0,0:0:0:0:
64,192,51962,1,0,0:0:0:0:
192,192,52022,1,0,0:0:0:0:
448,192,52083,1,0,0:0:0:0:
64,192,52144,1,0,0:0:0:0:
192,192,52204,1,0,0:0:0:0:
320,192,52265,1,0,0:0:0:0:
64,192,52325,1,0,0:0:0:0:
448,192,52386,1,0,0:0:0:0:
320,192,52447,1,0,0:0:0:0:
64,192,52447,1,0,0:0:0:0:
192,192,52508,1,0,0:0:0:0:
448,192,52568,1,0,0:0:0:0:
320,192,52629,1,0,0:0:0:0:
192,192,52690,1,0,0:0:0:0:
320,192,52751,1,0,0:0:0:0:
192,192,52812,1,0,0:0:0:0:
448,192,52872,1,0,0:0:0:0:
320,192,52933,1,0,0:0:0:0:
64,192,52933,1,0,0:0:0:0:
192,192,52994,1,0,0:0:0:0:
448,192,53055,1,0,0:0:0:0:
64,192,53115,1,0,0:0:0:0:
448,192,53176,1,0,0:0:0:0:
320,192,53237,1,0,0:0:0:0:
192,192,53298,1,0,0:0:0:0:
320,192,53358,1,0,0:0:0:0:
192,192,53418,1,0,0:0:0:0:
64,192,53418,1,0,0:0:0:0:
448,192,53479,1,0,0:0:0:0:
320,192,53540,1,0,0:0:0:0:
64,192,53601,1,0,0:0:0:0:
192,192,53662,1,0,0:0:0:0:
448,192,53722,1,0,0:0:0:0:
192,192,53783,1,0,0:0:0:0:
320,192,53844,1,0,0:0:0:0:
64,192,53905,1,0,0:0:0:0:
448,192,53905,1,0,0:0:0:0:
192,192,53965,1,0,0:0:0:0:
320,192,54026,1,0,0:0:0:0:
192,192,54087,1,0,0:0:0:0:
448,192,54148,1,0,0:0:0:0:
320,192,54208,1,0,0:0:0:0:
64,192,54269,1,0,0:0:0:0:
448,192,54330,1,0,0:0:0:0:
320,192,54391,1,0,0:0:0:0:
64,192,54391,1,0,0:0:0:0:
192,192,54452,1,0,0:0:0:0:
448,192,54512,1,0,0:0:0:0:
64,192,54572,1,0,0:0:0:0:
192,192,54633,1,0,0:0:0:0:
320,192,54694,1,0,0:0:0:0:
64,192,54755,1,0,0:0:0:0:
192,192,54815,1,0,0:0:0:0:
320,192,54876,1,0,0:0:0:0:
448,192,54876,1,0,0:0:0:0:
192,192,54937,1,0,0:0:0:0:
448,192,54998,1,0,0:0:0:0:
320,192,55058,1,0,0:0:0:0:
64,192,55119,1,0,0:0:0:0:
448,192,55180,1,0,0:0:0:0:
320,192,55241,1,0,0:0:0:0:
192,192,55302,1,0,0:0:0:0:
448,192,55362,1,0,0:0:0:0:
64,192,55362,1,0,0:0:0:0:
192,192,55423,1,0,0:0:0:0:
320,192,55484,1,0,0:0:0:0:
192,192,55545,1,0,0:0:0:0:
448,192,55605,1,0,0:0:0:0:
320,192,55665,1,0,0:0:0:0:
64,192,55726,1,0,0:0:0:0:
448,192,55787,1,0,0:0:0:0:
320,192,55848,1,0,0:0:0:0:
64,192,55848,1,0,0:0:0:0:
192,192,55908,1,0,0:0:0:0:
448,192,55969,1,0,0:0:0:0:
64,192,56030,1,0,0:0:0:0:
320,192,56091,1,0,0:0:0:0:
448,192,56091,1,0,0:0:0:0:
192,192,56152,1,0,0:0:0:0:
64,192,56152,1,0,0:0:0:0:
320,192,56212,1,0,0:0:0:0:
448,192,56212,1,0,0:0:0:0:
192,192,56273,1,0,0:0:0:0:
64,192,56273,1,0,0:0:0:0:
320,192,56334,1,0,0:0:0:0:
64,192,56395,1,0,0:0:0:0:
320,192,56455,1,0,0:0:0:0:
64,192,56516,1,0,0:0:0:0:
192,192,56577,1,0,0:0:0:0:
320,192,56577,1,0,0:0:0:0:
448,192,56577,1,0,0:0:0:0:
64,192,56698,1,0,0:0:0:0:
448,192,56698,1,0,0:0:0:0:
64,192,56819,1,0,0:0:0:0:
192,192,56819,1,0,0:0:0:0:
448,192,56941,1,0,0:0:0:0:
320,192,56941,1,0,0:0:0:0:
448,192,57062,1,0,0:0:0:0:
64,192,57184,1,0,0:0:0:0:
64,192,57305,1,0,0:0:0:0:
448,192,57305,1,0,0:0:0:0:
192,192,57427,1,0,0:0:0:0:
320,192,57427,1,0,0:0:0:0:
192,192,57548,1,0,0:0:0:0:
448,192,57670,1,0,0:0:0:0:
320,192,57670,1,0,0:0:0:0:
192,192,57792,1,0,0:0:0:0:
448,192,57792,1,0,0:0:0:0:
64,192,57913,1,0,0:0:0:0:
192,192,57973,1,0,0:0:0:0:
320,192,58034,1,0,0:0:0:0:
448,192,58034,1,0,0:0:0:0:
64,192,58155,1,0,0:0:0:0:
320,192,58277,1,0,0:0:0:0:
448,192,58277,1,0,0:0:0:0:
192,192,58398,1,0,0:0:0:0:
64,192,58520,1,0,0:0:0:0:
448,192,58520,1,0,0:0:0:0:
448,192,58642,1,0,0:0:0:0:
320,192,58763,1,0,0:0:0:0:
192,192,58763,1,0,0:0:0:0:
448,192,58885,1,0,0:0:0:0:
64,192,58885,1,0,0:0:0:0:
448,192,59006,1,0,0:0:0:0:
320,192,59006,1,0,0:0:0:0:
192,192,59127,1,0,0:0:0:0:
448,192,59248,1,0,0:0:0:0:
64,192,59248,1,0,0:0:0:0:
64,192,59370,1,0,0:0:0:0:
320,192,59492,1,0,0:0:0:0:
192,192,59613,1,0,0:0:0:0:
320,192,59613,1,0,0:0:0:0:
192,192,59735,1,0,0:0:0:0:
448,192,59735,1,0,0:0:0:0:
64,192,59856,1,0,0:0:0:0:
192,192,59917,1,0,0:0:0:0:
320,192,59978,1,0,0:0:0:0:
448,192,59978,1,0,0:0:0:0:
64,192,60099,1,0,0:0:0:0:
320,192,60221,1,0,0:0:0:0:
448,192,60221,1,0,0:0:0:0:
192,192,60342,1,0,0:0:0:0:
64,192,60463,1,0,0:0:0:0:
448,192,60463,1,0,0:0:0:0:
64,192,60585,1,0,0:0:0:0:
192,192,60706,1,0,0:0:0:0:
448,192,60706,1,0,0:0:0:0:
192,192,60828,1,0,0:0:0:0:
320,192,60949,1,0,0:0:0:0:
448,192,60949,1,0,0:0:0:0:
320,192,61071,1,0,0:0:0:0:
64,192,61192,1,0,0:0:0:0:
448,192,61192,1,0,0:0:0:0:
448,192,61314,1,0,0:0:0:0:
64,192,61435,1,0,0:0:0:0:
192,192,61435,1,0,0:0:0:0:
192,192,61556,1,0,0:0:0:0:
448,192,61678,1,0,0:0:0:0:
320,192,61678,1,0,0:0:0:0:
64,192,61799,1,0,0:0:0:0:
192,192,61860,1,0,0:0:0:0:
320,192,61921,1,0,0:0:0:0:
448,192,61921,1,0,0:0:0:0:
64,192,62042,1,0,0:0:0:0:
320,192,62164,1,0,0:0:0:0:
448,192,62164,1,0,0:0:0:0:
192,192,62285,1,0,0:0:0:0:
64,192,62407,1,0,0:0:0:0:
448,192,62407,1,0,0:0:0:0:
448,192,62528,1,0,0:0:0:0:
64,192,62649,1,0,0:0:0:0:
320,192,62649,1,0,0:0:0:0:
320,192,62771,1,0,0:0:0:0:
192,192,62892,1,0,0:0:0:0:
64,192,63014,1,0,0:0:0:0:
448,192,63014,1,0,0:0:0:0:
64,192,63135,1,0,0:0:0:0:
448,192,63135,1,0,0:0:0:0:
320,192,63226,1,0,0:0:0:0:
192,192,63287,1,0,0:0:0:0:
320,192,63348,1,0,0:0:0:0:
448,192,63378,1,0,0:0:0:0:
64,192,63378,1,0,0:0:0:0:
192,192,63500,1,0,0:0:0:0:
448,192,63622,1,0,0:0:0:0:
64,192,63742,1,0,0:0:0:0:
192,192,63803,1,0,0:0:0:0:
448,192,63864,1,0,0:0:0:0:
320,192,63864,1,0,0:0:0:0:
64,192,63925,1,0,0:0:0:0:
320,192,63985,1,0,0:0:0:0:
192,192,64046,1,0,0:0:0:0:
64,192,64107,1,0,0:0:0:0:
448,192,64228,1,0,0:0:0:0:
320,192,64289,1,0,0:0:0:0:
192,192,64350,1,0,0:0:0:0:
64,192,64350,1,0,0:0:0:0:
448,192,64350,1,0,0:0:0:0:
320,192,64411,1,0,0:0:0:0:
64,192,64472,1,0,0:0:0:0:
192,192,64532,1,0,0:0:0:0:
320,192,64593,1,0,0:0:0:0:
448,192,64593,1,0,0:0:0:0:
192,192,64654,1,0,0:0:0:0:
448,192,64715,1,0,0:0:0:0:
64,192,64775,1,0,0:0:0:0:
320,192,64836,1,0,0:0:0:0:
192,192,64896,1,0,0:0:0:0:
320,192,64957,1,0,0:0:0:0:
192,192,65018,1,0,0:0:0:0:
64,192,65078,1,0,0:0:0:0:
448,192,65078,1,0,0:0:0:0:
320,192,65139,1,0,0:0:0:0:
192,192,65200,1,0,0:0:0:0:
448,192,65261,1,0,0:0:0:0:
64,192,65322,1,0,0:0:0:0:
448,192,65382,1,0,0:0:0:0:
64,192,65443,1,0,0:0:0:0:
192,192,65504,1,0,0:0:0:0:
320,192,65565,1,0,0:0:0:0:
448,192,65565,1,0,0:0:0:0:
192,192,65625,1,0,0:0:0:0:
320,192,65686,1,0,0:0:0:0:
64,192,65747,1,0,0:0:0:0:
448,192,65808,1,0,0:0:0:0:
320,192,65868,1,0,0:0:0:0:
192,192,65929,1,0,0:0:0:0:
448,192,65990,1,0,0:0:0:0:
320,192,66050,1,0,0:0:0:0:
64,192,66050,1,0,0:0:0:0:
192,192,66111,1,0,0:0:0:0:
448,192,66172,1,0,0:0:0:0:
320,192,66232,1,0,0:0:0:0:
192,192,66293,1,0,0:0:0:0:
64,192,66293,1,0,0:0:0:0:
320,192,66354,1,0,0:0:0:0:
64,192,66415,1,0,0:0:0:0:
192,192,66475,1,0,0:0:0:0:
320,192,66536,1,0,0:0:0:0:
448,192,66536,1,0,0:0:0:0:
192,192,66597,1,0,0:0:0:0:
448,192,66658,1,0,0:0:0:0:
64,192,66718,1,0,0:0:0:0:
320,192,66779,1,0,0:0:0:0:
192,192,66840,1,0,0:0:0:0:
448,192,66901,1,0,0:0:0:0:
320,192,66962,1,0,0:0:0:0:
192,192,67022,1,0,0:0:0:0:
64,192,67022,1,0,0:0:0:0:
448,192,67083,1,0,0:0:0:0:
64,192,67144,1,0,0:0:0:0:
192,192,67204,1,0,0:0:0:0:
320,192,67265,1,0,0:0:0:0:
192,192,67325,1,0,0:0:0:0:
320,192,67386,1,0,0:0:0:0:
64,192,67447,1,0,0:0:0:0:
192,192,67508,1,0,0:0:0:0:
448,192,67508,1,0,0:0:0:0:
320,192,67568,1,0,0:0:0:0:
64,192,67629,1,0,0:0:0:0:
448,192,67690,1,0,0:0:0:0:
320,192,67751,1,0,0:0:0:0:
192,192,67812,1,0,0:0:0:0:
448,192,67872,1,0,0:0:0:0:
320,192,67933,1,0,0:0:0:0:
192,192,67994,1,0,0:0:0:0:
64,192,67994,1,0,0:0:0:0:
320,192,68055,1,0,0:0:0:0:
64,192,68115,1,0,0:0:0:0:
448,192,68176,1,0,0:0:0:0:
192,192,68237,1,0,0:0:0:0:
320,192,68237,1,0,0:0:0:0:
64,192,68298,1,0,0:0:0:0:
448,192,68358,1,0,0:0:0:0:
192,192,68418,1,0,0:0:0:0:
320,192,68479,1,0,0:0:0:0:
448,192,68479,1,0,0:0:0:0:
64,192,68540,1,0,0:0:0:0:
320,192,68601,1,0,0:0:0:0:
64,192,68662,1,0,0:0:0:0:
192,192,68722,1,0,0:0:0:0:
448,192,68783,1,0,0:0:0:0:
64,192,68844,1,0,0:0:0:0:
320,192,68905,1,0,0:0:0:0:
192,192,68965,1,0,0:0:0:0:
64,192,68965,1,0,0:0:0:0:
448,192,69026,1,0,0:0:0:0:
320,192,69087,1,0,0:0:0:0:
64,192,69148,1,0,0:0:0:0:
192,192,69208,1,0,0:0:0:0:
320,192,69269,1,0,0:0:0:0:
192,192,69330,1,0,0:0:0:0:
448,192,69391,1,0,0:0:0:0:
320,192,69452,1,0,0:0:0:0:
64,192,69452,1,0,0:0:0:0:
192,192,69512,1,0,0:0:0:0:
448,192,69572,1,0,0:0:0:0:
320,192,69633,1,0,0:0:0:0:
192,192,69694,1,0,0:0:0:0:
448,192,69755,1,0,0:0:0:0:
64,192,69815,1,0,0:0:0:0:
192,192,69876,1,0,0:0:0:0:
320,192,69937,1,0,0:0:0:0:
448,192,69937,1,0,0:0:0:0:
192,192,69998,1,0,0:0:0:0:
448,192,70058,1,0,0:0:0:0:
320,192,70119,1,0,0:0:0:0:
192,192,70180,1,0,0:0:0:0:
64,192,70180,1,0,0:0:0:0:
448,192,70241,1,0,0:0:0:0:
64,192,70302,1,0,0:0:0:0:
192,192,70362,1,0,0:0:0:0:
320,192,70423,1,0,0:0:0:0:
448,192,70423,1,0,0:0:0:0:
64,192,70484,1,0,0:0:0:0:
448,192,70545,1,0,0:0:0:0:
320,192,70605,1,0,0:0:0:0:
192,192,70665,1,0,0:0:0:0:
320,192,70726,1,0,0:0:0:0:
64,192,70787,1,0,0:0:0:0:
192,192,70848,1,0,0:0:0:0:
320,192,70908,1,0,0:0:0:0:
448,192,70908,1,0,0:0:0:0:
192,192,70969,1,0,0:0:0:0:
448,192,71030,1,0,0:0:0:0:
320,192,71091,1,0,0:0:0:0:
64,192,71152,1,0,0:0:0:0:
448,192,71212,1,0,0:0:0:0:
64,192,71273,1,0,0:0:0:0:
320,192,71334,1,0,0:0:0:0:
192,192,71395,1,0,0:0:0:0:
64,192,71395,1,0,0:0:0:0:
448,192,71455,1,0,0:0:0:0:
320,192,71516,1,0,0:0:0:0:
64,192,71577,1,0,0:0:0:0:
448,192,71638,1,0,0:0:0:0:
320,192,71638,1,0,0:0:0:0:
192,192,71698,1,0,0:0:0:0:
320,192,71759,1,0,0:0:0:0:
448,192,71759,1,0,0:0:0:0:
192,192,71819,1,0,0:0:0:0:
64,192,71880,1,0,0:0:0:0:
448,192,71941,1,0,0:0:0:0:
320,192,72002,1,0,0:0:0:0:
192,192,72032,1,0,0:0:0:0:
64,192,72062,1,0,0:0:0:0:
320,192,72123,1,0,0:0:0:0:
448,192,72123,1,0,0:0:0:0:
64,192,72184,1,0,0:0:0:0:
448,192,72245,1,0,0:0:0:0:
192,192,72305,1,0,0:0:0:0:
320,192,72366,1,0,0:0:0:0:
64,192,72366,1,0,0:0:0:0:
448,192,72427,1,0,0:0:0:0:
192,192,72488,1,0,0:0:0:0:
320,192,72548,1,0,0:0:0:0:
64,192,72609,1,0,0:0:0:0:
448,192,72670,1,0,0:0:0:0:
320,192,72731,1,0,0:0:0:0:
192,192,72792,1,0,0:0:0:0:
64,192,72852,1,0,0:0:0:0:
448,192,72852,1,0,0:0:0:0:
192,192,72913,1,0,0:0:0:0:
320,192,72973,1,0,0:0:0:0:
64,192,73034,1,0,0:0:0:0:
448,192,73095,1,0,0:0:0:0:
64,192,73155,1,0,0:0:0:0:
320,192,73216,1,0,0:0:0:0:
192,192,73277,1,0,0:0:0:0:
64,192,73338,1,0,0:0:0:0:
448,192,73338,1,0,0:0:0:0:
192,192,73398,1,0,0:0:0:0:
448,192,73459,1,0,0:0:0:0:
320,192,73520,1,0,0:0:0:0:
64,192,73581,1,0,0:0:0:0:
448,192,73642,1,0,0:0:0:0:
192,192,73702,1,0,0:0:0:0:
320,192,73763,1,0,0:0:0:0:
192,192,73824,1,0,0:0:0:0:
64,192,73824,1,0,0:0:0:0:
448,192,73885,1,0,0:0:0:0:
64,192,73945,1,0,0:0:0:0:
192,192,74006,1,0,0:0:0:0:
448,192,74067,1,0,0:0:0:0:
320,192,74067,1,0,0:0:0:0:
64,192,74127,1,0,0:0:0:0:
320,192,74188,1,0,0:0:0:0:
192,192,74248,1,0,0:0:0:0:
448,192,74309,1,0,0:0:0:0:
64,192,74309,1,0,0:0:0:0:
192,192,74370,1,0,0:0:0:0:
320,192,74431,1,0,0:0:0:0:
64,192,74492,1,0,0:0:0:0:
192,192,74552,1,0,0:0:0:0:
448,192,74613,1,0,0:0:0:0:
64,192,74674,1,0,0:0:0:0:
448,192,74735,1,0,0:0:0:0:
320,192,74795,1,0,0:0:0:0:
64,192,74795,1,0,0:0:0:0:
192,192,74856,1,0,0:0:0:0:
448,192,74917,1,0,0:0:0:0:
320,192,74978,1,0,0:0:0:0:
64,192,75038,1,0,0:0:0:0:
448,192,75099,1,0,0:0:0:0:
192,192,75160,1,0,0:0:0:0:
320,192,75221,1,0,0:0:0:0:
64,192,75281,1,0,0:0:0:0:
448,192,75281,1,0,0:0:0:0:
320,192,75342,1,0,0:0:0:0:
192,192,75402,1,0,0:0:0:0:
320,192,75463,1,0,0:0:0:0:
64,192,75524,1,0,0:0:0:0:
192,192,75585,1,0,0:0:0:0:
448,192,75645,1,0,0:0:0:0:
64,192,75706,1,0,0:0:0:0:
192,192,75767,1,0,0:0:0:0:
448,192,75767,1,0,0:0:0:0:
320,192,75828,1,0,0:0:0:0:
64,192,75888,1,0,0:0:0:0:
192,192,75949,1,0,0:0:0:0:
320,192,76010,1,0,0:0:0:0:
448,192,76010,1,0,0:0:0:0:
192,192,76071,1,0,0:0:0:0:
448,192,76132,1,0,0:0:0:0:
320,192,76192,1,0,0:0:0:0:
192,192,76253,1,0,0:0:0:0:
64,192,76253,1,0,0:0:0:0:
320,192,76314,1,0,0:0:0:0:
64,192,76375,1,0,0:0:0:0:
448,192,76435,1,0,0:0:0:0:
192,192,76495,1,0,0:0:0:0:
320,192,76556,1,0,0:0:0:0:
192,192,76617,1,0,0:0:0:0:
448,192,76678,1,0,0:0:0:0:
320,192,76738,1,0,0:0:0:0:
64,192,76738,1,0,0:0:0:0:
192,192,76799,1,0,0:0:0:0:
448,192,76860,1,0,0:0:0:0:
64,192,76921,1,0,0:0:0:0:
192,192,76982,1,0,0:0:0:0:
320,192,77042,1,0,0:0:0:0:
64,192,77103,1,0,0:0:0:0:
448,192,77164,1,0,0:0:0:0:
320,192,77225,1,0,0:0:0:0:
64,192,77225,1,0,0:0:0:0:
192,192,77285,1,0,0:0:0:0:
448,192,77346,1,0,0:0:0:0:
192,192,77407,1,0,0:0:0:0:
320,192,77468,1,0,0:0:0:0:
64,192,77528,1,0,0:0:0:0:
192,192,77588,1,0,0:0:0:0:
448,192,77649,1,0,0:0:0:0:
320,192,77710,1,0,0:0:0:0:
192,192,77710,1,0,0:0:0:0:
64,192,77771,1,0,0:0:0:0:
448,192,77832,1,0,0:0:0:0:
320,192,77892,1,0,0:0:0:0:
192,192,77953,1,0,0:0:0:0:
64,192,77953,1,0,0:0:0:0:
448,192,78014,1,0,0:0:0:0:
192,192,78075,1,0,0:0:0:0:
320,192,78135,1,0,0:0:0:0:
64,192,78196,1,0,0:0:0:0:
448,192,78196,1,0,0:0:0:0:
192,192,78257,1,0,0:0:0:0:
320,192,78318,1,0,0:0:0:0:
192,192,78378,1,0,0:0:0:0:
448,192,78439,1,0,0:0:0:0:
64,192,78500,1,0,0:0:0:0:
320,192,78561,1,0,0:0:0:0:
192,192,78622,1,0,0:0:0:0:
320,192,78682,1,0,0:0:0:0:
448,192,78682,1,0,0:0:0:0:
64,192,78742,1,0,0:0:0:0:
192,192,78803,1,0,0:0:0:0:
448,192,78864,1,0,0:0:0:0:
64,192,78925,1,0,0:0:0:0:
320,192,78985,1,0,0:0:0:0:
64,192,79046,1,0,0:0:0:0:
192,192,79107,1,0,0:0:0:0:
320,192,79168,1,0,0:0:0:0:
448,192,79168,1,0,0:0:0:0:
64,192,79228,1,0,0:0:0:0:
448,192,79289,1,0,0:0:0:0:
320,192,79350,1,0,0:0:0:0:
192,192,79411,1,0,0:0:0:0:
64,192,79411,1,0,0:0:0:0:
320,192,79472,1,0,0:0:0:0:
448,192,79472,1,0,0:0:0:0:
192,192,79532,1,0,0:0:0:0:
64,192,79532,1,0,0:0:0:0:
320,192,79593,1,0,0:0:0:0:
448,192,79593,1,0,0:0:0:0:
64,192,79654,1,0,0:0:0:0:
192,192,79715,1,0,0:0:0:0:
448,192,79775,1,0,0:0:0:0:
192,192,79836,1,0,0:0:0:0:
448,192,79896,128,0,80018:0:0:0:0:
64,192,79896,128,0,80868:0:0:0:0:
320,192,79896,128,0,80018:0:0:0:0:
192,192,80868,128,0,80990:0:0:0:0:
448,192,80868,128,0,80990:0:0:0:0:
320,192,80868,128,0,81354:0:0:0:0:
192,192,81354,128,0,81840:0:0:0:0:
448,192,81840,128,0,81962:0:0:0:0:
320,192,81840,128,0,81962:0:0:0:0:
64,192,81840,128,0,82325:0:0:0:0:
448,192,82325,128,0,82812:0:0:0:0:
64,192,82812,128,0,82933:0:0:0:0:
320,192,82812,128,0,82933:0:0:0:0:
192,192,82812,128,0,83298:0:0:0:0:
320,192,83298,128,0,83783:0:0:0:0:
64,192,83783,128,0,83905:0:0:0:0:
192,192,83783,128,0,83905:0:0:0:0:
448,192,83783,128,0,84269:0:0:0:0:
192,192,84755,128,0,85180:0:0:0:0:
320,192,84755,128,0,85241:0:0:0:0:
448,192,84755,128,0,85180:0:0:0:0:
64,192,85241,128,0,85665:0:0:0:0:
192,192,85241,128,0,85665:0:0:0:0:
448,192,85241,128,0,85726:0:0:0:0:
64,192,85726,128,0,85848:0:0:0:0:
192,192,85726,128,0,85848:0:0:0:0:
320,192,85726,128,0,86212:0:0:0:0:
64,192,86698,128,0,87184:0:0:0:0:
320,192,86698,128,0,87123:0:0:0:0:
448,192,86698,128,0,87123:0:0:0:0:
192,192,87184,1,0,0:0:0:0:
448,192,87184,1,0,0:0:0:0:
320,192,87184,1,0,0:0:0:0:
64,192,87305,1,0,0:0:0:0:
320,192,87305,1,0,0:0:0:0:
192,192,87427,1,0,0:0:0:0:
64,192,87427,1,0,0:0:0:0:
320,192,87488,1,0,0:0:0:0:
448,192,87488,1,0,0:0:0:0:
192,192,87548,1,0,0:0:0:0:
64,192,87548,1,0,0:0:0:0:
320,192,87609,1,0,0:0:0:0:
448,192,87609,1,0,0:0:0:0:
192,192,87670,1,0,0:0:0:0:
320,192,87731,1,0,0:0:0:0:
64,192,87792,1,0,0:0:0:0:
192,192,87852,1,0,0:0:0:0:
448,192,87913,1,0,0:0:0:0:
320,192,87913,1,0,0:0:0:0:
192,192,87973,1,0,0:0:0:0:
448,192,88034,1,0,0:0:0:0:
64,192,88095,1,0,0:0:0:0:
320,192,88155,1,0,0:0:0:0:
192,192,88216,1,0,0:0:0:0:
448,192,88277,1,0,0:0:0:0:
64,192,88338,1,0,0:0:0:0:
192,192,88398,1,0,0:0:0:0:
448,192,88398,1,0,0:0:0:0:
320,192,88459,1,0,0:0:0:0:
64,192,88520,1,0,0:0:0:0:
192,192,88581,1,0,0:0:0:0:
320,192,88642,1,0,0:0:0:0:
192,192,88702,1,0,0:0:0:0:
448,192,88763,1,0,0:0:0:0:
64,192,88824,1,0,0:0:0:0:
192,192,88885,1,0,0:0:0:0:
448,192,88885,1,0,0:0:0:0:
320,192,88945,1,0,0:0:0:0:
64,192,89006,1,0,0:0:0:0:
192,192,89067,1,0,0:0:0:0:
448,192,89127,1,0,0:0:0:0:
320,192,89188,1,0,0:0:0:0:
192,192,89248,1,0,0:0:0:0:
64,192,89309,1,0,0:0:0:0:
192,192,89370,1,0,0:0:0:0:
448,192,89370,1,0,0:0:0:0:
320,192,89431,1,0,0:0:0:0:
192,192,89492,1,0,0:0:0:0:
64,192,89552,1,0,0:0:0:0:
320,192,89613,1,0,0:0:0:0:
448,192,89613,1,0,0:0:0:0:
192,192,89674,1,0,0:0:0:0:
448,192,89735,1,0,0:0:0:0:
64,192,89795,1,0,0:0:0:0:
192,192,89856,1,0,0:0:0:0:
320,192,89856,1,0,0:0:0:0:
64,192,89917,1,0,0:0:0:0:
448,192,89978,1,0,0:0:0:0:
192,192,90038,1,0,0:0:0:0:
320,192,90099,1,0,0:0:0:0:
64,192,90160,1,0,0:0:0:0:
320,192,90221,1,0,0:0:0:0:
192,192,90281,1,0,0:0:0:0:
64,192,90342,1,0,0:0:0:0:
448,192,90342,1,0,0:0:0:0:
320,192,90402,1,0,0:0:0:0:
192,192,90463,1,0,0:0:0:0:
320,192,90524,1,0,0:0:0:0:
64,192,90585,1,0,0:0:0:0:
192,192,90645,1,0,0:0:0:0:
448,192,90706,1,0,0:0:0:0:
64,192,90767,1,0,0:0:0:0:
192,192,90828,1,0,0:0:0:0:
448,192,90828,1,0,0:0:0:0:
320,192,90888,1,0,0:0:0:0:
64,192,90949,1,0,0:0:0:0:
448,192,91010,1,0,0:0:0:0:
64,192,91071,128,0,91314:0:0:0:0:
192,192,91071,128,0,91253:0:0:0:0:
320,192,91071,128,0,91253:0:0:0:0:
448,192,91314,128,0,91495:0:0:0:0:
320,192,91314,128,0,91495:0:0:0:0:
192,192,91314,128,0,91556:0:0:0:0:
448,192,91556,1,0,0:0:0:0:
320,192,91556,1,0,0:0:0:0:
64,192,91556,1,0,0:0:0:0:
192,192,91617,1,0,0:0:0:0:
320,192,91678,1,0,0:0:0:0:
64,192,91738,1,0,0:0:0:0:
192,192,91799,1,0,0:0:0:0:
448,192,91799,1,0,0:0:0:0:
320,192,91860,1,0,0:0:0:0:
64,192,91921,1,0,0:0:0:0:
448,192,91982,1,0,0:0:0:0:
320,192,92042,1,0,0:0:0:0:
192,192,92103,1,0,0:0:0:0:
320,192,92164,1,0,0:0:0:0:
64,192,92225,1,0,0:0:0:0:
192,192,92285,1,0,0:0:0:0:
448,192,92285,1,0,0:0:0:0:
320,192,92346,1,0,0:0:0:0:
64,192,92407,1,0,0:0:0:0:
448,192,92468,1,0,0:0:0:0:
192,192,92528,1,0,0:0:0:0:
320,192,92588,1,0,0:0:0:0:
192,192,92649,1,0,0:0:0:0:
448,192,92710,1,0,0:0:0:0:
320,192,92771,1,0,0:0:0:0:
64,192,92771,1,0,0:0:0:0:
192,192,92832,1,0,0:0:0:0:
448,192,92892,1,0,0:0:0:0:
64,192,92953,1,0,0:0:0:0:
320,192,93014,1,0,0:0:0:0:
192,192,93014,1,0,0:0:0:0:
64,192,93075,1,0,0:0:0:0:
448,192,93075,1,0,0:0:0:0:
320,192,93135,1,0,0:0:0:0:
192,192,93135,1,0,0:0:0:0:
64,192,93196,1,0,0:0:0:0:
448,192,93196,1,0,0:0:0:0:
320,192,93257,1,0,0:0:0:0:
192,192,93318,1,0,0:0:0:0:
64,192,93378,1,0,0:0:0:0:
192,192,93439,1,0,0:0:0:0:
64,192,93500,1,0,0:0:0:0:
320,192,93500,1,0,0:0:0:0:
448,192,93500,1,0,0:0:0:0:
192,192,93622,1,0,0:0:0:0:
192,192,93742,1,0,0:0:0:0:
320,192,93742,1,0,0:0:0:0:
64,192,93864,1,0,0:0:0:0:
448,192,93864,1,0,0:0:0:0:
320,192,93985,1,0,0:0:0:0:
192,192,93985,1,0,0:0:0:0:
320,192,94107,1,0,0:0:0:0:
64,192,94228,1,0,0:0:0:0:
192,192,94228,1,0,0:0:0:0:
64,192,94350,1,0,0:0:0:0:
448,192,94350,1,0,0:0:0:0:
192,192,94472,1,0,0:0:0:0:
320,192,94472,1,0,0:0:0:0:
64,192,94593,1,0,0:0:0:0:
64,192,94715,1,0,0:0:0:0:
448,192,94715,1,0,0:0:0:0:
448,192,94836,1,0,0:0:0:0:
192,192,94836,1,0,0:0:0:0:
320,192,94957,1,0,0:0:0:0:
64,192,94957,1,0,0:0:0:0:
320,192,95078,1,0,0:0:0:0:
192,192,95200,1,0,0:0:0:0:
64,192,95200,1,0,0:0:0:0:
64,192,95322,1,0,0:0:0:0:
448,192,95322,1,0,0:0:0:0:
448,192,95443,1,0,0:0:0:0:
192,192,95443,128,0,95929:0:0:0:0:
448,192,95929,128,0,96415:0:0:0:0:
320,192,96415,1,0,0:0:0:0:
192,192,96415,1,0,0:0:0:0:
64,192,96415,128,0,96901:0:0:0:0:
192,192,96901,1,0,0:0:0:0:
448,192,96901,1,0,0:0:0:0:
320,192,97022,1,0,0:0:0:0:
192,192,97022,1,0,0:0:0:0:
64,192,97144,1,0,0:0:0:0:
192,192,97204,1,0,0:0:0:0:
320,192,97265,1,0,0:0:0:0:
448,192,97265,1,0,0:0:0:0:
192,192,97325,1,0,0:0:0:0:
64,192,97325,1,0,0:0:0:0:
320,192,97386,1,0,0:0:0:0:
64,192,97447,1,0,0:0:0:0:
448,192,97508,1,0,0:0:0:0:
192,192,97568,1,0,0:0:0:0:
320,192,97629,1,0,0:0:0:0:
448,192,97629,1,0,0:0:0:0:
64,192,97690,1,0,0:0:0:0:
320,192,97751,1,0,0:0:0:0:
192,192,97812,1,0,0:0:0:0:
448,192,97872,1,0,0:0:0:0:
64,192,97933,1,0,0:0:0:0:
448,192,97994,1,0,0:0:0:0:
320,192,98055,1,0,0:0:0:0:
192,192,98115,1,0,0:0:0:0:
64,192,98115,1,0,0:0:0:0:
320,192,98176,1,0,0:0:0:0:
192,192,98237,1,0,0:0:0:0:
448,192,98298,1,0,0:0:0:0:
64,192,98358,1,0,0:0:0:0:
192,192,98418,1,0,0:0:0:0:
320,192,98479,1,0,0:0:0:0:
64,192,98540,1,0,0:0:0:0:
192,192,98601,1,0,0:0:0:0:
448,192,98601,1,0,0:0:0:0:
320,192,98662,1,0,0:0:0:0:
64,192,98722,1,0,0:0:0:0:
320,192,98783,1,0,0:0:0:0:
192,192,98844,1,0,0:0:0:0:
448,192,98905,1,0,0:0:0:0:
320,192,98965,1,0,0:0:0:0:
64,192,99026,1,0,0:0:0:0:
192,192,99087,1,0,0:0:0:0:
448,192,99087,1,0,0:0:0:0:
320,192,99148,1,0,0:0:0:0:
64,192,99208,1,0,0:0:0:0:
192,192,99269,1,0,0:0:0:0:
320,192,99330,1,0,0:0:0:0:
64,192,99391,1,0,0:0:0:0:
448,192,99452,1,0,0:0:0:0:
192,192,99512,1,0,0:0:0:0:
320,192,99572,1,0,0:0:0:0:
448,192,99572,1,0,0:0:0:0:
64,192,99633,1,0,0:0:0:0:
192,192,99694,1,0,0:0:0:0:
320,192,99755,1,0,0:0:0:0:
64,192,99815,1,0,0:0:0:0:
320,192,99876,1,0,0:0:0:0:
192,192,99937,1,0,0:0:0:0:
448,192,99998,1,0,0:0:0:0:
64,192,100058,1,0,0:0:0:0:
192,192,100058,1,0,0:0:0:0:
320,192,100119,1,0,0:0:0:0:
64,192,100180,1,0,0:0:0:0:
192,192,100241,1,0,0:0:0:0:
448,192,100302,1,0,0:0:0:0:
64,192,100362,1,0,0:0:0:0:
320,192,100423,1,0,0:0:0:0:
192,192,100484,1,0,0:0:0:0:
320,192,100545,1,0,0:0:0:0:
448,192,100545,1,0,0:0:0:0:
64,192,100605,1,0,0:0:0:0:
192,192,100665,1,0,0:0:0:0:
448,192,100726,1,0,0:0:0:0:
64,192,100787,1,0,0:0:0:0:
320,192,100848,1,0,0:0:0:0:
64,192,100908,1,0,0:0:0:0:
448,192,100969,1,0,0:0:0:0:
320,192,101030,1,0,0:0:0:0:
192,192,101030,1,0,0:0:0:0:
64,192,101091,1,0,0:0:0:0:
448,192,101152,1,0,0:0:0:0:
320,192,101212,1,0,0:0:0:0:
192,192,101273,1,0,0:0:0:0:
448,192,101334,1,0,0:0:0:0:
64,192,101395,1,0,0:0:0:0:
192,192,101455,1,0,0:0:0:0:
320,192,101516,1,0,0:0:0:0:
448,192,101516,1,0,0:0:0:0:
192,192,101577,1,0,0:0:0:0:
320,192,101638,1,0,0:0:0:0:
64,192,101698,1,0,0:0:0:0:
448,192,101759,1,0,0:0:0:0:
192,192,101819,1,0,0:0:0:0:
320,192,101880,1,0,0:0:0:0:
64,192,101941,1,0,0:0:0:0:
192,192,102002,1,0,0:0:0:0:
320,192,102002,1,0,0:0:0:0:
448,192,102062,1,0,0:0:0:0:
64,192,102123,1,0,0:0:0:0:
320,192,102184,1,0,0:0:0:0:
192,192,102245,1,0,0:0:0:0:
448,192,102305,1,0,0:0:0:0:
192,192,102366,1,0,0:0:0:0:
320,192,102427,1,0,0:0:0:0:
64,192,102488,1,0,0:0:0:0:
448,192,102488,1,0,0:0:0:0:
192,192,102548,1,0,0:0:0:0:
320,192,102609,1,0,0:0:0:0:
192,192,102670,1,0,0:0:0:0:
448,192,102731,1,0,0:0:0:0:
64,192,102792,1,0,0:0:0:0:
448,192,102852,1,0,0:0:0:0:
320,192,102913,1,0,0:0:0:0:
192,192,102973,1,0,0:0:0:0:
64,192,102973,1,0,0:0:0:0:
448,192,103034,1,0,0:0:0:0:
64,192,103095,1,0,0:0:0:0:
192,192,103155,1,0,0:0:0:0:
320,192,103216,1,0,0:0:0:0:
320,192,103338,1,0,0:0:0:0:
192,192,103459,1,0,0:0:0:0:
64,192,103459,1,0,0:0:0:0:
448,192,103581,1,0,0:0:0:0:
448,192,103702,1,0,0:0:0:0:
64,192,103824,1,0,0:0:0:0:
192,192,103945,1,0,0:0:0:0:
448,192,103945,1,0,0:0:0:0:
320,192,104067,1,0,0:0:0:0:
192,192,104127,1,0,0:0:0:0:
64,192,104188,1,0,0:0:0:0:
320,192,104309,1,0,0:0:0:0:
448,192,104309,1,0,0:0:0:0:
320,192,104552,1,0,0:0:0:0:
448,192,104552,1,0,0:0:0:0:
320,192,104795,1,0,0:0:0:0:
448,192,104795,1,0,0:0:0:0:
320,192,105038,1,0,0:0:0:0:
448,192,105038,1,0,0:0:0:0:
64,192,105160,1,0,0:0:0:0:
448,192,105160,1,0,0:0:0:0:
192,192,105221,1,0,0:0:0:0:
320,192,105281,1,0,0:0:0:0:
64,192,105342,1,0,0:0:0:0:
192,192,105402,1,0,0:0:0:0:
320,192,105402,1,0,0:0:0:0:
448,192,105463,1,0,0:0:0:0:
64,192,105524,1,0,0:0:0:0:
320,192,105585,1,0,0:0:0:0:
192,192,105645,1,0,0:0:0:0:
448,192,105706,1,0,0:0:0:0:
64,192,105767,1,0,0:0:0:0:
192,192,105828,1,0,0:0:0:0:
320,192,105888,1,0,0:0:0:0:
448,192,105888,1,0,0:0:0:0:
192,192,105949,1,0,0:0:0:0:
320,192,106010,1,0,0:0:0:0:
64,192,106071,1,0,0:0:0:0:
448,192,106132,1,0,0:0:0:0:
64,192,106192,1,0,0:0:0:0:
320,192,106253,1,0,0:0:0:0:
192,192,106314,1,0,0:0:0:0:
64,192,106375,1,0,0:0:0:0:
448,192,106375,1,0,0:0:0:0:
320,192,106435,1,0,0:0:0:0:
192,192,106495,1,0,0:0:0:0:
448,192,106556,1,0,0:0:0:0:
64,192,106617,1,0,0:0:0:0:
320,192,106678,1,0,0:0:0:0:
64,192,106738,1,0,0:0:0:0:
192,192,106799,1,0,0:0:0:0:
320,192,106860,1,0,0:0:0:0:
448,192,106860,1,0,0:0:0:0:
64,192,106921,1,0,0:0:0:0:
448,192,106982,1,0,0:0:0:0:
64,192,107042,1,0,0:0:0:0:
320,192,107103,1,0,0:0:0:0:
192,192,107164,1,0,0:0:0:0:
320,192,107225,1,0,0:0:0:0:
64,192,107285,1,0,0:0:0:0:
192,192,107346,1,0,0:0:0:0:
448,192,107346,1,0,0:0:0:0:
320,192,107407,1,0,0:0:0:0:
64,192,107468,1,0,0:0:0:0:
192,192,107528,1,0,0:0:0:0:
448,192,107588,1,0,0:0:0:0:
192,192,107649,1,0,0:0:0:0:
320,192,107710,1,0,0:0:0:0:
64,192,107771,1,0,0:0:0:0:
192,192,107832,1,0,0:0:0:0:
448,192,107832,1,0,0:0:0:0:
320,192,107892,1,0,0:0:0:0:
64,192,107953,1,0,0:0:0:0:
320,192,108014,1,0,0:0:0:0:
192,192,108075,1,0,0:0:0:0:
448,192,108135,1,0,0:0:0:0:
320,192,108196,1,0,0:0:0:0:
64,192,108257,1,0,0:0:0:0:
192,192,108318,1,0,0:0:0:0:
320,192,108318,1,0,0:0:0:0:
448,192,108378,1,0,0:0:0:0:
64,192,108439,1,0,0:0:0:0:
448,192,108500,1,0,0:0:0:0:
64,192,108561,1,0,0:0:0:0:
192,192,108622,1,0,0:0:0:0:
320,192,108682,1,0,0:0:0:0:
64,192,108742,1,0,0:0:0:0:
192,192,108803,1,0,0:0:0:0:
448,192,108803,1,0,0:0:0:0:
320,192,108864,1,0,0:0:0:0:
64,192,108925,1,0,0:0:0:0:
448,192,108985,1,0,0:0:0:0:
320,192,109046,1,0,0:0:0:0:
192,192,109107,1,0,0:0:0:0:
320,192,109168,1,0,0:0:0:0:
192,192,109228,1,0,0:0:0:0:
64,192,109289,1,0,0:0:0:0:
448,192,109289,1,0,0:0:0:0:
320,192,109350,1,0,0:0:0:0:
192,192,109411,1,0,0:0:0:0:
448,192,109472,1,0,0:0:0:0:
64,192,109532,1,0,0:0:0:0:
192,192,109593,1,0,0:0:0:0:
320,192,109654,1,0,0:0:0:0:
64,192,109715,1,0,0:0:0:0:
192,192,109775,1,0,0:0:0:0:
320,192,109775,1,0,0:0:0:0:
448,192,109836,1,0,0:0:0:0:
64,192,109896,1,0,0:0:0:0:
448,192,109957,1,0,0:0:0:0:
192,192,110018,1,0,0:0:0:0:
320,192,110078,1,0,0:0:0:0:
64,192,110139,1,0,0:0:0:0:
192,192,110200,1,0,0:0:0:0:
320,192,110261,1,0,0:0:0:0:
448,192,110261,1,0,0:0:0:0:
192,192,110322,1,0,0:0:0:0:
320,192,110382,1,0,0:0:0:0:
64,192,110443,1,0,0:0:0:0:
448,192,110504,1,0,0:0:0:0:
320,192,110565,1,0,0:0:0:0:
64,192,110625,1,0,0:0:0:0:
320,192,110686,1,0,0:0:0:0:
192,192,110747,1,0,0:0:0:0:
64,192,110747,1,0,0:0:0:0:
448,192,110808,1,0,0:0:0:0:
320,192,110868,1,0,0:0:0:0:
64,192,110929,1,0,0:0:0:0:
448,192,110990,1,0,0:0:0:0:
64,192,111050,1,0,0:0:0:0:
192,192,111111,1,0,0:0:0:0:
320,192,111172,1,0,0:0:0:0:
64,192,111232,1,0,0:0:0:0:
448,192,111232,1,0,0:0:0:0:
320,192,111293,1,0,0:0:0:0:
192,192,111354,1,0,0:0:0:0:
320,192,111415,1,0,0:0:0:0:
64,192,111475,1,0,0:0:0:0:
192,192,111536,1,0,0:0:0:0:
448,192,111597,1,0,0:0:0:0:
320,192,111658,1,0,0:0:0:0:
192,192,111718,1,0,0:0:0:0:
64,192,111718,1,0,0:0:0:0:
448,192,111779,1,0,0:0:0:0:
64,192,111840,1,0,0:0:0:0:
192,192,111901,1,0,0:0:0:0:
320,192,111962,1,0,0:0:0:0:
192,192,112022,1,0,0:0:0:0:
448,192,112083,1,0,0:0:0:0:
64,192,112144,1,0,0:0:0:0:
192,192,112204,1,0,0:0:0:0:
448,192,112204,1,0,0:0:0:0:
320,192,112265,1,0,0:0:0:0:
64,192,112325,1,0,0:0:0:0:
448,192,112386,1,0,0:0:0:0:
192,192,112447,1,0,0:0:0:0:
320,192,112508,1,0,0:0:0:0:
64,192,112629,1,0,0:0:0:0:
192,192,112690,1,0,0:0:0:0:
64,192,112751,1,0,0:0:0:0:
192,192,112812,1,0,0:0:0:0:
320,192,112872,1,0,0:0:0:0:
64,192,112933,1,0,0:0:0:0:
192,192,112933,1,0,0:0:0:0:
448,192,112933,1,0,0:0:0:0:
320,192,113055,1,0,0:0:0:0:
320,192,113176,1,0,0:0:0:0:
192,192,113176,1,0,0:0:0:0:
64,192,113298,1,0,0:0:0:0:
64,192,113418,1,0,0:0:0:0:
448,192,113418,1,0,0:0:0:0:
192,192,113540,1,0,0:0:0:0:
320,192,113662,1,0,0:0:0:0:
448,192,113662,1,0,0:0:0:0:
320,192,113783,1,0,0:0:0:0:
64,192,113905,1,0,0:0:0:0:
448,192,113905,1,0,0:0:0:0:
320,192,114026,1,0,0:0:0:0:
192,192,114148,1,0,0:0:0:0:
320,192,114148,1,0,0:0:0:0:
192,192,114269,1,0,0:0:0:0:
64,192,114330,1,0,0:0:0:0:
320,192,114391,1,0,0:0:0:0:
448,192,114391,1,0,0:0:0:0:
192,192,114512,1,0,0:0:0:0:
320,192,114633,1,0,0:0:0:0:
448,192,114633,1,0,0:0:0:0:
64,192,114755,1,0,0:0:0:0:
192,192,114876,1,0,0:0:0:0:
320,192,114876,1,0,0:0:0:0:
320,192,114998,1,0,0:0:0:0:
64,192,115119,1,0,0:0:0:0:
448,192,115119,1,0,0:0:0:0:
192,192,115241,1,0,0:0:0:0:
192,192,115362,1,0,0:0:0:0:
448,192,115362,1,0,0:0:0:0:
320,192,115484,1,0,0:0:0:0:
192,192,115605,1,0,0:0:0:0:
64,192,115605,1,0,0:0:0:0:
64,192,115726,1,0,0:0:0:0:
192,192,115848,1,0,0:0:0:0:
448,192,115848,1,0,0:0:0:0:
320,192,115969,1,0,0:0:0:0:
320,192,116091,1,0,0:0:0:0:
192,192,116091,1,0,0:0:0:0:
64,192,116212,1,0,0:0:0:0:
192,192,116273,1,0,0:0:0:0:
320,192,116334,1,0,0:0:0:0:
448,192,116334,1,0,0:0:0:0:
64,192,116455,1,0,0:0:0:0:
320,192,116577,1,0,0:0:0:0:
448,192,116577,1,0,0:0:0:0:
192,192,116698,1,0,0:0:0:0:
64,192,116819,1,0,0:0:0:0:
448,192,116819,1,0,0:0:0:0:
448,192,116941,1,0,0:0:0:0:
320,192,117062,1,0,0:0:0:0:
64,192,117062,1,0,0:0:0:0:
192,192,117184,1,0,0:0:0:0:
192,192,117305,1,0,0:0:0:0:
320,192,117305,1,0,0:0:0:0:
64,192,117427,1,0,0:0:0:0:
192,192,117548,1,0,0:0:0:0:
448,192,117548,1,0,0:0:0:0:
448,192,117670,1,0,0:0:0:0:
320,192,117792,1,0,0:0:0:0:
64,192,117792,1,0,0:0:0:0:
192,192,117913,1,0,0:0:0:0:
192,192,118034,1,0,0:0:0:0:
320,192,118034,1,0,0:0:0:0:
64,192,118155,1,0,0:0:0:0:
192,192,118216,1,0,0:0:0:0:
320,192,118277,1,0,0:0:0:0:
448,192,118277,1,0,0:0:0:0:
64,192,118398,1,0,0:0:0:0:
320,192,118520,1,0,0:0:0:0:
448,192,118520,1,0,0:0:0:0:
192,192,118642,1,0,0:0:0:0:
64,192,118763,1,0,0:0:0:0:
448,192,118763,1,0,0:0:0:0:
320,192,118885,1,0,0:0:0:0:
320,192,119006,1,0,0:0:0:0:
192,192,119006,1,0,0:0:0:0:
64,192,119127,1,0,0:0:0:0:
64,192,119248,1,0,0:0:0:0:
320,192,119370,1,0,0:0:0:0:
448,192,119370,1,0,0:0:0:0:
320,192,119492,1,0,0:0:0:0:
448,192,119492,1,0,0:0:0:0:
192,192,119613,1,0,0:0:0:0:
448,192,119654,1,0,0:0:0:0:
320,192,119694,1,0,0:0:0:0:
192,192,119735,1,0,0:0:0:0:
64,192,119735,1,0,0:0:0:0:
320,192,119856,1,0,0:0:0:0:
64,192,119978,1,0,0:0:0:0:
192,192,120099,1,0,0:0:0:0:
320,192,120221,1,0,0:0:0:0:
448,192,120221,1,0,0:0:0:0:
64,192,120281,1,0,0:0:0:0:
320,192,120342,1,0,0:0:0:0:
192,192,120402,1,0,0:0:0:0:
64,192,120463,1,0,0:0:0:0:
192,192,120524,1,0,0:0:0:0:
448,192,120585,1,0,0:0:0:0:
320,192,120645,1,0,0:0:0:0:
192,192,120706,1,0,0:0:0:0:
64,192,120706,1,0,0:0:0:0:
448,192,120767,1,0,0:0:0:0:
64,192,120828,1,0,0:0:0:0:
192,192,120888,1,0,0:0:0:0:
448,192,120949,1,0,0:0:0:0:
320,192,120949,1,0,0:0:0:0:
192,192,121010,1,0,0:0:0:0:
320,192,121071,1,0,0:0:0:0:
64,192,121132,1,0,0:0:0:0:
448,192,121192,1,0,0:0:0:0:
320,192,121253,1,0,0:0:0:0:
192,192,121314,1,0,0:0:0:0:
448,192,121375,1,0,0:0:0:0:
320,192,121435,1,0,0:0:0:0:
64,192,121435,1,0,0:0:0:0:
192,192,121495,1,0,0:0:0:0:
448,192,121556,1,0,0:0:0:0:
64,192,121617,1,0,0:0:0:0:
192,192,121678,1,0,0:0:0:0:
320,192,121738,1,0,0:0:0:0:
192,192,121799,1,0,0:0:0:0:
448,192,121860,1,0,0:0:0:0:
320,192,121921,1,0,0:0:0:0:
192,192,121921,1,0,0:0:0:0:
64,192,121982,1,0,0:0:0:0:
448,192,122042,1,0,0:0:0:0:
64,192,122103,1,0,0:0:0:0:
320,192,122164,1,0,0:0:0:0:
192,192,122225,1,0,0:0:0:0:
448,192,122285,1,0,0:0:0:0:
64,192,122346,1,0,0:0:0:0:
192,192,122407,1,0,0:0:0:0:
448,192,122407,1,0,0:0:0:0:
320,192,122468,1,0,0:0:0:0:
64,192,122528,1,0,0:0:0:0:
192,192,122588,1,0,0:0:0:0:
320,192,122649,1,0,0:0:0:0:
448,192,122649,1,0,0:0:0:0:
192,192,122710,1,0,0:0:0:0:
320,192,122771,1,0,0:0:0:0:
64,192,122832,1,0,0:0:0:0:
448,192,122892,1,0,0:0:0:0:
192,192,122892,1,0,0:0:0:0:
320,192,122953,1,0,0:0:0:0:
64,192,123014,1,0,0:0:0:0:
320,192,123075,1,0,0:0:0:0:
192,192,123135,1,0,0:0:0:0:
448,192,123196,1,0,0:0:0:0:
64,192,123257,1,0,0:0:0:0:
320,192,123318,1,0,0:0:0:0:
192,192,123378,1,0,0:0:0:0:
64,192,123378,1,0,0:0:0:0:
448,192,123439,1,0,0:0:0:0:
192,192,123500,1,0,0:0:0:0:
320,192,123561,1,0,0:0:0:0:
64,192,123622,1,0,0:0:0:0:
192,192,123682,1,0,0:0:0:0:
448,192,123742,1,0,0:0:0:0:
64,192,123803,1,0,0:0:0:0:
320,192,123864,1,0,0:0:0:0:
192,192,123864,1,0,0:0:0:0:
448,192,123925,1,0,0:0:0:0:
64,192,123985,1,0,0:0:0:0:
448,192,124046,1,0,0:0:0:0:
320,192,124107,1,0,0:0:0:0:
192,192,124168,1,0,0:0:0:0:
448,192,124228,1,0,0:0:0:0:
64,192,124289,1,0,0:0:0:0:
192,192,124350,1,0,0:0:0:0:
320,192,124350,1,0,0:0:0:0:
448,192,124411,1,0,0:0:0:0:
192,192,124472,1,0,0:0:0:0:
320,192,124532,1,0,0:0:0:0:
448,192,124593,1,0,0:0:0:0:
64,192,124593,1,0,0:0:0:0:
320,192,124654,1,0,0:0:0:0:
192,192,124715,1,0,0:0:0:0:
320,192,124775,1,0,0:0:0:0:
64,192,124836,1,0,0:0:0:0:
192,192,124836,1,0,0:0:0:0:
448,192,124896,1,0,0:0:0:0:
64,192,124957,1,0,0:0:0:0:
320,192,125018,1,0,0:0:0:0:
192,192,125078,1,0,0:0:0:0:
448,192,125139,1,0,0:0:0:0:
64,192,125200,1,0,0:0:0:0:
320,192,125261,1,0,0:0:0:0:
192,192,125322,1,0,0:0:0:0:
64,192,125322,1,0,0:0:0:0:
448,192,125382,1,0,0:0:0:0:
320,192,125443,1,0,0:0:0:0:
192,192,125504,1,0,0:0:0:0:
448,192,125565,1,0,0:0:0:0:
64,192,125625,1,0,0:0:0:0:
320,192,125686,1,0,0:0:0:0:
64,192,125747,1,0,0:0:0:0:
192,192,125808,1,0,0:0:0:0:
320,192,125808,1,0,0:0:0:0:
448,192,125868,1,0,0:0:0:0:
64,192,125929,1,0,0:0:0:0:
320,192,125990,1,0,0:0:0:0:
192,192,126050,1,0,0:0:0:0:
448,192,126111,1,0,0:0:0:0:
64,192,126172,1,0,0:0:0:0:
320,192,126232,1,0,0:0:0:0:
448,192,126293,1,0,0:0:0:0:
64,192,126293,1,0,0:0:0:0:
192,192,126354,1,0,0:0:0:0:
320,192,126415,1,0,0:0:0:0:
192,192,126475,1,0,0:0:0:0:
448,192,126536,1,0,0:0:0:0:
320,192,126536,1,0,0:0:0:0:
64,192,126597,1,0,0:0:0:0:
192,192,126658,1,0,0:0:0:0:
448,192,126718,1,0,0:0:0:0:
320,192,126779,1,0,0:0:0:0:
192,192,126779,1,0,0:0:0:0:
64,192,126840,1,0,0:0:0:0:
448,192,126901,1,0,0:0:0:0:
192,192,126962,1,0,0:0:0:0:
320,192,127022,1,0,0:0:0:0:
64,192,127083,1,0,0:0:0:0:
448,192,127144,1,0,0:0:0:0:
64,192,127204,1,0,0:0:0:0:
192,192,127265,1,0,0:0:0:0:
448,192,127265,1,0,0:0:0:0:
320,192,127325,1,0,0:0:0:0:
192,192,127386,1,0,0:0:0:0:
448,192,127447,1,0,0:0:0:0:
320,192,127508,1,0,0:0:0:0:
64,192,127568,1,0,0:0:0:0:
448,192,127629,1,0,0:0:0:0:
64,192,127690,1,0,0:0:0:0:
192,192,127751,1,0,0:0:0:0:
448,192,127751,1,0,0:0:0:0:
320,192,127812,1,0,0:0:0:0:
64,192,127872,1,0,0:0:0:0:
320,192,127933,1,0,0:0:0:0:
64,192,127994,1,0,0:0:0:0:
448,192,127994,1,0,0:0:0:0:
192,192,128055,1,0,0:0:0:0:
320,192,128115,1,0,0:0:0:0:
448,192,128115,1,0,0:0:0:0:
64,192,128176,1,0,0:0:0:0:
192,192,128237,1,0,0:0:0:0:
64,192,128298,1,0,0:0:0:0:
448,192,128358,1,0,0:0:0:0:
320,192,128418,1,0,0:0:0:0:
192,192,128479,1,0,0:0:0:0:
64,192,128479,1,0,0:0:0:0:
320,192,128540,1,0,0:0:0:0:
64,192,128601,1,0,0:0:0:0:
448,192,128662,1,0,0:0:0:0:
320,192,128722,1,0,0:0:0:0:
192,192,128722,1,0,0:0:0:0:
64,192,128783,1,0,0:0:0:0:
448,192,128844,1,0,0:0:0:0:
192,192,128905,1,0,0:0:0:0:
320,192,128965,1,0,0:0:0:0:
64,192,129026,1,0,0:0:0:0:
448,192,129087,1,0,0:0:0:0:
192,192,129148,1,0,0:0:0:0:
320,192,129208,1,0,0:0:0:0:
448,192,129208,1,0,0:0:0:0:
64,192,129269,1,0,0:0:0:0:
192,192,129330,1,0,0:0:0:0:
320,192,129391,1,0,0:0:0:0:
192,192,129452,1,0,0:0:0:0:
448,192,129512,1,0,0:0:0:0:
320,192,129572,1,0,0:0:0:0:
64,192,129633,1,0,0:0:0:0:
192,192,129694,1,0,0:0:0:0:
448,192,129694,1,0,0:0:0:0:
320,192,129755,1,0,0:0:0:0:
192,192,129815,1,0,0:0:0:0:
320,192,129876,1,0,0:0:0:0:
64,192,129937,1,0,0:0:0:0:
448,192,129998,1,0,0:0:0:0:
64,192,130058,1,0,0:0:0:0:
192,192,130119,1,0,0:0:0:0:
320,192,130180,1,0,0:0:0:0:
448,192,130180,1,0,0:0:0:0:
64,192,130241,1,0,0:0:0:0:
320,192,130302,1,0,0:0:0:0:
192,192,130362,1,0,0:0:0:0:
448,192,130423,1,0,0:0:0:0:
64,192,130423,1,0,0:0:0:0:
320,192,130484,1,0,0:0:0:0:
64,192,130545,1,0,0:0:0:0:
192,192,130605,1,0,0:0:0:0:
448,192,130665,1,0,0:0:0:0:
320,192,130665,1,0,0:0:0:0:
192,192,130726,1,0,0:0:0:0:
448,192,130787,1,0,0:0:0:0:
64,192,130848,1,0,0:0:0:0:
320,192,130908,1,0,0:0:0:0:
192,192,130969,1,0,0:0:0:0:
448,192,131030,1,0,0:0:0:0:
192,192,131091,1,0,0:0:0:0:
320,192,131152,1,0,0:0:0:0:
448,192,131152,1,0,0:0:0:0:
64,192,131212,1,0,0:0:0:0:
192,192,131273,1,0,0:0:0:0:
448,192,131334,1,0,0:0:0:0:
64,192,131395,1,0,0:0:0:0:
320,192,131455,1,0,0:0:0:0:
64,192,131516,1,0,0:0:0:0:
192,192,131577,1,0,0:0:0:0:
320,192,131638,1,0,0:0:0:0:
448,192,131638,1,0,0:0:0:0:
192,192,131698,1,0,0:0:0:0:
320,192,131759,1,0,0:0:0:0:
64,192,131819,1,0,0:0:0:0:
448,192,131880,1,0,0:0:0:0:
192,192,131941,1,0,0:0:0:0:
320,192,132002,1,0,0:0:0:0:
192,192,132062,1,0,0:0:0:0:
64,192,132123,1,0,0:0:0:0:
448,192,132123,1,0,0:0:0:0:
320,192,132184,1,0,0:0:0:0:
192,192,132245,1,0,0:0:0:0:
320,192,132305,1,0,0:0:0:0:
192,192,132366,1,0,0:0:0:0:
64,192,132366,1,0,0:0:0:0:
448,192,132427,1,0,0:0:0:0:
64,192,132488,1,0,0:0:0:0:
320,192,132548,1,0,0:0:0:0:
192,192,132609,1,0,0:0:0:0:
64,192,132609,1,0,0:0:0:0:
448,192,132670,1,0,0:0:0:0:
192,192,132731,1,0,0:0:0:0:
320,192,132792,1,0,0:0:0:0:
64,192,132852,1,0,0:0:0:0:
448,192,132913,1,0,0:0:0:0:
192,192,132973,1,0,0:0:0:0:
320,192,133034,1,0,0:0:0:0:
192,192,133095,1,0,0:0:0:0:
64,192,133095,1,0,0:0:0:0:
448,192,133155,1,0,0:0:0:0:
64,192,133216,1,0,0:0:0:0:
320,192,133277,1,0,0:0:0:0:
192,192,133338,1,0,0:0:0:0:
448,192,133398,1,0,0:0:0:0:
64,192,133459,1,0,0:0:0:0:
448,192,133520,1,0,0:0:0:0:
192,192,133581,1,0,0:0:0:0:
64,192,133581,1,0,0:0:0:0:
320,192,133642,1,0,0:0:0:0:
192,192,133702,1,0,0:0:0:0:
448,192,133763,1,0,0:0:0:0:
64,192,133824,1,0,0:0:0:0:
192,192,133885,1,0,0:0:0:0:
320,192,133945,1,0,0:0:0:0:
64,192,134006,1,0,0:0:0:0:
192,192,134067,1,0,0:0:0:0:
320,192,134067,1,0,0:0:0:0:
448,192,134127,1,0,0:0:0:0:
192,192,134188,1,0,0:0:0:0:
448,192,134248,1,0,0:0:0:0:
320,192,134309,1,0,0:0:0:0:
64,192,134309,1,0,0:0:0:0:
192,192,134370,1,0,0:0:0:0:
448,192,134431,1,0,0:0:0:0:
320,192,134492,1,0,0:0:0:0:
64,192,134552,1,0,0:0:0:0:
192,192,134552,1,0,0:0:0:0:
448,192,134613,1,0,0:0:0:0:
192,192,134674,1,0,0:0:0:0:
320,192,134735,1,0,0:0:0:0:
64,192,134795,1,0,0:0:0:0:
448,192,134856,1,0,0:0:0:0:
192,192,134917,1,0,0:0:0:0:
320,192,134978,1,0,0:0:0:0:
192,192,135038,1,0,0:0:0:0:
64,192,135038,1,0,0:0:0:0:
448,192,135099,1,0,0:0:0:0:
64,192,135160,1,0,0:0:0:0:
448,192,135221,1,0,0:0:0:0:
320,192,135281,1,0,0:0:0:0:
192,192,135342,1,0,0:0:0:0:
320,192,135402,1,0,0:0:0:0:
192,192,135463,1,0,0:0:0:0:
64,192,135524,1,0,0:0:0:0:
448,192,135524,1,0,0:0:0:0:
192,192,135585,1,0,0:0:0:0:
320,192,135645,1,0,0:0:0:0:
64,192,135706,1,0,0:0:0:0:
448,192,135767,1,0,0:0:0:0:
320,192,135767,1,0,0:0:0:0:
192,192,135828,1,0,0:0:0:0:
64,192,135828,1,0,0:0:0:0:
448,192,135888,1,0,0:0:0:0:
320,192,135888,1,0,0:0:0:0:
192,192,135949,1,0,0:0:0:0:
64,192,135949,1,0,0:0:0:0:
320,192,136010,1,0,0:0:0:0:
192,192,136071,1,0,0:0:0:0:
64,192,136132,1,0,0:0:0:0:
320,192,136192,1,0,0:0:0:0:
64,192,136253,128,0,136375:0:0:0:0:
192,192,136253,128,0,136375:0:0:0:0:
448,192,136253,128,0,137225:0:0:0:0:
320,192,137225,128,0,137346:0:0:0:0:
64,192,137225,128,0,137346:0:0:0:0:
192,192,137225,128,0,137710:0:0:0:0:
448,192,137710,128,0,138196:0:0:0:0:
64,192,138196,128,0,138318:0:0:0:0:
192,192,138196,128,0,138318:0:0:0:0:
320,192,138196,128,0,138682:0:0:0:0:
64,192,138682,128,0,139168:0:0:0:0:
192,192,139168,128,0,139289:0:0:0:0:
320,192,139168,128,0,139289:0:0:0:0:
448,192,139168,128,0,139654:0:0:0:0:
64,192,139654,128,0,140139:0:0:0:0:
192,192,140139,128,0,140261:0:0:0:0:
448,192,140139,128,0,140261:0:0:0:0:
320,192,140139,128,0,140625:0:0:0:0:
64,192,141111,128,0,141536:0:0:0:0:
192,192,141111,128,0,141536:0:0:0:0:
320,192,141111,128,0,141597:0:0:0:0:
64,192,141597,128,0,142083:0:0:0:0:
448,192,141597,128,0,142022:0:0:0:0:
192,192,141597,128,0,142022:0:0:0:0:
192,192,142083,128,0,142204:0:0:0:0:
320,192,142083,128,0,142204:0:0:0:0:
448,192,142083,128,0,142568:0:0:0:0:
64,192,143055,128,0,143479:0:0:0:0:
192,192,143055,128,0,143479:0:0:0:0:
448,192,143055,128,0,143540:0:0:0:0:
64,192,143540,1,0,0:0:0:0:
192,192,143540,1,0,0:0:0:0:
320,192,143540,1,0,0:0:0:0:
320,192,143662,1,0,0:0:0:0:
64,192,143662,1,0,0:0:0:0:
320,192,143783,1,0,0:0:0:0:
448,192,143783,1,0,0:0:0:0:
192,192,143844,1,0,0:0:0:0:
64,192,143844,1,0,0:0:0:0:
320,192,143905,1,0,0:0:0:0:
448,192,143905,1,0,0:0:0:0:
192,192,143965,1,0,0:0:0:0:
64,192,143965,1,0,0:0:0:0:
320,192,144026,1,0,0:0:0:0:
192,192,144087,1,0,0:0:0:0:
448,192,144148,1,0,0:0:0:0:
64,192,144208,1,0,0:0:0:0:
192,192,144269,1,0,0:0:0:0:
448,192,144269,1,0,0:0:0:0:
320,192,144330,1,0,0:0:0:0:
64,192,144391,1,0,0:0:0:0:
192,192,144452,1,0,0:0:0:0:
448,192,144512,1,0,0:0:0:0:
64,192,144572,1,0,0:0:0:0:
320,192,144633,1,0,0:0:0:0:
192,192,144694,1,0,0:0:0:0:
320,192,144755,1,0,0:0:0:0:
448,192,144755,1,0,0:0:0:0:
64,192,144815,1,0,0:0:0:0:
448,192,144876,1,0,0:0:0:0:
64,192,144937,1,0,0:0:0:0:
192,192,144998,1,0,0:0:0:0:
320,192,145058,1,0,0:0:0:0:
192,192,145119,1,0,0:0:0:0:
320,192,145180,1,0,0:0:0:0:
64,192,145241,1,0,0:0:0:0:
448,192,145241,1,0,0:0:0:0:
192,192,145302,1,0,0:0:0:0:
320,192,145362,1,0,0:0:0:0:
64,192,145423,1,0,0:0:0:0:
448,192,145484,1,0,0:0:0:0:
320,192,145545,1,0,0:0:0:0:
192,192,145605,1,0,0:0:0:0:
64,192,145665,1,0,0:0:0:0:
192,192,145726,1,0,0:0:0:0:
448,192,145726,1,0,0:0:0:0:
320,192,145787,1,0,0:0:0:0:
192,192,145848,1,0,0:0:0:0:
64,192,145908,1,0,0:0:0:0:
320,192,145969,1,0,0:0:0:0:
192,192,146030,1,0,0:0:0:0:
448,192,146091,1,0,0:0:0:0:
192,192,146152,1,0,0:0:0:0:
64,192,146212,1,0,0:0:0:0:
448,192,146212,1,0,0:0:0:0:
320,192,146273,1,0,0:0:0:0:
192,192,146334,1,0,0:0:0:0:
320,192,146395,1,0,0:0:0:0:
64,192,146455,1,0,0:0:0:0:
192,192,146516,1,0,0:0:0:0:
320,192,146577,1,0,0:0:0:0:
192,192,146638,1,0,0:0:0:0:
320,192,146698,1,0,0:0:0:0:
448,192,146698,1,0,0:0:0:0:
64,192,146759,1,0,0:0:0:0:
192,192,146819,1,0,0:0:0:0:
448,192,146880,1,0,0:0:0:0:
192,192,146941,1,0,0:0:0:0:
320,192,147002,1,0,0:0:0:0:
64,192,147062,1,0,0:0:0:0:
448,192,147123,1,0,0:0:0:0:
320,192,147184,1,0,0:0:0:0:
192,192,147184,1,0,0:0:0:0:
64,192,147245,1,0,0:0:0:0:
320,192,147305,1,0,0:0:0:0:
64,192,147366,1,0,0:0:0:0:
192,192,147427,128,0,147609:0:0:0:0:
320,192,147427,128,0,147609:0:0:0:0:
448,192,147427,128,0,147670:0:0:0:0:
64,192,147670,128,0,147913:0:0:0:0:
192,192,147670,128,0,147852:0:0:0:0:
320,192,147670,128,0,147852:0:0:0:0:
192,192,147913,1,0,0:0:0:0:
448,192,147913,1,0,0:0:0:0:
320,192,147913,1,0,0:0:0:0:
64,192,147973,1,0,0:0:0:0:
448,192,148034,1,0,0:0:0:0:
192,192,148095,1,0,0:0:0:0:
320,192,148155,1,0,0:0:0:0:
64,192,148155,1,0,0:0:0:0:
448,192,148216,1,0,0:0:0:0:
192,192,148277,1,0,0:0:0:0:
320,192,148338,1,0,0:0:0:0:
64,192,148398,1,0,0:0:0:0:
448,192,148459,1,0,0:0:0:0:
192,192,148520,1,0,0:0:0:0:
320,192,148581,1,0,0:0:0:0:
192,192,148642,1,0,0:0:0:0:
64,192,148642,1,0,0:0:0:0:
448,192,148702,1,0,0:0:0:0:
64,192,148763,1,0,0:0:0:0:
320,192,148824,1,0,0:0:0:0:
192,192,148885,1,0,0:0:0:0:
448,192,148945,1,0,0:0:0:0:
64,192,149006,1,0,0:0:0:0:
320,192,149067,1,0,0:0:0:0:
192,192,149127,1,0,0:0:0:0:
64,192,149127,1,0,0:0:0:0:
320,192,149188,1,0,0:0:0:0:
192,192,149248,1,0,0:0:0:0:
448,192,149309,1,0,0:0:0:0:
64,192,149370,1,0,0:0:0:0:
192,192,149370,1,0,0:0:0:0:
320,192,149431,1,0,0:0:0:0:
448,192,149431,1,0,0:0:0:0:
192,192,149492,1,0,0:0:0:0:
64,192,149492,1,0,0:0:0:0:
320,192,149552,1,0,0:0:0:0:
448,192,149552,1,0,0:0:0:0:
64,192,149613,1,0,0:0:0:0:
192,192,149674,1,0,0:0:0:0:
320,192,149735,1,0,0:0:0:0:
192,192,149795,1,0,0:0:0:0:
320,192,149856,1,0,0:0:0:0:
448,192,149856,1,0,0:0:0:0:
64,192,149856,1,0,0:0:0:0:
192,192,150018,1,0,0:0:0:0:
64,192,150018,1,0,0:0:0:0:
64,192,150099,1,0,0:0:0:0:
448,192,150099,1,0,0:0:0:0:
320,192,150099,1,0,0:0:0:0:
192,192,150221,1,0,0:0:0:0:
320,192,150221,1,0,0:0:0:0:
64,192,150342,1,0,0:0:0:0:
192,192,150463,1,0,0:0:0:0:
448,192,150463,1,0,0:0:0:0:
320,192,150585,1,0,0:0:0:0:
192,192,150585,1,0,0:0:0:0:
64,192,150585,1,0,0:0:0:0:
64,192,150706,1,0,0:0:0:0:
448,192,150706,1,0,0:0:0:0:
192,192,150828,1,0,0:0:0:0:
320,192,150828,1,0,0:0:0:0:
448,192,150828,1,0,0:0:0:0:
64,192,150949,5,0,0:0:0:0:
192,192,151071,1,0,0:0:0:0:
448,192,151071,1,0,0:0:0:0:
320,192,151192,1,0,0:0:0:0:
192,192,151192,1,0,0:0:0:0:
64,192,151192,1,0,0:0:0:0:
448,192,151314,1,0,0:0:0:0:
64,192,151435,1,0,0:0:0:0:
192,192,151435,1,0,0:0:0:0:
64,192,151556,1,0,0:0:0:0:
320,192,151556,1,0,0:0:0:0:
448,192,151556,1,0,0:0:0:0:
192,192,151678,1,0,0:0:0:0:
320,192,151678,1,0,0:0:0:0:
448,192,151799,5,0,0:0:0:0:
64,192,151799,1,0,0:0:0:0:
192,192,151860,1,0,0:0:0:0:
320,192,151921,1,0,0:0:0:0:
192,192,151982,1,0,0:0:0:0:
448,192,152042,1,0,0:0:0:0:
64,192,152103,1,0,0:0:0:0:
320,192,152164,1,0,0:0:0:0:
64,192,152225,1,0,0:0:0:0:
448,192,152285,1,0,0:0:0:0:
192,192,152346,1,0,0:0:0:0:
320,192,152407,1,0,0:0:0:0:
192,192,152468,1,0,0:0:0:0:
448,192,152528,1,0,0:0:0:0:
64,192,152588,1,0,0:0:0:0:
320,192,152649,1,0,0:0:0:0:
64,192,152710,1,0,0:0:0:0:
192,192,152771,1,0,0:0:0:0:
448,192,152771,1,0,0:0:0:0:
320,192,152832,1,0,0:0:0:0:
64,192,152892,1,0,0:0:0:0:
320,192,152953,1,0,0:0:0:0:
192,192,153014,1,0,0:0:0:0:
448,192,153075,1,0,0:0:0:0:
64,192,153135,1,0,0:0:0:0:
448,192,153196,1,0,0:0:0:0:
64,192,153257,1,0,0:0:0:0:
192,192,153298,1,0,0:0:0:0:
320,192,153338,1,0,0:0:0:0:
448,192,153378,1,0,0:0:0:0:
192,192,153418,1,0,0:0:0:0:
320,192,153459,1,0,0:0:0:0:
64,192,153500,1,0,0:0:0:0:
192,192,153540,1,0,0:0:0:0:
320,192,153581,1,0,0:0:0:0:
448,192,153622,1,0,0:0:0:0:
192,192,153662,1,0,0:0:0:0:
320,192,153702,1,0,0:0:0:0:
64,192,153742,1,0,0:0:0:0:
448,192,153742,1,0,0:0:0:0:
192,192,153803,1,0,0:0:0:0:
320,192,153864,1,0,0:0:0:0:
192,192,153925,1,0,0:0:0:0:
448,192,153985,1,0,0:0:0:0:
64,192,154046,1,0,0:0:0:0:
320,192,154107,1,0,0:0:0:0:
64,192,154168,1,0,0:0:0:0:
448,192,154228,1,0,0:0:0:0:
192,192,154289,1,0,0:0:0:0:
320,192,154350,1,0,0:0:0:0:
192,192,154411,1,0,0:0:0:0:
448,192,154472,1,0,0:0:0:0:
64,192,154532,1,0,0:0:0:0:
320,192,154593,1,0,0:0:0:0:
64,192,154654,1,0,0:0:0:0:
448,192,154715,1,0,0:0:0:0:
320,192,154715,1,0,0:0:0:0:
64,192,154775,1,0,0:0:0:0:
448,192,154836,1,0,0:0:0:0:
192,192,154896,1,0,0:0:0:0:
320,192,154957,1,0,0:0:0:0:
64,192,155018,1,0,0:0:0:0:
320,192,155078,1,0,0:0:0:0:
192,192,155139,1,0,0:0:0:0:
64,192,155200,1,0,0:0:0:0:
192,192,155241,1,0,0:0:0:0:
320,192,155281,1,0,0:0:0:0:
448,192,155322,1,0,0:0:0:0:
192,192,155362,1,0,0:0:0:0:
320,192,155402,1,0,0:0:0:0:
64,192,155443,1,0,0:0:0:0:
192,192,155484,1,0,0:0:0:0:
320,192,155524,1,0,0:0:0:0:
448,192,155565,1,0,0:0:0:0:
192,192,155605,1,0,0:0:0:0:
320,192,155645,1,0,0:0:0:0:
64,192,155686,1,0,0:0:0:0:
448,192,155686,1,0,0:0:0:0:
192,192,155747,1,0,0:0:0:0:
320,192,155808,1,0,0:0:0:0:
192,192,155868,1,0,0:0:0:0:
448,192,155929,1,0,0:0:0:0:
64,192,155990,1,0,0:0:0:0:
320,192,156050,1,0,0:0:0:0:
64,192,156111,1,0,0:0:0:0:
448,192,156172,1,0,0:0:0:0:
192,192,156232,1,0,0:0:0:0:
320,192,156293,1,0,0:0:0:0:
192,192,156354,1,0,0:0:0:0:
448,192,156415,1,0,0:0:0:0:
64,192,156475,1,0,0:0:0:0:
320,192,156536,1,0,0:0:0:0:
64,192,156597,1,0,0:0:0:0:
448,192,156658,1,0,0:0:0:0:
192,192,156658,1,0,0:0:0:0:
320,192,156718,1,0,0:0:0:0:
64,192,156779,1,0,0:0:0:0:
320,192,156840,1,0,0:0:0:0:
192,192,156901,1,0,0:0:0:0:
448,192,156962,1,0,0:0:0:0:
64,192,157022,1,0,0:0:0:0:
448,192,157083,1,0,0:0:0:0:
64,192,157144,1,0,0:0:0:0:
192,192,157184,1,0,0:0:0:0:
320,192,157225,1,0,0:0:0:0:
448,192,157265,1,0,0:0:0:0:
192,192,157305,1,0,0:0:0:0:
320,192,157346,1,0,0:0:0:0:
64,192,157386,1,0,0:0:0:0:
192,192,157427,1,0,0:0:0:0:
320,192,157468,1,0,0:0:0:0:
448,192,157508,1,0,0:0:0:0:
192,192,157548,1,0,0:0:0:0:
320,192,157588,1,0,0:0:0:0:
64,192,157629,1,0,0:0:0:0:
448,192,157629,1,0,0:0:0:0:
192,192,157690,1,0,0:0:0:0:
320,192,157751,1,0,0:0:0:0:
192,192,157812,1,0,0:0:0:0:
448,192,157872,1,0,0:0:0:0:
64,192,157933,1,0,0:0:0:0:
320,192,157994,1,0,0:0:0:0:
64,192,158055,1,0,0:0:0:0:
448,192,158115,1,0,0:0:0:0:
192,192,158176,1,0,0:0:0:0:
320,192,158237,1,0,0:0:0:0:
192,192,158298,1,0,0:0:0:0:
448,192,158358,1,0,0:0:0:0:
64,192,158418,1,0,0:0:0:0:
320,192,158479,1,0,0:0:0:0:
64,192,158540,1,0,0:0:0:0:
192,192,158601,1,0,0:0:0:0:
448,192,158601,1,0,0:0:0:0:
320,192,158662,1,0,0:0:0:0:
64,192,158722,1,0,0:0:0:0:
192,192,158722,1,0,0:0:0:0:
320,192,158783,1,0,0:0:0:0:
448,192,158783,1,0,0:0:0:0:
192,192,158844,1,0,0:0:0:0:
64,192,158844,1,0,0:0:0:0:
320,192,158905,1,0,0:0:0:0:
448,192,158905,1,0,0:0:0:0:
64,192,158965,1,0,0:0:0:0:
192,192,159026,1,0,0:0:0:0:
320,192,159087,1,0,0:0:0:0:
448,192,159087,1,0,0:0:0:0:
64,192,159148,1,0,0:0:0:0:
320,192,159208,1,0,0:0:0:0:
192,192,159269,1,0,0:0:0:0:
448,192,159330,1,0,0:0:0:0:
320,192,159391,1,0,0:0:0:0:
192,192,159452,1,0,0:0:0:0:
64,192,159512,1,0,0:0:0:0:
192,192,159572,1,0,0:0:0:0:
320,192,159572,1,0,0:0:0:0:
448,192,159633,1,0,0:0:0:0:
64,192,159694,1,0,0:0:0:0:
448,192,159755,1,0,0:0:0:0:
64,192,159815,1,0,0:0:0:0:
320,192,159815,1,0,0:0:0:0:
192,192,159876,1,0,0:0:0:0:
448,192,159937,1,0,0:0:0:0:
192,192,159998,1,0,0:0:0:0:
320,192,160058,1,0,0:0:0:0:
64,192,160119,1,0,0:0:0:0:
448,192,160180,1,0,0:0:0:0:
64,192,160241,1,0,0:0:0:0:
320,192,160302,1,0,0:0:0:0:
192,192,160302,1,0,0:0:0:0:
448,192,160362,1,0,0:0:0:0:
64,192,160423,1,0,0:0:0:0:
448,192,160484,1,0,0:0:0:0:
192,192,160545,1,0,0:0:0:0:
320,192,160605,1,0,0:0:0:0:
64,192,160665,1,0,0:0:0:0:
320,192,160726,1,0,0:0:0:0:
64,192,160787,1,0,0:0:0:0:
448,192,160787,1,0,0:0:0:0:
192,192,160848,1,0,0:0:0:0:
320,192,160908,1,0,0:0:0:0:
192,192,160969,1,0,0:0:0:0:
448,192,161030,1,0,0:0:0:0:
320,192,161071,1,0,0:0:0:0:
192,192,161111,1,0,0:0:0:0:
64,192,161152,1,0,0:0:0:0:
320,192,161192,1,0,0:0:0:0:
192,192,161232,1,0,0:0:0:0:
448,192,161273,1,0,0:0:0:0:
320,192,161314,1,0,0:0:0:0:
192,192,161354,1,0,0:0:0:0:
64,192,161395,1,0,0:0:0:0:
320,192,161435,1,0,0:0:0:0:
192,192,161475,1,0,0:0:0:0:
64,192,161516,1,0,0:0:0:0:
448,192,161516,1,0,0:0:0:0:
320,192,161577,1,0,0:0:0:0:
192,192,161638,1,0,0:0:0:0:
320,192,161698,1,0,0:0:0:0:
448,192,161759,1,0,0:0:0:0:
192,192,161759,1,0,0:0:0:0:
64,192,161819,1,0,0:0:0:0:
320,192,161880,1,0,0:0:0:0:
64,192,161941,1,0,0:0:0:0:
448,192,162002,1,0,0:0:0:0:
192,192,162062,1,0,0:0:0:0:
320,192,162123,1,0,0:0:0:0:
192,192,162184,1,0,0:0:0:0:
64,192,162245,1,0,0:0:0:0:
320,192,162245,1,0,0:0:0:0:
448,192,162305,1,0,0:0:0:0:
192,192,162366,1,0,0:0:0:0:
448,192,162427,1,0,0:0:0:0:
64,192,162488,1,0,0:0:0:0:
320,192,162548,1,0,0:0:0:0:
192,192,162609,1,0,0:0:0:0:
320,192,162670,1,0,0:0:0:0:
448,192,162731,1,0,0:0:0:0:
64,192,162731,1,0,0:0:0:0:
192,192,162792,1,0,0:0:0:0:
320,192,162852,1,0,0:0:0:0:
192,192,162913,1,0,0:0:0:0:
448,192,162973,1,0,0:0:0:0:
320,192,163014,1,0,0:0:0:0:
192,192,163055,1,0,0:0:0:0:
64,192,163095,1,0,0:0:0:0:
320,192,163135,1,0,0:0:0:0:
192,192,163176,1,0,0:0:0:0:
448,192,163216,1,0,0:0:0:0:
320,192,163257,1,0,0:0:0:0:
192,192,163298,1,0,0:0:0:0:
64,192,163338,1,0,0:0:0:0:
320,192,163378,1,0,0:0:0:0:
192,192,163418,1,0,0:0:0:0:
448,192,163459,1,0,0:0:0:0:
64,192,163459,1,0,0:0:0:0:
320,192,163520,1,0,0:0:0:0:
192,192,163581,1,0,0:0:0:0:
320,192,163642,1,0,0:0:0:0:
192,192,163702,1,0,0:0:0:0:
448,192,163702,1,0,0:0:0:0:
64,192,163763,1,0,0:0:0:0:
320,192,163824,1,0,0:0:0:0:
64,192,163885,1,0,0:0:0:0:
448,192,163945,1,0,0:0:0:0:
192,192,164006,1,0,0:0:0:0:
320,192,164067,1,0,0:0:0:0:
192,192,164127,1,0,0:0:0:0:
64,192,164188,1,0,0:0:0:0:
320,192,164188,1,0,0:0:0:0:
448,192,164248,1,0,0:0:0:0:
64,192,164309,1,0,0:0:0:0:
448,192,164370,1,0,0:0:0:0:
192,192,164431,1,0,0:0:0:0:
320,192,164492,1,0,0:0:0:0:
64,192,164552,1,0,0:0:0:0:
320,192,164613,1,0,0:0:0:0:
192,192,164674,1,0,0:0:0:0:
448,192,164674,1,0,0:0:0:0:
64,192,164735,1,0,0:0:0:0:
320,192,164795,1,0,0:0:0:0:
64,192,164856,1,0,0:0:0:0:
320,192,164917,1,0,0:0:0:0:
448,192,164917,1,0,0:0:0:0:
192,192,164978,1,0,0:0:0:0:
64,192,164978,1,0,0:0:0:0:
320,192,165038,1,0,0:0:0:0:
448,192,165038,1,0,0:0:0:0:
192,192,165099,1,0,0:0:0:0:
64,192,165099,1,0,0:0:0:0:
320,192,165160,1,0,0:0:0:0:
192,192,165221,1,0,0:0:0:0:
64,192,165281,1,0,0:0:0:0:
448,192,165312,1,0,0:0:0:0:
320,192,165342,1,0,0:0:0:0:
192,192,165402,1,0,0:0:0:0:
448,192,165463,1,0,0:0:0:0:
64,192,165524,1,0,0:0:0:0:
448,192,165585,1,0,0:0:0:0:
192,192,165645,1,0,0:0:0:0:
320,192,165645,1,0,0:0:0:0:
64,192,165706,1,0,0:0:0:0:
448,192,165767,1,0,0:0:0:0:
320,192,165767,1,0,0:0:0:0:
64,192,165828,1,0,0:0:0:0:
192,192,165888,1,0,0:0:0:0:
448,192,165888,1,0,0:0:0:0:
320,192,165949,1,0,0:0:0:0:
192,192,166010,1,0,0:0:0:0:
64,192,166010,1,0,0:0:0:0:
320,192,166071,1,0,0:0:0:0:
64,192,166132,1,0,0:0:0:0:
448,192,166132,1,0,0:0:0:0:
192,192,166192,1,0,0:0:0:0:
320,192,166253,1,0,0:0:0:0:
448,192,166253,1,0,0:0:0:0:
192,192,166314,1,0,0:0:0:0:
64,192,166375,1,0,0:0:0:0:
320,192,166375,1,0,0:0:0:0:
448,192,166435,1,0,0:0:0:0:
192,192,166495,1,0,0:0:0:0:
64,192,166495,1,0,0:0:0:0:
448,192,166556,1,0,0:0:0:0:
320,192,166556,1,0,0:0:0:0:
192,192,166617,1,0,0:0:0:0:
64,192,166617,1,0,0:0:0:0:
320,192,166678,1,0,0:0:0:0:
448,192,166678,1,0,0:0:0:0:
64,192,166738,1,0,0:0:0:0:
192,192,166799,1,0,0:0:0:0:
448,192,166860,1,0,0:0:0:0:
64,192,166860,1,0,0:0:0:0:
192,192,166901,1,0,0:0:0:0:
320,192,166941,1,0,0:0:0:0:
448,192,166982,1,0,0:0:0:0:
192,192,167022,1,0,0:0:0:0:
320,192,167062,1,0,0:0:0:0:
64,192,167103,1,0,0:0:0:0:
192,192,167144,1,0,0:0:0:0:
320,192,167184,1,0,0:0:0:0:
448,192,167225,1,0,0:0:0:0:
192,192,167265,1,0,0:0:0:0:
320,192,167305,1,0,0:0:0:0:
448,192,167346,1,0,0:0:0:0:
64,192,167346,1,0,0:0:0:0:
192,192,167407,1,0,0:0:0:0:
320,192,167468,1,0,0:0:0:0:
192,192,167528,1,0,0:0:0:0:
448,192,167588,1,0,0:0:0:0:
64,192,167588,1,0,0:0:0:0:
320,192,167649,1,0,0:0:0:0:
192,192,167710,1,0,0:0:0:0:
320,192,167771,1,0,0:0:0:0:
64,192,167832,1,0,0:0:0:0:
448,192,167892,1,0,0:0:0:0:
192,192,167953,1,0,0:0:0:0:
448,192,168014,1,0,0:0:0:0:
192,192,168075,1,0,0:0:0:0:
320,192,168075,1,0,0:0:0:0:
64,192,168135,1,0,0:0:0:0:
448,192,168196,1,0,0:0:0:0:
64,192,168257,1,0,0:0:0:0:
320,192,168318,1,0,0:0:0:0:
192,192,168378,1,0,0:0:0:0:
448,192,168439,1,0,0:0:0:0:
192,192,168500,1,0,0:0:0:0:
320,192,168561,1,0,0:0:0:0:
64,192,168561,1,0,0:0:0:0:
448,192,168622,1,0,0:0:0:0:
192,192,168682,1,0,0:0:0:0:
448,192,168742,1,0,0:0:0:0:
64,192,168803,1,0,0:0:0:0:
192,192,168844,1,0,0:0:0:0:
320,192,168885,1,0,0:0:0:0:
448,192,168925,1,0,0:0:0:0:
192,192,168965,1,0,0:0:0:0:
320,192,169006,1,0,0:0:0:0:
64,192,169046,1,0,0:0:0:0:
192,192,169087,1,0,0:0:0:0:
320,192,169127,1,0,0:0:0:0:
448,192,169168,1,0,0:0:0:0:
192,192,169208,1,0,0:0:0:0:
320,192,169248,1,0,0:0:0:0:
64,192,169289,1,0,0:0:0:0:
448,192,169289,1,0,0:0:0:0:
192,192,169350,1,0,0:0:0:0:
320,192,169411,1,0,0:0:0:0:
192,192,169472,1,0,0:0:0:0:
64,192,169532,1,0,0:0:0:0:
320,192,169532,1,0,0:0:0:0:
448,192,169593,1,0,0:0:0:0:
64,192,169654,1,0,0:0:0:0:
448,192,169715,1,0,0:0:0:0:
192,192,169775,1,0,0:0:0:0:
320,192,169836,1,0,0:0:0:0:
64,192,169896,1,0,0:0:0:0:
320,192,169957,1,0,0:0:0:0:
192,192,170018,1,0,0:0:0:0:
448,192,170018,1,0,0:0:0:0:
64,192,170078,1,0,0:0:0:0:
320,192,170139,1,0,0:0:0:0:
64,192,170200,1,0,0:0:0:0:
448,192,170261,1,0,0:0:0:0:
192,192,170322,1,0,0:0:0:0:
320,192,170382,1,0,0:0:0:0:
192,192,170443,1,0,0:0:0:0:
64,192,170504,1,0,0:0:0:0:
320,192,170504,1,0,0:0:0:0:
448,192,170565,1,0,0:0:0:0:
192,192,170625,1,0,0:0:0:0:
448,192,170686,1,0,0:0:0:0:
64,192,170747,1,0,0:0:0:0:
192,192,170787,1,0,0:0:0:0:
320,192,170828,1,0,0:0:0:0:
448,192,170868,1,0,0:0:0:0:
192,192,170908,1,0,0:0:0:0:
320,192,170949,1,0,0:0:0:0:
64,192,170990,1,0,0:0:0:0:
192,192,171030,1,0,0:0:0:0:
320,192,171071,1,0,0:0:0:0:
448,192,171111,1,0,0:0:0:0:
192,192,171152,1,0,0:0:0:0:
320,192,171192,1,0,0:0:0:0:
64,192,171232,1,0,0:0:0:0:
448,192,171232,1,0,0:0:0:0:
192,192,171293,1,0,0:0:0:0:
320,192,171354,1,0,0:0:0:0:
192,192,171415,1,0,0:0:0:0:
64,192,171475,1,0,0:0:0:0:
320,192,171475,1,0,0:0:0:0:
448,192,171536,1,0,0:0:0:0:
64,192,171597,1,0,0:0:0:0:
448,192,171658,1,0,0:0:0:0:
192,192,171718,1,0,0:0:0:0:
320,192,171779,1,0,0:0:0:0:
64,192,171840,1,0,0:0:0:0:
320,192,171901,1,0,0:0:0:0:
192,192,171962,1,0,0:0:0:0:
448,192,171962,1,0,0:0:0:0:
64,192,172022,1,0,0:0:0:0:
320,192,172083,1,0,0:0:0:0:
64,192,172144,1,0,0:0:0:0:
448,192,172204,1,0,0:0:0:0:
192,192,172265,1,0,0:0:0:0:
320,192,172325,1,0,0:0:0:0:
192,192,172386,1,0,0:0:0:0:
320,192,172447,1,0,0:0:0:0:
64,192,172447,1,0,0:0:0:0:
448,192,172508,1,0,0:0:0:0:
64,192,172568,1,0,0:0:0:0:
448,192,172629,1,0,0:0:0:0:
192,192,172690,1,0,0:0:0:0:
320,192,172690,1,0,0:0:0:0:
64,192,172751,1,0,0:0:0:0:
448,192,172751,1,0,0:0:0:0:
320,192,172812,1,0,0:0:0:0:
192,192,172812,1,0,0:0:0:0:
64,192,172872,1,0,0:0:0:0:
448,192,172872,1,0,0:0:0:0:
320,192,172933,1,0,0:0:0:0:
192,192,172994,1,0,0:0:0:0:
64,192,173115,1,0,0:0:0:0:
192,192,173176,1,0,0:0:0:0:
320,192,173176,1,0,0:0:0:0:
448,192,173237,1,0,0:0:0:0:
192,192,173298,1,0,0:0:0:0:
64,192,173298,1,0,0:0:0:0:
448,192,173358,1,0,0:0:0:0:
320,192,173418,1,0,0:0:0:0:
192,192,173418,1,0,0:0:0:0:
64,192,173479,1,0,0:0:0:0:
192,192,173540,1,0,0:0:0:0:
448,192,173540,1,0,0:0:0:0:
64,192,173601,1,0,0:0:0:0:
320,192,173662,1,0,0:0:0:0:
192,192,173662,1,0,0:0:0:0:
448,192,173722,1,0,0:0:0:0:
64,192,173783,1,0,0:0:0:0:
320,192,173783,1,0,0:0:0:0:
448,192,173844,1,0,0:0:0:0:
192,192,173905,1,0,0:0:0:0:
320,192,173905,1,0,0:0:0:0:
64,192,173965,1,0,0:0:0:0:
192,192,174026,1,0,0:0:0:0:
448,192,174026,1,0,0:0:0:0:
64,192,174087,1,0,0:0:0:0:
320,192,174148,1,0,0:0:0:0:
192,192,174148,1,0,0:0:0:0:
448,192,174208,1,0,0:0:0:0:
320,192,174269,1,0,0:0:0:0:
64,192,174269,1,0,0:0:0:0:
448,192,174330,1,0,0:0:0:0:
192,192,174391,1,0,0:0:0:0:
64,192,174391,1,0,0:0:0:0:
320,192,174452,1,0,0:0:0:0:
192,192,174512,1,0,0:0:0:0:
64,192,174512,1,0,0:0:0:0:
320,192,174572,1,0,0:0:0:0:
64,192,174633,1,0,0:0:0:0:
192,192,174674,1,0,0:0:0:0:
320,192,174715,1,0,0:0:0:0:
448,192,174755,1,0,0:0:0:0:
192,192,174795,1,0,0:0:0:0:
320,192,174836,1,0,0:0:0:0:
64,192,174876,1,0,0:0:0:0:
192,192,174917,1,0,0:0:0:0:
320,192,174957,1,0,0:0:0:0:
448,192,174998,1,0,0:0:0:0:
192,192,175038,1,0,0:0:0:0:
320,192,175078,1,0,0:0:0:0:
448,192,175119,1,0,0:0:0:0:
64,192,175119,128,0,175605:0:0:0:0:
320,192,175605,128,0,176091:0:0:0:0:
64,192,176091,1,0,0:0:0:0:
448,192,176091,1,0,0:0:0:0:
192,192,176091,128,0,176577:0:0:0:0:
320,192,176577,128,0,177062:0:0:0:0:
448,192,177062,1,0,0:0:0:0:
192,192,177062,1,0,0:0:0:0:
64,192,177062,128,0,177792:0:0:0:0:
448,192,177548,1,0,0:0:0:0:
320,192,177792,128,0,178034:0:0:0:0:
448,192,178034,1,0,0:0:0:0:
64,192,178034,128,0,178520:0:0:0:0:
448,192,178277,1,0,0:0:0:0:
192,192,178338,1,0,0:0:0:0:
448,192,178398,1,0,0:0:0:0:
192,192,178459,1,0,0:0:0:0:
448,192,178520,1,0,0:0:0:0:
320,192,178520,128,0,179006:0:0:0:0:
448,192,179006,1,0,0:0:0:0:
64,192,179006,1,0,0:0:0:0:
192,192,179006,128,0,179735:0:0:0:0:
320,192,179492,1,0,0:0:0:0:
448,192,179735,128,0,179978:0:0:0:0:
64,192,179795,1,0,0:0:0:0:
320,192,179856,1,0,0:0:0:0:
64,192,179917,1,0,0:0:0:0:
192,192,179978,1,0,0:0:0:0:
320,192,179978,128,0,180949:0:0:0:0:
448,192,180221,1,0,0:0:0:0:
192,192,180342,1,0,0:0:0:0:
64,192,180342,1,0,0:0:0:0:
192,192,180463,1,0,0:0:0:0:
64,192,180463,1,0,0:0:0:0:
64,192,180706,1,0,0:0:0:0:
64,192,180949,1,0,0:0:0:0:
448,192,180949,1,0,0:0:0:0:
192,192,180949,128,0,181678:0:0:0:0:
448,192,181192,1,0,0:0:0:0:
320,192,181435,1,0,0:0:0:0:
448,192,181435,1,0,0:0:0:0:
448,192,181678,128,0,181921:0:0:0:0:
64,192,181799,1,0,0:0:0:0:
320,192,181799,1,0,0:0:0:0:
64,192,181921,1,0,0:0:0:0:
192,192,181921,128,0,182407:0:0:0:0:
64,192,182164,1,0,0:0:0:0:
448,192,182285,1,0,0:0:0:0:
320,192,182285,1,0,0:0:0:0:
64,192,182407,1,0,0:0:0:0:
320,192,182407,1,0,0:0:0:0:
448,192,182407,128,0,182892:0:0:0:0:
192,192,182892,1,0,0:0:0:0:
320,192,182892,1,0,0:0:0:0:
64,192,182892,128,0,183622:0:0:0:0:
320,192,183378,1,0,0:0:0:0:
320,192,183500,1,0,0:0:0:0:
448,192,183622,128,0,183864:0:0:0:0:
192,192,183682,1,0,0:0:0:0:
320,192,183742,1,0,0:0:0:0:
192,192,183803,1,0,0:0:0:0:
320,192,183864,1,0,0:0:0:0:
64,192,183864,128,0,184836:0:0:0:0:
192,192,183985,1,0,0:0:0:0:
192,192,184107,1,0,0:0:0:0:
320,192,184228,1,0,0:0:0:0:
448,192,184228,1,0,0:0:0:0:
192,192,184350,1,0,0:0:0:0:
448,192,184350,1,0,0:0:0:0:
320,192,184593,1,0,0:0:0:0:
192,192,184593,1,0,0:0:0:0:
192,192,184836,1,0,0:0:0:0:
320,192,184836,1,0,0:0:0:0:
448,192,184836,128,0,185565:0:0:0:0:
64,192,185322,1,0,0:0:0:0:
320,192,185322,1,0,0:0:0:0:
64,192,185565,128,0,185808:0:0:0:0:
320,192,185808,128,0,186293:0:0:0:0:
192,192,185808,1,0,0:0:0:0:
64,192,186172,1,0,0:0:0:0:
192,192,186172,1,0,0:0:0:0:
64,192,186293,1,0,0:0:0:0:
192,192,186293,128,0,186779:0:0:0:0:
64,192,186779,1,0,0:0:0:0:
320,192,186779,1,0,0:0:0:0:
448,192,186779,128,0,187508:0:0:0:0:
192,192,187022,1,0,0:0:0:0:
192,192,187265,1,0,0:0:0:0:
320,192,187265,1,0,0:0:0:0:
64,192,187508,128,0,187751:0:0:0:0:
320,192,187751,128,0,188722:0:0:0:0:
192,192,187751,1,0,0:0:0:0:
64,192,188115,1,0,0:0:0:0:
192,192,188115,1,0,0:0:0:0:
64,192,188237,1,0,0:0:0:0:
192,192,188237,1,0,0:0:0:0:
64,192,188479,1,0,0:0:0:0:
64,192,188722,1,0,0:0:0:0:
448,192,188722,1,0,0:0:0:0:
192,192,188722,128,0,189452:0:0:0:0:
320,192,189208,1,0,0:0:0:0:
448,192,189208,1,0,0:0:0:0:
448,192,189452,128,0,189694:0:0:0:0:
64,192,189572,1,0,0:0:0:0:
320,192,189572,1,0,0:0:0:0:
320,192,189694,1,0,0:0:0:0:
64,192,189694,128,0,190180:0:0:0:0:
192,192,190058,1,0,0:0:0:0:
320,192,190058,1,0,0:0:0:0:
192,192,190180,1,0,0:0:0:0:
320,192,190180,1,0,0:0:0:0:
448,192,190180,128,0,190605:0:0:0:0:
64,192,190665,1,0,0:0:0:0:
192,192,190665,1,0,0:0:0:0:
448,192,190665,128,0,191395:0:0:0:0:
320,192,190908,1,0,0:0:0:0:
320,192,191152,1,0,0:0:0:0:
192,192,191152,1,0,0:0:0:0:
64,192,191395,128,0,191638:0:0:0:0:
192,192,191516,1,0,0:0:0:0:
320,192,191516,1,0,0:0:0:0:
192,192,191638,1,0,0:0:0:0:
448,192,191638,1,0,0:0:0:0:
320,192,191759,1,0,0:0:0:0:
448,192,191759,1,0,0:0:0:0:
192,192,191819,1,0,0:0:0:0:
64,192,191819,1,0,0:0:0:0:
448,192,191880,1,0,0:0:0:0:
320,192,191880,1,0,0:0:0:0:
64,192,191941,1,0,0:0:0:0:
192,192,191941,1,0,0:0:0:0:
320,192,192002,1,0,0:0:0:0:
64,192,192062,1,0,0:0:0:0:
320,192,192123,1,0,0:0:0:0:
64,192,192184,1,0,0:0:0:0:
192,192,192245,1,0,0:0:0:0:
320,192,192305,1,0,0:0:0:0:
448,192,192366,1,0,0:0:0:0:
192,192,192427,1,0,0:0:0:0:
448,192,192488,1,0,0:0:0:0:
192,192,192548,1,0,0:0:0:0:
448,192,192609,1,0,0:0:0:0:
64,192,192609,1,0,0:0:0:0:
320,192,192670,1,0,0:0:0:0:
192,192,192731,1,0,0:0:0:0:
320,192,192792,1,0,0:0:0:0:
192,192,192852,1,0,0:0:0:0:
64,192,192852,1,0,0:0:0:0:
448,192,192913,1,0,0:0:0:0:
320,192,192973,1,0,0:0:0:0:
64,192,193034,1,0,0:0:0:0:
192,192,193095,1,0,0:0:0:0:
320,192,193155,1,0,0:0:0:0:
192,192,193216,1,0,0:0:0:0:
448,192,193277,1,0,0:0:0:0:
320,192,193338,1,0,0:0:0:0:
64,192,193338,1,0,0:0:0:0:
192,192,193398,1,0,0:0:0:0:
320,192,193459,1,0,0:0:0:0:
192,192,193520,1,0,0:0:0:0:
64,192,193581,1,0,0:0:0:0:
448,192,193642,1,0,0:0:0:0:
64,192,193702,1,0,0:0:0:0:
192,192,193763,1,0,0:0:0:0:
448,192,193824,1,0,0:0:0:0:
320,192,193824,1,0,0:0:0:0:
192,192,193885,1,0,0:0:0:0:
320,192,193945,1,0,0:0:0:0:
64,192,194006,1,0,0:0:0:0:
448,192,194067,1,0,0:0:0:0:
64,192,194127,1,0,0:0:0:0:
320,192,194188,1,0,0:0:0:0:
192,192,194248,1,0,0:0:0:0:
64,192,194309,1,0,0:0:0:0:
448,192,194309,1,0,0:0:0:0:
320,192,194370,1,0,0:0:0:0:
64,192,194431,1,0,0:0:0:0:
192,192,194492,1,0,0:0:0:0:
320,192,194552,1,0,0:0:0:0:
448,192,194552,1,0,0:0:0:0:
64,192,194613,1,0,0:0:0:0:
192,192,194674,1,0,0:0:0:0:
448,192,194735,1,0,0:0:0:0:
64,192,194795,1,0,0:0:0:0:
320,192,194795,1,0,0:0:0:0:
192,192,194856,1,0,0:0:0:0:
448,192,194917,1,0,0:0:0:0:
192,192,194978,1,0,0:0:0:0:
448,192,195038,1,0,0:0:0:0:
320,192,195099,1,0,0:0:0:0:
64,192,195160,1,0,0:0:0:0:
448,192,195221,1,0,0:0:0:0:
320,192,195281,1,0,0:0:0:0:
64,192,195281,1,0,0:0:0:0:
192,192,195342,1,0,0:0:0:0:
448,192,195402,1,0,0:0:0:0:
64,192,195463,1,0,0:0:0:0:
192,192,195524,1,0,0:0:0:0:
320,192,195585,1,0,0:0:0:0:
192,192,195645,1,0,0:0:0:0:
320,192,195706,1,0,0:0:0:0:
64,192,195767,1,0,0:0:0:0:
448,192,195767,1,0,0:0:0:0:
192,192,195828,1,0,0:0:0:0:
320,192,195888,1,0,0:0:0:0:
64,192,195949,1,0,0:0:0:0:
448,192,196010,1,0,0:0:0:0:
320,192,196071,1,0,0:0:0:0:
192,192,196132,1,0,0:0:0:0:
448,192,196192,1,0,0:0:0:0:
320,192,196253,1,0,0:0:0:0:
64,192,196253,1,0,0:0:0:0:
192,192,196314,1,0,0:0:0:0:
320,192,196375,1,0,0:0:0:0:
192,192,196435,1,0,0:0:0:0:
64,192,196495,1,0,0:0:0:0:
448,192,196495,1,0,0:0:0:0:
320,192,196556,1,0,0:0:0:0:
192,192,196617,1,0,0:0:0:0:
448,192,196678,1,0,0:0:0:0:
64,192,196738,1,0,0:0:0:0:
320,192,196738,1,0,0:0:0:0:
192,192,196799,1,0,0:0:0:0:
448,192,196860,1,0,0:0:0:0:
64,192,196921,1,0,0:0:0:0:
192,192,196982,1,0,0:0:0:0:
448,192,197042,1,0,0:0:0:0:
192,192,197103,1,0,0:0:0:0:
448,192,197164,1,0,0:0:0:0:
320,192,197225,1,0,0:0:0:0:
64,192,197225,1,0,0:0:0:0:
192,192,197285,1,0,0:0:0:0:
448,192,197346,1,0,0:0:0:0:
192,192,197407,1,0,0:0:0:0:
448,192,197468,1,0,0:0:0:0:
320,192,197528,1,0,0:0:0:0:
64,192,197588,1,0,0:0:0:0:
448,192,197649,1,0,0:0:0:0:
320,192,197710,1,0,0:0:0:0:
64,192,197710,1,0,0:0:0:0:
192,192,197771,1,0,0:0:0:0:
320,192,197832,1,0,0:0:0:0:
64,192,197892,1,0,0:0:0:0:
448,192,197953,1,0,0:0:0:0:
192,192,198014,1,0,0:0:0:0:
448,192,198075,1,0,0:0:0:0:
192,192,198135,1,0,0:0:0:0:
64,192,198196,1,0,0:0:0:0:
320,192,198196,1,0,0:0:0:0:
448,192,198257,1,0,0:0:0:0:
192,192,198318,1,0,0:0:0:0:
320,192,198378,1,0,0:0:0:0:
192,192,198439,1,0,0:0:0:0:
64,192,198439,1,0,0:0:0:0:
448,192,198500,1,0,0:0:0:0:
320,192,198561,1,0,0:0:0:0:
64,192,198622,1,0,0:0:0:0:
448,192,198682,1,0,0:0:0:0:
192,192,198682,1,0,0:0:0:0:
320,192,198742,1,0,0:0:0:0:
64,192,198803,1,0,0:0:0:0:
192,192,198864,1,0,0:0:0:0:
320,192,198925,1,0,0:0:0:0:
192,192,198985,1,0,0:0:0:0:
320,192,199046,1,0,0:0:0:0:
64,192,199107,1,0,0:0:0:0:
192,192,199168,1,0,0:0:0:0:
448,192,199168,1,0,0:0:0:0:
320,192,199228,1,0,0:0:0:0:
64,192,199289,1,0,0:0:0:0:
320,192,199350,1,0,0:0:0:0:
64,192,199411,1,0,0:0:0:0:
448,192,199472,1,0,0:0:0:0:
320,192,199532,1,0,0:0:0:0:
192,192,199593,1,0,0:0:0:0:
64,192,199654,1,0,0:0:0:0:
448,192,199654,1,0,0:0:0:0:
192,192,199715,1,0,0:0:0:0:
448,192,199775,1,0,0:0:0:0:
320,192,199836,1,0,0:0:0:0:
64,192,199896,1,0,0:0:0:0:
192,192,199957,1,0,0:0:0:0:
64,192,200018,1,0,0:0:0:0:
192,192,200078,1,0,0:0:0:0:
448,192,200139,1,0,0:0:0:0:
64,192,200200,1,0,0:0:0:0:
448,192,200261,1,0,0:0:0:0:
64,192,200322,1,0,0:0:0:0:
192,192,200382,1,0,0:0:0:0:
320,192,200382,1,0,0:0:0:0:
448,192,200443,1,0,0:0:0:0:
64,192,200504,1,0,0:0:0:0:
320,192,200565,1,0,0:0:0:0:
192,192,200625,1,0,0:0:0:0:
64,192,200625,1,0,0:0:0:0:
448,192,200686,1,0,0:0:0:0:
192,192,200747,1,0,0:0:0:0:
320,192,200808,1,0,0:0:0:0:
64,192,200868,1,0,0:0:0:0:
192,192,200929,1,0,0:0:0:0:
448,192,200990,1,0,0:0:0:0:
64,192,201050,1,0,0:0:0:0:
320,192,201111,1,0,0:0:0:0:
192,192,201111,1,0,0:0:0:0:
448,192,201172,1,0,0:0:0:0:
64,192,201232,1,0,0:0:0:0:
448,192,201293,1,0,0:0:0:0:
192,192,201354,1,0,0:0:0:0:
320,192,201415,1,0,0:0:0:0:
64,192,201475,1,0,0:0:0:0:
448,192,201536,1,0,0:0:0:0:
64,192,201597,1,0,0:0:0:0:
192,192,201597,1,0,0:0:0:0:
320,192,201658,1,0,0:0:0:0:
192,192,201718,1,0,0:0:0:0:
320,192,201779,1,0,0:0:0:0:
64,192,201840,1,0,0:0:0:0:
448,192,201901,1,0,0:0:0:0:
192,192,201962,1,0,0:0:0:0:
448,192,202022,1,0,0:0:0:0:
64,192,202083,1,0,0:0:0:0:
320,192,202083,1,0,0:0:0:0:
192,192,202144,1,0,0:0:0:0:
320,192,202204,1,0,0:0:0:0:
192,192,202265,1,0,0:0:0:0:
448,192,202325,1,0,0:0:0:0:
320,192,202325,1,0,0:0:0:0:
64,192,202386,1,0,0:0:0:0:
192,192,202447,1,0,0:0:0:0:
448,192,202508,1,0,0:0:0:0:
64,192,202568,1,0,0:0:0:0:
320,192,202568,1,0,0:0:0:0:
192,192,202629,1,0,0:0:0:0:
448,192,202690,1,0,0:0:0:0:
192,192,202751,1,0,0:0:0:0:
448,192,202812,1,0,0:0:0:0:
320,192,202872,1,0,0:0:0:0:
64,192,202933,1,0,0:0:0:0:
448,192,202994,1,0,0:0:0:0:
64,192,203055,1,0,0:0:0:0:
320,192,203055,1,0,0:0:0:0:
192,192,203115,1,0,0:0:0:0:
448,192,203176,1,0,0:0:0:0:
64,192,203237,1,0,0:0:0:0:
192,192,203298,1,0,0:0:0:0:
448,192,203358,1,0,0:0:0:0:
64,192,203418,1,0,0:0:0:0:
320,192,203479,1,0,0:0:0:0:
192,192,203540,1,0,0:0:0:0:
64,192,203540,1,0,0:0:0:0:
320,192,203601,1,0,0:0:0:0:
192,192,203662,1,0,0:0:0:0:
448,192,203722,1,0,0:0:0:0:
64,192,203783,1,0,0:0:0:0:
320,192,203844,1,0,0:0:0:0:
64,192,203905,1,0,0:0:0:0:
192,192,203965,1,0,0:0:0:0:
320,192,204026,1,0,0:0:0:0:
448,192,204026,1,0,0:0:0:0:
64,192,204087,1,0,0:0:0:0:
192,192,204148,1,0,0:0:0:0:
64,192,204208,1,0,0:0:0:0:
320,192,204269,1,0,0:0:0:0:
448,192,204269,1,0,0:0:0:0:
192,192,204330,1,0,0:0:0:0:
448,192,204391,1,0,0:0:0:0:
64,192,204452,1,0,0:0:0:0:
192,192,204512,1,0,0:0:0:0:
320,192,204512,1,0,0:0:0:0:
448,192,204572,1,0,0:0:0:0:
64,192,204633,1,0,0:0:0:0:
320,192,204694,1,0,0:0:0:0:
192,192,204755,1,0,0:0:0:0:
320,192,204815,1,0,0:0:0:0:
64,192,204876,1,0,0:0:0:0:
192,192,204937,1,0,0:0:0:0:
320,192,204998,1,0,0:0:0:0:
448,192,204998,1,0,0:0:0:0:
64,192,205058,1,0,0:0:0:0:
448,192,205119,1,0,0:0:0:0:
64,192,205180,1,0,0:0:0:0:
320,192,205241,1,0,0:0:0:0:
192,192,205302,1,0,0:0:0:0:
320,192,205362,1,0,0:0:0:0:
192,192,205423,1,0,0:0:0:0:
64,192,205484,1,0,0:0:0:0:
448,192,205484,1,0,0:0:0:0:
320,192,205545,1,0,0:0:0:0:
192,192,205605,1,0,0:0:0:0:
448,192,205665,1,0,0:0:0:0:
64,192,205726,1,0,0:0:0:0:
192,192,205787,1,0,0:0:0:0:
320,192,205848,1,0,0:0:0:0:
192,192,205908,1,0,0:0:0:0:
320,192,205969,1,0,0:0:0:0:
448,192,205969,1,0,0:0:0:0:
64,192,206030,1,0,0:0:0:0:
448,192,206091,1,0,0:0:0:0:
320,192,206152,1,0,0:0:0:0:
192,192,206212,1,0,0:0:0:0:
64,192,206212,1,0,0:0:0:0:
320,192,206273,1,0,0:0:0:0:
64,192,206334,1,0,0:0:0:0:
192,192,206395,1,0,0:0:0:0:
320,192,206455,1,0,0:0:0:0:
448,192,206455,1,0,0:0:0:0:
64,192,206516,1,0,0:0:0:0:
192,192,206577,1,0,0:0:0:0:
320,192,206638,1,0,0:0:0:0:
64,192,206698,1,0,0:0:0:0:
320,192,206759,1,0,0:0:0:0:
192,192,206819,1,0,0:0:0:0:
448,192,206880,1,0,0:0:0:0:
320,192,206941,1,0,0:0:0:0:
64,192,206941,1,0,0:0:0:0:
192,192,207002,1,0,0:0:0:0:
448,192,207062,1,0,0:0:0:0:
192,192,207123,1,0,0:0:0:0:
448,192,207184,1,0,0:0:0:0:
320,192,207245,1,0,0:0:0:0:
64,192,207305,1,0,0:0:0:0:
192,192,207366,1,0,0:0:0:0:
320,192,207427,1,0,0:0:0:0:
448,192,207427,1,0,0:0:0:0:
192,192,207488,1,0,0:0:0:0:
448,192,207548,1,0,0:0:0:0:
320,192,207609,1,0,0:0:0:0:
192,192,207670,1,0,0:0:0:0:
64,192,207670,1,0,0:0:0:0:
320,192,207731,1,0,0:0:0:0:
448,192,207731,1,0,0:0:0:0:
192,192,207792,1,0,0:0:0:0:
64,192,207792,1,0,0:0:0:0:
320,192,207852,1,0,0:0:0:0:
448,192,207852,1,0,0:0:0:0:
64,192,207913,1,0,0:0:0:0:
192,192,207973,1,0,0:0:0:0:
448,192,208034,1,0,0:0:0:0:
64,192,208095,1,0,0:0:0:0:
320,192,208155,1,0,0:0:0:0:
448,192,208155,1,0,0:0:0:0:
192,192,208155,1,0,0:0:0:0:
64,192,208277,1,0,0:0:0:0:
320,192,208277,1,0,0:0:0:0:
192,192,208398,1,0,0:0:0:0:
64,192,208398,1,0,0:0:0:0:
448,192,208398,1,0,0:0:0:0:
320,192,208520,1,0,0:0:0:0:
192,192,208520,1,0,0:0:0:0:
64,192,208642,1,0,0:0:0:0:
320,192,208642,1,0,0:0:0:0:
192,192,208763,1,0,0:0:0:0:
448,192,208763,1,0,0:0:0:0:
320,192,208885,1,0,0:0:0:0:
192,192,208885,1,0,0:0:0:0:
64,192,208885,1,0,0:0:0:0:
64,192,209006,1,0,0:0:0:0:
448,192,209006,1,0,0:0:0:0:
192,192,209127,1,0,0:0:0:0:
320,192,209127,1,0,0:0:0:0:
448,192,209127,1,0,0:0:0:0:
320,192,209248,1,0,0:0:0:0:
64,192,209248,1,0,0:0:0:0:
192,192,209370,1,0,0:0:0:0:
64,192,209370,1,0,0:0:0:0:
448,192,209370,1,0,0:0:0:0:
320,192,209492,1,0,0:0:0:0:
192,192,209492,1,0,0:0:0:0:
64,192,209613,1,0,0:0:0:0:
320,192,209613,1,0,0:0:0:0:
192,192,209735,1,0,0:0:0:0:
64,192,209735,1,0,0:0:0:0:
192,192,209856,1,0,0:0:0:0:
320,192,209856,1,0,0:0:0:0:
448,192,209856,1,0,0:0:0:0:
64,192,209978,1,0,0:0:0:0:
448,192,209978,1,0,0:0:0:0:
320,192,210099,1,0,0:0:0:0:
64,192,210099,1,0,0:0:0:0:
192,192,210221,1,0,0:0:0:0:
320,192,210221,1,0,0:0:0:0:
192,192,210342,1,0,0:0:0:0:
64,192,210342,1,0,0:0:0:0:
448,192,210342,1,0,0:0:0:0:
320,192,210463,1,0,0:0:0:0:
64,192,210463,1,0,0:0:0:0:
320,192,210585,1,0,0:0:0:0:
448,192,210585,1,0,0:0:0:0:
192,192,210706,1,0,0:0:0:0:
64,192,210706,1,0,0:0:0:0:
448,192,210706,1,0,0:0:0:0:
64,192,210828,1,0,0:0:0:0:
192,192,210828,1,0,0:0:0:0:
320,192,210888,1,0,0:0:0:0:
448,192,210888,1,0,0:0:0:0:
192,192,210949,1,0,0:0:0:0:
320,192,211010,1,0,0:0:0:0:
64,192,211071,1,0,0:0:0:0:
192,192,211071,1,0,0:0:0:0:
448,192,211132,1,0,0:0:0:0:
320,192,211192,1,0,0:0:0:0:
192,192,211253,1,0,0:0:0:0:
448,192,211314,1,0,0:0:0:0:
64,192,211375,1,0,0:0:0:0:
320,192,211435,1,0,0:0:0:0:
448,192,211435,1,0,0:0:0:0:
192,192,211495,1,0,0:0:0:0:
64,192,211495,1,0,0:0:0:0:
320,192,211556,1,0,0:0:0:0:
448,192,211556,1,0,0:0:0:0:
192,192,211617,1,0,0:0:0:0:
64,192,211617,1,0,0:0:0:0:
320,192,211678,1,0,0:0:0:0:
192,192,211738,1,0,0:0:0:0:
64,192,211799,1,0,0:0:0:0:
448,192,211860,1,0,0:0:0:0:
192,192,211921,1,0,0:0:0:0:
320,192,211982,1,0,0:0:0:0:
192,192,212042,1,0,0:0:0:0:
64,192,212042,1,0,0:0:0:0:
448,192,212103,1,0,0:0:0:0:
320,192,212164,1,0,0:0:0:0:
192,192,212225,1,0,0:0:0:0:
320,192,212285,1,0,0:0:0:0:
192,192,212346,1,0,0:0:0:0:
448,192,212407,1,0,0:0:0:0:
64,192,212468,1,0,0:0:0:0:
320,192,212528,1,0,0:0:0:0:
64,192,212588,1,0,0:0:0:0:
320,192,212649,1,0,0:0:0:0:
192,192,212710,1,0,0:0:0:0:
64,192,212771,1,0,0:0:0:0:
448,192,212771,1,0,0:0:0:0:
320,192,212832,1,0,0:0:0:0:
192,192,212892,1,0,0:0:0:0:
320,192,212953,1,0,0:0:0:0:
64,192,213014,1,0,0:0:0:0:
448,192,213075,1,0,0:0:0:0:
64,192,213135,1,0,0:0:0:0:
448,192,213196,1,0,0:0:0:0:
320,192,213257,1,0,0:0:0:0:
64,192,213257,1,0,0:0:0:0:
192,192,213318,1,0,0:0:0:0:
448,192,213378,1,0,0:0:0:0:
320,192,213439,1,0,0:0:0:0:
192,192,213500,1,0,0:0:0:0:
448,192,213561,1,0,0:0:0:0:
64,192,213622,1,0,0:0:0:0:
320,192,213682,1,0,0:0:0:0:
192,192,213742,1,0,0:0:0:0:
64,192,213742,1,0,0:0:0:0:
448,192,213803,1,0,0:0:0:0:
320,192,213864,1,0,0:0:0:0:
64,192,213925,1,0,0:0:0:0:
320,192,213985,1,0,0:0:0:0:
64,192,214046,1,0,0:0:0:0:
448,192,214107,1,0,0:0:0:0:
192,192,214168,1,0,0:0:0:0:
320,192,214228,1,0,0:0:0:0:
448,192,214228,1,0,0:0:0:0:
64,192,214289,1,0,0:0:0:0:
192,192,214350,1,0,0:0:0:0:
448,192,214411,1,0,0:0:0:0:
64,192,214472,1,0,0:0:0:0:
320,192,214532,1,0,0:0:0:0:
192,192,214593,1,0,0:0:0:0:
448,192,214654,1,0,0:0:0:0:
320,192,214715,1,0,0:0:0:0:
192,192,214715,1,0,0:0:0:0:
64,192,214775,1,0,0:0:0:0:
448,192,214836,1,0,0:0:0:0:
64,192,214896,1,0,0:0:0:0:
320,192,214957,1,0,0:0:0:0:
192,192,215018,1,0,0:0:0:0:
320,192,215078,1,0,0:0:0:0:
64,192,215139,1,0,0:0:0:0:
192,192,215200,1,0,0:0:0:0:
448,192,215200,1,0,0:0:0:0:
320,192,215261,1,0,0:0:0:0:
64,192,215322,1,0,0:0:0:0:
192,192,215382,1,0,0:0:0:0:
448,192,215443,1,0,0:0:0:0:
64,192,215504,1,0,0:0:0:0:
448,192,215565,1,0,0:0:0:0:
320,192,215625,1,0,0:0:0:0:
192,192,215686,1,0,0:0:0:0:
64,192,215686,1,0,0:0:0:0:
448,192,215747,1,0,0:0:0:0:
320,192,215808,1,0,0:0:0:0:
64,192,215868,1,0,0:0:0:0:
320,192,215929,1,0,0:0:0:0:
192,192,215929,1,0,0:0:0:0:
448,192,215990,1,0,0:0:0:0:
64,192,216050,1,0,0:0:0:0:
320,192,216111,1,0,0:0:0:0:
192,192,216172,1,0,0:0:0:0:
64,192,216172,1,0,0:0:0:0:
448,192,216232,1,0,0:0:0:0:
320,192,216293,1,0,0:0:0:0:
192,192,216354,1,0,0:0:0:0:
320,192,216415,1,0,0:0:0:0:
192,192,216475,1,0,0:0:0:0:
448,192,216536,1,0,0:0:0:0:
64,192,216597,1,0,0:0:0:0:
192,192,216658,1,0,0:0:0:0:
448,192,216658,1,0,0:0:0:0:
320,192,216718,1,0,0:0:0:0:
64,192,216779,1,0,0:0:0:0:
192,192,216840,1,0,0:0:0:0:
448,192,216901,1,0,0:0:0:0:
192,192,216962,1,0,0:0:0:0:
320,192,217022,1,0,0:0:0:0:
64,192,217083,1,0,0:0:0:0:
192,192,217144,1,0,0:0:0:0:
448,192,217144,1,0,0:0:0:0:
320,192,217204,1,0,0:0:0:0:
192,192,217265,1,0,0:0:0:0:
320,192,217325,1,0,0:0:0:0:
64,192,217386,1,0,0:0:0:0:
448,192,217447,1,0,0:0:0:0:
192,192,217508,1,0,0:0:0:0:
320,192,217568,1,0,0:0:0:0:
192,192,217629,1,0,0:0:0:0:
64,192,217629,1,0,0:0:0:0:
448,192,217690,1,0,0:0:0:0:
320,192,217751,1,0,0:0:0:0:
64,192,217812,1,0,0:0:0:0:
192,192,217872,1,0,0:0:0:0:
448,192,217872,1,0,0:0:0:0:
320,192,217933,1,0,0:0:0:0:
192,192,217994,1,0,0:0:0:0:
320,192,218055,1,0,0:0:0:0:
64,192,218115,1,0,0:0:0:0:
448,192,218115,1,0,0:0:0:0:
192,192,218176,1,0,0:0:0:0:
320,192,218237,1,0,0:0:0:0:
64,192,218298,1,0,0:0:0:0:
448,192,218358,1,0,0:0:0:0:
192,192,218418,1,0,0:0:0:0:
448,192,218479,1,0,0:0:0:0:
320,192,218540,1,0,0:0:0:0:
192,192,218601,1,0,0:0:0:0:
64,192,218601,1,0,0:0:0:0:
448,192,218662,1,0,0:0:0:0:
64,192,218722,1,0,0:0:0:0:
192,192,218783,1,0,0:0:0:0:
448,192,218844,1,0,0:0:0:0:
64,192,218905,1,0,0:0:0:0:
320,192,218965,1,0,0:0:0:0:
64,192,219026,1,0,0:0:0:0:
192,192,219087,1,0,0:0:0:0:
448,192,219087,1,0,0:0:0:0:
320,192,219148,1,0,0:0:0:0:
192,192,219208,1,0,0:0:0:0:
320,192,219269,1,0,0:0:0:0:
64,192,219330,1,0,0:0:0:0:
192,192,219391,1,0,0:0:0:0:
448,192,219452,1,0,0:0:0:0:
192,192,219512,1,0,0:0:0:0:
448,192,219572,1,0,0:0:0:0:
320,192,219633,1,0,0:0:0:0:
192,192,219694,1,0,0:0:0:0:
320,192,219755,1,0,0:0:0:0:
192,192,219815,1,0,0:0:0:0:
64,192,219815,1,0,0:0:0:0:
448,192,219876,1,0,0:0:0:0:
320,192,219937,1,0,0:0:0:0:
64,192,219998,1,0,0:0:0:0:
192,192,220058,1,0,0:0:0:0:
448,192,220058,1,0,0:0:0:0:
320,192,220119,1,0,0:0:0:0:
192,192,220180,1,0,0:0:0:0:
320,192,220241,1,0,0:0:0:0:
64,192,220302,1,0,0:0:0:0:
448,192,220362,1,0,0:0:0:0:
320,192,220423,1,0,0:0:0:0:
192,192,220484,1,0,0:0:0:0:
64,192,220545,1,0,0:0:0:0:
448,192,220545,1,0,0:0:0:0:
192,192,220605,1,0,0:0:0:0:
320,192,220665,1,0,0:0:0:0:
64,192,220726,1,0,0:0:0:0:
448,192,220787,1,0,0:0:0:0:
64,192,220848,1,0,0:0:0:0:
448,192,220908,1,0,0:0:0:0:
320,192,220969,1,0,0:0:0:0:
192,192,221030,1,0,0:0:0:0:
64,192,221030,1,0,0:0:0:0:
320,192,221091,1,0,0:0:0:0:
192,192,221152,1,0,0:0:0:0:
448,192,221212,1,0,0:0:0:0:
64,192,221273,1,0,0:0:0:0:
320,192,221334,1,0,0:0:0:0:
192,192,221395,1,0,0:0:0:0:
320,192,221455,1,0,0:0:0:0:
192,192,221516,1,0,0:0:0:0:
64,192,221516,1,0,0:0:0:0:
448,192,221577,1,0,0:0:0:0:
320,192,221638,1,0,0:0:0:0:
64,192,221698,1,0,0:0:0:0:
320,192,221759,1,0,0:0:0:0:
192,192,221759,1,0,0:0:0:0:
448,192,221819,1,0,0:0:0:0:
64,192,221880,1,0,0:0:0:0:
448,192,221941,1,0,0:0:0:0:
192,192,222002,1,0,0:0:0:0:
64,192,222002,1,0,0:0:0:0:
320,192,222062,1,0,0:0:0:0:
192,192,222123,1,0,0:0:0:0:
448,192,222184,1,0,0:0:0:0:
64,192,222245,1,0,0:0:0:0:
320,192,222305,1,0,0:0:0:0:
64,192,222366,1,0,0:0:0:0:
320,192,222427,1,0,0:0:0:0:
192,192,222488,1,0,0:0:0:0:
448,192,222488,1,0,0:0:0:0:
64,192,222548,1,0,0:0:0:0:
320,192,222609,1,0,0:0:0:0:
192,192,222670,1,0,0:0:0:0:
448,192,222731,1,0,0:0:0:0:
64,192,222792,1,0,0:0:0:0:
448,192,222852,1,0,0:0:0:0:
320,192,222913,1,0,0:0:0:0:
192,192,222973,1,0,0:0:0:0:
64,192,222973,1,0,0:0:0:0:
320,192,223034,1,0,0:0:0:0:
192,192,223095,1,0,0:0:0:0:
448,192,223155,1,0,0:0:0:0:
64,192,223216,1,0,0:0:0:0:
320,192,223277,1,0,0:0:0:0:
192,192,223338,1,0,0:0:0:0:
448,192,223398,1,0,0:0:0:0:
64,192,223459,1,0,0:0:0:0:
320,192,223459,1,0,0:0:0:0:
192,192,223520,1,0,0:0:0:0:
320,192,223581,1,0,0:0:0:0:
192,192,223642,1,0,0:0:0:0:
64,192,223702,1,0,0:0:0:0:
448,192,223702,1,0,0:0:0:0:
320,192,223763,1,0,0:0:0:0:
192,192,223824,1,0,0:0:0:0:
448,192,223885,1,0,0:0:0:0:
64,192,223945,1,0,0:0:0:0:
192,192,223945,1,0,0:0:0:0:
320,192,224006,1,0,0:0:0:0:
64,192,224067,1,0,0:0:0:0:
320,192,224127,1,0,0:0:0:0:
192,192,224188,1,0,0:0:0:0:
448,192,224248,1,0,0:0:0:0:
320,192,224309,1,0,0:0:0:0:
64,192,224370,1,0,0:0:0:0:
192,192,224431,1,0,0:0:0:0:
320,192,224431,1,0,0:0:0:0:
448,192,224492,1,0,0:0:0:0:
64,192,224552,1,0,0:0:0:0:
320,192,224613,1,0,0:0:0:0:
192,192,224674,1,0,0:0:0:0:
320,192,224735,1,0,0:0:0:0:
192,192,224795,1,0,0:0:0:0:
448,192,224856,1,0,0:0:0:0:
320,192,224917,1,0,0:0:0:0:
64,192,224917,1,0,0:0:0:0:
192,192,224978,1,0,0:0:0:0:
448,192,225038,1,0,0:0:0:0:
64,192,225099,1,0,0:0:0:0:
320,192,225160,1,0,0:0:0:0:
64,192,225221,1,0,0:0:0:0:
192,192,225281,1,0,0:0:0:0:
320,192,225342,1,0,0:0:0:0:
192,192,225402,1,0,0:0:0:0:
64,192,225402,1,0,0:0:0:0:
448,192,225463,1,0,0:0:0:0:
64,192,225524,1,0,0:0:0:0:
192,192,225585,1,0,0:0:0:0:
320,192,225645,1,0,0:0:0:0:
448,192,225645,1,0,0:0:0:0:
64,192,225706,1,0,0:0:0:0:
320,192,225767,1,0,0:0:0:0:
64,192,225828,1,0,0:0:0:0:
192,192,225888,1,0,0:0:0:0:
448,192,225888,1,0,0:0:0:0:
320,192,225949,1,0,0:0:0:0:
64,192,226010,1,0,0:0:0:0:
448,192,226071,1,0,0:0:0:0:
64,192,226132,1,0,0:0:0:0:
320,192,226192,1,0,0:0:0:0:
192,192,226253,1,0,0:0:0:0:
320,192,226314,1,0,0:0:0:0:
192,192,226375,1,0,0:0:0:0:
64,192,226375,1,0,0:0:0:0:
448,192,226435,1,0,0:0:0:0:
64,192,226495,1,0,0:0:0:0:
192,192,226556,1,0,0:0:0:0:
320,192,226617,1,0,0:0:0:0:
64,192,226678,1,0,0:0:0:0:
448,192,226738,1,0,0:0:0:0:
64,192,226799,1,0,0:0:0:0:
192,192,226860,1,0,0:0:0:0:
448,192,226860,1,0,0:0:0:0:
320,192,226921,1,0,0:0:0:0:
64,192,226982,1,0,0:0:0:0:
192,192,227042,1,0,0:0:0:0:
448,192,227103,1,0,0:0:0:0:
320,192,227164,1,0,0:0:0:0:
192,192,227225,1,0,0:0:0:0:
64,192,227285,1,0,0:0:0:0:
448,192,227346,1,0,0:0:0:0:
320,192,227407,1,0,0:0:0:0:
192,192,227468,1,0,0:0:0:0:
64,192,227528,1,0,0:0:0:0:
320,192,227588,1,0,0:0:0:0:
448,192,227588,1,0,0:0:0:0:
192,192,227649,1,0,0:0:0:0:
448,192,227710,1,0,0:0:0:0:
64,192,227771,1,0,0:0:0:0:
192,192,227832,1,0,0:0:0:0:
320,192,227832,1,0,0:0:0:0:
448,192,227892,1,0,0:0:0:0:
64,192,227953,1,0,0:0:0:0:
320,192,228014,1,0,0:0:0:0:
64,192,228075,1,0,0:0:0:0:
320,192,228135,1,0,0:0:0:0:
192,192,228196,1,0,0:0:0:0:
448,192,228257,1,0,0:0:0:0:
320,192,228318,1,0,0:0:0:0:
64,192,228318,1,0,0:0:0:0:
192,192,228378,1,0,0:0:0:0:
448,192,228439,1,0,0:0:0:0:
192,192,228500,1,0,0:0:0:0:
64,192,228561,1,0,0:0:0:0:
448,192,228622,1,0,0:0:0:0:
320,192,228682,1,0,0:0:0:0:
192,192,228742,1,0,0:0:0:0:
64,192,228803,1,0,0:0:0:0:
448,192,228803,1,0,0:0:0:0:
320,192,228864,1,0,0:0:0:0:
192,192,228925,1,0,0:0:0:0:
320,192,228985,1,0,0:0:0:0:
64,192,229046,1,0,0:0:0:0:
448,192,229107,1,0,0:0:0:0:
64,192,229168,1,0,0:0:0:0:
448,192,229228,1,0,0:0:0:0:
320,192,229289,1,0,0:0:0:0:
64,192,229289,1,0,0:0:0:0:
192,192,229350,1,0,0:0:0:0:
320,192,229411,1,0,0:0:0:0:
64,192,229472,1,0,0:0:0:0:
192,192,229532,1,0,0:0:0:0:
448,192,229532,1,0,0:0:0:0:
320,192,229593,1,0,0:0:0:0:
64,192,229654,1,0,0:0:0:0:
448,192,229715,1,0,0:0:0:0:
320,192,229775,1,0,0:0:0:0:
64,192,229775,1,0,0:0:0:0:
192,192,229836,1,0,0:0:0:0:
448,192,229896,1,0,0:0:0:0:
64,192,229957,1,0,0:0:0:0:
192,192,230018,1,0,0:0:0:0:
448,192,230078,1,0,0:0:0:0:
192,192,230139,1,0,0:0:0:0:
320,192,230200,1,0,0:0:0:0:
64,192,230261,1,0,0:0:0:0:
448,192,230261,1,0,0:0:0:0:
192,192,230322,1,0,0:0:0:0:
320,192,230382,1,0,0:0:0:0:
192,192,230443,1,0,0:0:0:0:
320,192,230504,1,0,0:0:0:0:
448,192,230504,1,0,0:0:0:0:
64,192,230565,1,0,0:0:0:0:
192,192,230625,1,0,0:0:0:0:
448,192,230686,1,0,0:0:0:0:
320,192,230747,1,0,0:0:0:0:
64,192,230747,1,0,0:0:0:0:
192,192,230808,1,0,0:0:0:0:
448,192,230868,1,0,0:0:0:0:
64,192,230929,1,0,0:0:0:0:
192,192,230990,1,0,0:0:0:0:
320,192,231050,1,0,0:0:0:0:
64,192,231111,1,0,0:0:0:0:
448,192,231172,1,0,0:0:0:0:
320,192,231232,1,0,0:0:0:0:
64,192,231232,1,0,0:0:0:0:
192,192,231293,1,0,0:0:0:0:
448,192,231354,1,0,0:0:0:0:
192,192,231415,1,0,0:0:0:0:
320,192,231475,1,0,0:0:0:0:
448,192,231475,1,0,0:0:0:0:
64,192,231536,1,0,0:0:0:0:
192,192,231597,1,0,0:0:0:0:
448,192,231658,1,0,0:0:0:0:
320,192,231718,1,0,0:0:0:0:
64,192,231718,1,0,0:0:0:0:
192,192,231779,1,0,0:0:0:0:
320,192,231840,1,0,0:0:0:0:
192,192,231901,1,0,0:0:0:0:
448,192,231962,1,0,0:0:0:0:
64,192,232022,1,0,0:0:0:0:
320,192,232083,1,0,0:0:0:0:
192,192,232144,1,0,0:0:0:0:
64,192,232204,1,0,0:0:0:0:
448,192,232204,1,0,0:0:0:0:
320,192,232265,1,0,0:0:0:0:
64,192,232325,1,0,0:0:0:0:
320,192,232386,1,0,0:0:0:0:
192,192,232447,1,0,0:0:0:0:
448,192,232508,1,0,0:0:0:0:
64,192,232568,1,0,0:0:0:0:
192,192,232629,1,0,0:0:0:0:
320,192,232690,1,0,0:0:0:0:
448,192,232690,1,0,0:0:0:0:
192,192,232751,1,0,0:0:0:0:
320,192,232812,1,0,0:0:0:0:
64,192,232872,1,0,0:0:0:0:
448,192,232933,1,0,0:0:0:0:
320,192,232994,1,0,0:0:0:0:
64,192,233055,1,0,0:0:0:0:
320,192,233115,1,0,0:0:0:0:
192,192,233176,1,0,0:0:0:0:
64,192,233176,1,0,0:0:0:0:
448,192,233237,1,0,0:0:0:0:
192,192,233298,1,0,0:0:0:0:
320,192,233358,1,0,0:0:0:0:
64,192,233418,1,0,0:0:0:0:
192,192,233418,1,0,0:0:0:0:
448,192,233479,1,0,0:0:0:0:
64,192,233540,1,0,0:0:0:0:
448,192,233601,1,0,0:0:0:0:
320,192,233662,1,0,0:0:0:0:
192,192,233662,1,0,0:0:0:0:
64,192,233722,1,0,0:0:0:0:
448,192,233783,1,0,0:0:0:0:
64,192,233844,1,0,0:0:0:0:
192,192,233905,1,0,0:0:0:0:
448,192,233965,1,0,0:0:0:0:
320,192,234026,1,0,0:0:0:0:
192,192,234087,1,0,0:0:0:0:
64,192,234148,1,0,0:0:0:0:
448,192,234148,1,0,0:0:0:0:
320,192,234208,1,0,0:0:0:0:
64,192,234269,1,0,0:0:0:0:
192,192,234330,1,0,0:0:0:0:
320,192,234391,1,0,0:0:0:0:
64,192,234452,1,0,0:0:0:0:
320,192,234512,1,0,0:0:0:0:
448,192,234512,1,0,0:0:0:0:
64,192,234572,1,0,0:0:0:0:
192,192,234633,1,0,0:0:0:0:
320,192,234694,1,0,0:0:0:0:
64,192,234755,1,0,0:0:0:0:
192,192,234815,1,0,0:0:0:0:
320,192,234876,1,0,0:0:0:0:
448,192,234876,1,0,0:0:0:0:
192,192,234937,1,0,0:0:0:0:
64,192,234998,1,0,0:0:0:0:
448,192,235119,1,0,0:0:0:0:
320,192,235180,1,0,0:0:0:0:
192,192,235241,1,0,0:0:0:0:
320,192,235302,1,0,0:0:0:0:
64,192,235362,1,0,0:0:0:0:
192,192,235362,1,0,0:0:0:0:
448,192,235423,1,0,0:0:0:0:
64,192,235484,1,0,0:0:0:0:
448,192,235545,1,0,0:0:0:0:
320,192,235605,1,0,0:0:0:0:
192,192,235605,1,0,0:0:0:0:
64,192,235665,1,0,0:0:0:0:
320,192,235726,1,0,0:0:0:0:
64,192,235787,1,0,0:0:0:0:
448,192,235848,1,0,0:0:0:0:
192,192,235908,1,0,0:0:0:0:
320,192,235969,1,0,0:0:0:0:
192,192,236030,1,0,0:0:0:0:
64,192,236091,1,0,0:0:0:0:
448,192,236091,1,0,0:0:0:0:
320,192,236152,1,0,0:0:0:0:
192,192,236212,1,0,0:0:0:0:
320,192,236273,1,0,0:0:0:0:
64,192,236334,1,0,0:0:0:0:
448,192,236395,1,0,0:0:0:0:
192,192,236455,1,0,0:0:0:0:
448,192,236516,1,0,0:0:0:0:
320,192,236577,1,0,0:0:0:0:
64,192,236577,1,0,0:0:0:0:
192,192,236638,1,0,0:0:0:0:
448,192,236698,1,0,0:0:0:0:
192,192,236759,1,0,0:0:0:0:
448,192,236819,1,0,0:0:0:0:
320,192,236860,1,0,0:0:0:0:
192,192,236901,1,0,0:0:0:0:
64,192,236941,1,0,0:0:0:0:
320,192,236982,1,0,0:0:0:0:
192,192,237022,1,0,0:0:0:0:
448,192,237062,1,0,0:0:0:0:
320,192,237103,1,0,0:0:0:0:
192,192,237144,1,0,0:0:0:0:
64,192,237184,1,0,0:0:0:0:
320,192,237225,1,0,0:0:0:0:
192,192,237265,1,0,0:0:0:0:
64,192,237305,1,0,0:0:0:0:
448,192,237305,1,0,0:0:0:0:
320,192,237366,1,0,0:0:0:0:
192,192,237427,1,0,0:0:0:0:
320,192,237488,1,0,0:0:0:0:
448,192,237548,1,0,0:0:0:0:
192,192,237548,1,0,0:0:0:0:
64,192,237609,1,0,0:0:0:0:
320,192,237670,1,0,0:0:0:0:
64,192,237731,1,0,0:0:0:0:
448,192,237792,1,0,0:0:0:0:
192,192,237852,1,0,0:0:0:0:
320,192,237913,1,0,0:0:0:0:
192,192,237973,1,0,0:0:0:0:
320,192,238034,1,0,0:0:0:0:
64,192,238034,1,0,0:0:0:0:
448,192,238095,1,0,0:0:0:0:
192,192,238155,1,0,0:0:0:0:
448,192,238216,1,0,0:0:0:0:
64,192,238277,1,0,0:0:0:0:
320,192,238338,1,0,0:0:0:0:
192,192,238398,1,0,0:0:0:0:
320,192,238459,1,0,0:0:0:0:
448,192,238520,1,0,0:0:0:0:
192,192,238520,1,0,0:0:0:0:
64,192,238581,1,0,0:0:0:0:
320,192,238642,1,0,0:0:0:0:
64,192,238702,1,0,0:0:0:0:
448,192,238763,1,0,0:0:0:0:
320,192,238803,1,0,0:0:0:0:
192,192,238844,1,0,0:0:0:0:
64,192,238885,1,0,0:0:0:0:
320,192,238925,1,0,0:0:0:0:
192,192,238965,1,0,0:0:0:0:
448,192,239006,1,0,0:0:0:0:
320,192,239046,1,0,0:0:0:0:
192,192,239087,1,0,0:0:0:0:
64,192,239127,1,0,0:0:0:0:
320,192,239168,1,0,0:0:0:0:
192,192,239208,1,0,0:0:0:0:
64,192,239248,1,0,0:0:0:0:
448,192,239248,1,0,0:0:0:0:
320,192,239309,1,0,0:0:0:0:
64,192,239370,1,0,0:0:0:0:
320,192,239431,1,0,0:0:0:0:
192,192,239492,1,0,0:0:0:0:
448,192,239492,1,0,0:0:0:0:
64,192,239552,1,0,0:0:0:0:
320,192,239613,1,0,0:0:0:0:
64,192,239674,1,0,0:0:0:0:
448,192,239735,1,0,0:0:0:0:
192,192,239795,1,0,0:0:0:0:
320,192,239856,1,0,0:0:0:0:
192,192,239917,1,0,0:0:0:0:
64,192,239978,1,0,0:0:0:0:
320,192,239978,1,0,0:0:0:0:
448,192,240038,1,0,0:0:0:0:
192,192,240099,1,0,0:0:0:0:
448,192,240160,1,0,0:0:0:0:
64,192,240221,1,0,0:0:0:0:
320,192,240281,1,0,0:0:0:0:
192,192,240342,1,0,0:0:0:0:
320,192,240402,1,0,0:0:0:0:
192,192,240463,1,0,0:0:0:0:
448,192,240463,1,0,0:0:0:0:
64,192,240524,1,0,0:0:0:0:
320,192,240585,1,0,0:0:0:0:
64,192,240645,1,0,0:0:0:0:
448,192,240706,1,0,0:0:0:0:
320,192,240706,1,0,0:0:0:0:
192,192,240767,1,0,0:0:0:0:
64,192,240767,1,0,0:0:0:0:
320,192,240828,1,0,0:0:0:0:
448,192,240828,1,0,0:0:0:0:
192,192,240888,1,0,0:0:0:0:
64,192,240888,1,0,0:0:0:0:
320,192,240949,1,0,0:0:0:0:
192,192,241010,1,0,0:0:0:0:
64,192,241071,1,0,0:0:0:0:
320,192,241132,1,0,0:0:0:0:
192,192,241192,1,0,0:0:0:0:
448,192,241192,1,0,0:0:0:0:
64,192,241253,1,0,0:0:0:0:
320,192,241314,1,0,0:0:0:0:
448,192,241314,1,0,0:0:0:0:
64,192,241375,1,0,0:0:0:0:
192,192,241435,1,0,0:0:0:0:
448,192,241435,1,0,0:0:0:0:
320,192,241495,1,0,0:0:0:0:
192,192,241556,1,0,0:0:0:0:
64,192,241556,1,0,0:0:0:0:
320,192,241617,1,0,0:0:0:0:
64,192,241678,1,0,0:0:0:0:
448,192,241738,1,0,0:0:0:0:
192,192,241799,1,0,0:0:0:0:
320,192,241799,1,0,0:0:0:0:
448,192,241860,1,0,0:0:0:0:
320,192,241921,1,0,0:0:0:0:
64,192,241921,1,0,0:0:0:0:
192,192,241982,1,0,0:0:0:0:
320,192,242042,1,0,0:0:0:0:
448,192,242042,1,0,0:0:0:0:
192,192,242103,1,0,0:0:0:0:
64,192,242164,1,0,0:0:0:0:
320,192,242164,1,0,0:0:0:0:
448,192,242225,1,0,0:0:0:0:
192,192,242285,1,0,0:0:0:0:
64,192,242285,1,0,0:0:0:0:
448,192,242346,1,0,0:0:0:0:
320,192,242346,1,0,0:0:0:0:
192,192,242407,1,0,0:0:0:0:
64,192,242407,1,0,0:0:0:0:
320,192,242468,1,0,0:0:0:0:
448,192,242468,1,0,0:0:0:0:
64,192,242528,1,0,0:0:0:0:
192,192,242588,1,0,0:0:0:0:
320,192,242649,1,0,0:0:0:0:
448,192,242649,1,0,0:0:0:0:
192,192,242710,1,0,0:0:0:0:
64,192,242771,1,0,0:0:0:0:
448,192,242771,1,0,0:0:0:0:
320,192,242832,1,0,0:0:0:0:
192,192,242892,1,0,0:0:0:0:
64,192,242892,1,0,0:0:0:0:
320,192,242953,1,0,0:0:0:0:
64,192,243014,1,0,0:0:0:0:
192,192,243075,1,0,0:0:0:0:
320,192,243135,1,0,0:0:0:0:
448,192,243135,1,0,0:0:0:0:
64,192,243196,1,0,0:0:0:0:
320,192,243257,1,0,0:0:0:0:
64,192,243318,1,0,0:0:0:0:
448,192,243378,1,0,0:0:0:0:
192,192,243378,1,0,0:0:0:0:
320,192,243439,1,0,0:0:0:0:
64,192,243500,1,0,0:0:0:0:
320,192,243561,1,0,0:0:0:0:
192,192,243622,1,0,0:0:0:0:
448,192,243682,1,0,0:0:0:0:
64,192,243742,1,0,0:0:0:0:
448,192,243803,1,0,0:0:0:0:
192,192,243864,1,0,0:0:0:0:
320,192,243864,1,0,0:0:0:0:
64,192,243925,1,0,0:0:0:0:
448,192,243985,1,0,0:0:0:0:
64,192,244046,1,0,0:0:0:0:
320,192,244107,1,0,0:0:0:0:
192,192,244168,1,0,0:0:0:0:
448,192,244228,1,0,0:0:0:0:
192,192,244289,1,0,0:0:0:0:
320,192,244350,1,0,0:0:0:0:
64,192,244350,1,0,0:0:0:0:
448,192,244411,1,0,0:0:0:0:
192,192,244472,1,0,0:0:0:0:
448,192,244532,1,0,0:0:0:0:
64,192,244593,1,0,0:0:0:0:
192,192,244633,1,0,0:0:0:0:
320,192,244674,1,0,0:0:0:0:
448,192,244715,1,0,0:0:0:0:
192,192,244755,1,0,0:0:0:0:
320,192,244795,1,0,0:0:0:0:
64,192,244836,1,0,0:0:0:0:
192,192,244876,1,0,0:0:0:0:
320,192,244917,1,0,0:0:0:0:
448,192,244957,1,0,0:0:0:0:
192,192,244998,1,0,0:0:0:0:
320,192,245038,1,0,0:0:0:0:
64,192,245078,1,0,0:0:0:0:
448,192,245078,1,0,0:0:0:0:
192,192,245139,1,0,0:0:0:0:
320,192,245200,1,0,0:0:0:0:
192,192,245261,1,0,0:0:0:0:
448,192,245322,1,0,0:0:0:0:
64,192,245322,1,0,0:0:0:0:
320,192,245382,1,0,0:0:0:0:
64,192,245443,1,0,0:0:0:0:
320,192,245504,1,0,0:0:0:0:
192,192,245565,1,0,0:0:0:0:
448,192,245625,1,0,0:0:0:0:
64,192,245686,1,0,0:0:0:0:
448,192,245747,1,0,0:0:0:0:
64,192,245808,1,0,0:0:0:0:
320,192,245808,1,0,0:0:0:0:
192,192,245868,1,0,0:0:0:0:
448,192,245929,1,0,0:0:0:0:
192,192,245990,1,0,0:0:0:0:
320,192,246050,1,0,0:0:0:0:
64,192,246111,1,0,0:0:0:0:
448,192,246172,1,0,0:0:0:0:
64,192,246232,1,0,0:0:0:0:
192,192,246293,1,0,0:0:0:0:
320,192,246293,1,0,0:0:0:0:
448,192,246354,1,0,0:0:0:0:
64,192,246415,1,0,0:0:0:0:
448,192,246475,1,0,0:0:0:0:
192,192,246536,1,0,0:0:0:0:
64,192,246536,1,0,0:0:0:0:
320,192,246597,1,0,0:0:0:0:
192,192,246658,1,0,0:0:0:0:
448,192,246718,1,0,0:0:0:0:
64,192,246779,1,0,0:0:0:0:
192,192,246840,1,0,0:0:0:0:
320,192,246901,1,0,0:0:0:0:
64,192,246962,1,0,0:0:0:0:
192,192,247022,1,0,0:0:0:0:
448,192,247022,1,0,0:0:0:0:
320,192,247083,1,0,0:0:0:0:
64,192,247144,1,0,0:0:0:0:
320,192,247204,1,0,0:0:0:0:
64,192,247265,1,0,0:0:0:0:
448,192,247265,1,0,0:0:0:0:
192,192,247325,1,0,0:0:0:0:
320,192,247386,1,0,0:0:0:0:
192,192,247447,1,0,0:0:0:0:
64,192,247508,1,0,0:0:0:0:
320,192,247508,1,0,0:0:0:0:
448,192,247568,1,0,0:0:0:0:
192,192,247629,1,0,0:0:0:0:
448,192,247690,1,0,0:0:0:0:
320,192,247751,1,0,0:0:0:0:
64,192,247751,1,0,0:0:0:0:
192,192,247812,1,0,0:0:0:0:
320,192,247872,1,0,0:0:0:0:
192,192,247933,1,0,0:0:0:0:
64,192,247994,1,0,0:0:0:0:
448,192,247994,1,0,0:0:0:0:
320,192,248055,1,0,0:0:0:0:
64,192,248115,1,0,0:0:0:0:
320,192,248176,1,0,0:0:0:0:
192,192,248237,1,0,0:0:0:0:
448,192,248237,1,0,0:0:0:0:
64,192,248298,1,0,0:0:0:0:
320,192,248358,1,0,0:0:0:0:
64,192,248418,1,0,0:0:0:0:
320,192,248479,1,0,0:0:0:0:
448,192,248479,1,0,0:0:0:0:
192,192,248540,1,0,0:0:0:0:
64,192,248540,1,0,0:0:0:0:
320,192,248601,1,0,0:0:0:0:
448,192,248601,1,0,0:0:0:0:
192,192,248662,1,0,0:0:0:0:
64,192,248662,1,0,0:0:0:0:
320,192,248722,1,0,0:0:0:0:
192,192,248783,1,0,0:0:0:0:
64,192,248844,1,0,0:0:0:0:
320,192,248905,1,0,0:0:0:0:
192,192,248965,1,0,0:0:0:0:
64,192,248965,1,0,0:0:0:0:
448,192,248965,1,0,0:0:0:0:
320,192,249087,1,0,0:0:0:0:
192,192,249087,1,0,0:0:0:0:
64,192,249208,1,0,0:0:0:0:
320,192,249208,1,0,0:0:0:0:
192,192,249330,1,0,0:0:0:0:
320,192,249330,1,0,0:0:0:0:
448,192,249330,1,0,0:0:0:0:
192,192,249452,1,0,0:0:0:0:
64,192,249452,1,0,0:0:0:0:
448,192,249572,1,0,0:0:0:0:
64,192,249572,1,0,0:0:0:0:
192,192,249694,1,0,0:0:0:0:
320,192,249815,1,0,0:0:0:0:
448,192,249815,1,0,0:0:0:0:
192,192,249937,1,0,0:0:0:0:
64,192,249937,1,0,0:0:0:0:
448,192,249937,1,0,0:0:0:0:
320,192,250058,1,0,0:0:0:0:
64,192,250058,1,0,0:0:0:0:
192,192,250180,1,0,0:0:0:0:
320,192,250180,1,0,0:0:0:0:
64,192,250302,1,0,0:0:0:0:
192,192,250302,1,0,0:0:0:0:
448,192,250302,1,0,0:0:0:0:
320,192,250423,1,0,0:0:0:0:
64,192,250423,1,0,0:0:0:0:
192,192,250545,1,0,0:0:0:0:
320,192,250545,1,0,0:0:0:0:
64,192,250665,1,0,0:0:0:0:
448,192,250665,1,0,0:0:0:0:
192,192,250726,1,0,0:0:0:0:
320,192,250787,1,0,0:0:0:0:
192,192,250848,1,0,0:0:0:0:
64,192,250908,1,0,0:0:0:0:
320,192,250908,1,0,0:0:0:0:
448,192,250908,1,0,0:0:0:0:
