osu file format v14

[General]
AudioFilename: audio120.mp3
AudioLeadIn: 0
PreviewTime: 69669
Countdown: 0
SampleSet: Normal
StackLeniency: 0.7
Mode: 3
LetterboxInBreaks: 0
SpecialStyle: 0
WidescreenStoryboard: 0

[Editor]
DistanceSpacing: 0.8
BeatDivisor: 4
GridSize: 8
TimelineZoom: 1.5

[Metadata]
Title:Master of Peace
TitleUnicode:Master of Peace
Artist:Rhapsody of Fire
ArtistUnicode:Rhapsody of Fire
Creator:Cokiiplay
Version:Peacful 1,2x
Source:
Tags:
BeatmapID:1964598
BeatmapSetID:940666

[Difficulty]
HPDrainRate:8
CircleSize:4
OverallDifficulty:8
ApproachRate:5
SliderMultiplier:1.4
SliderTickRate:1

[Events]
//Background and Video events
0,0,"cropped-1920-1080-863201.jpg",0,0
//Break Periods
//Storyboard Layer 0 (Background)
//Storyboard Layer 1 (Fail)
//Storyboard Layer 2 (Pass)
//Storyboard Layer 3 (Foreground)
//Storyboard Sound Samples

[TimingPoints]
236,263.157894736842,4,1,0,50,1,0

[HitObjects]
64,192,236,5,0,0:0:0:0:
320,192,236,1,0,0:0:0:0:
448,192,236,1,0,0:0:0:0:
192,192,367,1,0,0:0:0:0:
448,192,432,1,0,0:0:0:0:
64,192,498,1,0,0:0:0:0:
320,192,564,1,0,0:0:0:0:
192,192,630,128,0,696:0:0:0:0:
448,192,762,1,0,0:0:0:0:
320,192,828,1,0,0:0:0:0:
64,192,893,1,0,0:0:0:0:
448,192,959,1,0,0:0:0:0:
192,192,1025,128,0,1091:0:0:0:0:
320,192,1157,1,0,0:0:0:0:
192,192,1222,1,0,0:0:0:0:
448,192,1288,1,0,0:0:0:0:
64,192,1354,1,0,0:0:0:0:
320,192,1420,128,0,1486:0:0:0:0:
192,192,1551,1,0,0:0:0:0:
320,192,1617,1,0,0:0:0:0:
64,192,1682,1,0,0:0:0:0:
192,192,1748,1,0,0:0:0:0:
448,192,1814,1,0,0:0:0:0:
192,192,1880,1,0,0:0:0:0:
448,192,1946,1,0,0:0:0:0:
192,192,2012,1,0,0:0:0:0:
320,192,2078,1,0,0:0:0:0:
64,192,2143,1,0,0:0:0:0:
320,192,2209,1,0,0:0:0:0:
64,192,2275,1,0,0:0:0:0:
192,192,2341,1,0,0:0:0:0:
448,192,2341,1,0,0:0:0:0:
320,192,2341,1,0,0:0:0:0:
64,192,2472,1,0,0:0:0:0:
448,192,2538,1,0,0:0:0:0:
192,192,2604,1,0,0:0:0:0:
320,192,2670,1,0,0:0:0:0:
64,192,2736,128,0,2801:0:0:0:0:
448,192,2867,1,0,0:0:0:0:
192,192,2932,1,0,0:0:0:0:
320,192,2998,1,0,0:0:0:0:
64,192,3064,1,0,0:0:0:0:
448,192,3130,128,0,3196:0:0:0:0:
192,192,3262,1,0,0:0:0:0:
320,192,3328,1,0,0:0:0:0:
64,192,3393,1,0,0:0:0:0:
192,192,3459,1,0,0:0:0:0:
448,192,3525,128,0,3591:0:0:0:0:
320,192,3657,1,0,0:0:0:0:
192,192,3722,1,0,0:0:0:0:
64,192,3788,1,0,0:0:0:0:
320,192,3854,1,0,0:0:0:0:
192,192,3920,128,0,4117:0:0:0:0:
64,192,3920,128,0,4117:0:0:0:0:
448,192,3920,128,0,4182:0:0:0:0:
64,192,4182,128,0,4446:0:0:0:0:
192,192,4182,128,0,4380:0:0:0:0:
320,192,4182,128,0,4380:0:0:0:0:
192,192,4446,1,0,0:0:0:0:
320,192,4446,1,0,0:0:0:0:
448,192,4446,1,0,0:0:0:0:
64,192,4578,1,0,0:0:0:0:
448,192,4643,1,0,0:0:0:0:
192,192,4709,1,0,0:0:0:0:
320,192,4775,1,0,0:0:0:0:
64,192,4841,128,0,4907:0:0:0:0:
448,192,4972,1,0,0:0:0:0:
192,192,5038,1,0,0:0:0:0:
320,192,5104,1,0,0:0:0:0:
64,192,5170,1,0,0:0:0:0:
448,192,5236,128,0,5301:0:0:0:0:
320,192,5367,1,0,0:0:0:0:
192,192,5432,1,0,0:0:0:0:
448,192,5498,1,0,0:0:0:0:
64,192,5564,1,0,0:0:0:0:
192,192,5630,128,0,5696:0:0:0:0:
320,192,5762,1,0,0:0:0:0:
64,192,5828,1,0,0:0:0:0:
448,192,5893,1,0,0:0:0:0:
192,192,5959,1,0,0:0:0:0:
320,192,6025,1,0,0:0:0:0:
64,192,6091,1,0,0:0:0:0:
320,192,6157,1,0,0:0:0:0:
64,192,6222,1,0,0:0:0:0:
192,192,6288,1,0,0:0:0:0:
448,192,6354,1,0,0:0:0:0:
192,192,6420,1,0,0:0:0:0:
448,192,6486,1,0,0:0:0:0:
320,192,6551,1,0,0:0:0:0:
192,192,6551,1,0,0:0:0:0:
64,192,6551,1,0,0:0:0:0:
448,192,6682,1,0,0:0:0:0:
320,192,6814,1,0,0:0:0:0:
448,192,6814,1,0,0:0:0:0:
64,192,6946,1,0,0:0:0:0:
192,192,6946,1,0,0:0:0:0:
448,192,6946,1,0,0:0:0:0:
320,192,7078,1,0,0:0:0:0:
320,192,7209,1,0,0:0:0:0:
64,192,7209,1,0,0:0:0:0:
192,192,7341,1,0,0:0:0:0:
64,192,7341,1,0,0:0:0:0:
448,192,7341,1,0,0:0:0:0:
192,192,7472,1,0,0:0:0:0:
320,192,7472,1,0,0:0:0:0:
64,192,7604,1,0,0:0:0:0:
320,192,7604,1,0,0:0:0:0:
448,192,7604,1,0,0:0:0:0:
64,192,7736,1,0,0:0:0:0:
192,192,7801,1,0,0:0:0:0:
320,192,7867,1,0,0:0:0:0:
448,192,7932,1,0,0:0:0:0:
192,192,7998,1,0,0:0:0:0:
64,192,8064,1,0,0:0:0:0:
448,192,8130,1,0,0:0:0:0:
192,192,8196,1,0,0:0:0:0:
320,192,8262,1,0,0:0:0:0:
448,192,8328,1,0,0:0:0:0:
192,192,8393,1,0,0:0:0:0:
64,192,8459,1,0,0:0:0:0:
320,192,8525,1,0,0:0:0:0:
192,192,8591,1,0,0:0:0:0:
64,192,8657,1,0,0:0:0:0:
448,192,8657,1,0,0:0:0:0:
320,192,8722,1,0,0:0:0:0:
192,192,8788,1,0,0:0:0:0:
448,192,8854,1,0,0:0:0:0:
64,192,8920,1,0,0:0:0:0:
192,192,8920,1,0,0:0:0:0:
448,192,8986,1,0,0:0:0:0:
320,192,9051,1,0,0:0:0:0:
64,192,9117,1,0,0:0:0:0:
192,192,9182,1,0,0:0:0:0:
448,192,9248,1,0,0:0:0:0:
64,192,9314,1,0,0:0:0:0:
192,192,9380,1,0,0:0:0:0:
320,192,9446,1,0,0:0:0:0:
448,192,9446,1,0,0:0:0:0:
192,192,9512,1,0,0:0:0:0:
448,192,9578,1,0,0:0:0:0:
64,192,9643,1,0,0:0:0:0:
320,192,9709,1,0,0:0:0:0:
64,192,9775,1,0,0:0:0:0:
192,192,9841,1,0,0:0:0:0:
448,192,9907,1,0,0:0:0:0:
320,192,9972,1,0,0:0:0:0:
192,192,9972,1,0,0:0:0:0:
448,192,10038,1,0,0:0:0:0:
64,192,10104,1,0,0:0:0:0:
192,192,10170,1,0,0:0:0:0:
448,192,10236,1,0,0:0:0:0:
320,192,10301,1,0,0:0:0:0:
192,192,10367,1,0,0:0:0:0:
64,192,10432,1,0,0:0:0:0:
448,192,10498,1,0,0:0:0:0:
192,192,10498,1,0,0:0:0:0:
320,192,10564,1,0,0:0:0:0:
192,192,10630,1,0,0:0:0:0:
64,192,10696,1,0,0:0:0:0:
448,192,10762,1,0,0:0:0:0:
320,192,10828,1,0,0:0:0:0:
192,192,10893,1,0,0:0:0:0:
448,192,10959,1,0,0:0:0:0:
320,192,11025,1,0,0:0:0:0:
64,192,11025,1,0,0:0:0:0:
448,192,11091,1,0,0:0:0:0:
64,192,11157,1,0,0:0:0:0:
192,192,11222,1,0,0:0:0:0:
320,192,11288,1,0,0:0:0:0:
64,192,11354,1,0,0:0:0:0:
448,192,11420,1,0,0:0:0:0:
320,192,11486,1,0,0:0:0:0:
64,192,11551,1,0,0:0:0:0:
192,192,11551,1,0,0:0:0:0:
320,192,11617,1,0,0:0:0:0:
192,192,11682,1,0,0:0:0:0:
64,192,11748,1,0,0:0:0:0:
448,192,11814,1,0,0:0:0:0:
192,192,11880,1,0,0:0:0:0:
320,192,11946,1,0,0:0:0:0:
64,192,12012,1,0,0:0:0:0:
192,192,12078,1,0,0:0:0:0:
448,192,12078,1,0,0:0:0:0:
64,192,12143,1,0,0:0:0:0:
448,192,12209,1,0,0:0:0:0:
320,192,12275,1,0,0:0:0:0:
64,192,12341,128,0,12604:0:0:0:0:
192,192,12341,128,0,12538:0:0:0:0:
448,192,12341,128,0,12538:0:0:0:0:
192,192,12604,128,0,12801:0:0:0:0:
320,192,12604,128,0,12801:0:0:0:0:
448,192,12604,128,0,12867:0:0:0:0:
192,192,12867,1,0,0:0:0:0:
320,192,12867,1,0,0:0:0:0:
64,192,12867,1,0,0:0:0:0:
448,192,12932,1,0,0:0:0:0:
64,192,12998,1,0,0:0:0:0:
192,192,13064,1,0,0:0:0:0:
320,192,13130,1,0,0:0:0:0:
448,192,13130,1,0,0:0:0:0:
192,192,13196,1,0,0:0:0:0:
448,192,13262,1,0,0:0:0:0:
64,192,13328,1,0,0:0:0:0:
320,192,13393,1,0,0:0:0:0:
64,192,13459,1,0,0:0:0:0:
192,192,13525,1,0,0:0:0:0:
448,192,13591,1,0,0:0:0:0:
320,192,13657,1,0,0:0:0:0:
192,192,13657,1,0,0:0:0:0:
448,192,13722,1,0,0:0:0:0:
64,192,13788,1,0,0:0:0:0:
320,192,13854,1,0,0:0:0:0:
192,192,13920,1,0,0:0:0:0:
320,192,13986,1,0,0:0:0:0:
64,192,14051,1,0,0:0:0:0:
192,192,14117,1,0,0:0:0:0:
448,192,14182,1,0,0:0:0:0:
320,192,14182,1,0,0:0:0:0:
64,192,14248,1,0,0:0:0:0:
192,192,14314,1,0,0:0:0:0:
448,192,14380,1,0,0:0:0:0:
192,192,14446,1,0,0:0:0:0:
64,192,14446,1,0,0:0:0:0:
320,192,14512,1,0,0:0:0:0:
448,192,14512,1,0,0:0:0:0:
192,192,14578,1,0,0:0:0:0:
64,192,14578,1,0,0:0:0:0:
320,192,14643,1,0,0:0:0:0:
448,192,14643,1,0,0:0:0:0:
64,192,14709,1,0,0:0:0:0:
320,192,14775,1,0,0:0:0:0:
64,192,14841,1,0,0:0:0:0:
320,192,14907,1,0,0:0:0:0:
448,192,14972,1,0,0:0:0:0:
64,192,14972,1,0,0:0:0:0:
192,192,14972,1,0,0:0:0:0:
320,192,15104,1,0,0:0:0:0:
320,192,15236,1,0,0:0:0:0:
192,192,15236,1,0,0:0:0:0:
64,192,15367,1,0,0:0:0:0:
192,192,15367,1,0,0:0:0:0:
448,192,15367,1,0,0:0:0:0:
320,192,15498,1,0,0:0:0:0:
64,192,15630,1,0,0:0:0:0:
448,192,15630,1,0,0:0:0:0:
192,192,15762,1,0,0:0:0:0:
320,192,15762,1,0,0:0:0:0:
448,192,15762,1,0,0:0:0:0:
64,192,15893,1,0,0:0:0:0:
320,192,15893,1,0,0:0:0:0:
64,192,16025,1,0,0:0:0:0:
192,192,16025,1,0,0:0:0:0:
448,192,16025,1,0,0:0:0:0:
320,192,16157,1,0,0:0:0:0:
192,192,16288,1,0,0:0:0:0:
320,192,16288,1,0,0:0:0:0:
192,192,16420,1,0,0:0:0:0:
64,192,16420,1,0,0:0:0:0:
448,192,16420,1,0,0:0:0:0:
320,192,16551,1,0,0:0:0:0:
64,192,16551,1,0,0:0:0:0:
64,192,16682,1,0,0:0:0:0:
320,192,16682,1,0,0:0:0:0:
192,192,16814,1,0,0:0:0:0:
320,192,16814,1,0,0:0:0:0:
448,192,16814,1,0,0:0:0:0:
64,192,16946,1,0,0:0:0:0:
448,192,16946,1,0,0:0:0:0:
320,192,17078,1,0,0:0:0:0:
64,192,17078,1,0,0:0:0:0:
192,192,17078,1,0,0:0:0:0:
64,192,17604,1,0,0:0:0:0:
192,192,17670,1,0,0:0:0:0:
320,192,17736,1,0,0:0:0:0:
64,192,17801,1,0,0:0:0:0:
192,192,17867,1,0,0:0:0:0:
448,192,17932,1,0,0:0:0:0:
64,192,17998,1,0,0:0:0:0:
192,192,18064,1,0,0:0:0:0:
320,192,18130,1,0,0:0:0:0:
448,192,18130,1,0,0:0:0:0:
64,192,18130,1,0,0:0:0:0:
64,192,19182,1,0,0:0:0:0:
448,192,19182,1,0,0:0:0:0:
320,192,19248,1,0,0:0:0:0:
192,192,19314,1,0,0:0:0:0:
448,192,19380,1,0,0:0:0:0:
320,192,19446,1,0,0:0:0:0:
64,192,19446,1,0,0:0:0:0:
192,192,19512,1,0,0:0:0:0:
448,192,19578,1,0,0:0:0:0:
192,192,19643,1,0,0:0:0:0:
320,192,19709,1,0,0:0:0:0:
64,192,19775,1,0,0:0:0:0:
192,192,19841,1,0,0:0:0:0:
448,192,19907,1,0,0:0:0:0:
320,192,19972,1,0,0:0:0:0:
64,192,19972,1,0,0:0:0:0:
192,192,20038,1,0,0:0:0:0:
448,192,20104,1,0,0:0:0:0:
320,192,20170,1,0,0:0:0:0:
64,192,20236,1,0,0:0:0:0:
448,192,20301,1,0,0:0:0:0:
192,192,20367,1,0,0:0:0:0:
320,192,20432,1,0,0:0:0:0:
64,192,20498,1,0,0:0:0:0:
192,192,20498,1,0,0:0:0:0:
448,192,20564,1,0,0:0:0:0:
320,192,20630,1,0,0:0:0:0:
64,192,20696,1,0,0:0:0:0:
192,192,20762,1,0,0:0:0:0:
448,192,20828,1,0,0:0:0:0:
192,192,20893,1,0,0:0:0:0:
320,192,20959,1,0,0:0:0:0:
448,192,21025,1,0,0:0:0:0:
64,192,21025,1,0,0:0:0:0:
192,192,21091,1,0,0:0:0:0:
320,192,21157,1,0,0:0:0:0:
64,192,21222,1,0,0:0:0:0:
448,192,21288,1,0,0:0:0:0:
320,192,21354,1,0,0:0:0:0:
64,192,21420,1,0,0:0:0:0:
320,192,21486,1,0,0:0:0:0:
192,192,21551,1,0,0:0:0:0:
64,192,21551,1,0,0:0:0:0:
448,192,21617,1,0,0:0:0:0:
320,192,21682,1,0,0:0:0:0:
64,192,21748,1,0,0:0:0:0:
448,192,21814,1,0,0:0:0:0:
320,192,21880,1,0,0:0:0:0:
64,192,21946,1,0,0:0:0:0:
448,192,22012,1,0,0:0:0:0:
320,192,22078,1,0,0:0:0:0:
192,192,22078,1,0,0:0:0:0:
64,192,22143,1,0,0:0:0:0:
448,192,22209,1,0,0:0:0:0:
64,192,22275,1,0,0:0:0:0:
192,192,22341,1,0,0:0:0:0:
320,192,22407,1,0,0:0:0:0:
64,192,22472,1,0,0:0:0:0:
448,192,22538,1,0,0:0:0:0:
320,192,22604,1,0,0:0:0:0:
192,192,22604,1,0,0:0:0:0:
64,192,22670,1,0,0:0:0:0:
448,192,22736,1,0,0:0:0:0:
320,192,22801,1,0,0:0:0:0:
192,192,22867,1,0,0:0:0:0:
320,192,22932,1,0,0:0:0:0:
64,192,22998,1,0,0:0:0:0:
192,192,23064,1,0,0:0:0:0:
320,192,23130,1,0,0:0:0:0:
448,192,23130,1,0,0:0:0:0:
64,192,23196,1,0,0:0:0:0:
448,192,23262,1,0,0:0:0:0:
192,192,23328,1,0,0:0:0:0:
320,192,23393,1,0,0:0:0:0:
64,192,23459,1,0,0:0:0:0:
192,192,23525,1,0,0:0:0:0:
448,192,23591,1,0,0:0:0:0:
320,192,23657,1,0,0:0:0:0:
64,192,23657,1,0,0:0:0:0:
192,192,23722,1,0,0:0:0:0:
448,192,23788,1,0,0:0:0:0:
64,192,23854,1,0,0:0:0:0:
320,192,23920,1,0,0:0:0:0:
64,192,23986,1,0,0:0:0:0:
192,192,24051,1,0,0:0:0:0:
320,192,24117,1,0,0:0:0:0:
64,192,24182,1,0,0:0:0:0:
448,192,24182,1,0,0:0:0:0:
192,192,24248,1,0,0:0:0:0:
320,192,24314,1,0,0:0:0:0:
192,192,24380,1,0,0:0:0:0:
320,192,24446,1,0,0:0:0:0:
64,192,24512,1,0,0:0:0:0:
448,192,24578,1,0,0:0:0:0:
320,192,24643,1,0,0:0:0:0:
192,192,24709,1,0,0:0:0:0:
64,192,24709,1,0,0:0:0:0:
448,192,24775,1,0,0:0:0:0:
320,192,24841,1,0,0:0:0:0:
192,192,24907,1,0,0:0:0:0:
448,192,24972,1,0,0:0:0:0:
64,192,24972,1,0,0:0:0:0:
320,192,25038,1,0,0:0:0:0:
192,192,25038,1,0,0:0:0:0:
64,192,25104,1,0,0:0:0:0:
448,192,25104,1,0,0:0:0:0:
192,192,25170,1,0,0:0:0:0:
320,192,25170,1,0,0:0:0:0:
64,192,25236,1,0,0:0:0:0:
320,192,25301,1,0,0:0:0:0:
64,192,25367,1,0,0:0:0:0:
320,192,25432,1,0,0:0:0:0:
448,192,25498,1,0,0:0:0:0:
64,192,25498,1,0,0:0:0:0:
192,192,25498,1,0,0:0:0:0:
320,192,25762,1,0,0:0:0:0:
192,192,25762,1,0,0:0:0:0:
64,192,26025,1,0,0:0:0:0:
64,192,26157,1,0,0:0:0:0:
192,192,26288,1,0,0:0:0:0:
320,192,26288,1,0,0:0:0:0:
64,192,26420,1,0,0:0:0:0:
192,192,26486,1,0,0:0:0:0:
320,192,26551,1,0,0:0:0:0:
320,192,26682,1,0,0:0:0:0:
448,192,26682,1,0,0:0:0:0:
320,192,26946,1,0,0:0:0:0:
448,192,26946,1,0,0:0:0:0:
320,192,27209,1,0,0:0:0:0:
448,192,27209,1,0,0:0:0:0:
320,192,27472,1,0,0:0:0:0:
448,192,27472,1,0,0:0:0:0:
192,192,27604,1,0,0:0:0:0:
64,192,27604,1,0,0:0:0:0:
448,192,27604,1,0,0:0:0:0:
320,192,27670,1,0,0:0:0:0:
64,192,27736,1,0,0:0:0:0:
448,192,27801,1,0,0:0:0:0:
320,192,27867,1,0,0:0:0:0:
192,192,27867,1,0,0:0:0:0:
64,192,27932,1,0,0:0:0:0:
448,192,27998,1,0,0:0:0:0:
192,192,28064,1,0,0:0:0:0:
320,192,28130,1,0,0:0:0:0:
192,192,28196,1,0,0:0:0:0:
448,192,28262,1,0,0:0:0:0:
320,192,28328,1,0,0:0:0:0:
192,192,28393,1,0,0:0:0:0:
64,192,28393,1,0,0:0:0:0:
448,192,28459,1,0,0:0:0:0:
64,192,28525,1,0,0:0:0:0:
192,192,28591,1,0,0:0:0:0:
320,192,28657,1,0,0:0:0:0:
192,192,28722,1,0,0:0:0:0:
448,192,28788,1,0,0:0:0:0:
320,192,28854,1,0,0:0:0:0:
192,192,28920,1,0,0:0:0:0:
64,192,28920,1,0,0:0:0:0:
320,192,28986,1,0,0:0:0:0:
64,192,29051,1,0,0:0:0:0:
192,192,29117,1,0,0:0:0:0:
320,192,29182,1,0,0:0:0:0:
64,192,29248,1,0,0:0:0:0:
448,192,29314,1,0,0:0:0:0:
192,192,29380,1,0,0:0:0:0:
320,192,29446,1,0,0:0:0:0:
448,192,29446,1,0,0:0:0:0:
64,192,29512,1,0,0:0:0:0:
192,192,29578,1,0,0:0:0:0:
448,192,29643,1,0,0:0:0:0:
64,192,29709,1,0,0:0:0:0:
320,192,29775,1,0,0:0:0:0:
64,192,29841,1,0,0:0:0:0:
448,192,29907,1,0,0:0:0:0:
320,192,29972,1,0,0:0:0:0:
192,192,29972,1,0,0:0:0:0:
64,192,30038,1,0,0:0:0:0:
448,192,30104,1,0,0:0:0:0:
320,192,30170,1,0,0:0:0:0:
192,192,30236,1,0,0:0:0:0:
320,192,30301,1,0,0:0:0:0:
64,192,30367,1,0,0:0:0:0:
192,192,30432,1,0,0:0:0:0:
320,192,30498,1,0,0:0:0:0:
448,192,30498,1,0,0:0:0:0:
192,192,30564,1,0,0:0:0:0:
448,192,30630,1,0,0:0:0:0:
320,192,30696,1,0,0:0:0:0:
64,192,30762,1,0,0:0:0:0:
448,192,30828,1,0,0:0:0:0:
192,192,30893,1,0,0:0:0:0:
320,192,30959,1,0,0:0:0:0:
192,192,31025,1,0,0:0:0:0:
64,192,31025,1,0,0:0:0:0:
448,192,31091,1,0,0:0:0:0:
320,192,31157,1,0,0:0:0:0:
64,192,31222,1,0,0:0:0:0:
320,192,31288,1,0,0:0:0:0:
192,192,31354,1,0,0:0:0:0:
448,192,31420,1,0,0:0:0:0:
64,192,31486,1,0,0:0:0:0:
192,192,31551,1,0,0:0:0:0:
448,192,31551,1,0,0:0:0:0:
320,192,31617,1,0,0:0:0:0:
192,192,31682,1,0,0:0:0:0:
320,192,31748,1,0,0:0:0:0:
64,192,31814,1,0,0:0:0:0:
192,192,31880,1,0,0:0:0:0:
448,192,31946,1,0,0:0:0:0:
64,192,32012,1,0,0:0:0:0:
192,192,32078,1,0,0:0:0:0:
448,192,32078,1,0,0:0:0:0:
320,192,32143,1,0,0:0:0:0:
192,192,32209,1,0,0:0:0:0:
448,192,32275,1,0,0:0:0:0:
64,192,32341,1,0,0:0:0:0:
320,192,32407,1,0,0:0:0:0:
192,192,32472,1,0,0:0:0:0:
448,192,32538,1,0,0:0:0:0:
320,192,32604,1,0,0:0:0:0:
64,192,32604,1,0,0:0:0:0:
192,192,32670,1,0,0:0:0:0:
448,192,32736,1,0,0:0:0:0:
64,192,32801,1,0,0:0:0:0:
192,192,32867,1,0,0:0:0:0:
320,192,32932,1,0,0:0:0:0:
64,192,32998,1,0,0:0:0:0:
448,192,33064,1,0,0:0:0:0:
320,192,33130,1,0,0:0:0:0:
64,192,33130,1,0,0:0:0:0:
192,192,33196,1,0,0:0:0:0:
320,192,33262,1,0,0:0:0:0:
64,192,33328,1,0,0:0:0:0:
192,192,33393,1,0,0:0:0:0:
448,192,33459,1,0,0:0:0:0:
192,192,33525,1,0,0:0:0:0:
320,192,33591,1,0,0:0:0:0:
448,192,33657,1,0,0:0:0:0:
64,192,33657,1,0,0:0:0:0:
192,192,33722,1,0,0:0:0:0:
320,192,33788,1,0,0:0:0:0:
192,192,33854,1,0,0:0:0:0:
448,192,33920,1,0,0:0:0:0:
320,192,33986,1,0,0:0:0:0:
192,192,34051,1,0,0:0:0:0:
448,192,34117,1,0,0:0:0:0:
320,192,34182,1,0,0:0:0:0:
64,192,34182,1,0,0:0:0:0:
192,192,34248,1,0,0:0:0:0:
448,192,34314,1,0,0:0:0:0:
64,192,34380,1,0,0:0:0:0:
320,192,34446,1,0,0:0:0:0:
64,192,34512,1,0,0:0:0:0:
448,192,34578,1,0,0:0:0:0:
192,192,34643,1,0,0:0:0:0:
320,192,34709,1,0,0:0:0:0:
448,192,34709,1,0,0:0:0:0:
64,192,34775,1,0,0:0:0:0:
192,192,34841,1,0,0:0:0:0:
448,192,34907,1,0,0:0:0:0:
64,192,34972,1,0,0:0:0:0:
320,192,35038,1,0,0:0:0:0:
192,192,35104,1,0,0:0:0:0:
448,192,35170,1,0,0:0:0:0:
320,192,35236,1,0,0:0:0:0:
64,192,35236,1,0,0:0:0:0:
192,192,35301,1,0,0:0:0:0:
448,192,35367,1,0,0:0:0:0:
64,192,35432,1,0,0:0:0:0:
448,192,35498,1,0,0:0:0:0:
320,192,35498,1,0,0:0:0:0:
192,192,35564,1,0,0:0:0:0:
64,192,35564,1,0,0:0:0:0:
448,192,35630,1,0,0:0:0:0:
320,192,35696,1,0,0:0:0:0:
64,192,35762,1,0,0:0:0:0:
192,192,35828,1,0,0:0:0:0:
64,192,35893,1,0,0:0:0:0:
192,192,35959,1,0,0:0:0:0:
320,192,36025,1,0,0:0:0:0:
448,192,36025,1,0,0:0:0:0:
320,192,36157,1,0,0:0:0:0:
64,192,36288,1,0,0:0:0:0:
448,192,36288,1,0,0:0:0:0:
192,192,36420,1,0,0:0:0:0:
320,192,36420,1,0,0:0:0:0:
192,192,36551,1,0,0:0:0:0:
64,192,36682,1,0,0:0:0:0:
320,192,36814,1,0,0:0:0:0:
448,192,36814,1,0,0:0:0:0:
320,192,36946,1,0,0:0:0:0:
192,192,37078,1,0,0:0:0:0:
64,192,37209,1,0,0:0:0:0:
320,192,37209,1,0,0:0:0:0:
192,192,37341,1,0,0:0:0:0:
320,192,37341,1,0,0:0:0:0:
64,192,37472,1,0,0:0:0:0:
192,192,37538,1,0,0:0:0:0:
320,192,37604,1,0,0:0:0:0:
448,192,37604,1,0,0:0:0:0:
64,192,37736,1,0,0:0:0:0:
320,192,37867,1,0,0:0:0:0:
448,192,37867,1,0,0:0:0:0:
192,192,37998,1,0,0:0:0:0:
64,192,38130,1,0,0:0:0:0:
448,192,38130,1,0,0:0:0:0:
448,192,38262,1,0,0:0:0:0:
320,192,38393,1,0,0:0:0:0:
192,192,38393,1,0,0:0:0:0:
64,192,38525,1,0,0:0:0:0:
320,192,38525,1,0,0:0:0:0:
64,192,38657,1,0,0:0:0:0:
192,192,38788,1,0,0:0:0:0:
320,192,38920,1,0,0:0:0:0:
448,192,38920,1,0,0:0:0:0:
320,192,39051,1,0,0:0:0:0:
64,192,39182,1,0,0:0:0:0:
192,192,39314,1,0,0:0:0:0:
448,192,39314,1,0,0:0:0:0:
320,192,39446,1,0,0:0:0:0:
192,192,39446,1,0,0:0:0:0:
64,192,39578,1,0,0:0:0:0:
192,192,39643,1,0,0:0:0:0:
320,192,39709,1,0,0:0:0:0:
448,192,39709,1,0,0:0:0:0:
64,192,39841,1,0,0:0:0:0:
320,192,39972,1,0,0:0:0:0:
448,192,39972,1,0,0:0:0:0:
192,192,40104,1,0,0:0:0:0:
64,192,40236,1,0,0:0:0:0:
448,192,40236,1,0,0:0:0:0:
448,192,40367,1,0,0:0:0:0:
192,192,40498,1,0,0:0:0:0:
64,192,40498,1,0,0:0:0:0:
192,192,40630,1,0,0:0:0:0:
320,192,40630,1,0,0:0:0:0:
320,192,40762,1,0,0:0:0:0:
64,192,40893,1,0,0:0:0:0:
320,192,41025,1,0,0:0:0:0:
448,192,41025,1,0,0:0:0:0:
448,192,41157,1,0,0:0:0:0:
64,192,41288,1,0,0:0:0:0:
192,192,41420,1,0,0:0:0:0:
448,192,41420,1,0,0:0:0:0:
320,192,41551,1,0,0:0:0:0:
192,192,41551,1,0,0:0:0:0:
64,192,41682,1,0,0:0:0:0:
192,192,41748,1,0,0:0:0:0:
320,192,41814,1,0,0:0:0:0:
448,192,41814,1,0,0:0:0:0:
64,192,41946,1,0,0:0:0:0:
320,192,42078,1,0,0:0:0:0:
448,192,42078,1,0,0:0:0:0:
192,192,42209,1,0,0:0:0:0:
64,192,42341,1,0,0:0:0:0:
448,192,42341,1,0,0:0:0:0:
448,192,42472,1,0,0:0:0:0:
192,192,42604,1,0,0:0:0:0:
320,192,42604,1,0,0:0:0:0:
64,192,42736,1,0,0:0:0:0:
64,192,42867,1,0,0:0:0:0:
192,192,42998,1,0,0:0:0:0:
448,192,42998,1,0,0:0:0:0:
192,192,43130,1,0,0:0:0:0:
448,192,43130,1,0,0:0:0:0:
320,192,43262,1,0,0:0:0:0:
192,192,43328,1,0,0:0:0:0:
64,192,43393,1,0,0:0:0:0:
320,192,43393,1,0,0:0:0:0:
448,192,43393,1,0,0:0:0:0:
192,192,43525,1,0,0:0:0:0:
448,192,43657,1,0,0:0:0:0:
192,192,43788,1,0,0:0:0:0:
320,192,43920,1,0,0:0:0:0:
448,192,43920,1,0,0:0:0:0:
64,192,43986,1,0,0:0:0:0:
192,192,44051,1,0,0:0:0:0:
320,192,44117,1,0,0:0:0:0:
64,192,44182,1,0,0:0:0:0:
192,192,44182,1,0,0:0:0:0:
320,192,44248,1,0,0:0:0:0:
448,192,44248,1,0,0:0:0:0:
64,192,44314,1,0,0:0:0:0:
192,192,44314,1,0,0:0:0:0:
320,192,44380,1,0,0:0:0:0:
448,192,44380,1,0,0:0:0:0:
64,192,44446,1,0,0:0:0:0:
192,192,44512,1,0,0:0:0:0:
448,192,44578,1,0,0:0:0:0:
64,192,44643,1,0,0:0:0:0:
192,192,44709,1,0,0:0:0:0:
320,192,44709,1,0,0:0:0:0:
448,192,44775,1,0,0:0:0:0:
192,192,44841,1,0,0:0:0:0:
320,192,44907,1,0,0:0:0:0:
64,192,44972,1,0,0:0:0:0:
448,192,45038,1,0,0:0:0:0:
320,192,45104,1,0,0:0:0:0:
192,192,45170,1,0,0:0:0:0:
64,192,45236,1,0,0:0:0:0:
448,192,45236,1,0,0:0:0:0:
192,192,45301,1,0,0:0:0:0:
320,192,45367,1,0,0:0:0:0:
64,192,45432,1,0,0:0:0:0:
192,192,45498,1,0,0:0:0:0:
448,192,45564,1,0,0:0:0:0:
64,192,45630,1,0,0:0:0:0:
320,192,45696,1,0,0:0:0:0:
64,192,45762,1,0,0:0:0:0:
192,192,45762,1,0,0:0:0:0:
448,192,45828,1,0,0:0:0:0:
320,192,45893,1,0,0:0:0:0:
64,192,45959,1,0,0:0:0:0:
448,192,46025,1,0,0:0:0:0:
192,192,46091,1,0,0:0:0:0:
448,192,46157,1,0,0:0:0:0:
64,192,46222,1,0,0:0:0:0:
192,192,46288,1,0,0:0:0:0:
320,192,46288,1,0,0:0:0:0:
448,192,46354,1,0,0:0:0:0:
64,192,46420,1,0,0:0:0:0:
192,192,46486,1,0,0:0:0:0:
448,192,46551,1,0,0:0:0:0:
64,192,46617,1,0,0:0:0:0:
320,192,46682,1,0,0:0:0:0:
192,192,46748,1,0,0:0:0:0:
64,192,46814,1,0,0:0:0:0:
448,192,46814,1,0,0:0:0:0:
320,192,46880,1,0,0:0:0:0:
192,192,46946,1,0,0:0:0:0:
320,192,47012,1,0,0:0:0:0:
192,192,47078,1,0,0:0:0:0:
64,192,47143,1,0,0:0:0:0:
448,192,47209,1,0,0:0:0:0:
192,192,47275,1,0,0:0:0:0:
64,192,47341,1,0,0:0:0:0:
448,192,47341,1,0,0:0:0:0:
320,192,47407,1,0,0:0:0:0:
192,192,47472,1,0,0:0:0:0:
448,192,47538,1,0,0:0:0:0:
320,192,47604,1,0,0:0:0:0:
64,192,47670,1,0,0:0:0:0:
192,192,47736,1,0,0:0:0:0:
320,192,47801,1,0,0:0:0:0:
192,192,47867,1,0,0:0:0:0:
64,192,47867,1,0,0:0:0:0:
448,192,47932,1,0,0:0:0:0:
320,192,47998,1,0,0:0:0:0:
64,192,48064,1,0,0:0:0:0:
448,192,48130,1,0,0:0:0:0:
192,192,48196,1,0,0:0:0:0:
320,192,48262,1,0,0:0:0:0:
64,192,48328,1,0,0:0:0:0:
192,192,48393,1,0,0:0:0:0:
448,192,48393,1,0,0:0:0:0:
320,192,48459,1,0,0:0:0:0:
192,192,48525,1,0,0:0:0:0:
320,192,48591,1,0,0:0:0:0:
448,192,48657,1,0,0:0:0:0:
64,192,48722,1,0,0:0:0:0:
320,192,48788,1,0,0:0:0:0:
192,192,48854,1,0,0:0:0:0:
64,192,48920,1,0,0:0:0:0:
448,192,48920,1,0,0:0:0:0:
320,192,48986,1,0,0:0:0:0:
192,192,49051,1,0,0:0:0:0:
448,192,49117,1,0,0:0:0:0:
64,192,49182,1,0,0:0:0:0:
448,192,49248,1,0,0:0:0:0:
320,192,49314,1,0,0:0:0:0:
192,192,49380,1,0,0:0:0:0:
64,192,49446,1,0,0:0:0:0:
448,192,49446,1,0,0:0:0:0:
192,192,49512,1,0,0:0:0:0:
320,192,49578,1,0,0:0:0:0:
64,192,49643,1,0,0:0:0:0:
320,192,49709,1,0,0:0:0:0:
192,192,49775,1,0,0:0:0:0:
448,192,49841,1,0,0:0:0:0:
320,192,49907,1,0,0:0:0:0:
64,192,49972,1,0,0:0:0:0:
192,192,49972,1,0,0:0:0:0:
448,192,50038,1,0,0:0:0:0:
320,192,50104,1,0,0:0:0:0:
64,192,50170,1,0,0:0:0:0:
192,192,50236,1,0,0:0:0:0:
448,192,50301,1,0,0:0:0:0:
64,192,50367,1,0,0:0:0:0:
192,192,50432,1,0,0:0:0:0:
320,192,50498,1,0,0:0:0:0:
448,192,50498,1,0,0:0:0:0:
192,192,50564,1,0,0:0:0:0:
64,192,50564,1,0,0:0:0:0:
448,192,50630,1,0,0:0:0:0:
320,192,50630,1,0,0:0:0:0:
192,192,50696,1,0,0:0:0:0:
64,192,50696,1,0,0:0:0:0:
320,192,50762,1,0,0:0:0:0:
192,192,51025,1,0,0:0:0:0:
448,192,51025,1,0,0:0:0:0:
64,192,51288,1,0,0:0:0:0:
64,192,51420,1,0,0:0:0:0:
192,192,51551,1,0,0:0:0:0:
448,192,51551,1,0,0:0:0:0:
320,192,51682,1,0,0:0:0:0:
192,192,51748,1,0,0:0:0:0:
64,192,51814,1,0,0:0:0:0:
320,192,51946,1,0,0:0:0:0:
448,192,51946,1,0,0:0:0:0:
320,192,52209,1,0,0:0:0:0:
448,192,52209,1,0,0:0:0:0:
320,192,52472,1,0,0:0:0:0:
448,192,52472,1,0,0:0:0:0:
320,192,52736,1,0,0:0:0:0:
448,192,52736,1,0,0:0:0:0:
192,192,52867,1,0,0:0:0:0:
64,192,52867,1,0,0:0:0:0:
448,192,52867,1,0,0:0:0:0:
320,192,52932,1,0,0:0:0:0:
192,192,52998,1,0,0:0:0:0:
448,192,53064,1,0,0:0:0:0:
320,192,53130,1,0,0:0:0:0:
64,192,53130,1,0,0:0:0:0:
192,192,53196,1,0,0:0:0:0:
448,192,53262,1,0,0:0:0:0:
64,192,53328,1,0,0:0:0:0:
320,192,53393,1,0,0:0:0:0:
192,192,53459,1,0,0:0:0:0:
320,192,53525,1,0,0:0:0:0:
64,192,53591,1,0,0:0:0:0:
192,192,53657,1,0,0:0:0:0:
448,192,53657,1,0,0:0:0:0:
320,192,53722,1,0,0:0:0:0:
64,192,53788,1,0,0:0:0:0:
192,192,53854,1,0,0:0:0:0:
448,192,53920,1,0,0:0:0:0:
64,192,53986,1,0,0:0:0:0:
320,192,54051,1,0,0:0:0:0:
192,192,54117,1,0,0:0:0:0:
320,192,54182,1,0,0:0:0:0:
448,192,54182,1,0,0:0:0:0:
64,192,54248,1,0,0:0:0:0:
192,192,54314,1,0,0:0:0:0:
448,192,54380,1,0,0:0:0:0:
64,192,54446,1,0,0:0:0:0:
320,192,54512,1,0,0:0:0:0:
192,192,54578,1,0,0:0:0:0:
448,192,54643,1,0,0:0:0:0:
320,192,54709,1,0,0:0:0:0:
192,192,54709,1,0,0:0:0:0:
64,192,54775,1,0,0:0:0:0:
448,192,54841,1,0,0:0:0:0:
192,192,54907,1,0,0:0:0:0:
320,192,54972,1,0,0:0:0:0:
64,192,55038,1,0,0:0:0:0:
320,192,55104,1,0,0:0:0:0:
64,192,55170,1,0,0:0:0:0:
192,192,55236,1,0,0:0:0:0:
448,192,55236,1,0,0:0:0:0:
320,192,55301,1,0,0:0:0:0:
64,192,55367,1,0,0:0:0:0:
192,192,55432,1,0,0:0:0:0:
448,192,55498,1,0,0:0:0:0:
64,192,55564,1,0,0:0:0:0:
320,192,55630,1,0,0:0:0:0:
192,192,55696,1,0,0:0:0:0:
320,192,55762,1,0,0:0:0:0:
448,192,55762,1,0,0:0:0:0:
64,192,55828,1,0,0:0:0:0:
192,192,55893,1,0,0:0:0:0:
448,192,55959,1,0,0:0:0:0:
64,192,56025,1,0,0:0:0:0:
320,192,56091,1,0,0:0:0:0:
192,192,56157,1,0,0:0:0:0:
448,192,56222,1,0,0:0:0:0:
320,192,56288,1,0,0:0:0:0:
64,192,56288,1,0,0:0:0:0:
192,192,56354,1,0,0:0:0:0:
448,192,56420,1,0,0:0:0:0:
64,192,56486,1,0,0:0:0:0:
192,192,56551,1,0,0:0:0:0:
320,192,56617,1,0,0:0:0:0:
64,192,56682,1,0,0:0:0:0:
448,192,56748,1,0,0:0:0:0:
320,192,56814,1,0,0:0:0:0:
64,192,56814,1,0,0:0:0:0:
192,192,56880,1,0,0:0:0:0:
448,192,56946,1,0,0:0:0:0:
320,192,57012,1,0,0:0:0:0:
192,192,57078,1,0,0:0:0:0:
320,192,57143,1,0,0:0:0:0:
192,192,57209,1,0,0:0:0:0:
448,192,57275,1,0,0:0:0:0:
320,192,57341,1,0,0:0:0:0:
64,192,57341,1,0,0:0:0:0:
192,192,57407,1,0,0:0:0:0:
448,192,57472,1,0,0:0:0:0:
64,192,57538,1,0,0:0:0:0:
448,192,57604,1,0,0:0:0:0:
320,192,57670,1,0,0:0:0:0:
192,192,57736,1,0,0:0:0:0:
320,192,57801,1,0,0:0:0:0:
192,192,57867,1,0,0:0:0:0:
64,192,57867,1,0,0:0:0:0:
448,192,57932,1,0,0:0:0:0:
320,192,57998,1,0,0:0:0:0:
64,192,58064,1,0,0:0:0:0:
192,192,58130,1,0,0:0:0:0:
448,192,58196,1,0,0:0:0:0:
192,192,58262,1,0,0:0:0:0:
320,192,58328,1,0,0:0:0:0:
64,192,58393,1,0,0:0:0:0:
448,192,58393,1,0,0:0:0:0:
192,192,58459,1,0,0:0:0:0:
320,192,58525,1,0,0:0:0:0:
192,192,58591,1,0,0:0:0:0:
448,192,58657,1,0,0:0:0:0:
320,192,58722,1,0,0:0:0:0:
64,192,58788,1,0,0:0:0:0:
448,192,58854,1,0,0:0:0:0:
320,192,58920,1,0,0:0:0:0:
64,192,58920,1,0,0:0:0:0:
192,192,58986,1,0,0:0:0:0:
448,192,59051,1,0,0:0:0:0:
64,192,59117,1,0,0:0:0:0:
192,192,59182,1,0,0:0:0:0:
320,192,59248,1,0,0:0:0:0:
64,192,59314,1,0,0:0:0:0:
192,192,59380,1,0,0:0:0:0:
320,192,59446,1,0,0:0:0:0:
448,192,59446,1,0,0:0:0:0:
192,192,59512,1,0,0:0:0:0:
448,192,59578,1,0,0:0:0:0:
320,192,59643,1,0,0:0:0:0:
64,192,59709,1,0,0:0:0:0:
448,192,59775,1,0,0:0:0:0:
320,192,59841,1,0,0:0:0:0:
192,192,59907,1,0,0:0:0:0:
448,192,59972,1,0,0:0:0:0:
64,192,59972,1,0,0:0:0:0:
192,192,60038,1,0,0:0:0:0:
320,192,60104,1,0,0:0:0:0:
192,192,60170,1,0,0:0:0:0:
448,192,60236,1,0,0:0:0:0:
320,192,60301,1,0,0:0:0:0:
64,192,60367,1,0,0:0:0:0:
448,192,60432,1,0,0:0:0:0:
320,192,60498,1,0,0:0:0:0:
64,192,60498,1,0,0:0:0:0:
192,192,60564,1,0,0:0:0:0:
448,192,60630,1,0,0:0:0:0:
64,192,60696,1,0,0:0:0:0:
320,192,60762,1,0,0:0:0:0:
448,192,60762,1,0,0:0:0:0:
192,192,60828,1,0,0:0:0:0:
64,192,60828,1,0,0:0:0:0:
320,192,60893,1,0,0:0:0:0:
448,192,60893,1,0,0:0:0:0:
192,192,60959,1,0,0:0:0:0:
64,192,60959,1,0,0:0:0:0:
320,192,61025,1,0,0:0:0:0:
64,192,61091,1,0,0:0:0:0:
320,192,61157,1,0,0:0:0:0:
64,192,61222,1,0,0:0:0:0:
192,192,61288,1,0,0:0:0:0:
320,192,61288,1,0,0:0:0:0:
448,192,61288,1,0,0:0:0:0:
64,192,61420,1,0,0:0:0:0:
448,192,61420,1,0,0:0:0:0:
64,192,61551,1,0,0:0:0:0:
192,192,61551,1,0,0:0:0:0:
448,192,61682,1,0,0:0:0:0:
320,192,61682,1,0,0:0:0:0:
448,192,61814,1,0,0:0:0:0:
64,192,61946,1,0,0:0:0:0:
64,192,62078,1,0,0:0:0:0:
448,192,62078,1,0,0:0:0:0:
192,192,62209,1,0,0:0:0:0:
320,192,62209,1,0,0:0:0:0:
192,192,62341,1,0,0:0:0:0:
448,192,62472,1,0,0:0:0:0:
320,192,62472,1,0,0:0:0:0:
192,192,62604,1,0,0:0:0:0:
448,192,62604,1,0,0:0:0:0:
64,192,62736,1,0,0:0:0:0:
192,192,62801,1,0,0:0:0:0:
320,192,62867,1,0,0:0:0:0:
448,192,62867,1,0,0:0:0:0:
64,192,62998,1,0,0:0:0:0:
320,192,63130,1,0,0:0:0:0:
448,192,63130,1,0,0:0:0:0:
192,192,63262,1,0,0:0:0:0:
64,192,63393,1,0,0:0:0:0:
448,192,63393,1,0,0:0:0:0:
448,192,63525,1,0,0:0:0:0:
320,192,63657,1,0,0:0:0:0:
192,192,63657,1,0,0:0:0:0:
448,192,63788,1,0,0:0:0:0:
64,192,63788,1,0,0:0:0:0:
448,192,63920,1,0,0:0:0:0:
320,192,63920,1,0,0:0:0:0:
192,192,64051,1,0,0:0:0:0:
448,192,64182,1,0,0:0:0:0:
64,192,64182,1,0,0:0:0:0:
64,192,64314,1,0,0:0:0:0:
320,192,64446,1,0,0:0:0:0:
192,192,64578,1,0,0:0:0:0:
320,192,64578,1,0,0:0:0:0:
192,192,64709,1,0,0:0:0:0:
448,192,64709,1,0,0:0:0:0:
64,192,64841,1,0,0:0:0:0:
192,192,64907,1,0,0:0:0:0:
320,192,64972,1,0,0:0:0:0:
448,192,64972,1,0,0:0:0:0:
64,192,65104,1,0,0:0:0:0:
320,192,65236,1,0,0:0:0:0:
448,192,65236,1,0,0:0:0:0:
192,192,65367,1,0,0:0:0:0:
64,192,65498,1,0,0:0:0:0:
448,192,65498,1,0,0:0:0:0:
64,192,65630,1,0,0:0:0:0:
192,192,65762,1,0,0:0:0:0:
448,192,65762,1,0,0:0:0:0:
192,192,65893,1,0,0:0:0:0:
320,192,66025,1,0,0:0:0:0:
448,192,66025,1,0,0:0:0:0:
320,192,66157,1,0,0:0:0:0:
64,192,66288,1,0,0:0:0:0:
448,192,66288,1,0,0:0:0:0:
448,192,66420,1,0,0:0:0:0:
64,192,66551,1,0,0:0:0:0:
192,192,66551,1,0,0:0:0:0:
192,192,66682,1,0,0:0:0:0:
448,192,66814,1,0,0:0:0:0:
320,192,66814,1,0,0:0:0:0:
64,192,66946,1,0,0:0:0:0:
192,192,67012,1,0,0:0:0:0:
320,192,67078,1,0,0:0:0:0:
448,192,67078,1,0,0:0:0:0:
64,192,67209,1,0,0:0:0:0:
320,192,67341,1,0,0:0:0:0:
448,192,67341,1,0,0:0:0:0:
192,192,67472,1,0,0:0:0:0:
64,192,67604,1,0,0:0:0:0:
448,192,67604,1,0,0:0:0:0:
448,192,67736,1,0,0:0:0:0:
64,192,67867,1,0,0:0:0:0:
320,192,67867,1,0,0:0:0:0:
320,192,67998,1,0,0:0:0:0:
192,192,68130,1,0,0:0:0:0:
64,192,68262,1,0,0:0:0:0:
448,192,68262,1,0,0:0:0:0:
64,192,68393,1,0,0:0:0:0:
448,192,68393,1,0,0:0:0:0:
320,192,68492,1,0,0:0:0:0:
192,192,68558,1,0,0:0:0:0:
320,192,68623,1,0,0:0:0:0:
448,192,68657,1,0,0:0:0:0:
64,192,68657,1,0,0:0:0:0:
192,192,68788,1,0,0:0:0:0:
448,192,68920,1,0,0:0:0:0:
64,192,69051,1,0,0:0:0:0:
192,192,69117,1,0,0:0:0:0:
448,192,69182,1,0,0:0:0:0:
320,192,69182,1,0,0:0:0:0:
64,192,69248,1,0,0:0:0:0:
320,192,69314,1,0,0:0:0:0:
192,192,69380,1,0,0:0:0:0:
64,192,69446,1,0,0:0:0:0:
448,192,69578,1,0,0:0:0:0:
320,192,69643,1,0,0:0:0:0:
192,192,69709,1,0,0:0:0:0:
64,192,69709,1,0,0:0:0:0:
448,192,69709,1,0,0:0:0:0:
320,192,69775,1,0,0:0:0:0:
64,192,69841,1,0,0:0:0:0:
192,192,69907,1,0,0:0:0:0:
320,192,69972,1,0,0:0:0:0:
448,192,69972,1,0,0:0:0:0:
192,192,70038,1,0,0:0:0:0:
448,192,70104,1,0,0:0:0:0:
64,192,70170,1,0,0:0:0:0:
320,192,70236,1,0,0:0:0:0:
192,192,70301,1,0,0:0:0:0:
320,192,70367,1,0,0:0:0:0:
192,192,70432,1,0,0:0:0:0:
64,192,70498,1,0,0:0:0:0:
448,192,70498,1,0,0:0:0:0:
320,192,70564,1,0,0:0:0:0:
192,192,70630,1,0,0:0:0:0:
448,192,70696,1,0,0:0:0:0:
64,192,70762,1,0,0:0:0:0:
448,192,70828,1,0,0:0:0:0:
64,192,70893,1,0,0:0:0:0:
192,192,70959,1,0,0:0:0:0:
320,192,71025,1,0,0:0:0:0:
448,192,71025,1,0,0:0:0:0:
192,192,71091,1,0,0:0:0:0:
320,192,71157,1,0,0:0:0:0:
64,192,71222,1,0,0:0:0:0:
448,192,71288,1,0,0:0:0:0:
320,192,71354,1,0,0:0:0:0:
192,192,71420,1,0,0:0:0:0:
448,192,71486,1,0,0:0:0:0:
320,192,71551,1,0,0:0:0:0:
64,192,71551,1,0,0:0:0:0:
192,192,71617,1,0,0:0:0:0:
448,192,71682,1,0,0:0:0:0:
320,192,71748,1,0,0:0:0:0:
192,192,71814,1,0,0:0:0:0:
64,192,71814,1,0,0:0:0:0:
320,192,71880,1,0,0:0:0:0:
64,192,71946,1,0,0:0:0:0:
192,192,72012,1,0,0:0:0:0:
320,192,72078,1,0,0:0:0:0:
448,192,72078,1,0,0:0:0:0:
192,192,72143,1,0,0:0:0:0:
448,192,72209,1,0,0:0:0:0:
64,192,72275,1,0,0:0:0:0:
320,192,72341,1,0,0:0:0:0:
192,192,72407,1,0,0:0:0:0:
448,192,72472,1,0,0:0:0:0:
320,192,72538,1,0,0:0:0:0:
192,192,72604,1,0,0:0:0:0:
64,192,72604,1,0,0:0:0:0:
448,192,72670,1,0,0:0:0:0:
64,192,72736,1,0,0:0:0:0:
192,192,72801,1,0,0:0:0:0:
320,192,72867,1,0,0:0:0:0:
192,192,72932,1,0,0:0:0:0:
320,192,72998,1,0,0:0:0:0:
64,192,73064,1,0,0:0:0:0:
192,192,73130,1,0,0:0:0:0:
448,192,73130,1,0,0:0:0:0:
320,192,73196,1,0,0:0:0:0:
64,192,73262,1,0,0:0:0:0:
448,192,73328,1,0,0:0:0:0:
320,192,73393,1,0,0:0:0:0:
192,192,73459,1,0,0:0:0:0:
448,192,73525,1,0,0:0:0:0:
320,192,73591,1,0,0:0:0:0:
192,192,73657,1,0,0:0:0:0:
64,192,73657,1,0,0:0:0:0:
320,192,73722,1,0,0:0:0:0:
64,192,73788,1,0,0:0:0:0:
448,192,73854,1,0,0:0:0:0:
192,192,73920,1,0,0:0:0:0:
320,192,73920,1,0,0:0:0:0:
64,192,73986,1,0,0:0:0:0:
448,192,74051,1,0,0:0:0:0:
192,192,74117,1,0,0:0:0:0:
320,192,74182,1,0,0:0:0:0:
448,192,74182,1,0,0:0:0:0:
64,192,74248,1,0,0:0:0:0:
320,192,74314,1,0,0:0:0:0:
64,192,74380,1,0,0:0:0:0:
192,192,74446,1,0,0:0:0:0:
448,192,74512,1,0,0:0:0:0:
64,192,74578,1,0,0:0:0:0:
320,192,74643,1,0,0:0:0:0:
192,192,74709,1,0,0:0:0:0:
64,192,74709,1,0,0:0:0:0:
448,192,74775,1,0,0:0:0:0:
320,192,74841,1,0,0:0:0:0:
64,192,74907,1,0,0:0:0:0:
192,192,74972,1,0,0:0:0:0:
320,192,75038,1,0,0:0:0:0:
192,192,75104,1,0,0:0:0:0:
448,192,75170,1,0,0:0:0:0:
320,192,75236,1,0,0:0:0:0:
64,192,75236,1,0,0:0:0:0:
192,192,75301,1,0,0:0:0:0:
448,192,75367,1,0,0:0:0:0:
320,192,75432,1,0,0:0:0:0:
192,192,75498,1,0,0:0:0:0:
448,192,75564,1,0,0:0:0:0:
64,192,75630,1,0,0:0:0:0:
192,192,75696,1,0,0:0:0:0:
320,192,75762,1,0,0:0:0:0:
448,192,75762,1,0,0:0:0:0:
192,192,75828,1,0,0:0:0:0:
448,192,75893,1,0,0:0:0:0:
320,192,75959,1,0,0:0:0:0:
192,192,76025,1,0,0:0:0:0:
64,192,76025,1,0,0:0:0:0:
448,192,76091,1,0,0:0:0:0:
64,192,76157,1,0,0:0:0:0:
192,192,76222,1,0,0:0:0:0:
320,192,76288,1,0,0:0:0:0:
448,192,76288,1,0,0:0:0:0:
64,192,76354,1,0,0:0:0:0:
448,192,76420,1,0,0:0:0:0:
320,192,76486,1,0,0:0:0:0:
192,192,76551,1,0,0:0:0:0:
320,192,76617,1,0,0:0:0:0:
64,192,76682,1,0,0:0:0:0:
192,192,76748,1,0,0:0:0:0:
320,192,76814,1,0,0:0:0:0:
448,192,76814,1,0,0:0:0:0:
192,192,76880,1,0,0:0:0:0:
448,192,76946,1,0,0:0:0:0:
320,192,77012,1,0,0:0:0:0:
64,192,77078,1,0,0:0:0:0:
448,192,77143,1,0,0:0:0:0:
64,192,77209,1,0,0:0:0:0:
320,192,77275,1,0,0:0:0:0:
192,192,77341,1,0,0:0:0:0:
64,192,77341,1,0,0:0:0:0:
448,192,77407,1,0,0:0:0:0:
320,192,77472,1,0,0:0:0:0:
64,192,77538,1,0,0:0:0:0:
448,192,77604,1,0,0:0:0:0:
320,192,77604,1,0,0:0:0:0:
192,192,77670,1,0,0:0:0:0:
320,192,77736,1,0,0:0:0:0:
448,192,77736,1,0,0:0:0:0:
192,192,77801,1,0,0:0:0:0:
64,192,77867,1,0,0:0:0:0:
448,192,77932,1,0,0:0:0:0:
320,192,77998,1,0,0:0:0:0:
192,192,78032,1,0,0:0:0:0:
64,192,78064,1,0,0:0:0:0:
320,192,78130,1,0,0:0:0:0:
448,192,78130,1,0,0:0:0:0:
64,192,78196,1,0,0:0:0:0:
448,192,78262,1,0,0:0:0:0:
192,192,78328,1,0,0:0:0:0:
320,192,78393,1,0,0:0:0:0:
64,192,78393,1,0,0:0:0:0:
448,192,78459,1,0,0:0:0:0:
192,192,78525,1,0,0:0:0:0:
320,192,78591,1,0,0:0:0:0:
64,192,78657,1,0,0:0:0:0:
448,192,78722,1,0,0:0:0:0:
320,192,78788,1,0,0:0:0:0:
192,192,78854,1,0,0:0:0:0:
64,192,78920,1,0,0:0:0:0:
448,192,78920,1,0,0:0:0:0:
192,192,78986,1,0,0:0:0:0:
320,192,79051,1,0,0:0:0:0:
64,192,79117,1,0,0:0:0:0:
448,192,79182,1,0,0:0:0:0:
64,192,79248,1,0,0:0:0:0:
320,192,79314,1,0,0:0:0:0:
192,192,79380,1,0,0:0:0:0:
64,192,79446,1,0,0:0:0:0:
448,192,79446,1,0,0:0:0:0:
192,192,79512,1,0,0:0:0:0:
448,192,79578,1,0,0:0:0:0:
320,192,79643,1,0,0:0:0:0:
64,192,79709,1,0,0:0:0:0:
448,192,79775,1,0,0:0:0:0:
192,192,79841,1,0,0:0:0:0:
320,192,79907,1,0,0:0:0:0:
192,192,79972,1,0,0:0:0:0:
64,192,79972,1,0,0:0:0:0:
448,192,80038,1,0,0:0:0:0:
64,192,80104,1,0,0:0:0:0:
192,192,80170,1,0,0:0:0:0:
448,192,80236,1,0,0:0:0:0:
320,192,80236,1,0,0:0:0:0:
64,192,80301,1,0,0:0:0:0:
320,192,80367,1,0,0:0:0:0:
192,192,80432,1,0,0:0:0:0:
448,192,80498,1,0,0:0:0:0:
64,192,80498,1,0,0:0:0:0:
192,192,80564,1,0,0:0:0:0:
320,192,80630,1,0,0:0:0:0:
64,192,80696,1,0,0:0:0:0:
192,192,80762,1,0,0:0:0:0:
448,192,80828,1,0,0:0:0:0:
64,192,80893,1,0,0:0:0:0:
448,192,80959,1,0,0:0:0:0:
320,192,81025,1,0,0:0:0:0:
64,192,81025,1,0,0:0:0:0:
192,192,81091,1,0,0:0:0:0:
448,192,81157,1,0,0:0:0:0:
320,192,81222,1,0,0:0:0:0:
64,192,81288,1,0,0:0:0:0:
448,192,81354,1,0,0:0:0:0:
192,192,81420,1,0,0:0:0:0:
320,192,81486,1,0,0:0:0:0:
64,192,81551,1,0,0:0:0:0:
448,192,81551,1,0,0:0:0:0:
320,192,81617,1,0,0:0:0:0:
192,192,81682,1,0,0:0:0:0:
320,192,81748,1,0,0:0:0:0:
64,192,81814,1,0,0:0:0:0:
192,192,81880,1,0,0:0:0:0:
448,192,81946,1,0,0:0:0:0:
64,192,82012,1,0,0:0:0:0:
192,192,82078,1,0,0:0:0:0:
448,192,82078,1,0,0:0:0:0:
320,192,82143,1,0,0:0:0:0:
64,192,82209,1,0,0:0:0:0:
192,192,82275,1,0,0:0:0:0:
320,192,82341,1,0,0:0:0:0:
448,192,82341,1,0,0:0:0:0:
192,192,82407,1,0,0:0:0:0:
448,192,82472,1,0,0:0:0:0:
320,192,82538,1,0,0:0:0:0:
192,192,82604,1,0,0:0:0:0:
64,192,82604,1,0,0:0:0:0:
320,192,82670,1,0,0:0:0:0:
64,192,82736,1,0,0:0:0:0:
448,192,82801,1,0,0:0:0:0:
192,192,82867,1,0,0:0:0:0:
320,192,82932,1,0,0:0:0:0:
192,192,82998,1,0,0:0:0:0:
448,192,83064,1,0,0:0:0:0:
320,192,83130,1,0,0:0:0:0:
64,192,83130,1,0,0:0:0:0:
192,192,83196,1,0,0:0:0:0:
448,192,83262,1,0,0:0:0:0:
64,192,83328,1,0,0:0:0:0:
192,192,83393,1,0,0:0:0:0:
320,192,83459,1,0,0:0:0:0:
64,192,83525,1,0,0:0:0:0:
448,192,83591,1,0,0:0:0:0:
320,192,83657,1,0,0:0:0:0:
64,192,83657,1,0,0:0:0:0:
192,192,83722,1,0,0:0:0:0:
448,192,83788,1,0,0:0:0:0:
192,192,83854,1,0,0:0:0:0:
320,192,83920,1,0,0:0:0:0:
64,192,83986,1,0,0:0:0:0:
192,192,84051,1,0,0:0:0:0:
448,192,84117,1,0,0:0:0:0:
320,192,84182,1,0,0:0:0:0:
192,192,84182,1,0,0:0:0:0:
64,192,84248,1,0,0:0:0:0:
448,192,84314,1,0,0:0:0:0:
320,192,84380,1,0,0:0:0:0:
192,192,84446,1,0,0:0:0:0:
64,192,84446,1,0,0:0:0:0:
448,192,84512,1,0,0:0:0:0:
192,192,84578,1,0,0:0:0:0:
320,192,84643,1,0,0:0:0:0:
64,192,84709,1,0,0:0:0:0:
448,192,84709,1,0,0:0:0:0:
192,192,84775,1,0,0:0:0:0:
320,192,84841,1,0,0:0:0:0:
192,192,84907,1,0,0:0:0:0:
448,192,84972,1,0,0:0:0:0:
64,192,85038,1,0,0:0:0:0:
320,192,85104,1,0,0:0:0:0:
192,192,85170,1,0,0:0:0:0:
320,192,85236,1,0,0:0:0:0:
448,192,85236,1,0,0:0:0:0:
64,192,85301,1,0,0:0:0:0:
192,192,85367,1,0,0:0:0:0:
448,192,85432,1,0,0:0:0:0:
64,192,85498,1,0,0:0:0:0:
320,192,85564,1,0,0:0:0:0:
64,192,85630,1,0,0:0:0:0:
192,192,85696,1,0,0:0:0:0:
320,192,85762,1,0,0:0:0:0:
448,192,85762,1,0,0:0:0:0:
64,192,85828,1,0,0:0:0:0:
448,192,85893,1,0,0:0:0:0:
320,192,85959,1,0,0:0:0:0:
192,192,86025,1,0,0:0:0:0:
64,192,86025,1,0,0:0:0:0:
320,192,86091,1,0,0:0:0:0:
448,192,86091,1,0,0:0:0:0:
192,192,86157,1,0,0:0:0:0:
64,192,86157,1,0,0:0:0:0:
320,192,86222,1,0,0:0:0:0:
448,192,86222,1,0,0:0:0:0:
64,192,86288,1,0,0:0:0:0:
192,192,86354,1,0,0:0:0:0:
448,192,86420,1,0,0:0:0:0:
192,192,86486,1,0,0:0:0:0:
448,192,86551,128,0,86682:0:0:0:0:
64,192,86551,128,0,87604:0:0:0:0:
320,192,86551,128,0,86682:0:0:0:0:
192,192,87604,128,0,87736:0:0:0:0:
448,192,87604,128,0,87736:0:0:0:0:
320,192,87604,128,0,88130:0:0:0:0:
192,192,88130,128,0,88657:0:0:0:0:
448,192,88657,128,0,88788:0:0:0:0:
320,192,88657,128,0,88788:0:0:0:0:
64,192,88657,128,0,89182:0:0:0:0:
448,192,89182,128,0,89709:0:0:0:0:
64,192,89709,128,0,89841:0:0:0:0:
320,192,89709,128,0,89841:0:0:0:0:
192,192,89709,128,0,90236:0:0:0:0:
320,192,90236,128,0,90762:0:0:0:0:
64,192,90762,128,0,90893:0:0:0:0:
192,192,90762,128,0,90893:0:0:0:0:
448,192,90762,128,0,91288:0:0:0:0:
192,192,91814,128,0,92275:0:0:0:0:
320,192,91814,128,0,92341:0:0:0:0:
448,192,91814,128,0,92275:0:0:0:0:
64,192,92341,128,0,92801:0:0:0:0:
192,192,92341,128,0,92801:0:0:0:0:
448,192,92341,128,0,92867:0:0:0:0:
64,192,92867,128,0,92998:0:0:0:0:
192,192,92867,128,0,92998:0:0:0:0:
320,192,92867,128,0,93393:0:0:0:0:
64,192,93920,128,0,94446:0:0:0:0:
320,192,93920,128,0,94380:0:0:0:0:
448,192,93920,128,0,94380:0:0:0:0:
192,192,94446,1,0,0:0:0:0:
448,192,94446,1,0,0:0:0:0:
320,192,94446,1,0,0:0:0:0:
64,192,94578,1,0,0:0:0:0:
320,192,94578,1,0,0:0:0:0:
192,192,94709,1,0,0:0:0:0:
64,192,94709,1,0,0:0:0:0:
320,192,94775,1,0,0:0:0:0:
448,192,94775,1,0,0:0:0:0:
192,192,94841,1,0,0:0:0:0:
64,192,94841,1,0,0:0:0:0:
320,192,94907,1,0,0:0:0:0:
448,192,94907,1,0,0:0:0:0:
192,192,94972,1,0,0:0:0:0:
320,192,95038,1,0,0:0:0:0:
64,192,95104,1,0,0:0:0:0:
192,192,95170,1,0,0:0:0:0:
448,192,95236,1,0,0:0:0:0:
320,192,95236,1,0,0:0:0:0:
192,192,95301,1,0,0:0:0:0:
448,192,95367,1,0,0:0:0:0:
64,192,95432,1,0,0:0:0:0:
320,192,95498,1,0,0:0:0:0:
192,192,95564,1,0,0:0:0:0:
448,192,95630,1,0,0:0:0:0:
64,192,95696,1,0,0:0:0:0:
192,192,95762,1,0,0:0:0:0:
448,192,95762,1,0,0:0:0:0:
320,192,95828,1,0,0:0:0:0:
64,192,95893,1,0,0:0:0:0:
192,192,95959,1,0,0:0:0:0:
320,192,96025,1,0,0:0:0:0:
192,192,96091,1,0,0:0:0:0:
448,192,96157,1,0,0:0:0:0:
64,192,96222,1,0,0:0:0:0:
192,192,96288,1,0,0:0:0:0:
448,192,96288,1,0,0:0:0:0:
320,192,96354,1,0,0:0:0:0:
64,192,96420,1,0,0:0:0:0:
192,192,96486,1,0,0:0:0:0:
448,192,96551,1,0,0:0:0:0:
320,192,96617,1,0,0:0:0:0:
192,192,96682,1,0,0:0:0:0:
64,192,96748,1,0,0:0:0:0:
192,192,96814,1,0,0:0:0:0:
448,192,96814,1,0,0:0:0:0:
320,192,96880,1,0,0:0:0:0:
192,192,96946,1,0,0:0:0:0:
64,192,97012,1,0,0:0:0:0:
320,192,97078,1,0,0:0:0:0:
448,192,97078,1,0,0:0:0:0:
192,192,97143,1,0,0:0:0:0:
448,192,97209,1,0,0:0:0:0:
64,192,97275,1,0,0:0:0:0:
192,192,97341,1,0,0:0:0:0:
320,192,97341,1,0,0:0:0:0:
64,192,97407,1,0,0:0:0:0:
448,192,97472,1,0,0:0:0:0:
192,192,97538,1,0,0:0:0:0:
320,192,97604,1,0,0:0:0:0:
64,192,97670,1,0,0:0:0:0:
320,192,97736,1,0,0:0:0:0:
192,192,97801,1,0,0:0:0:0:
64,192,97867,1,0,0:0:0:0:
448,192,97867,1,0,0:0:0:0:
320,192,97932,1,0,0:0:0:0:
192,192,97998,1,0,0:0:0:0:
320,192,98064,1,0,0:0:0:0:
64,192,98130,1,0,0:0:0:0:
192,192,98196,1,0,0:0:0:0:
448,192,98262,1,0,0:0:0:0:
64,192,98328,1,0,0:0:0:0:
192,192,98393,1,0,0:0:0:0:
448,192,98393,1,0,0:0:0:0:
320,192,98459,1,0,0:0:0:0:
64,192,98525,1,0,0:0:0:0:
448,192,98591,1,0,0:0:0:0:
64,192,98657,128,0,98920:0:0:0:0:
192,192,98657,128,0,98854:0:0:0:0:
320,192,98657,128,0,98854:0:0:0:0:
448,192,98920,128,0,99117:0:0:0:0:
320,192,98920,128,0,99117:0:0:0:0:
192,192,98920,128,0,99182:0:0:0:0:
448,192,99182,1,0,0:0:0:0:
320,192,99182,1,0,0:0:0:0:
64,192,99182,1,0,0:0:0:0:
192,192,99248,1,0,0:0:0:0:
320,192,99314,1,0,0:0:0:0:
64,192,99380,1,0,0:0:0:0:
192,192,99446,1,0,0:0:0:0:
448,192,99446,1,0,0:0:0:0:
320,192,99512,1,0,0:0:0:0:
64,192,99578,1,0,0:0:0:0:
448,192,99643,1,0,0:0:0:0:
320,192,99709,1,0,0:0:0:0:
192,192,99775,1,0,0:0:0:0:
320,192,99841,1,0,0:0:0:0:
64,192,99907,1,0,0:0:0:0:
192,192,99972,1,0,0:0:0:0:
448,192,99972,1,0,0:0:0:0:
320,192,100038,1,0,0:0:0:0:
64,192,100104,1,0,0:0:0:0:
448,192,100170,1,0,0:0:0:0:
192,192,100236,1,0,0:0:0:0:
320,192,100301,1,0,0:0:0:0:
192,192,100367,1,0,0:0:0:0:
448,192,100432,1,0,0:0:0:0:
320,192,100498,1,0,0:0:0:0:
64,192,100498,1,0,0:0:0:0:
192,192,100564,1,0,0:0:0:0:
448,192,100630,1,0,0:0:0:0:
64,192,100696,1,0,0:0:0:0:
320,192,100762,1,0,0:0:0:0:
192,192,100762,1,0,0:0:0:0:
64,192,100828,1,0,0:0:0:0:
448,192,100828,1,0,0:0:0:0:
320,192,100893,1,0,0:0:0:0:
192,192,100893,1,0,0:0:0:0:
64,192,100959,1,0,0:0:0:0:
448,192,100959,1,0,0:0:0:0:
320,192,101025,1,0,0:0:0:0:
192,192,101091,1,0,0:0:0:0:
64,192,101157,1,0,0:0:0:0:
192,192,101222,1,0,0:0:0:0:
64,192,101288,1,0,0:0:0:0:
320,192,101288,1,0,0:0:0:0:
448,192,101288,1,0,0:0:0:0:
192,192,101420,1,0,0:0:0:0:
192,192,101551,1,0,0:0:0:0:
320,192,101551,1,0,0:0:0:0:
64,192,101682,1,0,0:0:0:0:
448,192,101682,1,0,0:0:0:0:
320,192,101814,1,0,0:0:0:0:
192,192,101814,1,0,0:0:0:0:
320,192,101946,1,0,0:0:0:0:
64,192,102078,1,0,0:0:0:0:
192,192,102078,1,0,0:0:0:0:
64,192,102209,1,0,0:0:0:0:
448,192,102209,1,0,0:0:0:0:
192,192,102341,1,0,0:0:0:0:
320,192,102341,1,0,0:0:0:0:
64,192,102472,1,0,0:0:0:0:
64,192,102604,1,0,0:0:0:0:
448,192,102604,1,0,0:0:0:0:
448,192,102736,1,0,0:0:0:0:
192,192,102736,1,0,0:0:0:0:
320,192,102867,1,0,0:0:0:0:
64,192,102867,1,0,0:0:0:0:
320,192,102998,1,0,0:0:0:0:
192,192,103130,1,0,0:0:0:0:
64,192,103130,1,0,0:0:0:0:
64,192,103262,1,0,0:0:0:0:
448,192,103262,1,0,0:0:0:0:
448,192,103393,1,0,0:0:0:0:
192,192,103393,128,0,103920:0:0:0:0:
448,192,103920,128,0,104446:0:0:0:0:
320,192,104446,1,0,0:0:0:0:
192,192,104446,1,0,0:0:0:0:
64,192,104446,128,0,104972:0:0:0:0:
192,192,104972,1,0,0:0:0:0:
448,192,104972,1,0,0:0:0:0:
320,192,105104,1,0,0:0:0:0:
192,192,105104,1,0,0:0:0:0:
64,192,105236,1,0,0:0:0:0:
192,192,105301,1,0,0:0:0:0:
320,192,105367,1,0,0:0:0:0:
448,192,105367,1,0,0:0:0:0:
192,192,105432,1,0,0:0:0:0:
64,192,105432,1,0,0:0:0:0:
320,192,105498,1,0,0:0:0:0:
64,192,105564,1,0,0:0:0:0:
448,192,105630,1,0,0:0:0:0:
192,192,105696,1,0,0:0:0:0:
320,192,105762,1,0,0:0:0:0:
448,192,105762,1,0,0:0:0:0:
64,192,105828,1,0,0:0:0:0:
320,192,105893,1,0,0:0:0:0:
192,192,105959,1,0,0:0:0:0:
448,192,106025,1,0,0:0:0:0:
64,192,106091,1,0,0:0:0:0:
448,192,106157,1,0,0:0:0:0:
320,192,106222,1,0,0:0:0:0:
192,192,106288,1,0,0:0:0:0:
64,192,106288,1,0,0:0:0:0:
320,192,106354,1,0,0:0:0:0:
192,192,106420,1,0,0:0:0:0:
448,192,106486,1,0,0:0:0:0:
64,192,106551,1,0,0:0:0:0:
192,192,106617,1,0,0:0:0:0:
320,192,106682,1,0,0:0:0:0:
64,192,106748,1,0,0:0:0:0:
192,192,106814,1,0,0:0:0:0:
448,192,106814,1,0,0:0:0:0:
320,192,106880,1,0,0:0:0:0:
64,192,106946,1,0,0:0:0:0:
320,192,107012,1,0,0:0:0:0:
192,192,107078,1,0,0:0:0:0:
448,192,107143,1,0,0:0:0:0:
320,192,107209,1,0,0:0:0:0:
64,192,107275,1,0,0:0:0:0:
192,192,107341,1,0,0:0:0:0:
448,192,107341,1,0,0:0:0:0:
320,192,107407,1,0,0:0:0:0:
64,192,107472,1,0,0:0:0:0:
192,192,107538,1,0,0:0:0:0:
320,192,107604,1,0,0:0:0:0:
64,192,107670,1,0,0:0:0:0:
448,192,107736,1,0,0:0:0:0:
192,192,107801,1,0,0:0:0:0:
320,192,107867,1,0,0:0:0:0:
448,192,107867,1,0,0:0:0:0:
64,192,107932,1,0,0:0:0:0:
192,192,107998,1,0,0:0:0:0:
320,192,108064,1,0,0:0:0:0:
64,192,108130,1,0,0:0:0:0:
320,192,108196,1,0,0:0:0:0:
192,192,108262,1,0,0:0:0:0:
448,192,108328,1,0,0:0:0:0:
64,192,108393,1,0,0:0:0:0:
192,192,108393,1,0,0:0:0:0:
320,192,108459,1,0,0:0:0:0:
64,192,108525,1,0,0:0:0:0:
192,192,108591,1,0,0:0:0:0:
448,192,108657,1,0,0:0:0:0:
64,192,108722,1,0,0:0:0:0:
320,192,108788,1,0,0:0:0:0:
192,192,108854,1,0,0:0:0:0:
320,192,108920,1,0,0:0:0:0:
448,192,108920,1,0,0:0:0:0:
64,192,108986,1,0,0:0:0:0:
192,192,109051,1,0,0:0:0:0:
448,192,109117,1,0,0:0:0:0:
64,192,109182,1,0,0:0:0:0:
320,192,109248,1,0,0:0:0:0:
64,192,109314,1,0,0:0:0:0:
448,192,109380,1,0,0:0:0:0:
320,192,109446,1,0,0:0:0:0:
192,192,109446,1,0,0:0:0:0:
64,192,109512,1,0,0:0:0:0:
448,192,109578,1,0,0:0:0:0:
320,192,109643,1,0,0:0:0:0:
192,192,109709,1,0,0:0:0:0:
448,192,109775,1,0,0:0:0:0:
64,192,109841,1,0,0:0:0:0:
192,192,109907,1,0,0:0:0:0:
320,192,109972,1,0,0:0:0:0:
448,192,109972,1,0,0:0:0:0:
192,192,110038,1,0,0:0:0:0:
320,192,110104,1,0,0:0:0:0:
64,192,110170,1,0,0:0:0:0:
448,192,110236,1,0,0:0:0:0:
192,192,110301,1,0,0:0:0:0:
320,192,110367,1,0,0:0:0:0:
64,192,110432,1,0,0:0:0:0:
192,192,110498,1,0,0:0:0:0:
320,192,110498,1,0,0:0:0:0:
448,192,110564,1,0,0:0:0:0:
64,192,110630,1,0,0:0:0:0:
320,192,110696,1,0,0:0:0:0:
192,192,110762,1,0,0:0:0:0:
448,192,110828,1,0,0:0:0:0:
192,192,110893,1,0,0:0:0:0:
320,192,110959,1,0,0:0:0:0:
64,192,111025,1,0,0:0:0:0:
448,192,111025,1,0,0:0:0:0:
192,192,111091,1,0,0:0:0:0:
320,192,111157,1,0,0:0:0:0:
192,192,111222,1,0,0:0:0:0:
448,192,111288,1,0,0:0:0:0:
64,192,111354,1,0,0:0:0:0:
448,192,111420,1,0,0:0:0:0:
320,192,111486,1,0,0:0:0:0:
192,192,111551,1,0,0:0:0:0:
64,192,111551,1,0,0:0:0:0:
448,192,111617,1,0,0:0:0:0:
64,192,111682,1,0,0:0:0:0:
192,192,111748,1,0,0:0:0:0:
320,192,111814,1,0,0:0:0:0:
320,192,111946,1,0,0:0:0:0:
192,192,112078,1,0,0:0:0:0:
64,192,112078,1,0,0:0:0:0:
448,192,112209,1,0,0:0:0:0:
448,192,112341,1,0,0:0:0:0:
64,192,112472,1,0,0:0:0:0:
192,192,112604,1,0,0:0:0:0:
448,192,112604,1,0,0:0:0:0:
320,192,112736,1,0,0:0:0:0:
192,192,112801,1,0,0:0:0:0:
64,192,112867,1,0,0:0:0:0:
320,192,112998,1,0,0:0:0:0:
448,192,112998,1,0,0:0:0:0:
320,192,113262,1,0,0:0:0:0:
448,192,113262,1,0,0:0:0:0:
320,192,113525,1,0,0:0:0:0:
448,192,113525,1,0,0:0:0:0:
320,192,113788,1,0,0:0:0:0:
448,192,113788,1,0,0:0:0:0:
64,192,113920,1,0,0:0:0:0:
448,192,113920,1,0,0:0:0:0:
192,192,113986,1,0,0:0:0:0:
320,192,114051,1,0,0:0:0:0:
64,192,114117,1,0,0:0:0:0:
192,192,114182,1,0,0:0:0:0:
320,192,114182,1,0,0:0:0:0:
448,192,114248,1,0,0:0:0:0:
64,192,114314,1,0,0:0:0:0:
320,192,114380,1,0,0:0:0:0:
192,192,114446,1,0,0:0:0:0:
448,192,114512,1,0,0:0:0:0:
64,192,114578,1,0,0:0:0:0:
192,192,114643,1,0,0:0:0:0:
320,192,114709,1,0,0:0:0:0:
448,192,114709,1,0,0:0:0:0:
192,192,114775,1,0,0:0:0:0:
320,192,114841,1,0,0:0:0:0:
64,192,114907,1,0,0:0:0:0:
448,192,114972,1,0,0:0:0:0:
64,192,115038,1,0,0:0:0:0:
320,192,115104,1,0,0:0:0:0:
192,192,115170,1,0,0:0:0:0:
64,192,115236,1,0,0:0:0:0:
448,192,115236,1,0,0:0:0:0:
320,192,115301,1,0,0:0:0:0:
192,192,115367,1,0,0:0:0:0:
448,192,115432,1,0,0:0:0:0:
64,192,115498,1,0,0:0:0:0:
320,192,115564,1,0,0:0:0:0:
64,192,115630,1,0,0:0:0:0:
192,192,115696,1,0,0:0:0:0:
320,192,115762,1,0,0:0:0:0:
448,192,115762,1,0,0:0:0:0:
64,192,115828,1,0,0:0:0:0:
448,192,115893,1,0,0:0:0:0:
64,192,115959,1,0,0:0:0:0:
320,192,116025,1,0,0:0:0:0:
192,192,116091,1,0,0:0:0:0:
320,192,116157,1,0,0:0:0:0:
64,192,116222,1,0,0:0:0:0:
192,192,116288,1,0,0:0:0:0:
448,192,116288,1,0,0:0:0:0:
320,192,116354,1,0,0:0:0:0:
64,192,116420,1,0,0:0:0:0:
192,192,116486,1,0,0:0:0:0:
448,192,116551,1,0,0:0:0:0:
192,192,116617,1,0,0:0:0:0:
320,192,116682,1,0,0:0:0:0:
64,192,116748,1,0,0:0:0:0:
192,192,116814,1,0,0:0:0:0:
448,192,116814,1,0,0:0:0:0:
320,192,116880,1,0,0:0:0:0:
64,192,116946,1,0,0:0:0:0:
320,192,117012,1,0,0:0:0:0:
192,192,117078,1,0,0:0:0:0:
448,192,117143,1,0,0:0:0:0:
320,192,117209,1,0,0:0:0:0:
64,192,117275,1,0,0:0:0:0:
192,192,117341,1,0,0:0:0:0:
320,192,117341,1,0,0:0:0:0:
448,192,117407,1,0,0:0:0:0:
64,192,117472,1,0,0:0:0:0:
448,192,117538,1,0,0:0:0:0:
64,192,117604,1,0,0:0:0:0:
192,192,117670,1,0,0:0:0:0:
320,192,117736,1,0,0:0:0:0:
64,192,117801,1,0,0:0:0:0:
192,192,117867,1,0,0:0:0:0:
448,192,117867,1,0,0:0:0:0:
320,192,117932,1,0,0:0:0:0:
64,192,117998,1,0,0:0:0:0:
448,192,118064,1,0,0:0:0:0:
320,192,118130,1,0,0:0:0:0:
192,192,118196,1,0,0:0:0:0:
320,192,118262,1,0,0:0:0:0:
192,192,118328,1,0,0:0:0:0:
64,192,118393,1,0,0:0:0:0:
448,192,118393,1,0,0:0:0:0:
320,192,118459,1,0,0:0:0:0:
192,192,118525,1,0,0:0:0:0:
448,192,118591,1,0,0:0:0:0:
64,192,118657,1,0,0:0:0:0:
192,192,118722,1,0,0:0:0:0:
320,192,118788,1,0,0:0:0:0:
64,192,118854,1,0,0:0:0:0:
192,192,118920,1,0,0:0:0:0:
320,192,118920,1,0,0:0:0:0:
448,192,118986,1,0,0:0:0:0:
64,192,119051,1,0,0:0:0:0:
448,192,119117,1,0,0:0:0:0:
192,192,119182,1,0,0:0:0:0:
320,192,119248,1,0,0:0:0:0:
64,192,119314,1,0,0:0:0:0:
192,192,119380,1,0,0:0:0:0:
320,192,119446,1,0,0:0:0:0:
448,192,119446,1,0,0:0:0:0:
192,192,119512,1,0,0:0:0:0:
320,192,119578,1,0,0:0:0:0:
64,192,119643,1,0,0:0:0:0:
448,192,119709,1,0,0:0:0:0:
320,192,119775,1,0,0:0:0:0:
64,192,119841,1,0,0:0:0:0:
320,192,119907,1,0,0:0:0:0:
192,192,119972,1,0,0:0:0:0:
64,192,119972,1,0,0:0:0:0:
448,192,120038,1,0,0:0:0:0:
320,192,120104,1,0,0:0:0:0:
64,192,120170,1,0,0:0:0:0:
448,192,120236,1,0,0:0:0:0:
64,192,120301,1,0,0:0:0:0:
192,192,120367,1,0,0:0:0:0:
320,192,120432,1,0,0:0:0:0:
64,192,120498,1,0,0:0:0:0:
448,192,120498,1,0,0:0:0:0:
320,192,120564,1,0,0:0:0:0:
192,192,120630,1,0,0:0:0:0:
320,192,120696,1,0,0:0:0:0:
64,192,120762,1,0,0:0:0:0:
192,192,120828,1,0,0:0:0:0:
448,192,120893,1,0,0:0:0:0:
320,192,120959,1,0,0:0:0:0:
192,192,121025,1,0,0:0:0:0:
64,192,121025,1,0,0:0:0:0:
448,192,121091,1,0,0:0:0:0:
64,192,121157,1,0,0:0:0:0:
192,192,121222,1,0,0:0:0:0:
320,192,121288,1,0,0:0:0:0:
192,192,121354,1,0,0:0:0:0:
448,192,121420,1,0,0:0:0:0:
64,192,121486,1,0,0:0:0:0:
192,192,121551,1,0,0:0:0:0:
448,192,121551,1,0,0:0:0:0:
320,192,121617,1,0,0:0:0:0:
64,192,121682,1,0,0:0:0:0:
448,192,121748,1,0,0:0:0:0:
192,192,121814,1,0,0:0:0:0:
320,192,121880,1,0,0:0:0:0:
64,192,122012,1,0,0:0:0:0:
192,192,122078,1,0,0:0:0:0:
64,192,122143,1,0,0:0:0:0:
192,192,122209,1,0,0:0:0:0:
320,192,122275,1,0,0:0:0:0:
64,192,122341,1,0,0:0:0:0:
192,192,122341,1,0,0:0:0:0:
448,192,122341,1,0,0:0:0:0:
320,192,122472,1,0,0:0:0:0:
320,192,122604,1,0,0:0:0:0:
192,192,122604,1,0,0:0:0:0:
64,192,122736,1,0,0:0:0:0:
64,192,122867,1,0,0:0:0:0:
448,192,122867,1,0,0:0:0:0:
192,192,122998,1,0,0:0:0:0:
320,192,123130,1,0,0:0:0:0:
448,192,123130,1,0,0:0:0:0:
320,192,123262,1,0,0:0:0:0:
64,192,123393,1,0,0:0:0:0:
448,192,123393,1,0,0:0:0:0:
320,192,123525,1,0,0:0:0:0:
192,192,123657,1,0,0:0:0:0:
320,192,123657,1,0,0:0:0:0:
192,192,123788,1,0,0:0:0:0:
64,192,123854,1,0,0:0:0:0:
320,192,123920,1,0,0:0:0:0:
448,192,123920,1,0,0:0:0:0:
192,192,124051,1,0,0:0:0:0:
320,192,124182,1,0,0:0:0:0:
448,192,124182,1,0,0:0:0:0:
64,192,124314,1,0,0:0:0:0:
192,192,124446,1,0,0:0:0:0:
320,192,124446,1,0,0:0:0:0:
320,192,124578,1,0,0:0:0:0:
64,192,124709,1,0,0:0:0:0:
448,192,124709,1,0,0:0:0:0:
192,192,124841,1,0,0:0:0:0:
192,192,124972,1,0,0:0:0:0:
448,192,124972,1,0,0:0:0:0:
320,192,125104,1,0,0:0:0:0:
192,192,125236,1,0,0:0:0:0:
64,192,125236,1,0,0:0:0:0:
64,192,125367,1,0,0:0:0:0:
192,192,125498,1,0,0:0:0:0:
448,192,125498,1,0,0:0:0:0:
320,192,125630,1,0,0:0:0:0:
320,192,125762,1,0,0:0:0:0:
192,192,125762,1,0,0:0:0:0:
64,192,125893,1,0,0:0:0:0:
192,192,125959,1,0,0:0:0:0:
320,192,126025,1,0,0:0:0:0:
448,192,126025,1,0,0:0:0:0:
64,192,126157,1,0,0:0:0:0:
320,192,126288,1,0,0:0:0:0:
448,192,126288,1,0,0:0:0:0:
192,192,126420,1,0,0:0:0:0:
64,192,126551,1,0,0:0:0:0:
448,192,126551,1,0,0:0:0:0:
448,192,126682,1,0,0:0:0:0:
320,192,126814,1,0,0:0:0:0:
64,192,126814,1,0,0:0:0:0:
192,192,126946,1,0,0:0:0:0:
192,192,127078,1,0,0:0:0:0:
320,192,127078,1,0,0:0:0:0:
64,192,127209,1,0,0:0:0:0:
192,192,127341,1,0,0:0:0:0:
448,192,127341,1,0,0:0:0:0:
448,192,127472,1,0,0:0:0:0:
320,192,127604,1,0,0:0:0:0:
64,192,127604,1,0,0:0:0:0:
192,192,127736,1,0,0:0:0:0:
192,192,127867,1,0,0:0:0:0:
320,192,127867,1,0,0:0:0:0:
64,192,127998,1,0,0:0:0:0:
192,192,128064,1,0,0:0:0:0:
320,192,128130,1,0,0:0:0:0:
448,192,128130,1,0,0:0:0:0:
64,192,128262,1,0,0:0:0:0:
320,192,128393,1,0,0:0:0:0:
448,192,128393,1,0,0:0:0:0:
192,192,128525,1,0,0:0:0:0:
64,192,128657,1,0,0:0:0:0:
448,192,128657,1,0,0:0:0:0:
320,192,128788,1,0,0:0:0:0:
320,192,128920,1,0,0:0:0:0:
192,192,128920,1,0,0:0:0:0:
64,192,129051,1,0,0:0:0:0:
64,192,129182,1,0,0:0:0:0:
320,192,129314,1,0,0:0:0:0:
448,192,129314,1,0,0:0:0:0:
320,192,129446,1,0,0:0:0:0:
448,192,129446,1,0,0:0:0:0:
192,192,129578,1,0,0:0:0:0:
448,192,129622,1,0,0:0:0:0:
320,192,129665,1,0,0:0:0:0:
192,192,129709,1,0,0:0:0:0:
64,192,129709,1,0,0:0:0:0:
320,192,129841,1,0,0:0:0:0:
64,192,129972,1,0,0:0:0:0:
192,192,130104,1,0,0:0:0:0:
320,192,130236,1,0,0:0:0:0:
448,192,130236,1,0,0:0:0:0:
64,192,130301,1,0,0:0:0:0:
320,192,130367,1,0,0:0:0:0:
192,192,130432,1,0,0:0:0:0:
64,192,130498,1,0,0:0:0:0:
192,192,130564,1,0,0:0:0:0:
448,192,130630,1,0,0:0:0:0:
320,192,130696,1,0,0:0:0:0:
192,192,130762,1,0,0:0:0:0:
64,192,130762,1,0,0:0:0:0:
448,192,130828,1,0,0:0:0:0:
64,192,130893,1,0,0:0:0:0:
192,192,130959,1,0,0:0:0:0:
448,192,131025,1,0,0:0:0:0:
320,192,131025,1,0,0:0:0:0:
192,192,131091,1,0,0:0:0:0:
320,192,131157,1,0,0:0:0:0:
64,192,131222,1,0,0:0:0:0:
448,192,131288,1,0,0:0:0:0:
320,192,131354,1,0,0:0:0:0:
192,192,131420,1,0,0:0:0:0:
448,192,131486,1,0,0:0:0:0:
320,192,131551,1,0,0:0:0:0:
64,192,131551,1,0,0:0:0:0:
192,192,131617,1,0,0:0:0:0:
448,192,131682,1,0,0:0:0:0:
64,192,131748,1,0,0:0:0:0:
192,192,131814,1,0,0:0:0:0:
320,192,131880,1,0,0:0:0:0:
192,192,131946,1,0,0:0:0:0:
448,192,132012,1,0,0:0:0:0:
320,192,132078,1,0,0:0:0:0:
192,192,132078,1,0,0:0:0:0:
64,192,132143,1,0,0:0:0:0:
448,192,132209,1,0,0:0:0:0:
64,192,132275,1,0,0:0:0:0:
320,192,132341,1,0,0:0:0:0:
192,192,132407,1,0,0:0:0:0:
448,192,132472,1,0,0:0:0:0:
64,192,132538,1,0,0:0:0:0:
192,192,132604,1,0,0:0:0:0:
448,192,132604,1,0,0:0:0:0:
320,192,132670,1,0,0:0:0:0:
64,192,132736,1,0,0:0:0:0:
192,192,132801,1,0,0:0:0:0:
320,192,132867,1,0,0:0:0:0:
448,192,132867,1,0,0:0:0:0:
192,192,132932,1,0,0:0:0:0:
320,192,132998,1,0,0:0:0:0:
64,192,133064,1,0,0:0:0:0:
448,192,133130,1,0,0:0:0:0:
192,192,133130,1,0,0:0:0:0:
320,192,133196,1,0,0:0:0:0:
64,192,133262,1,0,0:0:0:0:
320,192,133328,1,0,0:0:0:0:
192,192,133393,1,0,0:0:0:0:
448,192,133459,1,0,0:0:0:0:
64,192,133525,1,0,0:0:0:0:
320,192,133591,1,0,0:0:0:0:
192,192,133657,1,0,0:0:0:0:
64,192,133657,1,0,0:0:0:0:
448,192,133722,1,0,0:0:0:0:
192,192,133788,1,0,0:0:0:0:
320,192,133854,1,0,0:0:0:0:
64,192,133920,1,0,0:0:0:0:
192,192,133986,1,0,0:0:0:0:
448,192,134051,1,0,0:0:0:0:
64,192,134117,1,0,0:0:0:0:
320,192,134182,1,0,0:0:0:0:
192,192,134182,1,0,0:0:0:0:
448,192,134248,1,0,0:0:0:0:
64,192,134314,1,0,0:0:0:0:
448,192,134380,1,0,0:0:0:0:
320,192,134446,1,0,0:0:0:0:
192,192,134512,1,0,0:0:0:0:
448,192,134578,1,0,0:0:0:0:
64,192,134643,1,0,0:0:0:0:
192,192,134709,1,0,0:0:0:0:
320,192,134709,1,0,0:0:0:0:
448,192,134775,1,0,0:0:0:0:
192,192,134841,1,0,0:0:0:0:
320,192,134907,1,0,0:0:0:0:
448,192,134972,1,0,0:0:0:0:
64,192,134972,1,0,0:0:0:0:
320,192,135038,1,0,0:0:0:0:
192,192,135104,1,0,0:0:0:0:
320,192,135170,1,0,0:0:0:0:
64,192,135236,1,0,0:0:0:0:
192,192,135236,1,0,0:0:0:0:
448,192,135301,1,0,0:0:0:0:
64,192,135367,1,0,0:0:0:0:
320,192,135432,1,0,0:0:0:0:
192,192,135498,1,0,0:0:0:0:
448,192,135564,1,0,0:0:0:0:
64,192,135630,1,0,0:0:0:0:
320,192,135696,1,0,0:0:0:0:
192,192,135762,1,0,0:0:0:0:
64,192,135762,1,0,0:0:0:0:
448,192,135828,1,0,0:0:0:0:
320,192,135893,1,0,0:0:0:0:
192,192,135959,1,0,0:0:0:0:
448,192,136025,1,0,0:0:0:0:
64,192,136091,1,0,0:0:0:0:
320,192,136157,1,0,0:0:0:0:
64,192,136222,1,0,0:0:0:0:
192,192,136288,1,0,0:0:0:0:
320,192,136288,1,0,0:0:0:0:
448,192,136354,1,0,0:0:0:0:
64,192,136420,1,0,0:0:0:0:
320,192,136486,1,0,0:0:0:0:
192,192,136551,1,0,0:0:0:0:
448,192,136617,1,0,0:0:0:0:
64,192,136682,1,0,0:0:0:0:
320,192,136748,1,0,0:0:0:0:
448,192,136814,1,0,0:0:0:0:
64,192,136814,1,0,0:0:0:0:
192,192,136880,1,0,0:0:0:0:
320,192,136946,1,0,0:0:0:0:
192,192,137012,1,0,0:0:0:0:
448,192,137078,1,0,0:0:0:0:
320,192,137078,1,0,0:0:0:0:
64,192,137143,1,0,0:0:0:0:
192,192,137209,1,0,0:0:0:0:
448,192,137275,1,0,0:0:0:0:
320,192,137341,1,0,0:0:0:0:
192,192,137341,1,0,0:0:0:0:
64,192,137407,1,0,0:0:0:0:
448,192,137472,1,0,0:0:0:0:
192,192,137538,1,0,0:0:0:0:
320,192,137604,1,0,0:0:0:0:
64,192,137670,1,0,0:0:0:0:
448,192,137736,1,0,0:0:0:0:
64,192,137801,1,0,0:0:0:0:
192,192,137867,1,0,0:0:0:0:
448,192,137867,1,0,0:0:0:0:
320,192,137932,1,0,0:0:0:0:
192,192,137998,1,0,0:0:0:0:
448,192,138064,1,0,0:0:0:0:
320,192,138130,1,0,0:0:0:0:
64,192,138196,1,0,0:0:0:0:
448,192,138262,1,0,0:0:0:0:
64,192,138328,1,0,0:0:0:0:
192,192,138393,1,0,0:0:0:0:
448,192,138393,1,0,0:0:0:0:
320,192,138459,1,0,0:0:0:0:
64,192,138525,1,0,0:0:0:0:
320,192,138591,1,0,0:0:0:0:
64,192,138657,1,0,0:0:0:0:
448,192,138657,1,0,0:0:0:0:
192,192,138722,1,0,0:0:0:0:
320,192,138788,1,0,0:0:0:0:
448,192,138788,1,0,0:0:0:0:
64,192,138854,1,0,0:0:0:0:
192,192,138920,1,0,0:0:0:0:
64,192,138986,1,0,0:0:0:0:
448,192,139051,1,0,0:0:0:0:
320,192,139117,1,0,0:0:0:0:
192,192,139182,1,0,0:0:0:0:
64,192,139182,1,0,0:0:0:0:
320,192,139248,1,0,0:0:0:0:
64,192,139314,1,0,0:0:0:0:
448,192,139380,1,0,0:0:0:0:
320,192,139446,1,0,0:0:0:0:
192,192,139446,1,0,0:0:0:0:
64,192,139512,1,0,0:0:0:0:
448,192,139578,1,0,0:0:0:0:
192,192,139643,1,0,0:0:0:0:
320,192,139709,1,0,0:0:0:0:
64,192,139775,1,0,0:0:0:0:
448,192,139841,1,0,0:0:0:0:
192,192,139907,1,0,0:0:0:0:
320,192,139972,1,0,0:0:0:0:
448,192,139972,1,0,0:0:0:0:
64,192,140038,1,0,0:0:0:0:
192,192,140104,1,0,0:0:0:0:
320,192,140170,1,0,0:0:0:0:
192,192,140236,1,0,0:0:0:0:
448,192,140301,1,0,0:0:0:0:
320,192,140367,1,0,0:0:0:0:
64,192,140432,1,0,0:0:0:0:
192,192,140498,1,0,0:0:0:0:
448,192,140498,1,0,0:0:0:0:
320,192,140564,1,0,0:0:0:0:
192,192,140630,1,0,0:0:0:0:
320,192,140696,1,0,0:0:0:0:
64,192,140762,1,0,0:0:0:0:
448,192,140828,1,0,0:0:0:0:
64,192,140893,1,0,0:0:0:0:
192,192,140959,1,0,0:0:0:0:
320,192,141025,1,0,0:0:0:0:
448,192,141025,1,0,0:0:0:0:
64,192,141091,1,0,0:0:0:0:
320,192,141157,1,0,0:0:0:0:
192,192,141222,1,0,0:0:0:0:
448,192,141288,1,0,0:0:0:0:
64,192,141288,1,0,0:0:0:0:
320,192,141354,1,0,0:0:0:0:
64,192,141420,1,0,0:0:0:0:
192,192,141486,1,0,0:0:0:0:
448,192,141551,1,0,0:0:0:0:
320,192,141551,1,0,0:0:0:0:
192,192,141617,1,0,0:0:0:0:
448,192,141682,1,0,0:0:0:0:
64,192,141748,1,0,0:0:0:0:
320,192,141814,1,0,0:0:0:0:
192,192,141880,1,0,0:0:0:0:
448,192,141946,1,0,0:0:0:0:
192,192,142012,1,0,0:0:0:0:
320,192,142078,1,0,0:0:0:0:
448,192,142078,1,0,0:0:0:0:
64,192,142143,1,0,0:0:0:0:
192,192,142209,1,0,0:0:0:0:
448,192,142275,1,0,0:0:0:0:
64,192,142341,1,0,0:0:0:0:
320,192,142407,1,0,0:0:0:0:
64,192,142472,1,0,0:0:0:0:
192,192,142538,1,0,0:0:0:0:
320,192,142604,1,0,0:0:0:0:
448,192,142604,1,0,0:0:0:0:
192,192,142670,1,0,0:0:0:0:
320,192,142736,1,0,0:0:0:0:
64,192,142801,1,0,0:0:0:0:
448,192,142867,1,0,0:0:0:0:
192,192,142932,1,0,0:0:0:0:
320,192,142998,1,0,0:0:0:0:
192,192,143064,1,0,0:0:0:0:
64,192,143130,1,0,0:0:0:0:
448,192,143130,1,0,0:0:0:0:
320,192,143196,1,0,0:0:0:0:
192,192,143262,1,0,0:0:0:0:
320,192,143328,1,0,0:0:0:0:
192,192,143393,1,0,0:0:0:0:
64,192,143393,1,0,0:0:0:0:
448,192,143459,1,0,0:0:0:0:
64,192,143525,1,0,0:0:0:0:
320,192,143591,1,0,0:0:0:0:
192,192,143657,1,0,0:0:0:0:
64,192,143657,1,0,0:0:0:0:
448,192,143722,1,0,0:0:0:0:
192,192,143788,1,0,0:0:0:0:
320,192,143854,1,0,0:0:0:0:
64,192,143920,1,0,0:0:0:0:
448,192,143986,1,0,0:0:0:0:
192,192,144051,1,0,0:0:0:0:
320,192,144117,1,0,0:0:0:0:
192,192,144182,1,0,0:0:0:0:
64,192,144182,1,0,0:0:0:0:
448,192,144248,1,0,0:0:0:0:
64,192,144314,1,0,0:0:0:0:
320,192,144380,1,0,0:0:0:0:
192,192,144446,1,0,0:0:0:0:
448,192,144512,1,0,0:0:0:0:
64,192,144578,1,0,0:0:0:0:
448,192,144643,1,0,0:0:0:0:
192,192,144709,1,0,0:0:0:0:
64,192,144709,1,0,0:0:0:0:
320,192,144775,1,0,0:0:0:0:
192,192,144841,1,0,0:0:0:0:
448,192,144907,1,0,0:0:0:0:
64,192,144972,1,0,0:0:0:0:
192,192,145038,1,0,0:0:0:0:
320,192,145104,1,0,0:0:0:0:
64,192,145170,1,0,0:0:0:0:
192,192,145236,1,0,0:0:0:0:
320,192,145236,1,0,0:0:0:0:
448,192,145301,1,0,0:0:0:0:
192,192,145367,1,0,0:0:0:0:
448,192,145432,1,0,0:0:0:0:
320,192,145498,1,0,0:0:0:0:
64,192,145498,1,0,0:0:0:0:
192,192,145564,1,0,0:0:0:0:
448,192,145630,1,0,0:0:0:0:
320,192,145696,1,0,0:0:0:0:
64,192,145762,1,0,0:0:0:0:
192,192,145762,1,0,0:0:0:0:
448,192,145828,1,0,0:0:0:0:
192,192,145893,1,0,0:0:0:0:
320,192,145959,1,0,0:0:0:0:
64,192,146025,1,0,0:0:0:0:
448,192,146091,1,0,0:0:0:0:
192,192,146157,1,0,0:0:0:0:
320,192,146222,1,0,0:0:0:0:
192,192,146288,1,0,0:0:0:0:
64,192,146288,1,0,0:0:0:0:
448,192,146354,1,0,0:0:0:0:
64,192,146420,1,0,0:0:0:0:
448,192,146486,1,0,0:0:0:0:
320,192,146551,1,0,0:0:0:0:
192,192,146617,1,0,0:0:0:0:
320,192,146682,1,0,0:0:0:0:
192,192,146748,1,0,0:0:0:0:
64,192,146814,1,0,0:0:0:0:
448,192,146814,1,0,0:0:0:0:
192,192,146880,1,0,0:0:0:0:
320,192,146946,1,0,0:0:0:0:
64,192,147012,1,0,0:0:0:0:
448,192,147078,1,0,0:0:0:0:
320,192,147078,1,0,0:0:0:0:
192,192,147143,1,0,0:0:0:0:
64,192,147143,1,0,0:0:0:0:
448,192,147209,1,0,0:0:0:0:
320,192,147209,1,0,0:0:0:0:
192,192,147275,1,0,0:0:0:0:
64,192,147275,1,0,0:0:0:0:
320,192,147341,1,0,0:0:0:0:
192,192,147407,1,0,0:0:0:0:
64,192,147472,1,0,0:0:0:0:
320,192,147538,1,0,0:0:0:0:
64,192,147604,128,0,147736:0:0:0:0:
192,192,147604,128,0,147736:0:0:0:0:
448,192,147604,128,0,148657:0:0:0:0:
320,192,148657,128,0,148788:0:0:0:0:
64,192,148657,128,0,148788:0:0:0:0:
192,192,148657,128,0,149182:0:0:0:0:
448,192,149182,128,0,149709:0:0:0:0:
64,192,149709,128,0,149841:0:0:0:0:
192,192,149709,128,0,149841:0:0:0:0:
320,192,149709,128,0,150236:0:0:0:0:
64,192,150236,128,0,150762:0:0:0:0:
192,192,150762,128,0,150893:0:0:0:0:
320,192,150762,128,0,150893:0:0:0:0:
448,192,150762,128,0,151288:0:0:0:0:
64,192,151288,128,0,151814:0:0:0:0:
192,192,151814,128,0,151946:0:0:0:0:
448,192,151814,128,0,151946:0:0:0:0:
320,192,151814,128,0,152341:0:0:0:0:
64,192,152867,128,0,153328:0:0:0:0:
192,192,152867,128,0,153328:0:0:0:0:
320,192,152867,128,0,153393:0:0:0:0:
64,192,153393,128,0,153920:0:0:0:0:
448,192,153393,128,0,153854:0:0:0:0:
192,192,153393,128,0,153854:0:0:0:0:
192,192,153920,128,0,154051:0:0:0:0:
320,192,153920,128,0,154051:0:0:0:0:
448,192,153920,128,0,154446:0:0:0:0:
64,192,154972,128,0,155432:0:0:0:0:
192,192,154972,128,0,155432:0:0:0:0:
448,192,154972,128,0,155498:0:0:0:0:
64,192,155498,1,0,0:0:0:0:
192,192,155498,1,0,0:0:0:0:
320,192,155498,1,0,0:0:0:0:
320,192,155630,1,0,0:0:0:0:
64,192,155630,1,0,0:0:0:0:
320,192,155762,1,0,0:0:0:0:
448,192,155762,1,0,0:0:0:0:
192,192,155828,1,0,0:0:0:0:
64,192,155828,1,0,0:0:0:0:
320,192,155893,1,0,0:0:0:0:
448,192,155893,1,0,0:0:0:0:
192,192,155959,1,0,0:0:0:0:
64,192,155959,1,0,0:0:0:0:
320,192,156025,1,0,0:0:0:0:
192,192,156091,1,0,0:0:0:0:
448,192,156157,1,0,0:0:0:0:
64,192,156222,1,0,0:0:0:0:
192,192,156288,1,0,0:0:0:0:
448,192,156288,1,0,0:0:0:0:
320,192,156354,1,0,0:0:0:0:
64,192,156420,1,0,0:0:0:0:
192,192,156486,1,0,0:0:0:0:
448,192,156551,1,0,0:0:0:0:
64,192,156617,1,0,0:0:0:0:
320,192,156682,1,0,0:0:0:0:
192,192,156748,1,0,0:0:0:0:
320,192,156814,1,0,0:0:0:0:
448,192,156814,1,0,0:0:0:0:
64,192,156880,1,0,0:0:0:0:
448,192,156946,1,0,0:0:0:0:
64,192,157012,1,0,0:0:0:0:
192,192,157078,1,0,0:0:0:0:
320,192,157143,1,0,0:0:0:0:
192,192,157209,1,0,0:0:0:0:
320,192,157275,1,0,0:0:0:0:
64,192,157341,1,0,0:0:0:0:
448,192,157341,1,0,0:0:0:0:
192,192,157407,1,0,0:0:0:0:
320,192,157472,1,0,0:0:0:0:
64,192,157538,1,0,0:0:0:0:
448,192,157604,1,0,0:0:0:0:
320,192,157670,1,0,0:0:0:0:
192,192,157736,1,0,0:0:0:0:
64,192,157801,1,0,0:0:0:0:
192,192,157867,1,0,0:0:0:0:
448,192,157867,1,0,0:0:0:0:
320,192,157932,1,0,0:0:0:0:
192,192,157998,1,0,0:0:0:0:
64,192,158064,1,0,0:0:0:0:
320,192,158130,1,0,0:0:0:0:
192,192,158196,1,0,0:0:0:0:
448,192,158262,1,0,0:0:0:0:
192,192,158328,1,0,0:0:0:0:
64,192,158393,1,0,0:0:0:0:
448,192,158393,1,0,0:0:0:0:
320,192,158459,1,0,0:0:0:0:
192,192,158525,1,0,0:0:0:0:
320,192,158591,1,0,0:0:0:0:
64,192,158657,1,0,0:0:0:0:
192,192,158722,1,0,0:0:0:0:
320,192,158788,1,0,0:0:0:0:
192,192,158854,1,0,0:0:0:0:
320,192,158920,1,0,0:0:0:0:
448,192,158920,1,0,0:0:0:0:
64,192,158986,1,0,0:0:0:0:
192,192,159051,1,0,0:0:0:0:
448,192,159117,1,0,0:0:0:0:
192,192,159182,1,0,0:0:0:0:
320,192,159248,1,0,0:0:0:0:
64,192,159314,1,0,0:0:0:0:
448,192,159380,1,0,0:0:0:0:
320,192,159446,1,0,0:0:0:0:
192,192,159446,1,0,0:0:0:0:
64,192,159512,1,0,0:0:0:0:
320,192,159578,1,0,0:0:0:0:
64,192,159643,1,0,0:0:0:0:
192,192,159709,128,0,159907:0:0:0:0:
320,192,159709,128,0,159907:0:0:0:0:
448,192,159709,128,0,159972:0:0:0:0:
64,192,159972,128,0,160236:0:0:0:0:
192,192,159972,128,0,160170:0:0:0:0:
320,192,159972,128,0,160170:0:0:0:0:
192,192,160236,1,0,0:0:0:0:
448,192,160236,1,0,0:0:0:0:
320,192,160236,1,0,0:0:0:0:
64,192,160301,1,0,0:0:0:0:
448,192,160367,1,0,0:0:0:0:
192,192,160432,1,0,0:0:0:0:
320,192,160498,1,0,0:0:0:0:
64,192,160498,1,0,0:0:0:0:
448,192,160564,1,0,0:0:0:0:
192,192,160630,1,0,0:0:0:0:
320,192,160696,1,0,0:0:0:0:
64,192,160762,1,0,0:0:0:0:
448,192,160828,1,0,0:0:0:0:
192,192,160893,1,0,0:0:0:0:
320,192,160959,1,0,0:0:0:0:
192,192,161025,1,0,0:0:0:0:
64,192,161025,1,0,0:0:0:0:
448,192,161091,1,0,0:0:0:0:
64,192,161157,1,0,0:0:0:0:
320,192,161222,1,0,0:0:0:0:
192,192,161288,1,0,0:0:0:0:
448,192,161354,1,0,0:0:0:0:
64,192,161420,1,0,0:0:0:0:
320,192,161486,1,0,0:0:0:0:
192,192,161551,1,0,0:0:0:0:
64,192,161551,1,0,0:0:0:0:
320,192,161617,1,0,0:0:0:0:
192,192,161682,1,0,0:0:0:0:
448,192,161748,1,0,0:0:0:0:
64,192,161814,1,0,0:0:0:0:
192,192,161814,1,0,0:0:0:0:
320,192,161880,1,0,0:0:0:0:
448,192,161880,1,0,0:0:0:0:
192,192,161946,1,0,0:0:0:0:
64,192,161946,1,0,0:0:0:0:
320,192,162012,1,0,0:0:0:0:
448,192,162012,1,0,0:0:0:0:
64,192,162078,1,0,0:0:0:0:
192,192,162143,1,0,0:0:0:0:
320,192,162209,1,0,0:0:0:0:
192,192,162275,1,0,0:0:0:0:
320,192,162341,1,0,0:0:0:0:
448,192,162341,1,0,0:0:0:0:
64,192,162341,1,0,0:0:0:0:
192,192,162516,1,0,0:0:0:0:
64,192,162516,1,0,0:0:0:0:
64,192,162604,1,0,0:0:0:0:
448,192,162604,1,0,0:0:0:0:
320,192,162604,1,0,0:0:0:0:
192,192,162736,1,0,0:0:0:0:
320,192,162736,1,0,0:0:0:0:
64,192,162867,1,0,0:0:0:0:
192,192,162998,1,0,0:0:0:0:
448,192,162998,1,0,0:0:0:0:
320,192,163130,1,0,0:0:0:0:
192,192,163130,1,0,0:0:0:0:
64,192,163130,1,0,0:0:0:0:
64,192,163262,1,0,0:0:0:0:
448,192,163262,1,0,0:0:0:0:
192,192,163393,1,0,0:0:0:0:
320,192,163393,1,0,0:0:0:0:
448,192,163393,1,0,0:0:0:0:
64,192,163525,5,0,0:0:0:0:
192,192,163657,1,0,0:0:0:0:
448,192,163657,1,0,0:0:0:0:
320,192,163788,1,0,0:0:0:0:
192,192,163788,1,0,0:0:0:0:
64,192,163788,1,0,0:0:0:0:
448,192,163920,1,0,0:0:0:0:
64,192,164051,1,0,0:0:0:0:
192,192,164051,1,0,0:0:0:0:
64,192,164182,1,0,0:0:0:0:
320,192,164182,1,0,0:0:0:0:
448,192,164182,1,0,0:0:0:0:
192,192,164314,1,0,0:0:0:0:
320,192,164314,1,0,0:0:0:0:
448,192,164446,5,0,0:0:0:0:
64,192,164446,1,0,0:0:0:0:
192,192,164512,1,0,0:0:0:0:
320,192,164578,1,0,0:0:0:0:
192,192,164643,1,0,0:0:0:0:
448,192,164709,1,0,0:0:0:0:
64,192,164775,1,0,0:0:0:0:
320,192,164841,1,0,0:0:0:0:
64,192,164907,1,0,0:0:0:0:
448,192,164972,1,0,0:0:0:0:
192,192,165038,1,0,0:0:0:0:
320,192,165104,1,0,0:0:0:0:
192,192,165170,1,0,0:0:0:0:
448,192,165236,1,0,0:0:0:0:
64,192,165301,1,0,0:0:0:0:
320,192,165367,1,0,0:0:0:0:
64,192,165432,1,0,0:0:0:0:
192,192,165498,1,0,0:0:0:0:
448,192,165498,1,0,0:0:0:0:
320,192,165564,1,0,0:0:0:0:
64,192,165630,1,0,0:0:0:0:
320,192,165696,1,0,0:0:0:0:
192,192,165762,1,0,0:0:0:0:
448,192,165828,1,0,0:0:0:0:
64,192,165893,1,0,0:0:0:0:
448,192,165959,1,0,0:0:0:0:
64,192,166025,1,0,0:0:0:0:
192,192,166069,1,0,0:0:0:0:
320,192,166112,1,0,0:0:0:0:
448,192,166157,1,0,0:0:0:0:
192,192,166200,1,0,0:0:0:0:
320,192,166244,1,0,0:0:0:0:
64,192,166288,1,0,0:0:0:0:
192,192,166332,1,0,0:0:0:0:
320,192,166376,1,0,0:0:0:0:
448,192,166420,1,0,0:0:0:0:
192,192,166463,1,0,0:0:0:0:
320,192,166508,1,0,0:0:0:0:
64,192,166551,1,0,0:0:0:0:
448,192,166551,1,0,0:0:0:0:
192,192,166617,1,0,0:0:0:0:
320,192,166682,1,0,0:0:0:0:
192,192,166748,1,0,0:0:0:0:
448,192,166814,1,0,0:0:0:0:
64,192,166880,1,0,0:0:0:0:
320,192,166946,1,0,0:0:0:0:
64,192,167012,1,0,0:0:0:0:
448,192,167078,1,0,0:0:0:0:
192,192,167143,1,0,0:0:0:0:
320,192,167209,1,0,0:0:0:0:
192,192,167275,1,0,0:0:0:0:
448,192,167341,1,0,0:0:0:0:
64,192,167407,1,0,0:0:0:0:
320,192,167472,1,0,0:0:0:0:
64,192,167538,1,0,0:0:0:0:
448,192,167604,1,0,0:0:0:0:
320,192,167604,1,0,0:0:0:0:
64,192,167670,1,0,0:0:0:0:
448,192,167736,1,0,0:0:0:0:
192,192,167801,1,0,0:0:0:0:
320,192,167867,1,0,0:0:0:0:
64,192,167932,1,0,0:0:0:0:
320,192,167998,1,0,0:0:0:0:
192,192,168064,1,0,0:0:0:0:
64,192,168130,1,0,0:0:0:0:
192,192,168174,1,0,0:0:0:0:
320,192,168218,1,0,0:0:0:0:
448,192,168262,1,0,0:0:0:0:
192,192,168306,1,0,0:0:0:0:
320,192,168349,1,0,0:0:0:0:
64,192,168393,1,0,0:0:0:0:
192,192,168438,1,0,0:0:0:0:
320,192,168481,1,0,0:0:0:0:
448,192,168525,1,0,0:0:0:0:
192,192,168569,1,0,0:0:0:0:
320,192,168612,1,0,0:0:0:0:
64,192,168657,1,0,0:0:0:0:
448,192,168657,1,0,0:0:0:0:
192,192,168722,1,0,0:0:0:0:
320,192,168788,1,0,0:0:0:0:
192,192,168854,1,0,0:0:0:0:
448,192,168920,1,0,0:0:0:0:
64,192,168986,1,0,0:0:0:0:
320,192,169051,1,0,0:0:0:0:
64,192,169117,1,0,0:0:0:0:
448,192,169182,1,0,0:0:0:0:
192,192,169248,1,0,0:0:0:0:
320,192,169314,1,0,0:0:0:0:
192,192,169380,1,0,0:0:0:0:
448,192,169446,1,0,0:0:0:0:
64,192,169512,1,0,0:0:0:0:
320,192,169578,1,0,0:0:0:0:
64,192,169643,1,0,0:0:0:0:
448,192,169709,1,0,0:0:0:0:
192,192,169709,1,0,0:0:0:0:
320,192,169775,1,0,0:0:0:0:
64,192,169841,1,0,0:0:0:0:
320,192,169907,1,0,0:0:0:0:
192,192,169972,1,0,0:0:0:0:
448,192,170038,1,0,0:0:0:0:
64,192,170104,1,0,0:0:0:0:
448,192,170170,1,0,0:0:0:0:
64,192,170236,1,0,0:0:0:0:
192,192,170279,1,0,0:0:0:0:
320,192,170323,1,0,0:0:0:0:
448,192,170367,1,0,0:0:0:0:
192,192,170411,1,0,0:0:0:0:
320,192,170455,1,0,0:0:0:0:
64,192,170498,1,0,0:0:0:0:
192,192,170542,1,0,0:0:0:0:
320,192,170587,1,0,0:0:0:0:
448,192,170630,1,0,0:0:0:0:
192,192,170674,1,0,0:0:0:0:
320,192,170718,1,0,0:0:0:0:
64,192,170762,1,0,0:0:0:0:
448,192,170762,1,0,0:0:0:0:
192,192,170828,1,0,0:0:0:0:
320,192,170893,1,0,0:0:0:0:
192,192,170959,1,0,0:0:0:0:
448,192,171025,1,0,0:0:0:0:
64,192,171091,1,0,0:0:0:0:
320,192,171157,1,0,0:0:0:0:
64,192,171222,1,0,0:0:0:0:
448,192,171288,1,0,0:0:0:0:
192,192,171354,1,0,0:0:0:0:
320,192,171420,1,0,0:0:0:0:
192,192,171486,1,0,0:0:0:0:
448,192,171551,1,0,0:0:0:0:
64,192,171617,1,0,0:0:0:0:
320,192,171682,1,0,0:0:0:0:
64,192,171748,1,0,0:0:0:0:
192,192,171814,1,0,0:0:0:0:
448,192,171814,1,0,0:0:0:0:
320,192,171880,1,0,0:0:0:0:
64,192,171946,1,0,0:0:0:0:
192,192,171946,1,0,0:0:0:0:
320,192,172012,1,0,0:0:0:0:
448,192,172012,1,0,0:0:0:0:
192,192,172078,1,0,0:0:0:0:
64,192,172078,1,0,0:0:0:0:
320,192,172143,1,0,0:0:0:0:
448,192,172143,1,0,0:0:0:0:
64,192,172209,1,0,0:0:0:0:
192,192,172275,1,0,0:0:0:0:
320,192,172341,1,0,0:0:0:0:
448,192,172341,1,0,0:0:0:0:
64,192,172407,1,0,0:0:0:0:
320,192,172472,1,0,0:0:0:0:
192,192,172538,1,0,0:0:0:0:
448,192,172604,1,0,0:0:0:0:
320,192,172670,1,0,0:0:0:0:
192,192,172736,1,0,0:0:0:0:
64,192,172801,1,0,0:0:0:0:
192,192,172867,1,0,0:0:0:0:
320,192,172867,1,0,0:0:0:0:
448,192,172932,1,0,0:0:0:0:
64,192,172998,1,0,0:0:0:0:
448,192,173064,1,0,0:0:0:0:
64,192,173130,1,0,0:0:0:0:
320,192,173130,1,0,0:0:0:0:
192,192,173196,1,0,0:0:0:0:
448,192,173262,1,0,0:0:0:0:
192,192,173328,1,0,0:0:0:0:
320,192,173393,1,0,0:0:0:0:
64,192,173459,1,0,0:0:0:0:
448,192,173525,1,0,0:0:0:0:
64,192,173591,1,0,0:0:0:0:
320,192,173657,1,0,0:0:0:0:
192,192,173657,1,0,0:0:0:0:
448,192,173722,1,0,0:0:0:0:
64,192,173788,1,0,0:0:0:0:
448,192,173854,1,0,0:0:0:0:
192,192,173920,1,0,0:0:0:0:
320,192,173986,1,0,0:0:0:0:
64,192,174051,1,0,0:0:0:0:
320,192,174117,1,0,0:0:0:0:
64,192,174182,1,0,0:0:0:0:
448,192,174182,1,0,0:0:0:0:
192,192,174248,1,0,0:0:0:0:
320,192,174314,1,0,0:0:0:0:
192,192,174380,1,0,0:0:0:0:
448,192,174446,1,0,0:0:0:0:
320,192,174490,1,0,0:0:0:0:
192,192,174533,1,0,0:0:0:0:
64,192,174578,1,0,0:0:0:0:
320,192,174622,1,0,0:0:0:0:
192,192,174665,1,0,0:0:0:0:
448,192,174709,1,0,0:0:0:0:
320,192,174753,1,0,0:0:0:0:
192,192,174797,1,0,0:0:0:0:
64,192,174841,1,0,0:0:0:0:
320,192,174884,1,0,0:0:0:0:
192,192,174928,1,0,0:0:0:0:
64,192,174972,1,0,0:0:0:0:
448,192,174972,1,0,0:0:0:0:
320,192,175038,1,0,0:0:0:0:
192,192,175104,1,0,0:0:0:0:
320,192,175170,1,0,0:0:0:0:
448,192,175236,1,0,0:0:0:0:
192,192,175236,1,0,0:0:0:0:
64,192,175301,1,0,0:0:0:0:
320,192,175367,1,0,0:0:0:0:
64,192,175432,1,0,0:0:0:0:
448,192,175498,1,0,0:0:0:0:
192,192,175564,1,0,0:0:0:0:
320,192,175630,1,0,0:0:0:0:
192,192,175696,1,0,0:0:0:0:
64,192,175762,1,0,0:0:0:0:
320,192,175762,1,0,0:0:0:0:
448,192,175828,1,0,0:0:0:0:
192,192,175893,1,0,0:0:0:0:
448,192,175959,1,0,0:0:0:0:
64,192,176025,1,0,0:0:0:0:
320,192,176091,1,0,0:0:0:0:
192,192,176157,1,0,0:0:0:0:
320,192,176222,1,0,0:0:0:0:
448,192,176288,1,0,0:0:0:0:
64,192,176288,1,0,0:0:0:0:
192,192,176354,1,0,0:0:0:0:
320,192,176420,1,0,0:0:0:0:
192,192,176486,1,0,0:0:0:0:
448,192,176551,1,0,0:0:0:0:
320,192,176595,1,0,0:0:0:0:
192,192,176639,1,0,0:0:0:0:
64,192,176682,1,0,0:0:0:0:
320,192,176727,1,0,0:0:0:0:
192,192,176771,1,0,0:0:0:0:
448,192,176814,1,0,0:0:0:0:
320,192,176858,1,0,0:0:0:0:
192,192,176902,1,0,0:0:0:0:
64,192,176946,1,0,0:0:0:0:
320,192,176990,1,0,0:0:0:0:
192,192,177033,1,0,0:0:0:0:
448,192,177078,1,0,0:0:0:0:
64,192,177078,1,0,0:0:0:0:
320,192,177143,1,0,0:0:0:0:
192,192,177209,1,0,0:0:0:0:
320,192,177275,1,0,0:0:0:0:
192,192,177341,1,0,0:0:0:0:
448,192,177341,1,0,0:0:0:0:
64,192,177407,1,0,0:0:0:0:
320,192,177472,1,0,0:0:0:0:
64,192,177538,1,0,0:0:0:0:
448,192,177604,1,0,0:0:0:0:
192,192,177670,1,0,0:0:0:0:
320,192,177736,1,0,0:0:0:0:
192,192,177801,1,0,0:0:0:0:
64,192,177867,1,0,0:0:0:0:
320,192,177867,1,0,0:0:0:0:
448,192,177932,1,0,0:0:0:0:
64,192,177998,1,0,0:0:0:0:
448,192,178064,1,0,0:0:0:0:
192,192,178130,1,0,0:0:0:0:
320,192,178196,1,0,0:0:0:0:
64,192,178262,1,0,0:0:0:0:
320,192,178328,1,0,0:0:0:0:
192,192,178393,1,0,0:0:0:0:
448,192,178393,1,0,0:0:0:0:
64,192,178459,1,0,0:0:0:0:
320,192,178525,1,0,0:0:0:0:
64,192,178591,1,0,0:0:0:0:
320,192,178657,1,0,0:0:0:0:
448,192,178657,1,0,0:0:0:0:
192,192,178722,1,0,0:0:0:0:
64,192,178722,1,0,0:0:0:0:
320,192,178788,1,0,0:0:0:0:
448,192,178788,1,0,0:0:0:0:
192,192,178854,1,0,0:0:0:0:
64,192,178854,1,0,0:0:0:0:
320,192,178920,1,0,0:0:0:0:
192,192,178986,1,0,0:0:0:0:
64,192,179051,1,0,0:0:0:0:
448,192,179084,1,0,0:0:0:0:
320,192,179117,1,0,0:0:0:0:
192,192,179182,1,0,0:0:0:0:
448,192,179248,1,0,0:0:0:0:
64,192,179314,1,0,0:0:0:0:
448,192,179380,1,0,0:0:0:0:
192,192,179446,1,0,0:0:0:0:
320,192,179446,1,0,0:0:0:0:
64,192,179512,1,0,0:0:0:0:
448,192,179578,1,0,0:0:0:0:
320,192,179578,1,0,0:0:0:0:
64,192,179643,1,0,0:0:0:0:
192,192,179709,1,0,0:0:0:0:
448,192,179709,1,0,0:0:0:0:
320,192,179775,1,0,0:0:0:0:
192,192,179841,1,0,0:0:0:0:
64,192,179841,1,0,0:0:0:0:
320,192,179907,1,0,0:0:0:0:
64,192,179972,1,0,0:0:0:0:
448,192,179972,1,0,0:0:0:0:
192,192,180038,1,0,0:0:0:0:
320,192,180104,1,0,0:0:0:0:
448,192,180104,1,0,0:0:0:0:
192,192,180170,1,0,0:0:0:0:
64,192,180236,1,0,0:0:0:0:
320,192,180236,1,0,0:0:0:0:
448,192,180301,1,0,0:0:0:0:
192,192,180367,1,0,0:0:0:0:
64,192,180367,1,0,0:0:0:0:
448,192,180432,1,0,0:0:0:0:
320,192,180432,1,0,0:0:0:0:
192,192,180498,1,0,0:0:0:0:
64,192,180498,1,0,0:0:0:0:
320,192,180564,1,0,0:0:0:0:
448,192,180564,1,0,0:0:0:0:
64,192,180630,1,0,0:0:0:0:
192,192,180696,1,0,0:0:0:0:
448,192,180762,1,0,0:0:0:0:
64,192,180762,1,0,0:0:0:0:
192,192,180806,1,0,0:0:0:0:
320,192,180849,1,0,0:0:0:0:
448,192,180893,1,0,0:0:0:0:
192,192,180938,1,0,0:0:0:0:
320,192,180981,1,0,0:0:0:0:
64,192,181025,1,0,0:0:0:0:
192,192,181069,1,0,0:0:0:0:
320,192,181112,1,0,0:0:0:0:
448,192,181157,1,0,0:0:0:0:
192,192,181200,1,0,0:0:0:0:
320,192,181244,1,0,0:0:0:0:
448,192,181288,1,0,0:0:0:0:
64,192,181288,1,0,0:0:0:0:
192,192,181354,1,0,0:0:0:0:
320,192,181420,1,0,0:0:0:0:
192,192,181486,1,0,0:0:0:0:
448,192,181551,1,0,0:0:0:0:
64,192,181551,1,0,0:0:0:0:
320,192,181617,1,0,0:0:0:0:
192,192,181682,1,0,0:0:0:0:
320,192,181748,1,0,0:0:0:0:
64,192,181814,1,0,0:0:0:0:
448,192,181880,1,0,0:0:0:0:
192,192,181946,1,0,0:0:0:0:
448,192,182012,1,0,0:0:0:0:
192,192,182078,1,0,0:0:0:0:
320,192,182078,1,0,0:0:0:0:
64,192,182143,1,0,0:0:0:0:
448,192,182209,1,0,0:0:0:0:
64,192,182275,1,0,0:0:0:0:
320,192,182341,1,0,0:0:0:0:
192,192,182407,1,0,0:0:0:0:
448,192,182472,1,0,0:0:0:0:
192,192,182538,1,0,0:0:0:0:
320,192,182604,1,0,0:0:0:0:
64,192,182604,1,0,0:0:0:0:
448,192,182670,1,0,0:0:0:0:
192,192,182736,1,0,0:0:0:0:
448,192,182801,1,0,0:0:0:0:
64,192,182867,1,0,0:0:0:0:
192,192,182911,1,0,0:0:0:0:
320,192,182955,1,0,0:0:0:0:
448,192,182998,1,0,0:0:0:0:
192,192,183042,1,0,0:0:0:0:
320,192,183087,1,0,0:0:0:0:
64,192,183130,1,0,0:0:0:0:
192,192,183174,1,0,0:0:0:0:
320,192,183218,1,0,0:0:0:0:
448,192,183262,1,0,0:0:0:0:
192,192,183306,1,0,0:0:0:0:
320,192,183349,1,0,0:0:0:0:
64,192,183393,1,0,0:0:0:0:
448,192,183393,1,0,0:0:0:0:
192,192,183459,1,0,0:0:0:0:
320,192,183525,1,0,0:0:0:0:
192,192,183591,1,0,0:0:0:0:
64,192,183657,1,0,0:0:0:0:
320,192,183657,1,0,0:0:0:0:
448,192,183722,1,0,0:0:0:0:
64,192,183788,1,0,0:0:0:0:
448,192,183854,1,0,0:0:0:0:
192,192,183920,1,0,0:0:0:0:
320,192,183986,1,0,0:0:0:0:
64,192,184051,1,0,0:0:0:0:
320,192,184117,1,0,0:0:0:0:
192,192,184182,1,0,0:0:0:0:
448,192,184182,1,0,0:0:0:0:
64,192,184248,1,0,0:0:0:0:
320,192,184314,1,0,0:0:0:0:
64,192,184380,1,0,0:0:0:0:
448,192,184446,1,0,0:0:0:0:
192,192,184512,1,0,0:0:0:0:
320,192,184578,1,0,0:0:0:0:
192,192,184643,1,0,0:0:0:0:
64,192,184709,1,0,0:0:0:0:
320,192,184709,1,0,0:0:0:0:
448,192,184775,1,0,0:0:0:0:
192,192,184841,1,0,0:0:0:0:
448,192,184907,1,0,0:0:0:0:
64,192,184972,1,0,0:0:0:0:
192,192,185016,1,0,0:0:0:0:
320,192,185060,1,0,0:0:0:0:
448,192,185104,1,0,0:0:0:0:
192,192,185148,1,0,0:0:0:0:
320,192,185192,1,0,0:0:0:0:
64,192,185236,1,0,0:0:0:0:
192,192,185279,1,0,0:0:0:0:
320,192,185323,1,0,0:0:0:0:
448,192,185367,1,0,0:0:0:0:
192,192,185411,1,0,0:0:0:0:
320,192,185455,1,0,0:0:0:0:
64,192,185498,1,0,0:0:0:0:
448,192,185498,1,0,0:0:0:0:
192,192,185564,1,0,0:0:0:0:
320,192,185630,1,0,0:0:0:0:
192,192,185696,1,0,0:0:0:0:
64,192,185762,1,0,0:0:0:0:
320,192,185762,1,0,0:0:0:0:
448,192,185828,1,0,0:0:0:0:
64,192,185893,1,0,0:0:0:0:
448,192,185959,1,0,0:0:0:0:
192,192,186025,1,0,0:0:0:0:
320,192,186091,1,0,0:0:0:0:
64,192,186157,1,0,0:0:0:0:
320,192,186222,1,0,0:0:0:0:
192,192,186288,1,0,0:0:0:0:
448,192,186288,1,0,0:0:0:0:
64,192,186354,1,0,0:0:0:0:
320,192,186420,1,0,0:0:0:0:
64,192,186486,1,0,0:0:0:0:
448,192,186551,1,0,0:0:0:0:
192,192,186617,1,0,0:0:0:0:
320,192,186682,1,0,0:0:0:0:
192,192,186748,1,0,0:0:0:0:
320,192,186814,1,0,0:0:0:0:
64,192,186814,1,0,0:0:0:0:
448,192,186880,1,0,0:0:0:0:
64,192,186946,1,0,0:0:0:0:
448,192,187012,1,0,0:0:0:0:
192,192,187078,1,0,0:0:0:0:
320,192,187078,1,0,0:0:0:0:
64,192,187143,1,0,0:0:0:0:
448,192,187143,1,0,0:0:0:0:
320,192,187209,1,0,0:0:0:0:
192,192,187209,1,0,0:0:0:0:
64,192,187275,1,0,0:0:0:0:
448,192,187275,1,0,0:0:0:0:
320,192,187341,1,0,0:0:0:0:
192,192,187407,1,0,0:0:0:0:
64,192,187538,1,0,0:0:0:0:
192,192,187604,1,0,0:0:0:0:
320,192,187604,1,0,0:0:0:0:
448,192,187670,1,0,0:0:0:0:
192,192,187736,1,0,0:0:0:0:
64,192,187736,1,0,0:0:0:0:
448,192,187801,1,0,0:0:0:0:
320,192,187867,1,0,0:0:0:0:
192,192,187867,1,0,0:0:0:0:
64,192,187932,1,0,0:0:0:0:
192,192,187998,1,0,0:0:0:0:
448,192,187998,1,0,0:0:0:0:
64,192,188064,1,0,0:0:0:0:
320,192,188130,1,0,0:0:0:0:
192,192,188130,1,0,0:0:0:0:
448,192,188196,1,0,0:0:0:0:
64,192,188262,1,0,0:0:0:0:
320,192,188262,1,0,0:0:0:0:
448,192,188328,1,0,0:0:0:0:
192,192,188393,1,0,0:0:0:0:
320,192,188393,1,0,0:0:0:0:
64,192,188459,1,0,0:0:0:0:
192,192,188525,1,0,0:0:0:0:
448,192,188525,1,0,0:0:0:0:
64,192,188591,1,0,0:0:0:0:
320,192,188657,1,0,0:0:0:0:
192,192,188657,1,0,0:0:0:0:
448,192,188722,1,0,0:0:0:0:
320,192,188788,1,0,0:0:0:0:
64,192,188788,1,0,0:0:0:0:
448,192,188854,1,0,0:0:0:0:
192,192,188920,1,0,0:0:0:0:
64,192,188920,1,0,0:0:0:0:
320,192,188986,1,0,0:0:0:0:
192,192,189051,1,0,0:0:0:0:
64,192,189051,1,0,0:0:0:0:
320,192,189117,1,0,0:0:0:0:
64,192,189182,1,0,0:0:0:0:
192,192,189227,1,0,0:0:0:0:
320,192,189271,1,0,0:0:0:0:
448,192,189314,1,0,0:0:0:0:
192,192,189358,1,0,0:0:0:0:
320,192,189402,1,0,0:0:0:0:
64,192,189446,1,0,0:0:0:0:
192,192,189490,1,0,0:0:0:0:
320,192,189533,1,0,0:0:0:0:
448,192,189578,1,0,0:0:0:0:
192,192,189622,1,0,0:0:0:0:
320,192,189665,1,0,0:0:0:0:
448,192,189709,1,0,0:0:0:0:
64,192,189709,128,0,190236:0:0:0:0:
320,192,190236,128,0,190762:0:0:0:0:
64,192,190762,1,0,0:0:0:0:
448,192,190762,1,0,0:0:0:0:
192,192,190762,128,0,191288:0:0:0:0:
320,192,191288,128,0,191814:0:0:0:0:
448,192,191814,1,0,0:0:0:0:
192,192,191814,1,0,0:0:0:0:
64,192,191814,128,0,192604:0:0:0:0:
448,192,192341,1,0,0:0:0:0:
320,192,192604,128,0,192867:0:0:0:0:
448,192,192867,1,0,0:0:0:0:
64,192,192867,128,0,193393:0:0:0:0:
448,192,193130,1,0,0:0:0:0:
192,192,193196,1,0,0:0:0:0:
448,192,193262,1,0,0:0:0:0:
192,192,193328,1,0,0:0:0:0:
448,192,193393,1,0,0:0:0:0:
320,192,193393,128,0,193920:0:0:0:0:
448,192,193920,1,0,0:0:0:0:
64,192,193920,1,0,0:0:0:0:
192,192,193920,128,0,194709:0:0:0:0:
320,192,194446,1,0,0:0:0:0:
448,192,194709,128,0,194972:0:0:0:0:
64,192,194775,1,0,0:0:0:0:
320,192,194841,1,0,0:0:0:0:
64,192,194907,1,0,0:0:0:0:
192,192,194972,1,0,0:0:0:0:
320,192,194972,128,0,196025:0:0:0:0:
448,192,195236,1,0,0:0:0:0:
192,192,195367,1,0,0:0:0:0:
64,192,195367,1,0,0:0:0:0:
192,192,195498,1,0,0:0:0:0:
64,192,195498,1,0,0:0:0:0:
64,192,195762,1,0,0:0:0:0:
64,192,196025,1,0,0:0:0:0:
448,192,196025,1,0,0:0:0:0:
192,192,196025,128,0,196814:0:0:0:0:
448,192,196288,1,0,0:0:0:0:
320,192,196551,1,0,0:0:0:0:
448,192,196551,1,0,0:0:0:0:
448,192,196814,128,0,197078:0:0:0:0:
64,192,196946,1,0,0:0:0:0:
320,192,196946,1,0,0:0:0:0:
64,192,197078,1,0,0:0:0:0:
192,192,197078,128,0,197604:0:0:0:0:
64,192,197341,1,0,0:0:0:0:
448,192,197472,1,0,0:0:0:0:
320,192,197472,1,0,0:0:0:0:
64,192,197604,1,0,0:0:0:0:
320,192,197604,1,0,0:0:0:0:
448,192,197604,128,0,198130:0:0:0:0:
192,192,198130,1,0,0:0:0:0:
320,192,198130,1,0,0:0:0:0:
64,192,198130,128,0,198920:0:0:0:0:
320,192,198657,1,0,0:0:0:0:
320,192,198788,1,0,0:0:0:0:
448,192,198920,128,0,199182:0:0:0:0:
192,192,198986,1,0,0:0:0:0:
320,192,199051,1,0,0:0:0:0:
192,192,199117,1,0,0:0:0:0:
320,192,199182,1,0,0:0:0:0:
64,192,199182,128,0,200236:0:0:0:0:
192,192,199314,1,0,0:0:0:0:
192,192,199446,1,0,0:0:0:0:
320,192,199578,1,0,0:0:0:0:
448,192,199578,1,0,0:0:0:0:
192,192,199709,1,0,0:0:0:0:
448,192,199709,1,0,0:0:0:0:
320,192,199972,1,0,0:0:0:0:
192,192,199972,1,0,0:0:0:0:
192,192,200236,1,0,0:0:0:0:
320,192,200236,1,0,0:0:0:0:
448,192,200236,128,0,201025:0:0:0:0:
64,192,200762,1,0,0:0:0:0:
320,192,200762,1,0,0:0:0:0:
64,192,201025,128,0,201288:0:0:0:0:
320,192,201288,128,0,201814:0:0:0:0:
192,192,201288,1,0,0:0:0:0:
64,192,201682,1,0,0:0:0:0:
192,192,201682,1,0,0:0:0:0:
64,192,201814,1,0,0:0:0:0:
192,192,201814,128,0,202341:0:0:0:0:
64,192,202341,1,0,0:0:0:0:
320,192,202341,1,0,0:0:0:0:
448,192,202341,128,0,203130:0:0:0:0:
192,192,202604,1,0,0:0:0:0:
192,192,202867,1,0,0:0:0:0:
320,192,202867,1,0,0:0:0:0:
64,192,203130,128,0,203393:0:0:0:0:
320,192,203393,128,0,204446:0:0:0:0:
192,192,203393,1,0,0:0:0:0:
64,192,203788,1,0,0:0:0:0:
192,192,203788,1,0,0:0:0:0:
64,192,203920,1,0,0:0:0:0:
192,192,203920,1,0,0:0:0:0:
64,192,204182,1,0,0:0:0:0:
64,192,204446,1,0,0:0:0:0:
448,192,204446,1,0,0:0:0:0:
192,192,204446,128,0,205236:0:0:0:0:
320,192,204972,1,0,0:0:0:0:
448,192,204972,1,0,0:0:0:0:
448,192,205236,128,0,205498:0:0:0:0:
64,192,205367,1,0,0:0:0:0:
320,192,205367,1,0,0:0:0:0:
320,192,205498,1,0,0:0:0:0:
64,192,205498,128,0,206025:0:0:0:0:
192,192,205893,1,0,0:0:0:0:
320,192,205893,1,0,0:0:0:0:
192,192,206025,1,0,0:0:0:0:
320,192,206025,1,0,0:0:0:0:
448,192,206025,128,0,206486:0:0:0:0:
64,192,206551,1,0,0:0:0:0:
192,192,206551,1,0,0:0:0:0:
448,192,206551,128,0,207341:0:0:0:0:
320,192,206814,1,0,0:0:0:0:
320,192,207078,1,0,0:0:0:0:
192,192,207078,1,0,0:0:0:0:
64,192,207341,128,0,207604:0:0:0:0:
192,192,207472,1,0,0:0:0:0:
320,192,207472,1,0,0:0:0:0:
192,192,207604,1,0,0:0:0:0:
448,192,207604,1,0,0:0:0:0:
320,192,207736,1,0,0:0:0:0:
448,192,207736,1,0,0:0:0:0:
192,192,207801,1,0,0:0:0:0:
64,192,207801,1,0,0:0:0:0:
448,192,207867,1,0,0:0:0:0:
320,192,207867,1,0,0:0:0:0:
64,192,207932,1,0,0:0:0:0:
192,192,207932,1,0,0:0:0:0:
320,192,207998,1,0,0:0:0:0:
64,192,208064,1,0,0:0:0:0:
320,192,208130,1,0,0:0:0:0:
64,192,208196,1,0,0:0:0:0:
192,192,208262,1,0,0:0:0:0:
320,192,208328,1,0,0:0:0:0:
448,192,208393,1,0,0:0:0:0:
192,192,208459,1,0,0:0:0:0:
448,192,208525,1,0,0:0:0:0:
192,192,208591,1,0,0:0:0:0:
448,192,208657,1,0,0:0:0:0:
64,192,208657,1,0,0:0:0:0:
320,192,208722,1,0,0:0:0:0:
192,192,208788,1,0,0:0:0:0:
320,192,208854,1,0,0:0:0:0:
192,192,208920,1,0,0:0:0:0:
64,192,208920,1,0,0:0:0:0:
448,192,208986,1,0,0:0:0:0:
320,192,209051,1,0,0:0:0:0:
64,192,209117,1,0,0:0:0:0:
192,192,209182,1,0,0:0:0:0:
320,192,209248,1,0,0:0:0:0:
192,192,209314,1,0,0:0:0:0:
448,192,209380,1,0,0:0:0:0:
320,192,209446,1,0,0:0:0:0:
64,192,209446,1,0,0:0:0:0:
192,192,209512,1,0,0:0:0:0:
320,192,209578,1,0,0:0:0:0:
192,192,209643,1,0,0:0:0:0:
64,192,209709,1,0,0:0:0:0:
448,192,209775,1,0,0:0:0:0:
64,192,209841,1,0,0:0:0:0:
192,192,209907,1,0,0:0:0:0:
448,192,209972,1,0,0:0:0:0:
320,192,209972,1,0,0:0:0:0:
192,192,210038,1,0,0:0:0:0:
320,192,210104,1,0,0:0:0:0:
64,192,210170,1,0,0:0:0:0:
448,192,210236,1,0,0:0:0:0:
64,192,210301,1,0,0:0:0:0:
320,192,210367,1,0,0:0:0:0:
192,192,210432,1,0,0:0:0:0:
64,192,210498,1,0,0:0:0:0:
448,192,210498,1,0,0:0:0:0:
320,192,210564,1,0,0:0:0:0:
64,192,210630,1,0,0:0:0:0:
192,192,210696,1,0,0:0:0:0:
320,192,210762,1,0,0:0:0:0:
448,192,210762,1,0,0:0:0:0:
64,192,210828,1,0,0:0:0:0:
192,192,210893,1,0,0:0:0:0:
448,192,210959,1,0,0:0:0:0:
64,192,211025,1,0,0:0:0:0:
320,192,211025,1,0,0:0:0:0:
192,192,211091,1,0,0:0:0:0:
448,192,211157,1,0,0:0:0:0:
192,192,211222,1,0,0:0:0:0:
448,192,211288,1,0,0:0:0:0:
320,192,211354,1,0,0:0:0:0:
64,192,211420,1,0,0:0:0:0:
448,192,211486,1,0,0:0:0:0:
320,192,211551,1,0,0:0:0:0:
64,192,211551,1,0,0:0:0:0:
192,192,211617,1,0,0:0:0:0:
448,192,211682,1,0,0:0:0:0:
64,192,211748,1,0,0:0:0:0:
192,192,211814,1,0,0:0:0:0:
320,192,211880,1,0,0:0:0:0:
192,192,211946,1,0,0:0:0:0:
320,192,212012,1,0,0:0:0:0:
64,192,212078,1,0,0:0:0:0:
448,192,212078,1,0,0:0:0:0:
192,192,212143,1,0,0:0:0:0:
320,192,212209,1,0,0:0:0:0:
64,192,212275,1,0,0:0:0:0:
448,192,212341,1,0,0:0:0:0:
320,192,212407,1,0,0:0:0:0:
192,192,212472,1,0,0:0:0:0:
448,192,212538,1,0,0:0:0:0:
320,192,212604,1,0,0:0:0:0:
64,192,212604,1,0,0:0:0:0:
192,192,212670,1,0,0:0:0:0:
320,192,212736,1,0,0:0:0:0:
192,192,212801,1,0,0:0:0:0:
64,192,212867,1,0,0:0:0:0:
448,192,212867,1,0,0:0:0:0:
320,192,212932,1,0,0:0:0:0:
192,192,212998,1,0,0:0:0:0:
448,192,213064,1,0,0:0:0:0:
64,192,213130,1,0,0:0:0:0:
320,192,213130,1,0,0:0:0:0:
192,192,213196,1,0,0:0:0:0:
448,192,213262,1,0,0:0:0:0:
64,192,213328,1,0,0:0:0:0:
192,192,213393,1,0,0:0:0:0:
448,192,213459,1,0,0:0:0:0:
192,192,213525,1,0,0:0:0:0:
448,192,213591,1,0,0:0:0:0:
320,192,213657,1,0,0:0:0:0:
64,192,213657,1,0,0:0:0:0:
192,192,213722,1,0,0:0:0:0:
448,192,213788,1,0,0:0:0:0:
192,192,213854,1,0,0:0:0:0:
448,192,213920,1,0,0:0:0:0:
320,192,213986,1,0,0:0:0:0:
64,192,214051,1,0,0:0:0:0:
448,192,214117,1,0,0:0:0:0:
320,192,214182,1,0,0:0:0:0:
64,192,214182,1,0,0:0:0:0:
192,192,214248,1,0,0:0:0:0:
320,192,214314,1,0,0:0:0:0:
64,192,214380,1,0,0:0:0:0:
448,192,214446,1,0,0:0:0:0:
192,192,214512,1,0,0:0:0:0:
448,192,214578,1,0,0:0:0:0:
192,192,214643,1,0,0:0:0:0:
64,192,214709,1,0,0:0:0:0:
320,192,214709,1,0,0:0:0:0:
448,192,214775,1,0,0:0:0:0:
192,192,214841,1,0,0:0:0:0:
320,192,214907,1,0,0:0:0:0:
192,192,214972,1,0,0:0:0:0:
64,192,214972,1,0,0:0:0:0:
448,192,215038,1,0,0:0:0:0:
320,192,215104,1,0,0:0:0:0:
64,192,215170,1,0,0:0:0:0:
448,192,215236,1,0,0:0:0:0:
192,192,215236,1,0,0:0:0:0:
320,192,215301,1,0,0:0:0:0:
64,192,215367,1,0,0:0:0:0:
192,192,215432,1,0,0:0:0:0:
320,192,215498,1,0,0:0:0:0:
192,192,215564,1,0,0:0:0:0:
320,192,215630,1,0,0:0:0:0:
64,192,215696,1,0,0:0:0:0:
192,192,215762,1,0,0:0:0:0:
448,192,215762,1,0,0:0:0:0:
320,192,215828,1,0,0:0:0:0:
64,192,215893,1,0,0:0:0:0:
320,192,215959,1,0,0:0:0:0:
64,192,216025,1,0,0:0:0:0:
448,192,216091,1,0,0:0:0:0:
320,192,216157,1,0,0:0:0:0:
192,192,216222,1,0,0:0:0:0:
64,192,216288,1,0,0:0:0:0:
448,192,216288,1,0,0:0:0:0:
192,192,216354,1,0,0:0:0:0:
448,192,216420,1,0,0:0:0:0:
320,192,216486,1,0,0:0:0:0:
64,192,216551,1,0,0:0:0:0:
192,192,216617,1,0,0:0:0:0:
64,192,216682,1,0,0:0:0:0:
192,192,216748,1,0,0:0:0:0:
448,192,216814,1,0,0:0:0:0:
64,192,216880,1,0,0:0:0:0:
448,192,216946,1,0,0:0:0:0:
64,192,217012,1,0,0:0:0:0:
192,192,217078,1,0,0:0:0:0:
320,192,217078,1,0,0:0:0:0:
448,192,217143,1,0,0:0:0:0:
64,192,217209,1,0,0:0:0:0:
320,192,217275,1,0,0:0:0:0:
192,192,217341,1,0,0:0:0:0:
64,192,217341,1,0,0:0:0:0:
448,192,217407,1,0,0:0:0:0:
192,192,217472,1,0,0:0:0:0:
320,192,217538,1,0,0:0:0:0:
64,192,217604,1,0,0:0:0:0:
192,192,217670,1,0,0:0:0:0:
448,192,217736,1,0,0:0:0:0:
64,192,217801,1,0,0:0:0:0:
320,192,217867,1,0,0:0:0:0:
192,192,217867,1,0,0:0:0:0:
448,192,217932,1,0,0:0:0:0:
64,192,217998,1,0,0:0:0:0:
448,192,218064,1,0,0:0:0:0:
192,192,218130,1,0,0:0:0:0:
320,192,218196,1,0,0:0:0:0:
64,192,218262,1,0,0:0:0:0:
448,192,218328,1,0,0:0:0:0:
64,192,218393,1,0,0:0:0:0:
192,192,218393,1,0,0:0:0:0:
320,192,218459,1,0,0:0:0:0:
192,192,218525,1,0,0:0:0:0:
320,192,218591,1,0,0:0:0:0:
64,192,218657,1,0,0:0:0:0:
448,192,218722,1,0,0:0:0:0:
192,192,218788,1,0,0:0:0:0:
448,192,218854,1,0,0:0:0:0:
64,192,218920,1,0,0:0:0:0:
320,192,218920,1,0,0:0:0:0:
192,192,218986,1,0,0:0:0:0:
320,192,219051,1,0,0:0:0:0:
192,192,219117,1,0,0:0:0:0:
448,192,219182,1,0,0:0:0:0:
320,192,219182,1,0,0:0:0:0:
64,192,219248,1,0,0:0:0:0:
192,192,219314,1,0,0:0:0:0:
448,192,219380,1,0,0:0:0:0:
64,192,219446,1,0,0:0:0:0:
320,192,219446,1,0,0:0:0:0:
192,192,219512,1,0,0:0:0:0:
448,192,219578,1,0,0:0:0:0:
192,192,219643,1,0,0:0:0:0:
448,192,219709,1,0,0:0:0:0:
320,192,219775,1,0,0:0:0:0:
64,192,219841,1,0,0:0:0:0:
448,192,219907,1,0,0:0:0:0:
64,192,219972,1,0,0:0:0:0:
320,192,219972,1,0,0:0:0:0:
192,192,220038,1,0,0:0:0:0:
448,192,220104,1,0,0:0:0:0:
64,192,220170,1,0,0:0:0:0:
192,192,220236,1,0,0:0:0:0:
448,192,220301,1,0,0:0:0:0:
64,192,220367,1,0,0:0:0:0:
320,192,220432,1,0,0:0:0:0:
192,192,220498,1,0,0:0:0:0:
64,192,220498,1,0,0:0:0:0:
320,192,220564,1,0,0:0:0:0:
192,192,220630,1,0,0:0:0:0:
448,192,220696,1,0,0:0:0:0:
64,192,220762,1,0,0:0:0:0:
320,192,220828,1,0,0:0:0:0:
64,192,220893,1,0,0:0:0:0:
192,192,220959,1,0,0:0:0:0:
320,192,221025,1,0,0:0:0:0:
448,192,221025,1,0,0:0:0:0:
64,192,221091,1,0,0:0:0:0:
192,192,221157,1,0,0:0:0:0:
64,192,221222,1,0,0:0:0:0:
320,192,221288,1,0,0:0:0:0:
448,192,221288,1,0,0:0:0:0:
192,192,221354,1,0,0:0:0:0:
448,192,221420,1,0,0:0:0:0:
64,192,221486,1,0,0:0:0:0:
192,192,221551,1,0,0:0:0:0:
320,192,221551,1,0,0:0:0:0:
448,192,221617,1,0,0:0:0:0:
64,192,221682,1,0,0:0:0:0:
320,192,221748,1,0,0:0:0:0:
192,192,221814,1,0,0:0:0:0:
320,192,221880,1,0,0:0:0:0:
64,192,221946,1,0,0:0:0:0:
192,192,222012,1,0,0:0:0:0:
320,192,222078,1,0,0:0:0:0:
448,192,222078,1,0,0:0:0:0:
64,192,222143,1,0,0:0:0:0:
448,192,222209,1,0,0:0:0:0:
64,192,222275,1,0,0:0:0:0:
320,192,222341,1,0,0:0:0:0:
192,192,222407,1,0,0:0:0:0:
320,192,222472,1,0,0:0:0:0:
192,192,222538,1,0,0:0:0:0:
64,192,222604,1,0,0:0:0:0:
448,192,222604,1,0,0:0:0:0:
320,192,222670,1,0,0:0:0:0:
192,192,222736,1,0,0:0:0:0:
448,192,222801,1,0,0:0:0:0:
64,192,222867,1,0,0:0:0:0:
192,192,222932,1,0,0:0:0:0:
320,192,222998,1,0,0:0:0:0:
192,192,223064,1,0,0:0:0:0:
320,192,223130,1,0,0:0:0:0:
448,192,223130,1,0,0:0:0:0:
64,192,223196,1,0,0:0:0:0:
448,192,223262,1,0,0:0:0:0:
320,192,223328,1,0,0:0:0:0:
192,192,223393,1,0,0:0:0:0:
64,192,223393,1,0,0:0:0:0:
320,192,223459,1,0,0:0:0:0:
64,192,223525,1,0,0:0:0:0:
192,192,223591,1,0,0:0:0:0:
320,192,223657,1,0,0:0:0:0:
448,192,223657,1,0,0:0:0:0:
64,192,223722,1,0,0:0:0:0:
192,192,223788,1,0,0:0:0:0:
320,192,223854,1,0,0:0:0:0:
64,192,223920,1,0,0:0:0:0:
320,192,223986,1,0,0:0:0:0:
192,192,224051,1,0,0:0:0:0:
448,192,224117,1,0,0:0:0:0:
320,192,224182,1,0,0:0:0:0:
64,192,224182,1,0,0:0:0:0:
192,192,224248,1,0,0:0:0:0:
448,192,224314,1,0,0:0:0:0:
192,192,224380,1,0,0:0:0:0:
448,192,224446,1,0,0:0:0:0:
320,192,224512,1,0,0:0:0:0:
64,192,224578,1,0,0:0:0:0:
192,192,224643,1,0,0:0:0:0:
320,192,224709,1,0,0:0:0:0:
448,192,224709,1,0,0:0:0:0:
192,192,224775,1,0,0:0:0:0:
448,192,224841,1,0,0:0:0:0:
320,192,224907,1,0,0:0:0:0:
192,192,224972,1,0,0:0:0:0:
64,192,224972,1,0,0:0:0:0:
320,192,225038,1,0,0:0:0:0:
448,192,225038,1,0,0:0:0:0:
192,192,225104,1,0,0:0:0:0:
64,192,225104,1,0,0:0:0:0:
320,192,225170,1,0,0:0:0:0:
448,192,225170,1,0,0:0:0:0:
64,192,225236,1,0,0:0:0:0:
192,192,225301,1,0,0:0:0:0:
448,192,225367,1,0,0:0:0:0:
64,192,225432,1,0,0:0:0:0:
320,192,225498,1,0,0:0:0:0:
448,192,225498,1,0,0:0:0:0:
192,192,225498,1,0,0:0:0:0:
64,192,225630,1,0,0:0:0:0:
320,192,225630,1,0,0:0:0:0:
192,192,225762,1,0,0:0:0:0:
64,192,225762,1,0,0:0:0:0:
448,192,225762,1,0,0:0:0:0:
320,192,225893,1,0,0:0:0:0:
192,192,225893,1,0,0:0:0:0:
64,192,226025,1,0,0:0:0:0:
320,192,226025,1,0,0:0:0:0:
192,192,226157,1,0,0:0:0:0:
448,192,226157,1,0,0:0:0:0:
320,192,226288,1,0,0:0:0:0:
192,192,226288,1,0,0:0:0:0:
64,192,226288,1,0,0:0:0:0:
64,192,226420,1,0,0:0:0:0:
448,192,226420,1,0,0:0:0:0:
192,192,226551,1,0,0:0:0:0:
320,192,226551,1,0,0:0:0:0:
448,192,226551,1,0,0:0:0:0:
320,192,226682,1,0,0:0:0:0:
64,192,226682,1,0,0:0:0:0:
192,192,226814,1,0,0:0:0:0:
64,192,226814,1,0,0:0:0:0:
448,192,226814,1,0,0:0:0:0:
320,192,226946,1,0,0:0:0:0:
192,192,226946,1,0,0:0:0:0:
64,192,227078,1,0,0:0:0:0:
320,192,227078,1,0,0:0:0:0:
192,192,227209,1,0,0:0:0:0:
64,192,227209,1,0,0:0:0:0:
192,192,227341,1,0,0:0:0:0:
320,192,227341,1,0,0:0:0:0:
448,192,227341,1,0,0:0:0:0:
64,192,227472,1,0,0:0:0:0:
448,192,227472,1,0,0:0:0:0:
320,192,227604,1,0,0:0:0:0:
64,192,227604,1,0,0:0:0:0:
192,192,227736,1,0,0:0:0:0:
320,192,227736,1,0,0:0:0:0:
192,192,227867,1,0,0:0:0:0:
64,192,227867,1,0,0:0:0:0:
448,192,227867,1,0,0:0:0:0:
320,192,227998,1,0,0:0:0:0:
64,192,227998,1,0,0:0:0:0:
320,192,228130,1,0,0:0:0:0:
448,192,228130,1,0,0:0:0:0:
192,192,228262,1,0,0:0:0:0:
64,192,228262,1,0,0:0:0:0:
448,192,228262,1,0,0:0:0:0:
64,192,228393,1,0,0:0:0:0:
192,192,228393,1,0,0:0:0:0:
320,192,228459,1,0,0:0:0:0:
448,192,228459,1,0,0:0:0:0:
192,192,228525,1,0,0:0:0:0:
320,192,228591,1,0,0:0:0:0:
64,192,228657,1,0,0:0:0:0:
192,192,228657,1,0,0:0:0:0:
448,192,228722,1,0,0:0:0:0:
320,192,228788,1,0,0:0:0:0:
192,192,228854,1,0,0:0:0:0:
448,192,228920,1,0,0:0:0:0:
64,192,228986,1,0,0:0:0:0:
320,192,229051,1,0,0:0:0:0:
448,192,229051,1,0,0:0:0:0:
192,192,229117,1,0,0:0:0:0:
64,192,229117,1,0,0:0:0:0:
320,192,229182,1,0,0:0:0:0:
448,192,229182,1,0,0:0:0:0:
192,192,229248,1,0,0:0:0:0:
64,192,229248,1,0,0:0:0:0:
320,192,229314,1,0,0:0:0:0:
192,192,229380,1,0,0:0:0:0:
64,192,229446,1,0,0:0:0:0:
448,192,229512,1,0,0:0:0:0:
192,192,229578,1,0,0:0:0:0:
320,192,229643,1,0,0:0:0:0:
192,192,229709,1,0,0:0:0:0:
64,192,229709,1,0,0:0:0:0:
448,192,229775,1,0,0:0:0:0:
320,192,229841,1,0,0:0:0:0:
192,192,229907,1,0,0:0:0:0:
320,192,229972,1,0,0:0:0:0:
192,192,230038,1,0,0:0:0:0:
448,192,230104,1,0,0:0:0:0:
64,192,230170,1,0,0:0:0:0:
320,192,230236,1,0,0:0:0:0:
64,192,230301,1,0,0:0:0:0:
320,192,230367,1,0,0:0:0:0:
192,192,230432,1,0,0:0:0:0:
64,192,230498,1,0,0:0:0:0:
448,192,230498,1,0,0:0:0:0:
320,192,230564,1,0,0:0:0:0:
192,192,230630,1,0,0:0:0:0:
320,192,230696,1,0,0:0:0:0:
64,192,230762,1,0,0:0:0:0:
448,192,230828,1,0,0:0:0:0:
64,192,230893,1,0,0:0:0:0:
448,192,230959,1,0,0:0:0:0:
320,192,231025,1,0,0:0:0:0:
64,192,231025,1,0,0:0:0:0:
192,192,231091,1,0,0:0:0:0:
448,192,231157,1,0,0:0:0:0:
320,192,231222,1,0,0:0:0:0:
192,192,231288,1,0,0:0:0:0:
448,192,231354,1,0,0:0:0:0:
64,192,231420,1,0,0:0:0:0:
320,192,231486,1,0,0:0:0:0:
192,192,231551,1,0,0:0:0:0:
64,192,231551,1,0,0:0:0:0:
448,192,231617,1,0,0:0:0:0:
320,192,231682,1,0,0:0:0:0:
64,192,231748,1,0,0:0:0:0:
320,192,231814,1,0,0:0:0:0:
64,192,231880,1,0,0:0:0:0:
448,192,231946,1,0,0:0:0:0:
192,192,232012,1,0,0:0:0:0:
320,192,232078,1,0,0:0:0:0:
448,192,232078,1,0,0:0:0:0:
64,192,232143,1,0,0:0:0:0:
192,192,232209,1,0,0:0:0:0:
448,192,232275,1,0,0:0:0:0:
64,192,232341,1,0,0:0:0:0:
320,192,232407,1,0,0:0:0:0:
192,192,232472,1,0,0:0:0:0:
448,192,232538,1,0,0:0:0:0:
320,192,232604,1,0,0:0:0:0:
192,192,232604,1,0,0:0:0:0:
64,192,232670,1,0,0:0:0:0:
448,192,232736,1,0,0:0:0:0:
64,192,232801,1,0,0:0:0:0:
320,192,232867,1,0,0:0:0:0:
192,192,232932,1,0,0:0:0:0:
320,192,232998,1,0,0:0:0:0:
64,192,233064,1,0,0:0:0:0:
192,192,233130,1,0,0:0:0:0:
448,192,233130,1,0,0:0:0:0:
320,192,233196,1,0,0:0:0:0:
64,192,233262,1,0,0:0:0:0:
192,192,233328,1,0,0:0:0:0:
448,192,233393,1,0,0:0:0:0:
64,192,233459,1,0,0:0:0:0:
448,192,233525,1,0,0:0:0:0:
320,192,233591,1,0,0:0:0:0:
192,192,233657,1,0,0:0:0:0:
64,192,233657,1,0,0:0:0:0:
448,192,233722,1,0,0:0:0:0:
320,192,233788,1,0,0:0:0:0:
64,192,233854,1,0,0:0:0:0:
320,192,233920,1,0,0:0:0:0:
192,192,233920,1,0,0:0:0:0:
448,192,233986,1,0,0:0:0:0:
64,192,234051,1,0,0:0:0:0:
320,192,234117,1,0,0:0:0:0:
192,192,234182,1,0,0:0:0:0:
64,192,234182,1,0,0:0:0:0:
448,192,234248,1,0,0:0:0:0:
320,192,234314,1,0,0:0:0:0:
192,192,234380,1,0,0:0:0:0:
320,192,234446,1,0,0:0:0:0:
192,192,234512,1,0,0:0:0:0:
448,192,234578,1,0,0:0:0:0:
64,192,234643,1,0,0:0:0:0:
192,192,234709,1,0,0:0:0:0:
448,192,234709,1,0,0:0:0:0:
320,192,234775,1,0,0:0:0:0:
64,192,234841,1,0,0:0:0:0:
192,192,234907,1,0,0:0:0:0:
448,192,234972,1,0,0:0:0:0:
192,192,235038,1,0,0:0:0:0:
320,192,235104,1,0,0:0:0:0:
64,192,235170,1,0,0:0:0:0:
192,192,235236,1,0,0:0:0:0:
448,192,235236,1,0,0:0:0:0:
320,192,235301,1,0,0:0:0:0:
192,192,235367,1,0,0:0:0:0:
320,192,235432,1,0,0:0:0:0:
64,192,235498,1,0,0:0:0:0:
448,192,235564,1,0,0:0:0:0:
192,192,235630,1,0,0:0:0:0:
320,192,235696,1,0,0:0:0:0:
192,192,235762,1,0,0:0:0:0:
64,192,235762,1,0,0:0:0:0:
448,192,235828,1,0,0:0:0:0:
320,192,235893,1,0,0:0:0:0:
64,192,235959,1,0,0:0:0:0:
192,192,236025,1,0,0:0:0:0:
448,192,236025,1,0,0:0:0:0:
320,192,236091,1,0,0:0:0:0:
192,192,236157,1,0,0:0:0:0:
320,192,236222,1,0,0:0:0:0:
64,192,236288,1,0,0:0:0:0:
448,192,236288,1,0,0:0:0:0:
192,192,236354,1,0,0:0:0:0:
320,192,236420,1,0,0:0:0:0:
64,192,236486,1,0,0:0:0:0:
448,192,236551,1,0,0:0:0:0:
192,192,236617,1,0,0:0:0:0:
448,192,236682,1,0,0:0:0:0:
320,192,236748,1,0,0:0:0:0:
192,192,236814,1,0,0:0:0:0:
64,192,236814,1,0,0:0:0:0:
448,192,236880,1,0,0:0:0:0:
64,192,236946,1,0,0:0:0:0:
192,192,237012,1,0,0:0:0:0:
448,192,237078,1,0,0:0:0:0:
64,192,237143,1,0,0:0:0:0:
320,192,237209,1,0,0:0:0:0:
64,192,237275,1,0,0:0:0:0:
192,192,237341,1,0,0:0:0:0:
448,192,237341,1,0,0:0:0:0:
320,192,237407,1,0,0:0:0:0:
192,192,237472,1,0,0:0:0:0:
320,192,237538,1,0,0:0:0:0:
64,192,237604,1,0,0:0:0:0:
192,192,237670,1,0,0:0:0:0:
448,192,237736,1,0,0:0:0:0:
192,192,237801,1,0,0:0:0:0:
448,192,237867,1,0,0:0:0:0:
320,192,237932,1,0,0:0:0:0:
192,192,237998,1,0,0:0:0:0:
320,192,238064,1,0,0:0:0:0:
192,192,238130,1,0,0:0:0:0:
64,192,238130,1,0,0:0:0:0:
448,192,238196,1,0,0:0:0:0:
320,192,238262,1,0,0:0:0:0:
64,192,238328,1,0,0:0:0:0:
192,192,238393,1,0,0:0:0:0:
448,192,238393,1,0,0:0:0:0:
320,192,238459,1,0,0:0:0:0:
192,192,238525,1,0,0:0:0:0:
320,192,238591,1,0,0:0:0:0:
64,192,238657,1,0,0:0:0:0:
448,192,238722,1,0,0:0:0:0:
320,192,238788,1,0,0:0:0:0:
192,192,238854,1,0,0:0:0:0:
64,192,238920,1,0,0:0:0:0:
448,192,238920,1,0,0:0:0:0:
192,192,238986,1,0,0:0:0:0:
320,192,239051,1,0,0:0:0:0:
64,192,239117,1,0,0:0:0:0:
448,192,239182,1,0,0:0:0:0:
64,192,239248,1,0,0:0:0:0:
448,192,239314,1,0,0:0:0:0:
320,192,239380,1,0,0:0:0:0:
192,192,239446,1,0,0:0:0:0:
64,192,239446,1,0,0:0:0:0:
320,192,239512,1,0,0:0:0:0:
192,192,239578,1,0,0:0:0:0:
448,192,239643,1,0,0:0:0:0:
64,192,239709,1,0,0:0:0:0:
320,192,239775,1,0,0:0:0:0:
192,192,239841,1,0,0:0:0:0:
320,192,239907,1,0,0:0:0:0:
192,192,239972,1,0,0:0:0:0:
64,192,239972,1,0,0:0:0:0:
448,192,240038,1,0,0:0:0:0:
320,192,240104,1,0,0:0:0:0:
64,192,240170,1,0,0:0:0:0:
320,192,240236,1,0,0:0:0:0:
192,192,240236,1,0,0:0:0:0:
448,192,240301,1,0,0:0:0:0:
64,192,240367,1,0,0:0:0:0:
448,192,240432,1,0,0:0:0:0:
192,192,240498,1,0,0:0:0:0:
64,192,240498,1,0,0:0:0:0:
320,192,240564,1,0,0:0:0:0:
192,192,240630,1,0,0:0:0:0:
448,192,240696,1,0,0:0:0:0:
64,192,240762,1,0,0:0:0:0:
320,192,240828,1,0,0:0:0:0:
64,192,240893,1,0,0:0:0:0:
320,192,240959,1,0,0:0:0:0:
192,192,241025,1,0,0:0:0:0:
448,192,241025,1,0,0:0:0:0:
64,192,241091,1,0,0:0:0:0:
320,192,241157,1,0,0:0:0:0:
192,192,241222,1,0,0:0:0:0:
448,192,241288,1,0,0:0:0:0:
64,192,241354,1,0,0:0:0:0:
448,192,241420,1,0,0:0:0:0:
320,192,241486,1,0,0:0:0:0:
192,192,241551,1,0,0:0:0:0:
64,192,241551,1,0,0:0:0:0:
320,192,241617,1,0,0:0:0:0:
192,192,241682,1,0,0:0:0:0:
448,192,241748,1,0,0:0:0:0:
64,192,241814,1,0,0:0:0:0:
320,192,241880,1,0,0:0:0:0:
192,192,241946,1,0,0:0:0:0:
448,192,242012,1,0,0:0:0:0:
64,192,242078,1,0,0:0:0:0:
320,192,242078,1,0,0:0:0:0:
192,192,242143,1,0,0:0:0:0:
320,192,242209,1,0,0:0:0:0:
192,192,242275,1,0,0:0:0:0:
64,192,242341,1,0,0:0:0:0:
448,192,242341,1,0,0:0:0:0:
320,192,242407,1,0,0:0:0:0:
192,192,242472,1,0,0:0:0:0:
448,192,242538,1,0,0:0:0:0:
64,192,242604,1,0,0:0:0:0:
192,192,242604,1,0,0:0:0:0:
320,192,242670,1,0,0:0:0:0:
64,192,242736,1,0,0:0:0:0:
320,192,242801,1,0,0:0:0:0:
192,192,242867,1,0,0:0:0:0:
448,192,242932,1,0,0:0:0:0:
320,192,242998,1,0,0:0:0:0:
64,192,243064,1,0,0:0:0:0:
192,192,243130,1,0,0:0:0:0:
320,192,243130,1,0,0:0:0:0:
448,192,243196,1,0,0:0:0:0:
64,192,243262,1,0,0:0:0:0:
320,192,243328,1,0,0:0:0:0:
192,192,243393,1,0,0:0:0:0:
320,192,243459,1,0,0:0:0:0:
192,192,243525,1,0,0:0:0:0:
448,192,243591,1,0,0:0:0:0:
320,192,243657,1,0,0:0:0:0:
64,192,243657,1,0,0:0:0:0:
192,192,243722,1,0,0:0:0:0:
448,192,243788,1,0,0:0:0:0:
64,192,243854,1,0,0:0:0:0:
320,192,243920,1,0,0:0:0:0:
64,192,243986,1,0,0:0:0:0:
192,192,244051,1,0,0:0:0:0:
320,192,244117,1,0,0:0:0:0:
192,192,244182,1,0,0:0:0:0:
64,192,244182,1,0,0:0:0:0:
448,192,244248,1,0,0:0:0:0:
64,192,244314,1,0,0:0:0:0:
192,192,244380,1,0,0:0:0:0:
320,192,244446,1,0,0:0:0:0:
448,192,244446,1,0,0:0:0:0:
64,192,244512,1,0,0:0:0:0:
320,192,244578,1,0,0:0:0:0:
64,192,244643,1,0,0:0:0:0:
192,192,244709,1,0,0:0:0:0:
448,192,244709,1,0,0:0:0:0:
320,192,244775,1,0,0:0:0:0:
64,192,244841,1,0,0:0:0:0:
448,192,244907,1,0,0:0:0:0:
64,192,244972,1,0,0:0:0:0:
320,192,245038,1,0,0:0:0:0:
192,192,245104,1,0,0:0:0:0:
320,192,245170,1,0,0:0:0:0:
192,192,245236,1,0,0:0:0:0:
64,192,245236,1,0,0:0:0:0:
448,192,245301,1,0,0:0:0:0:
64,192,245367,1,0,0:0:0:0:
192,192,245432,1,0,0:0:0:0:
320,192,245498,1,0,0:0:0:0:
64,192,245564,1,0,0:0:0:0:
448,192,245630,1,0,0:0:0:0:
64,192,245696,1,0,0:0:0:0:
192,192,245762,1,0,0:0:0:0:
448,192,245762,1,0,0:0:0:0:
320,192,245828,1,0,0:0:0:0:
64,192,245893,1,0,0:0:0:0:
192,192,245959,1,0,0:0:0:0:
448,192,246025,1,0,0:0:0:0:
320,192,246091,1,0,0:0:0:0:
192,192,246157,1,0,0:0:0:0:
64,192,246222,1,0,0:0:0:0:
448,192,246288,1,0,0:0:0:0:
320,192,246354,1,0,0:0:0:0:
192,192,246420,1,0,0:0:0:0:
64,192,246486,1,0,0:0:0:0:
320,192,246551,1,0,0:0:0:0:
448,192,246551,1,0,0:0:0:0:
192,192,246617,1,0,0:0:0:0:
448,192,246682,1,0,0:0:0:0:
64,192,246748,1,0,0:0:0:0:
192,192,246814,1,0,0:0:0:0:
320,192,246814,1,0,0:0:0:0:
448,192,246880,1,0,0:0:0:0:
64,192,246946,1,0,0:0:0:0:
320,192,247012,1,0,0:0:0:0:
64,192,247078,1,0,0:0:0:0:
320,192,247143,1,0,0:0:0:0:
192,192,247209,1,0,0:0:0:0:
448,192,247275,1,0,0:0:0:0:
320,192,247341,1,0,0:0:0:0:
64,192,247341,1,0,0:0:0:0:
192,192,247407,1,0,0:0:0:0:
448,192,247472,1,0,0:0:0:0:
192,192,247538,1,0,0:0:0:0:
64,192,247604,1,0,0:0:0:0:
448,192,247670,1,0,0:0:0:0:
320,192,247736,1,0,0:0:0:0:
192,192,247801,1,0,0:0:0:0:
64,192,247867,1,0,0:0:0:0:
448,192,247867,1,0,0:0:0:0:
320,192,247932,1,0,0:0:0:0:
192,192,247998,1,0,0:0:0:0:
320,192,248064,1,0,0:0:0:0:
64,192,248130,1,0,0:0:0:0:
448,192,248196,1,0,0:0:0:0:
64,192,248262,1,0,0:0:0:0:
448,192,248328,1,0,0:0:0:0:
320,192,248393,1,0,0:0:0:0:
64,192,248393,1,0,0:0:0:0:
192,192,248459,1,0,0:0:0:0:
320,192,248525,1,0,0:0:0:0:
64,192,248591,1,0,0:0:0:0:
192,192,248657,1,0,0:0:0:0:
448,192,248657,1,0,0:0:0:0:
320,192,248722,1,0,0:0:0:0:
64,192,248788,1,0,0:0:0:0:
448,192,248854,1,0,0:0:0:0:
320,192,248920,1,0,0:0:0:0:
64,192,248920,1,0,0:0:0:0:
192,192,248986,1,0,0:0:0:0:
448,192,249051,1,0,0:0:0:0:
64,192,249117,1,0,0:0:0:0:
192,192,249182,1,0,0:0:0:0:
448,192,249248,1,0,0:0:0:0:
192,192,249314,1,0,0:0:0:0:
320,192,249380,1,0,0:0:0:0:
64,192,249446,1,0,0:0:0:0:
448,192,249446,1,0,0:0:0:0:
192,192,249512,1,0,0:0:0:0:
320,192,249578,1,0,0:0:0:0:
192,192,249643,1,0,0:0:0:0:
320,192,249709,1,0,0:0:0:0:
448,192,249709,1,0,0:0:0:0:
64,192,249775,1,0,0:0:0:0:
192,192,249841,1,0,0:0:0:0:
448,192,249907,1,0,0:0:0:0:
320,192,249972,1,0,0:0:0:0:
64,192,249972,1,0,0:0:0:0:
192,192,250038,1,0,0:0:0:0:
448,192,250104,1,0,0:0:0:0:
64,192,250170,1,0,0:0:0:0:
192,192,250236,1,0,0:0:0:0:
320,192,250301,1,0,0:0:0:0:
64,192,250367,1,0,0:0:0:0:
448,192,250432,1,0,0:0:0:0:
320,192,250498,1,0,0:0:0:0:
64,192,250498,1,0,0:0:0:0:
192,192,250564,1,0,0:0:0:0:
448,192,250630,1,0,0:0:0:0:
192,192,250696,1,0,0:0:0:0:
320,192,250762,1,0,0:0:0:0:
448,192,250762,1,0,0:0:0:0:
64,192,250828,1,0,0:0:0:0:
192,192,250893,1,0,0:0:0:0:
448,192,250959,1,0,0:0:0:0:
320,192,251025,1,0,0:0:0:0:
64,192,251025,1,0,0:0:0:0:
192,192,251091,1,0,0:0:0:0:
320,192,251157,1,0,0:0:0:0:
192,192,251222,1,0,0:0:0:0:
448,192,251288,1,0,0:0:0:0:
64,192,251354,1,0,0:0:0:0:
320,192,251420,1,0,0:0:0:0:
192,192,251486,1,0,0:0:0:0:
64,192,251551,1,0,0:0:0:0:
448,192,251551,1,0,0:0:0:0:
320,192,251617,1,0,0:0:0:0:
64,192,251682,1,0,0:0:0:0:
320,192,251748,1,0,0:0:0:0:
192,192,251814,1,0,0:0:0:0:
448,192,251880,1,0,0:0:0:0:
64,192,251946,1,0,0:0:0:0:
192,192,252012,1,0,0:0:0:0:
320,192,252078,1,0,0:0:0:0:
448,192,252078,1,0,0:0:0:0:
192,192,252143,1,0,0:0:0:0:
320,192,252209,1,0,0:0:0:0:
64,192,252275,1,0,0:0:0:0:
448,192,252341,1,0,0:0:0:0:
320,192,252407,1,0,0:0:0:0:
64,192,252472,1,0,0:0:0:0:
320,192,252538,1,0,0:0:0:0:
192,192,252604,1,0,0:0:0:0:
64,192,252604,1,0,0:0:0:0:
448,192,252670,1,0,0:0:0:0:
192,192,252736,1,0,0:0:0:0:
320,192,252801,1,0,0:0:0:0:
64,192,252867,1,0,0:0:0:0:
192,192,252867,1,0,0:0:0:0:
448,192,252932,1,0,0:0:0:0:
64,192,252998,1,0,0:0:0:0:
448,192,253064,1,0,0:0:0:0:
320,192,253130,1,0,0:0:0:0:
192,192,253130,1,0,0:0:0:0:
64,192,253196,1,0,0:0:0:0:
448,192,253262,1,0,0:0:0:0:
64,192,253328,1,0,0:0:0:0:
192,192,253393,1,0,0:0:0:0:
448,192,253459,1,0,0:0:0:0:
320,192,253525,1,0,0:0:0:0:
192,192,253591,1,0,0:0:0:0:
64,192,253657,1,0,0:0:0:0:
448,192,253657,1,0,0:0:0:0:
320,192,253722,1,0,0:0:0:0:
64,192,253788,1,0,0:0:0:0:
192,192,253854,1,0,0:0:0:0:
320,192,253920,1,0,0:0:0:0:
64,192,253986,1,0,0:0:0:0:
320,192,254051,1,0,0:0:0:0:
448,192,254051,1,0,0:0:0:0:
64,192,254117,1,0,0:0:0:0:
192,192,254182,1,0,0:0:0:0:
320,192,254248,1,0,0:0:0:0:
64,192,254314,1,0,0:0:0:0:
192,192,254380,1,0,0:0:0:0:
320,192,254446,1,0,0:0:0:0:
448,192,254446,1,0,0:0:0:0:
192,192,254512,1,0,0:0:0:0:
64,192,254578,1,0,0:0:0:0:
448,192,254709,1,0,0:0:0:0:
320,192,254775,1,0,0:0:0:0:
192,192,254841,1,0,0:0:0:0:
320,192,254907,1,0,0:0:0:0:
64,192,254972,1,0,0:0:0:0:
192,192,254972,1,0,0:0:0:0:
448,192,255038,1,0,0:0:0:0:
64,192,255104,1,0,0:0:0:0:
448,192,255170,1,0,0:0:0:0:
320,192,255236,1,0,0:0:0:0:
192,192,255236,1,0,0:0:0:0:
64,192,255301,1,0,0:0:0:0:
320,192,255367,1,0,0:0:0:0:
64,192,255432,1,0,0:0:0:0:
448,192,255498,1,0,0:0:0:0:
192,192,255564,1,0,0:0:0:0:
320,192,255630,1,0,0:0:0:0:
192,192,255696,1,0,0:0:0:0:
64,192,255762,1,0,0:0:0:0:
448,192,255762,1,0,0:0:0:0:
320,192,255828,1,0,0:0:0:0:
192,192,255893,1,0,0:0:0:0:
320,192,255959,1,0,0:0:0:0:
64,192,256025,1,0,0:0:0:0:
448,192,256091,1,0,0:0:0:0:
192,192,256157,1,0,0:0:0:0:
448,192,256222,1,0,0:0:0:0:
320,192,256288,1,0,0:0:0:0:
64,192,256288,1,0,0:0:0:0:
192,192,256354,1,0,0:0:0:0:
448,192,256420,1,0,0:0:0:0:
192,192,256486,1,0,0:0:0:0:
448,192,256551,1,0,0:0:0:0:
320,192,256595,1,0,0:0:0:0:
192,192,256639,1,0,0:0:0:0:
64,192,256682,1,0,0:0:0:0:
320,192,256727,1,0,0:0:0:0:
192,192,256771,1,0,0:0:0:0:
448,192,256814,1,0,0:0:0:0:
320,192,256858,1,0,0:0:0:0:
192,192,256902,1,0,0:0:0:0:
64,192,256946,1,0,0:0:0:0:
320,192,256990,1,0,0:0:0:0:
192,192,257033,1,0,0:0:0:0:
64,192,257078,1,0,0:0:0:0:
448,192,257078,1,0,0:0:0:0:
320,192,257143,1,0,0:0:0:0:
192,192,257209,1,0,0:0:0:0:
320,192,257275,1,0,0:0:0:0:
448,192,257341,1,0,0:0:0:0:
192,192,257341,1,0,0:0:0:0:
64,192,257407,1,0,0:0:0:0:
320,192,257472,1,0,0:0:0:0:
64,192,257538,1,0,0:0:0:0:
448,192,257604,1,0,0:0:0:0:
192,192,257670,1,0,0:0:0:0:
320,192,257736,1,0,0:0:0:0:
192,192,257801,1,0,0:0:0:0:
320,192,257867,1,0,0:0:0:0:
64,192,257867,1,0,0:0:0:0:
448,192,257932,1,0,0:0:0:0:
192,192,257998,1,0,0:0:0:0:
448,192,258064,1,0,0:0:0:0:
64,192,258130,1,0,0:0:0:0:
320,192,258196,1,0,0:0:0:0:
192,192,258262,1,0,0:0:0:0:
320,192,258328,1,0,0:0:0:0:
448,192,258393,1,0,0:0:0:0:
192,192,258393,1,0,0:0:0:0:
64,192,258459,1,0,0:0:0:0:
320,192,258525,1,0,0:0:0:0:
64,192,258591,1,0,0:0:0:0:
448,192,258657,1,0,0:0:0:0:
320,192,258700,1,0,0:0:0:0:
192,192,258744,1,0,0:0:0:0:
64,192,258788,1,0,0:0:0:0:
320,192,258832,1,0,0:0:0:0:
192,192,258876,1,0,0:0:0:0:
448,192,258920,1,0,0:0:0:0:
320,192,258963,1,0,0:0:0:0:
192,192,259008,1,0,0:0:0:0:
64,192,259051,1,0,0:0:0:0:
320,192,259095,1,0,0:0:0:0:
192,192,259139,1,0,0:0:0:0:
64,192,259182,1,0,0:0:0:0:
448,192,259182,1,0,0:0:0:0:
320,192,259248,1,0,0:0:0:0:
64,192,259314,1,0,0:0:0:0:
320,192,259380,1,0,0:0:0:0:
192,192,259446,1,0,0:0:0:0:
448,192,259446,1,0,0:0:0:0:
64,192,259512,1,0,0:0:0:0:
320,192,259578,1,0,0:0:0:0:
64,192,259643,1,0,0:0:0:0:
448,192,259709,1,0,0:0:0:0:
192,192,259775,1,0,0:0:0:0:
320,192,259841,1,0,0:0:0:0:
192,192,259907,1,0,0:0:0:0:
64,192,259972,1,0,0:0:0:0:
320,192,259972,1,0,0:0:0:0:
448,192,260038,1,0,0:0:0:0:
192,192,260104,1,0,0:0:0:0:
448,192,260170,1,0,0:0:0:0:
64,192,260236,1,0,0:0:0:0:
320,192,260301,1,0,0:0:0:0:
192,192,260367,1,0,0:0:0:0:
320,192,260432,1,0,0:0:0:0:
192,192,260498,1,0,0:0:0:0:
448,192,260498,1,0,0:0:0:0:
64,192,260564,1,0,0:0:0:0:
320,192,260630,1,0,0:0:0:0:
64,192,260696,1,0,0:0:0:0:
448,192,260762,1,0,0:0:0:0:
320,192,260762,1,0,0:0:0:0:
192,192,260828,1,0,0:0:0:0:
64,192,260828,1,0,0:0:0:0:
320,192,260893,1,0,0:0:0:0:
448,192,260893,1,0,0:0:0:0:
192,192,260959,1,0,0:0:0:0:
64,192,260959,1,0,0:0:0:0:
320,192,261025,1,0,0:0:0:0:
192,192,261091,1,0,0:0:0:0:
64,192,261157,1,0,0:0:0:0:
320,192,261222,1,0,0:0:0:0:
192,192,261288,1,0,0:0:0:0:
448,192,261288,1,0,0:0:0:0:
64,192,261354,1,0,0:0:0:0:
320,192,261420,1,0,0:0:0:0:
448,192,261420,1,0,0:0:0:0:
64,192,261486,1,0,0:0:0:0:
192,192,261551,1,0,0:0:0:0:
448,192,261551,1,0,0:0:0:0:
320,192,261617,1,0,0:0:0:0:
192,192,261682,1,0,0:0:0:0:
64,192,261682,1,0,0:0:0:0:
320,192,261748,1,0,0:0:0:0:
64,192,261814,1,0,0:0:0:0:
448,192,261880,1,0,0:0:0:0:
192,192,261946,1,0,0:0:0:0:
320,192,261946,1,0,0:0:0:0:
448,192,262012,1,0,0:0:0:0:
320,192,262078,1,0,0:0:0:0:
64,192,262078,1,0,0:0:0:0:
192,192,262143,1,0,0:0:0:0:
320,192,262209,1,0,0:0:0:0:
448,192,262209,1,0,0:0:0:0:
192,192,262275,1,0,0:0:0:0:
64,192,262341,1,0,0:0:0:0:
320,192,262341,1,0,0:0:0:0:
448,192,262407,1,0,0:0:0:0:
192,192,262472,1,0,0:0:0:0:
64,192,262472,1,0,0:0:0:0:
448,192,262538,1,0,0:0:0:0:
320,192,262538,1,0,0:0:0:0:
192,192,262604,1,0,0:0:0:0:
64,192,262604,1,0,0:0:0:0:
320,192,262670,1,0,0:0:0:0:
448,192,262670,1,0,0:0:0:0:
64,192,262736,1,0,0:0:0:0:
192,192,262801,1,0,0:0:0:0:
320,192,262867,1,0,0:0:0:0:
448,192,262867,1,0,0:0:0:0:
192,192,262932,1,0,0:0:0:0:
64,192,262998,1,0,0:0:0:0:
448,192,262998,1,0,0:0:0:0:
320,192,263064,1,0,0:0:0:0:
192,192,263130,1,0,0:0:0:0:
64,192,263130,1,0,0:0:0:0:
320,192,263196,1,0,0:0:0:0:
64,192,263262,1,0,0:0:0:0:
192,192,263328,1,0,0:0:0:0:
320,192,263393,1,0,0:0:0:0:
448,192,263393,1,0,0:0:0:0:
64,192,263459,1,0,0:0:0:0:
320,192,263525,1,0,0:0:0:0:
64,192,263591,1,0,0:0:0:0:
448,192,263657,1,0,0:0:0:0:
192,192,263657,1,0,0:0:0:0:
320,192,263722,1,0,0:0:0:0:
64,192,263788,1,0,0:0:0:0:
320,192,263854,1,0,0:0:0:0:
192,192,263920,1,0,0:0:0:0:
448,192,263986,1,0,0:0:0:0:
64,192,264051,1,0,0:0:0:0:
448,192,264117,1,0,0:0:0:0:
192,192,264182,1,0,0:0:0:0:
320,192,264182,1,0,0:0:0:0:
64,192,264248,1,0,0:0:0:0:
448,192,264314,1,0,0:0:0:0:
64,192,264380,1,0,0:0:0:0:
320,192,264446,1,0,0:0:0:0:
192,192,264512,1,0,0:0:0:0:
448,192,264578,1,0,0:0:0:0:
192,192,264643,1,0,0:0:0:0:
320,192,264709,1,0,0:0:0:0:
64,192,264709,1,0,0:0:0:0:
448,192,264775,1,0,0:0:0:0:
192,192,264841,1,0,0:0:0:0:
448,192,264907,1,0,0:0:0:0:
64,192,264972,1,0,0:0:0:0:
192,192,265016,1,0,0:0:0:0:
320,192,265060,1,0,0:0:0:0:
448,192,265104,1,0,0:0:0:0:
192,192,265148,1,0,0:0:0:0:
320,192,265192,1,0,0:0:0:0:
64,192,265236,1,0,0:0:0:0:
192,192,265279,1,0,0:0:0:0:
320,192,265323,1,0,0:0:0:0:
448,192,265367,1,0,0:0:0:0:
192,192,265411,1,0,0:0:0:0:
320,192,265455,1,0,0:0:0:0:
64,192,265498,1,0,0:0:0:0:
448,192,265498,1,0,0:0:0:0:
192,192,265564,1,0,0:0:0:0:
320,192,265630,1,0,0:0:0:0:
192,192,265696,1,0,0:0:0:0:
448,192,265762,1,0,0:0:0:0:
64,192,265762,1,0,0:0:0:0:
320,192,265828,1,0,0:0:0:0:
64,192,265893,1,0,0:0:0:0:
320,192,265959,1,0,0:0:0:0:
192,192,266025,1,0,0:0:0:0:
448,192,266091,1,0,0:0:0:0:
64,192,266157,1,0,0:0:0:0:
448,192,266222,1,0,0:0:0:0:
64,192,266288,1,0,0:0:0:0:
320,192,266288,1,0,0:0:0:0:
192,192,266354,1,0,0:0:0:0:
448,192,266420,1,0,0:0:0:0:
192,192,266486,1,0,0:0:0:0:
320,192,266551,1,0,0:0:0:0:
64,192,266617,1,0,0:0:0:0:
448,192,266682,1,0,0:0:0:0:
64,192,266748,1,0,0:0:0:0:
192,192,266814,1,0,0:0:0:0:
320,192,266814,1,0,0:0:0:0:
448,192,266880,1,0,0:0:0:0:
64,192,266946,1,0,0:0:0:0:
448,192,267012,1,0,0:0:0:0:
192,192,267078,1,0,0:0:0:0:
64,192,267078,1,0,0:0:0:0:
320,192,267143,1,0,0:0:0:0:
192,192,267209,1,0,0:0:0:0:
448,192,267275,1,0,0:0:0:0:
64,192,267341,1,0,0:0:0:0:
192,192,267407,1,0,0:0:0:0:
320,192,267472,1,0,0:0:0:0:
64,192,267538,1,0,0:0:0:0:
192,192,267604,1,0,0:0:0:0:
448,192,267604,1,0,0:0:0:0:
320,192,267670,1,0,0:0:0:0:
64,192,267736,1,0,0:0:0:0:
320,192,267801,1,0,0:0:0:0:
64,192,267867,1,0,0:0:0:0:
448,192,267867,1,0,0:0:0:0:
192,192,267932,1,0,0:0:0:0:
320,192,267998,1,0,0:0:0:0:
192,192,268064,1,0,0:0:0:0:
64,192,268130,1,0,0:0:0:0:
320,192,268130,1,0,0:0:0:0:
448,192,268196,1,0,0:0:0:0:
192,192,268262,1,0,0:0:0:0:
448,192,268328,1,0,0:0:0:0:
320,192,268393,1,0,0:0:0:0:
64,192,268393,1,0,0:0:0:0:
192,192,268459,1,0,0:0:0:0:
320,192,268525,1,0,0:0:0:0:
192,192,268591,1,0,0:0:0:0:
64,192,268657,1,0,0:0:0:0:
448,192,268657,1,0,0:0:0:0:
320,192,268722,1,0,0:0:0:0:
64,192,268788,1,0,0:0:0:0:
320,192,268854,1,0,0:0:0:0:
192,192,268920,1,0,0:0:0:0:
448,192,268920,1,0,0:0:0:0:
64,192,268986,1,0,0:0:0:0:
320,192,269051,1,0,0:0:0:0:
64,192,269117,1,0,0:0:0:0:
320,192,269182,1,0,0:0:0:0:
448,192,269182,1,0,0:0:0:0:
192,192,269248,1,0,0:0:0:0:
64,192,269248,1,0,0:0:0:0:
320,192,269314,1,0,0:0:0:0:
448,192,269314,1,0,0:0:0:0:
192,192,269380,1,0,0:0:0:0:
64,192,269380,1,0,0:0:0:0:
320,192,269446,1,0,0:0:0:0:
192,192,269512,1,0,0:0:0:0:
64,192,269578,1,0,0:0:0:0:
320,192,269643,1,0,0:0:0:0:
192,192,269709,1,0,0:0:0:0:
64,192,269709,1,0,0:0:0:0:
448,192,269709,1,0,0:0:0:0:
320,192,269841,1,0,0:0:0:0:
192,192,269841,1,0,0:0:0:0:
64,192,269972,1,0,0:0:0:0:
320,192,269972,1,0,0:0:0:0:
192,192,270104,1,0,0:0:0:0:
320,192,270104,1,0,0:0:0:0:
448,192,270104,1,0,0:0:0:0:
192,192,270236,1,0,0:0:0:0:
64,192,270236,1,0,0:0:0:0:
448,192,270367,1,0,0:0:0:0:
64,192,270367,1,0,0:0:0:0:
192,192,270498,1,0,0:0:0:0:
320,192,270630,1,0,0:0:0:0:
448,192,270630,1,0,0:0:0:0:
192,192,270762,1,0,0:0:0:0:
64,192,270762,1,0,0:0:0:0:
448,192,270762,1,0,0:0:0:0:
320,192,270893,1,0,0:0:0:0:
64,192,270893,1,0,0:0:0:0:
192,192,271025,1,0,0:0:0:0:
320,192,271025,1,0,0:0:0:0:
64,192,271157,1,0,0:0:0:0:
192,192,271157,1,0,0:0:0:0:
448,192,271157,1,0,0:0:0:0:
320,192,271288,1,0,0:0:0:0:
64,192,271288,1,0,0:0:0:0:
192,192,271420,1,0,0:0:0:0:
320,192,271420,1,0,0:0:0:0:
64,192,271551,1,0,0:0:0:0:
448,192,271551,1,0,0:0:0:0:
192,192,271617,1,0,0:0:0:0:
320,192,271682,1,0,0:0:0:0:
192,192,271748,1,0,0:0:0:0:
64,192,271814,1,0,0:0:0:0:
320,192,271814,1,0,0:0:0:0:
448,192,271814,1,0,0:0:0:0:
