osu file format v14

[General]
AudioFilename: audio125.mp3
AudioLeadIn: 0
PreviewTime: 66882
Countdown: 0
SampleSet: Normal
StackLeniency: 0.7
Mode: 3
LetterboxInBreaks: 0
SpecialStyle: 0
WidescreenStoryboard: 0

[Editor]
DistanceSpacing: 0.8
BeatDivisor: 4
GridSize: 8
TimelineZoom: 1.5

[Metadata]
Title:Master of Peace
TitleUnicode:Master of Peace
Artist:Rhapsody of Fire
ArtistUnicode:Rhapsody of Fire
Creator:Cokiiplay
Version:Peacful 1,25x
Source:
Tags:
BeatmapID:1964597
BeatmapSetID:940666

[Difficulty]
HPDrainRate:8
CircleSize:4
OverallDifficulty:8
ApproachRate:5
SliderMultiplier:1.4
SliderTickRate:1

[Events]
//Background and Video events
0,0,"cropped-1920-1080-602628.jpg",0,0
//Break Periods
//Storyboard Layer 0 (Background)
//Storyboard Layer 1 (Fail)
//Storyboard Layer 2 (Pass)
//Storyboard Layer 3 (Foreground)
//Storyboard Sound Samples

[TimingPoints]
228,252.631578947369,4,1,0,50,1,0

[HitObjects]
64,192,228,5,0,0:0:0:0:
320,192,228,1,0,0:0:0:0:
448,192,228,1,0,0:0:0:0:
192,192,354,1,0,0:0:0:0:
448,192,417,1,0,0:0:0:0:
64,192,480,1,0,0:0:0:0:
320,192,543,1,0,0:0:0:0:
192,192,606,128,0,670:0:0:0:0:
448,192,733,1,0,0:0:0:0:
320,192,796,1,0,0:0:0:0:
64,192,859,1,0,0:0:0:0:
448,192,922,1,0,0:0:0:0:
192,192,986,128,0,1049:0:0:0:0:
320,192,1112,1,0,0:0:0:0:
192,192,1175,1,0,0:0:0:0:
448,192,1238,1,0,0:0:0:0:
64,192,1302,1,0,0:0:0:0:
320,192,1365,128,0,1428:0:0:0:0:
192,192,1490,1,0,0:0:0:0:
320,192,1554,1,0,0:0:0:0:
64,192,1617,1,0,0:0:0:0:
192,192,1680,1,0,0:0:0:0:
448,192,1743,1,0,0:0:0:0:
192,192,1806,1,0,0:0:0:0:
448,192,1870,1,0,0:0:0:0:
192,192,1933,1,0,0:0:0:0:
320,192,1996,1,0,0:0:0:0:
64,192,2059,1,0,0:0:0:0:
320,192,2122,1,0,0:0:0:0:
64,192,2186,1,0,0:0:0:0:
192,192,2249,1,0,0:0:0:0:
448,192,2249,1,0,0:0:0:0:
320,192,2249,1,0,0:0:0:0:
64,192,2375,1,0,0:0:0:0:
448,192,2438,1,0,0:0:0:0:
192,192,2502,1,0,0:0:0:0:
320,192,2565,1,0,0:0:0:0:
64,192,2628,128,0,2690:0:0:0:0:
448,192,2754,1,0,0:0:0:0:
192,192,2817,1,0,0:0:0:0:
320,192,2880,1,0,0:0:0:0:
64,192,2943,1,0,0:0:0:0:
448,192,3006,128,0,3070:0:0:0:0:
192,192,3133,1,0,0:0:0:0:
320,192,3196,1,0,0:0:0:0:
64,192,3259,1,0,0:0:0:0:
192,192,3322,1,0,0:0:0:0:
448,192,3386,128,0,3449:0:0:0:0:
320,192,3512,1,0,0:0:0:0:
192,192,3575,1,0,0:0:0:0:
64,192,3638,1,0,0:0:0:0:
320,192,3702,1,0,0:0:0:0:
192,192,3765,128,0,3954:0:0:0:0:
64,192,3765,128,0,3954:0:0:0:0:
448,192,3765,128,0,4017:0:0:0:0:
64,192,4017,128,0,4270:0:0:0:0:
192,192,4017,128,0,4206:0:0:0:0:
320,192,4017,128,0,4206:0:0:0:0:
192,192,4270,1,0,0:0:0:0:
320,192,4270,1,0,0:0:0:0:
448,192,4270,1,0,0:0:0:0:
64,192,4396,1,0,0:0:0:0:
448,192,4459,1,0,0:0:0:0:
192,192,4522,1,0,0:0:0:0:
320,192,4586,1,0,0:0:0:0:
64,192,4649,128,0,4712:0:0:0:0:
448,192,4775,1,0,0:0:0:0:
192,192,4838,1,0,0:0:0:0:
320,192,4902,1,0,0:0:0:0:
64,192,4965,1,0,0:0:0:0:
448,192,5028,128,0,5090:0:0:0:0:
320,192,5154,1,0,0:0:0:0:
192,192,5217,1,0,0:0:0:0:
448,192,5280,1,0,0:0:0:0:
64,192,5343,1,0,0:0:0:0:
192,192,5406,128,0,5470:0:0:0:0:
320,192,5533,1,0,0:0:0:0:
64,192,5596,1,0,0:0:0:0:
448,192,5659,1,0,0:0:0:0:
192,192,5722,1,0,0:0:0:0:
320,192,5786,1,0,0:0:0:0:
64,192,5849,1,0,0:0:0:0:
320,192,5912,1,0,0:0:0:0:
64,192,5975,1,0,0:0:0:0:
192,192,6038,1,0,0:0:0:0:
448,192,6102,1,0,0:0:0:0:
192,192,6165,1,0,0:0:0:0:
448,192,6228,1,0,0:0:0:0:
320,192,6290,1,0,0:0:0:0:
192,192,6290,1,0,0:0:0:0:
64,192,6290,1,0,0:0:0:0:
448,192,6417,1,0,0:0:0:0:
320,192,6543,1,0,0:0:0:0:
448,192,6543,1,0,0:0:0:0:
64,192,6670,1,0,0:0:0:0:
192,192,6670,1,0,0:0:0:0:
448,192,6670,1,0,0:0:0:0:
320,192,6796,1,0,0:0:0:0:
320,192,6922,1,0,0:0:0:0:
64,192,6922,1,0,0:0:0:0:
192,192,7049,1,0,0:0:0:0:
64,192,7049,1,0,0:0:0:0:
448,192,7049,1,0,0:0:0:0:
192,192,7175,1,0,0:0:0:0:
320,192,7175,1,0,0:0:0:0:
64,192,7302,1,0,0:0:0:0:
320,192,7302,1,0,0:0:0:0:
448,192,7302,1,0,0:0:0:0:
64,192,7428,1,0,0:0:0:0:
192,192,7490,1,0,0:0:0:0:
320,192,7554,1,0,0:0:0:0:
448,192,7617,1,0,0:0:0:0:
192,192,7680,1,0,0:0:0:0:
64,192,7743,1,0,0:0:0:0:
448,192,7806,1,0,0:0:0:0:
192,192,7870,1,0,0:0:0:0:
320,192,7933,1,0,0:0:0:0:
448,192,7996,1,0,0:0:0:0:
192,192,8059,1,0,0:0:0:0:
64,192,8122,1,0,0:0:0:0:
320,192,8186,1,0,0:0:0:0:
192,192,8249,1,0,0:0:0:0:
64,192,8312,1,0,0:0:0:0:
448,192,8312,1,0,0:0:0:0:
320,192,8375,1,0,0:0:0:0:
192,192,8438,1,0,0:0:0:0:
448,192,8502,1,0,0:0:0:0:
64,192,8565,1,0,0:0:0:0:
192,192,8565,1,0,0:0:0:0:
448,192,8628,1,0,0:0:0:0:
320,192,8690,1,0,0:0:0:0:
64,192,8754,1,0,0:0:0:0:
192,192,8817,1,0,0:0:0:0:
448,192,8880,1,0,0:0:0:0:
64,192,8943,1,0,0:0:0:0:
192,192,9006,1,0,0:0:0:0:
320,192,9070,1,0,0:0:0:0:
448,192,9070,1,0,0:0:0:0:
192,192,9133,1,0,0:0:0:0:
448,192,9196,1,0,0:0:0:0:
64,192,9259,1,0,0:0:0:0:
320,192,9322,1,0,0:0:0:0:
64,192,9386,1,0,0:0:0:0:
192,192,9449,1,0,0:0:0:0:
448,192,9512,1,0,0:0:0:0:
320,192,9575,1,0,0:0:0:0:
192,192,9575,1,0,0:0:0:0:
448,192,9638,1,0,0:0:0:0:
64,192,9702,1,0,0:0:0:0:
192,192,9765,1,0,0:0:0:0:
448,192,9828,1,0,0:0:0:0:
320,192,9890,1,0,0:0:0:0:
192,192,9954,1,0,0:0:0:0:
64,192,10017,1,0,0:0:0:0:
448,192,10080,1,0,0:0:0:0:
192,192,10080,1,0,0:0:0:0:
320,192,10143,1,0,0:0:0:0:
192,192,10206,1,0,0:0:0:0:
64,192,10270,1,0,0:0:0:0:
448,192,10333,1,0,0:0:0:0:
320,192,10396,1,0,0:0:0:0:
192,192,10459,1,0,0:0:0:0:
448,192,10522,1,0,0:0:0:0:
320,192,10586,1,0,0:0:0:0:
64,192,10586,1,0,0:0:0:0:
448,192,10649,1,0,0:0:0:0:
64,192,10712,1,0,0:0:0:0:
192,192,10775,1,0,0:0:0:0:
320,192,10838,1,0,0:0:0:0:
64,192,10902,1,0,0:0:0:0:
448,192,10965,1,0,0:0:0:0:
320,192,11028,1,0,0:0:0:0:
64,192,11090,1,0,0:0:0:0:
192,192,11090,1,0,0:0:0:0:
320,192,11154,1,0,0:0:0:0:
192,192,11217,1,0,0:0:0:0:
64,192,11280,1,0,0:0:0:0:
448,192,11343,1,0,0:0:0:0:
192,192,11406,1,0,0:0:0:0:
320,192,11470,1,0,0:0:0:0:
64,192,11533,1,0,0:0:0:0:
192,192,11596,1,0,0:0:0:0:
448,192,11596,1,0,0:0:0:0:
64,192,11659,1,0,0:0:0:0:
448,192,11722,1,0,0:0:0:0:
320,192,11786,1,0,0:0:0:0:
64,192,11849,128,0,12102:0:0:0:0:
192,192,11849,128,0,12038:0:0:0:0:
448,192,11849,128,0,12038:0:0:0:0:
192,192,12102,128,0,12290:0:0:0:0:
320,192,12102,128,0,12290:0:0:0:0:
448,192,12102,128,0,12354:0:0:0:0:
192,192,12354,1,0,0:0:0:0:
320,192,12354,1,0,0:0:0:0:
64,192,12354,1,0,0:0:0:0:
448,192,12417,1,0,0:0:0:0:
64,192,12480,1,0,0:0:0:0:
192,192,12543,1,0,0:0:0:0:
320,192,12606,1,0,0:0:0:0:
448,192,12606,1,0,0:0:0:0:
192,192,12670,1,0,0:0:0:0:
448,192,12733,1,0,0:0:0:0:
64,192,12796,1,0,0:0:0:0:
320,192,12859,1,0,0:0:0:0:
64,192,12922,1,0,0:0:0:0:
192,192,12986,1,0,0:0:0:0:
448,192,13049,1,0,0:0:0:0:
320,192,13112,1,0,0:0:0:0:
192,192,13112,1,0,0:0:0:0:
448,192,13175,1,0,0:0:0:0:
64,192,13238,1,0,0:0:0:0:
320,192,13302,1,0,0:0:0:0:
192,192,13365,1,0,0:0:0:0:
320,192,13428,1,0,0:0:0:0:
64,192,13490,1,0,0:0:0:0:
192,192,13554,1,0,0:0:0:0:
448,192,13617,1,0,0:0:0:0:
320,192,13617,1,0,0:0:0:0:
64,192,13680,1,0,0:0:0:0:
192,192,13743,1,0,0:0:0:0:
448,192,13806,1,0,0:0:0:0:
192,192,13870,1,0,0:0:0:0:
64,192,13870,1,0,0:0:0:0:
320,192,13933,1,0,0:0:0:0:
448,192,13933,1,0,0:0:0:0:
192,192,13996,1,0,0:0:0:0:
64,192,13996,1,0,0:0:0:0:
320,192,14059,1,0,0:0:0:0:
448,192,14059,1,0,0:0:0:0:
64,192,14122,1,0,0:0:0:0:
320,192,14186,1,0,0:0:0:0:
64,192,14249,1,0,0:0:0:0:
320,192,14312,1,0,0:0:0:0:
448,192,14375,1,0,0:0:0:0:
64,192,14375,1,0,0:0:0:0:
192,192,14375,1,0,0:0:0:0:
320,192,14502,1,0,0:0:0:0:
320,192,14628,1,0,0:0:0:0:
192,192,14628,1,0,0:0:0:0:
64,192,14754,1,0,0:0:0:0:
192,192,14754,1,0,0:0:0:0:
448,192,14754,1,0,0:0:0:0:
320,192,14880,1,0,0:0:0:0:
64,192,15006,1,0,0:0:0:0:
448,192,15006,1,0,0:0:0:0:
192,192,15133,1,0,0:0:0:0:
320,192,15133,1,0,0:0:0:0:
448,192,15133,1,0,0:0:0:0:
64,192,15259,1,0,0:0:0:0:
320,192,15259,1,0,0:0:0:0:
64,192,15386,1,0,0:0:0:0:
192,192,15386,1,0,0:0:0:0:
448,192,15386,1,0,0:0:0:0:
320,192,15512,1,0,0:0:0:0:
192,192,15638,1,0,0:0:0:0:
320,192,15638,1,0,0:0:0:0:
192,192,15765,1,0,0:0:0:0:
64,192,15765,1,0,0:0:0:0:
448,192,15765,1,0,0:0:0:0:
320,192,15890,1,0,0:0:0:0:
64,192,15890,1,0,0:0:0:0:
64,192,16017,1,0,0:0:0:0:
320,192,16017,1,0,0:0:0:0:
192,192,16143,1,0,0:0:0:0:
320,192,16143,1,0,0:0:0:0:
448,192,16143,1,0,0:0:0:0:
64,192,16270,1,0,0:0:0:0:
448,192,16270,1,0,0:0:0:0:
320,192,16396,1,0,0:0:0:0:
64,192,16396,1,0,0:0:0:0:
192,192,16396,1,0,0:0:0:0:
64,192,16902,1,0,0:0:0:0:
192,192,16965,1,0,0:0:0:0:
320,192,17028,1,0,0:0:0:0:
64,192,17090,1,0,0:0:0:0:
192,192,17154,1,0,0:0:0:0:
448,192,17217,1,0,0:0:0:0:
64,192,17280,1,0,0:0:0:0:
192,192,17343,1,0,0:0:0:0:
320,192,17406,1,0,0:0:0:0:
448,192,17406,1,0,0:0:0:0:
64,192,17406,1,0,0:0:0:0:
64,192,18417,1,0,0:0:0:0:
448,192,18417,1,0,0:0:0:0:
320,192,18480,1,0,0:0:0:0:
192,192,18543,1,0,0:0:0:0:
448,192,18606,1,0,0:0:0:0:
320,192,18670,1,0,0:0:0:0:
64,192,18670,1,0,0:0:0:0:
192,192,18733,1,0,0:0:0:0:
448,192,18796,1,0,0:0:0:0:
192,192,18859,1,0,0:0:0:0:
320,192,18922,1,0,0:0:0:0:
64,192,18986,1,0,0:0:0:0:
192,192,19049,1,0,0:0:0:0:
448,192,19112,1,0,0:0:0:0:
320,192,19175,1,0,0:0:0:0:
64,192,19175,1,0,0:0:0:0:
192,192,19238,1,0,0:0:0:0:
448,192,19302,1,0,0:0:0:0:
320,192,19365,1,0,0:0:0:0:
64,192,19428,1,0,0:0:0:0:
448,192,19490,1,0,0:0:0:0:
192,192,19554,1,0,0:0:0:0:
320,192,19617,1,0,0:0:0:0:
64,192,19680,1,0,0:0:0:0:
192,192,19680,1,0,0:0:0:0:
448,192,19743,1,0,0:0:0:0:
320,192,19806,1,0,0:0:0:0:
64,192,19870,1,0,0:0:0:0:
192,192,19933,1,0,0:0:0:0:
448,192,19996,1,0,0:0:0:0:
192,192,20059,1,0,0:0:0:0:
320,192,20122,1,0,0:0:0:0:
448,192,20186,1,0,0:0:0:0:
64,192,20186,1,0,0:0:0:0:
192,192,20249,1,0,0:0:0:0:
320,192,20312,1,0,0:0:0:0:
64,192,20375,1,0,0:0:0:0:
448,192,20438,1,0,0:0:0:0:
320,192,20502,1,0,0:0:0:0:
64,192,20565,1,0,0:0:0:0:
320,192,20628,1,0,0:0:0:0:
192,192,20690,1,0,0:0:0:0:
64,192,20690,1,0,0:0:0:0:
448,192,20754,1,0,0:0:0:0:
320,192,20817,1,0,0:0:0:0:
64,192,20880,1,0,0:0:0:0:
448,192,20943,1,0,0:0:0:0:
320,192,21006,1,0,0:0:0:0:
64,192,21070,1,0,0:0:0:0:
448,192,21133,1,0,0:0:0:0:
320,192,21196,1,0,0:0:0:0:
192,192,21196,1,0,0:0:0:0:
64,192,21259,1,0,0:0:0:0:
448,192,21322,1,0,0:0:0:0:
64,192,21386,1,0,0:0:0:0:
192,192,21449,1,0,0:0:0:0:
320,192,21512,1,0,0:0:0:0:
64,192,21575,1,0,0:0:0:0:
448,192,21638,1,0,0:0:0:0:
320,192,21702,1,0,0:0:0:0:
192,192,21702,1,0,0:0:0:0:
64,192,21765,1,0,0:0:0:0:
448,192,21828,1,0,0:0:0:0:
320,192,21890,1,0,0:0:0:0:
192,192,21954,1,0,0:0:0:0:
320,192,22017,1,0,0:0:0:0:
64,192,22080,1,0,0:0:0:0:
192,192,22143,1,0,0:0:0:0:
320,192,22206,1,0,0:0:0:0:
448,192,22206,1,0,0:0:0:0:
64,192,22270,1,0,0:0:0:0:
448,192,22333,1,0,0:0:0:0:
192,192,22396,1,0,0:0:0:0:
320,192,22459,1,0,0:0:0:0:
64,192,22522,1,0,0:0:0:0:
192,192,22586,1,0,0:0:0:0:
448,192,22649,1,0,0:0:0:0:
320,192,22712,1,0,0:0:0:0:
64,192,22712,1,0,0:0:0:0:
192,192,22775,1,0,0:0:0:0:
448,192,22838,1,0,0:0:0:0:
64,192,22902,1,0,0:0:0:0:
320,192,22965,1,0,0:0:0:0:
64,192,23028,1,0,0:0:0:0:
192,192,23090,1,0,0:0:0:0:
320,192,23154,1,0,0:0:0:0:
64,192,23217,1,0,0:0:0:0:
448,192,23217,1,0,0:0:0:0:
192,192,23280,1,0,0:0:0:0:
320,192,23343,1,0,0:0:0:0:
192,192,23406,1,0,0:0:0:0:
320,192,23470,1,0,0:0:0:0:
64,192,23533,1,0,0:0:0:0:
448,192,23596,1,0,0:0:0:0:
320,192,23659,1,0,0:0:0:0:
192,192,23722,1,0,0:0:0:0:
64,192,23722,1,0,0:0:0:0:
448,192,23786,1,0,0:0:0:0:
320,192,23849,1,0,0:0:0:0:
192,192,23912,1,0,0:0:0:0:
448,192,23975,1,0,0:0:0:0:
64,192,23975,1,0,0:0:0:0:
320,192,24038,1,0,0:0:0:0:
192,192,24038,1,0,0:0:0:0:
64,192,24102,1,0,0:0:0:0:
448,192,24102,1,0,0:0:0:0:
192,192,24165,1,0,0:0:0:0:
320,192,24165,1,0,0:0:0:0:
64,192,24228,1,0,0:0:0:0:
320,192,24290,1,0,0:0:0:0:
64,192,24354,1,0,0:0:0:0:
320,192,24417,1,0,0:0:0:0:
448,192,24480,1,0,0:0:0:0:
64,192,24480,1,0,0:0:0:0:
192,192,24480,1,0,0:0:0:0:
320,192,24733,1,0,0:0:0:0:
192,192,24733,1,0,0:0:0:0:
64,192,24986,1,0,0:0:0:0:
64,192,25112,1,0,0:0:0:0:
192,192,25238,1,0,0:0:0:0:
320,192,25238,1,0,0:0:0:0:
64,192,25365,1,0,0:0:0:0:
192,192,25428,1,0,0:0:0:0:
320,192,25490,1,0,0:0:0:0:
320,192,25617,1,0,0:0:0:0:
448,192,25617,1,0,0:0:0:0:
320,192,25870,1,0,0:0:0:0:
448,192,25870,1,0,0:0:0:0:
320,192,26122,1,0,0:0:0:0:
448,192,26122,1,0,0:0:0:0:
320,192,26375,1,0,0:0:0:0:
448,192,26375,1,0,0:0:0:0:
192,192,26502,1,0,0:0:0:0:
64,192,26502,1,0,0:0:0:0:
448,192,26502,1,0,0:0:0:0:
320,192,26565,1,0,0:0:0:0:
64,192,26628,1,0,0:0:0:0:
448,192,26690,1,0,0:0:0:0:
320,192,26754,1,0,0:0:0:0:
192,192,26754,1,0,0:0:0:0:
64,192,26817,1,0,0:0:0:0:
448,192,26880,1,0,0:0:0:0:
192,192,26943,1,0,0:0:0:0:
320,192,27006,1,0,0:0:0:0:
192,192,27070,1,0,0:0:0:0:
448,192,27133,1,0,0:0:0:0:
320,192,27196,1,0,0:0:0:0:
192,192,27259,1,0,0:0:0:0:
64,192,27259,1,0,0:0:0:0:
448,192,27322,1,0,0:0:0:0:
64,192,27386,1,0,0:0:0:0:
192,192,27449,1,0,0:0:0:0:
320,192,27512,1,0,0:0:0:0:
192,192,27575,1,0,0:0:0:0:
448,192,27638,1,0,0:0:0:0:
320,192,27702,1,0,0:0:0:0:
192,192,27765,1,0,0:0:0:0:
64,192,27765,1,0,0:0:0:0:
320,192,27828,1,0,0:0:0:0:
64,192,27890,1,0,0:0:0:0:
192,192,27954,1,0,0:0:0:0:
320,192,28017,1,0,0:0:0:0:
64,192,28080,1,0,0:0:0:0:
448,192,28143,1,0,0:0:0:0:
192,192,28206,1,0,0:0:0:0:
320,192,28270,1,0,0:0:0:0:
448,192,28270,1,0,0:0:0:0:
64,192,28333,1,0,0:0:0:0:
192,192,28396,1,0,0:0:0:0:
448,192,28459,1,0,0:0:0:0:
64,192,28522,1,0,0:0:0:0:
320,192,28586,1,0,0:0:0:0:
64,192,28649,1,0,0:0:0:0:
448,192,28712,1,0,0:0:0:0:
320,192,28775,1,0,0:0:0:0:
192,192,28775,1,0,0:0:0:0:
64,192,28838,1,0,0:0:0:0:
448,192,28902,1,0,0:0:0:0:
320,192,28965,1,0,0:0:0:0:
192,192,29028,1,0,0:0:0:0:
320,192,29090,1,0,0:0:0:0:
64,192,29154,1,0,0:0:0:0:
192,192,29217,1,0,0:0:0:0:
320,192,29280,1,0,0:0:0:0:
448,192,29280,1,0,0:0:0:0:
192,192,29343,1,0,0:0:0:0:
448,192,29406,1,0,0:0:0:0:
320,192,29470,1,0,0:0:0:0:
64,192,29533,1,0,0:0:0:0:
448,192,29596,1,0,0:0:0:0:
192,192,29659,1,0,0:0:0:0:
320,192,29722,1,0,0:0:0:0:
192,192,29786,1,0,0:0:0:0:
64,192,29786,1,0,0:0:0:0:
448,192,29849,1,0,0:0:0:0:
320,192,29912,1,0,0:0:0:0:
64,192,29975,1,0,0:0:0:0:
320,192,30038,1,0,0:0:0:0:
192,192,30102,1,0,0:0:0:0:
448,192,30165,1,0,0:0:0:0:
64,192,30228,1,0,0:0:0:0:
192,192,30290,1,0,0:0:0:0:
448,192,30290,1,0,0:0:0:0:
320,192,30354,1,0,0:0:0:0:
192,192,30417,1,0,0:0:0:0:
320,192,30480,1,0,0:0:0:0:
64,192,30543,1,0,0:0:0:0:
192,192,30606,1,0,0:0:0:0:
448,192,30670,1,0,0:0:0:0:
64,192,30733,1,0,0:0:0:0:
192,192,30796,1,0,0:0:0:0:
448,192,30796,1,0,0:0:0:0:
320,192,30859,1,0,0:0:0:0:
192,192,30922,1,0,0:0:0:0:
448,192,30986,1,0,0:0:0:0:
64,192,31049,1,0,0:0:0:0:
320,192,31112,1,0,0:0:0:0:
192,192,31175,1,0,0:0:0:0:
448,192,31238,1,0,0:0:0:0:
320,192,31302,1,0,0:0:0:0:
64,192,31302,1,0,0:0:0:0:
192,192,31365,1,0,0:0:0:0:
448,192,31428,1,0,0:0:0:0:
64,192,31490,1,0,0:0:0:0:
192,192,31554,1,0,0:0:0:0:
320,192,31617,1,0,0:0:0:0:
64,192,31680,1,0,0:0:0:0:
448,192,31743,1,0,0:0:0:0:
320,192,31806,1,0,0:0:0:0:
64,192,31806,1,0,0:0:0:0:
192,192,31870,1,0,0:0:0:0:
320,192,31933,1,0,0:0:0:0:
64,192,31996,1,0,0:0:0:0:
192,192,32059,1,0,0:0:0:0:
448,192,32122,1,0,0:0:0:0:
192,192,32186,1,0,0:0:0:0:
320,192,32249,1,0,0:0:0:0:
448,192,32312,1,0,0:0:0:0:
64,192,32312,1,0,0:0:0:0:
192,192,32375,1,0,0:0:0:0:
320,192,32438,1,0,0:0:0:0:
192,192,32502,1,0,0:0:0:0:
448,192,32565,1,0,0:0:0:0:
320,192,32628,1,0,0:0:0:0:
192,192,32690,1,0,0:0:0:0:
448,192,32754,1,0,0:0:0:0:
320,192,32817,1,0,0:0:0:0:
64,192,32817,1,0,0:0:0:0:
192,192,32880,1,0,0:0:0:0:
448,192,32943,1,0,0:0:0:0:
64,192,33006,1,0,0:0:0:0:
320,192,33070,1,0,0:0:0:0:
64,192,33133,1,0,0:0:0:0:
448,192,33196,1,0,0:0:0:0:
192,192,33259,1,0,0:0:0:0:
320,192,33322,1,0,0:0:0:0:
448,192,33322,1,0,0:0:0:0:
64,192,33386,1,0,0:0:0:0:
192,192,33449,1,0,0:0:0:0:
448,192,33512,1,0,0:0:0:0:
64,192,33575,1,0,0:0:0:0:
320,192,33638,1,0,0:0:0:0:
192,192,33702,1,0,0:0:0:0:
448,192,33765,1,0,0:0:0:0:
320,192,33828,1,0,0:0:0:0:
64,192,33828,1,0,0:0:0:0:
192,192,33890,1,0,0:0:0:0:
448,192,33954,1,0,0:0:0:0:
64,192,34017,1,0,0:0:0:0:
448,192,34080,1,0,0:0:0:0:
320,192,34080,1,0,0:0:0:0:
192,192,34143,1,0,0:0:0:0:
64,192,34143,1,0,0:0:0:0:
448,192,34206,1,0,0:0:0:0:
320,192,34270,1,0,0:0:0:0:
64,192,34333,1,0,0:0:0:0:
192,192,34396,1,0,0:0:0:0:
64,192,34459,1,0,0:0:0:0:
192,192,34522,1,0,0:0:0:0:
320,192,34586,1,0,0:0:0:0:
448,192,34586,1,0,0:0:0:0:
320,192,34712,1,0,0:0:0:0:
64,192,34838,1,0,0:0:0:0:
448,192,34838,1,0,0:0:0:0:
192,192,34965,1,0,0:0:0:0:
320,192,34965,1,0,0:0:0:0:
192,192,35090,1,0,0:0:0:0:
64,192,35217,1,0,0:0:0:0:
320,192,35343,1,0,0:0:0:0:
448,192,35343,1,0,0:0:0:0:
320,192,35470,1,0,0:0:0:0:
192,192,35596,1,0,0:0:0:0:
64,192,35722,1,0,0:0:0:0:
320,192,35722,1,0,0:0:0:0:
192,192,35849,1,0,0:0:0:0:
320,192,35849,1,0,0:0:0:0:
64,192,35975,1,0,0:0:0:0:
192,192,36038,1,0,0:0:0:0:
320,192,36102,1,0,0:0:0:0:
448,192,36102,1,0,0:0:0:0:
64,192,36228,1,0,0:0:0:0:
320,192,36354,1,0,0:0:0:0:
448,192,36354,1,0,0:0:0:0:
192,192,36480,1,0,0:0:0:0:
64,192,36606,1,0,0:0:0:0:
448,192,36606,1,0,0:0:0:0:
448,192,36733,1,0,0:0:0:0:
320,192,36859,1,0,0:0:0:0:
192,192,36859,1,0,0:0:0:0:
64,192,36986,1,0,0:0:0:0:
320,192,36986,1,0,0:0:0:0:
64,192,37112,1,0,0:0:0:0:
192,192,37238,1,0,0:0:0:0:
320,192,37365,1,0,0:0:0:0:
448,192,37365,1,0,0:0:0:0:
320,192,37490,1,0,0:0:0:0:
64,192,37617,1,0,0:0:0:0:
192,192,37743,1,0,0:0:0:0:
448,192,37743,1,0,0:0:0:0:
320,192,37870,1,0,0:0:0:0:
192,192,37870,1,0,0:0:0:0:
64,192,37996,1,0,0:0:0:0:
192,192,38059,1,0,0:0:0:0:
320,192,38122,1,0,0:0:0:0:
448,192,38122,1,0,0:0:0:0:
64,192,38249,1,0,0:0:0:0:
320,192,38375,1,0,0:0:0:0:
448,192,38375,1,0,0:0:0:0:
192,192,38502,1,0,0:0:0:0:
64,192,38628,1,0,0:0:0:0:
448,192,38628,1,0,0:0:0:0:
448,192,38754,1,0,0:0:0:0:
192,192,38880,1,0,0:0:0:0:
64,192,38880,1,0,0:0:0:0:
192,192,39006,1,0,0:0:0:0:
320,192,39006,1,0,0:0:0:0:
320,192,39133,1,0,0:0:0:0:
64,192,39259,1,0,0:0:0:0:
320,192,39386,1,0,0:0:0:0:
448,192,39386,1,0,0:0:0:0:
448,192,39512,1,0,0:0:0:0:
64,192,39638,1,0,0:0:0:0:
192,192,39765,1,0,0:0:0:0:
448,192,39765,1,0,0:0:0:0:
320,192,39890,1,0,0:0:0:0:
192,192,39890,1,0,0:0:0:0:
64,192,40017,1,0,0:0:0:0:
192,192,40080,1,0,0:0:0:0:
320,192,40143,1,0,0:0:0:0:
448,192,40143,1,0,0:0:0:0:
64,192,40270,1,0,0:0:0:0:
320,192,40396,1,0,0:0:0:0:
448,192,40396,1,0,0:0:0:0:
192,192,40522,1,0,0:0:0:0:
64,192,40649,1,0,0:0:0:0:
448,192,40649,1,0,0:0:0:0:
448,192,40775,1,0,0:0:0:0:
192,192,40902,1,0,0:0:0:0:
320,192,40902,1,0,0:0:0:0:
64,192,41028,1,0,0:0:0:0:
64,192,41154,1,0,0:0:0:0:
192,192,41280,1,0,0:0:0:0:
448,192,41280,1,0,0:0:0:0:
192,192,41406,1,0,0:0:0:0:
448,192,41406,1,0,0:0:0:0:
320,192,41533,1,0,0:0:0:0:
192,192,41596,1,0,0:0:0:0:
64,192,41659,1,0,0:0:0:0:
320,192,41659,1,0,0:0:0:0:
448,192,41659,1,0,0:0:0:0:
192,192,41786,1,0,0:0:0:0:
448,192,41912,1,0,0:0:0:0:
192,192,42038,1,0,0:0:0:0:
320,192,42165,1,0,0:0:0:0:
448,192,42165,1,0,0:0:0:0:
64,192,42228,1,0,0:0:0:0:
192,192,42290,1,0,0:0:0:0:
320,192,42354,1,0,0:0:0:0:
64,192,42417,1,0,0:0:0:0:
192,192,42417,1,0,0:0:0:0:
320,192,42480,1,0,0:0:0:0:
448,192,42480,1,0,0:0:0:0:
64,192,42543,1,0,0:0:0:0:
192,192,42543,1,0,0:0:0:0:
320,192,42606,1,0,0:0:0:0:
448,192,42606,1,0,0:0:0:0:
64,192,42670,1,0,0:0:0:0:
192,192,42733,1,0,0:0:0:0:
448,192,42796,1,0,0:0:0:0:
64,192,42859,1,0,0:0:0:0:
192,192,42922,1,0,0:0:0:0:
320,192,42922,1,0,0:0:0:0:
448,192,42986,1,0,0:0:0:0:
192,192,43049,1,0,0:0:0:0:
320,192,43112,1,0,0:0:0:0:
64,192,43175,1,0,0:0:0:0:
448,192,43238,1,0,0:0:0:0:
320,192,43302,1,0,0:0:0:0:
192,192,43365,1,0,0:0:0:0:
64,192,43428,1,0,0:0:0:0:
448,192,43428,1,0,0:0:0:0:
192,192,43490,1,0,0:0:0:0:
320,192,43554,1,0,0:0:0:0:
64,192,43617,1,0,0:0:0:0:
192,192,43680,1,0,0:0:0:0:
448,192,43743,1,0,0:0:0:0:
64,192,43806,1,0,0:0:0:0:
320,192,43870,1,0,0:0:0:0:
64,192,43933,1,0,0:0:0:0:
192,192,43933,1,0,0:0:0:0:
448,192,43996,1,0,0:0:0:0:
320,192,44059,1,0,0:0:0:0:
64,192,44122,1,0,0:0:0:0:
448,192,44186,1,0,0:0:0:0:
192,192,44249,1,0,0:0:0:0:
448,192,44312,1,0,0:0:0:0:
64,192,44375,1,0,0:0:0:0:
192,192,44438,1,0,0:0:0:0:
320,192,44438,1,0,0:0:0:0:
448,192,44502,1,0,0:0:0:0:
64,192,44565,1,0,0:0:0:0:
192,192,44628,1,0,0:0:0:0:
448,192,44690,1,0,0:0:0:0:
64,192,44754,1,0,0:0:0:0:
320,192,44817,1,0,0:0:0:0:
192,192,44880,1,0,0:0:0:0:
64,192,44943,1,0,0:0:0:0:
448,192,44943,1,0,0:0:0:0:
320,192,45006,1,0,0:0:0:0:
192,192,45070,1,0,0:0:0:0:
320,192,45133,1,0,0:0:0:0:
192,192,45196,1,0,0:0:0:0:
64,192,45259,1,0,0:0:0:0:
448,192,45322,1,0,0:0:0:0:
192,192,45386,1,0,0:0:0:0:
64,192,45449,1,0,0:0:0:0:
448,192,45449,1,0,0:0:0:0:
320,192,45512,1,0,0:0:0:0:
192,192,45575,1,0,0:0:0:0:
448,192,45638,1,0,0:0:0:0:
320,192,45702,1,0,0:0:0:0:
64,192,45765,1,0,0:0:0:0:
192,192,45828,1,0,0:0:0:0:
320,192,45890,1,0,0:0:0:0:
192,192,45954,1,0,0:0:0:0:
64,192,45954,1,0,0:0:0:0:
448,192,46017,1,0,0:0:0:0:
320,192,46080,1,0,0:0:0:0:
64,192,46143,1,0,0:0:0:0:
448,192,46206,1,0,0:0:0:0:
192,192,46270,1,0,0:0:0:0:
320,192,46333,1,0,0:0:0:0:
64,192,46396,1,0,0:0:0:0:
192,192,46459,1,0,0:0:0:0:
448,192,46459,1,0,0:0:0:0:
320,192,46522,1,0,0:0:0:0:
192,192,46586,1,0,0:0:0:0:
320,192,46649,1,0,0:0:0:0:
448,192,46712,1,0,0:0:0:0:
64,192,46775,1,0,0:0:0:0:
320,192,46838,1,0,0:0:0:0:
192,192,46902,1,0,0:0:0:0:
64,192,46965,1,0,0:0:0:0:
448,192,46965,1,0,0:0:0:0:
320,192,47028,1,0,0:0:0:0:
192,192,47090,1,0,0:0:0:0:
448,192,47154,1,0,0:0:0:0:
64,192,47217,1,0,0:0:0:0:
448,192,47280,1,0,0:0:0:0:
320,192,47343,1,0,0:0:0:0:
192,192,47406,1,0,0:0:0:0:
64,192,47470,1,0,0:0:0:0:
448,192,47470,1,0,0:0:0:0:
192,192,47533,1,0,0:0:0:0:
320,192,47596,1,0,0:0:0:0:
64,192,47659,1,0,0:0:0:0:
320,192,47722,1,0,0:0:0:0:
192,192,47786,1,0,0:0:0:0:
448,192,47849,1,0,0:0:0:0:
320,192,47912,1,0,0:0:0:0:
64,192,47975,1,0,0:0:0:0:
192,192,47975,1,0,0:0:0:0:
448,192,48038,1,0,0:0:0:0:
320,192,48102,1,0,0:0:0:0:
64,192,48165,1,0,0:0:0:0:
192,192,48228,1,0,0:0:0:0:
448,192,48290,1,0,0:0:0:0:
64,192,48354,1,0,0:0:0:0:
192,192,48417,1,0,0:0:0:0:
320,192,48480,1,0,0:0:0:0:
448,192,48480,1,0,0:0:0:0:
192,192,48543,1,0,0:0:0:0:
64,192,48543,1,0,0:0:0:0:
448,192,48606,1,0,0:0:0:0:
320,192,48606,1,0,0:0:0:0:
192,192,48670,1,0,0:0:0:0:
64,192,48670,1,0,0:0:0:0:
320,192,48733,1,0,0:0:0:0:
192,192,48986,1,0,0:0:0:0:
448,192,48986,1,0,0:0:0:0:
64,192,49238,1,0,0:0:0:0:
64,192,49365,1,0,0:0:0:0:
192,192,49490,1,0,0:0:0:0:
448,192,49490,1,0,0:0:0:0:
320,192,49617,1,0,0:0:0:0:
192,192,49680,1,0,0:0:0:0:
64,192,49743,1,0,0:0:0:0:
320,192,49870,1,0,0:0:0:0:
448,192,49870,1,0,0:0:0:0:
320,192,50122,1,0,0:0:0:0:
448,192,50122,1,0,0:0:0:0:
320,192,50375,1,0,0:0:0:0:
448,192,50375,1,0,0:0:0:0:
320,192,50628,1,0,0:0:0:0:
448,192,50628,1,0,0:0:0:0:
192,192,50754,1,0,0:0:0:0:
64,192,50754,1,0,0:0:0:0:
448,192,50754,1,0,0:0:0:0:
320,192,50817,1,0,0:0:0:0:
192,192,50880,1,0,0:0:0:0:
448,192,50943,1,0,0:0:0:0:
320,192,51006,1,0,0:0:0:0:
64,192,51006,1,0,0:0:0:0:
192,192,51070,1,0,0:0:0:0:
448,192,51133,1,0,0:0:0:0:
64,192,51196,1,0,0:0:0:0:
320,192,51259,1,0,0:0:0:0:
192,192,51322,1,0,0:0:0:0:
320,192,51386,1,0,0:0:0:0:
64,192,51449,1,0,0:0:0:0:
192,192,51512,1,0,0:0:0:0:
448,192,51512,1,0,0:0:0:0:
320,192,51575,1,0,0:0:0:0:
64,192,51638,1,0,0:0:0:0:
192,192,51702,1,0,0:0:0:0:
448,192,51765,1,0,0:0:0:0:
64,192,51828,1,0,0:0:0:0:
320,192,51890,1,0,0:0:0:0:
192,192,51954,1,0,0:0:0:0:
320,192,52017,1,0,0:0:0:0:
448,192,52017,1,0,0:0:0:0:
64,192,52080,1,0,0:0:0:0:
192,192,52143,1,0,0:0:0:0:
448,192,52206,1,0,0:0:0:0:
64,192,52270,1,0,0:0:0:0:
320,192,52333,1,0,0:0:0:0:
192,192,52396,1,0,0:0:0:0:
448,192,52459,1,0,0:0:0:0:
320,192,52522,1,0,0:0:0:0:
192,192,52522,1,0,0:0:0:0:
64,192,52586,1,0,0:0:0:0:
448,192,52649,1,0,0:0:0:0:
192,192,52712,1,0,0:0:0:0:
320,192,52775,1,0,0:0:0:0:
64,192,52838,1,0,0:0:0:0:
320,192,52902,1,0,0:0:0:0:
64,192,52965,1,0,0:0:0:0:
192,192,53028,1,0,0:0:0:0:
448,192,53028,1,0,0:0:0:0:
320,192,53090,1,0,0:0:0:0:
64,192,53154,1,0,0:0:0:0:
192,192,53217,1,0,0:0:0:0:
448,192,53280,1,0,0:0:0:0:
64,192,53343,1,0,0:0:0:0:
320,192,53406,1,0,0:0:0:0:
192,192,53470,1,0,0:0:0:0:
320,192,53533,1,0,0:0:0:0:
448,192,53533,1,0,0:0:0:0:
64,192,53596,1,0,0:0:0:0:
192,192,53659,1,0,0:0:0:0:
448,192,53722,1,0,0:0:0:0:
64,192,53786,1,0,0:0:0:0:
320,192,53849,1,0,0:0:0:0:
192,192,53912,1,0,0:0:0:0:
448,192,53975,1,0,0:0:0:0:
320,192,54038,1,0,0:0:0:0:
64,192,54038,1,0,0:0:0:0:
192,192,54102,1,0,0:0:0:0:
448,192,54165,1,0,0:0:0:0:
64,192,54228,1,0,0:0:0:0:
192,192,54290,1,0,0:0:0:0:
320,192,54354,1,0,0:0:0:0:
64,192,54417,1,0,0:0:0:0:
448,192,54480,1,0,0:0:0:0:
320,192,54543,1,0,0:0:0:0:
64,192,54543,1,0,0:0:0:0:
192,192,54606,1,0,0:0:0:0:
448,192,54670,1,0,0:0:0:0:
320,192,54733,1,0,0:0:0:0:
192,192,54796,1,0,0:0:0:0:
320,192,54859,1,0,0:0:0:0:
192,192,54922,1,0,0:0:0:0:
448,192,54986,1,0,0:0:0:0:
320,192,55049,1,0,0:0:0:0:
64,192,55049,1,0,0:0:0:0:
192,192,55112,1,0,0:0:0:0:
448,192,55175,1,0,0:0:0:0:
64,192,55238,1,0,0:0:0:0:
448,192,55302,1,0,0:0:0:0:
320,192,55365,1,0,0:0:0:0:
192,192,55428,1,0,0:0:0:0:
320,192,55490,1,0,0:0:0:0:
192,192,55554,1,0,0:0:0:0:
64,192,55554,1,0,0:0:0:0:
448,192,55617,1,0,0:0:0:0:
320,192,55680,1,0,0:0:0:0:
64,192,55743,1,0,0:0:0:0:
192,192,55806,1,0,0:0:0:0:
448,192,55870,1,0,0:0:0:0:
192,192,55933,1,0,0:0:0:0:
320,192,55996,1,0,0:0:0:0:
64,192,56059,1,0,0:0:0:0:
448,192,56059,1,0,0:0:0:0:
192,192,56122,1,0,0:0:0:0:
320,192,56186,1,0,0:0:0:0:
192,192,56249,1,0,0:0:0:0:
448,192,56312,1,0,0:0:0:0:
320,192,56375,1,0,0:0:0:0:
64,192,56438,1,0,0:0:0:0:
448,192,56502,1,0,0:0:0:0:
320,192,56565,1,0,0:0:0:0:
64,192,56565,1,0,0:0:0:0:
192,192,56628,1,0,0:0:0:0:
448,192,56690,1,0,0:0:0:0:
64,192,56754,1,0,0:0:0:0:
192,192,56817,1,0,0:0:0:0:
320,192,56880,1,0,0:0:0:0:
64,192,56943,1,0,0:0:0:0:
192,192,57006,1,0,0:0:0:0:
320,192,57070,1,0,0:0:0:0:
448,192,57070,1,0,0:0:0:0:
192,192,57133,1,0,0:0:0:0:
448,192,57196,1,0,0:0:0:0:
320,192,57259,1,0,0:0:0:0:
64,192,57322,1,0,0:0:0:0:
448,192,57386,1,0,0:0:0:0:
320,192,57449,1,0,0:0:0:0:
192,192,57512,1,0,0:0:0:0:
448,192,57575,1,0,0:0:0:0:
64,192,57575,1,0,0:0:0:0:
192,192,57638,1,0,0:0:0:0:
320,192,57702,1,0,0:0:0:0:
192,192,57765,1,0,0:0:0:0:
448,192,57828,1,0,0:0:0:0:
320,192,57890,1,0,0:0:0:0:
64,192,57954,1,0,0:0:0:0:
448,192,58017,1,0,0:0:0:0:
320,192,58080,1,0,0:0:0:0:
64,192,58080,1,0,0:0:0:0:
192,192,58143,1,0,0:0:0:0:
448,192,58206,1,0,0:0:0:0:
64,192,58270,1,0,0:0:0:0:
320,192,58333,1,0,0:0:0:0:
448,192,58333,1,0,0:0:0:0:
192,192,58396,1,0,0:0:0:0:
64,192,58396,1,0,0:0:0:0:
320,192,58459,1,0,0:0:0:0:
448,192,58459,1,0,0:0:0:0:
192,192,58522,1,0,0:0:0:0:
64,192,58522,1,0,0:0:0:0:
320,192,58586,1,0,0:0:0:0:
64,192,58649,1,0,0:0:0:0:
320,192,58712,1,0,0:0:0:0:
64,192,58775,1,0,0:0:0:0:
192,192,58838,1,0,0:0:0:0:
320,192,58838,1,0,0:0:0:0:
448,192,58838,1,0,0:0:0:0:
64,192,58965,1,0,0:0:0:0:
448,192,58965,1,0,0:0:0:0:
64,192,59090,1,0,0:0:0:0:
192,192,59090,1,0,0:0:0:0:
448,192,59217,1,0,0:0:0:0:
320,192,59217,1,0,0:0:0:0:
448,192,59343,1,0,0:0:0:0:
64,192,59470,1,0,0:0:0:0:
64,192,59596,1,0,0:0:0:0:
448,192,59596,1,0,0:0:0:0:
192,192,59722,1,0,0:0:0:0:
320,192,59722,1,0,0:0:0:0:
192,192,59849,1,0,0:0:0:0:
448,192,59975,1,0,0:0:0:0:
320,192,59975,1,0,0:0:0:0:
192,192,60102,1,0,0:0:0:0:
448,192,60102,1,0,0:0:0:0:
64,192,60228,1,0,0:0:0:0:
192,192,60290,1,0,0:0:0:0:
320,192,60354,1,0,0:0:0:0:
448,192,60354,1,0,0:0:0:0:
64,192,60480,1,0,0:0:0:0:
320,192,60606,1,0,0:0:0:0:
448,192,60606,1,0,0:0:0:0:
192,192,60733,1,0,0:0:0:0:
64,192,60859,1,0,0:0:0:0:
448,192,60859,1,0,0:0:0:0:
448,192,60986,1,0,0:0:0:0:
320,192,61112,1,0,0:0:0:0:
192,192,61112,1,0,0:0:0:0:
448,192,61238,1,0,0:0:0:0:
64,192,61238,1,0,0:0:0:0:
448,192,61365,1,0,0:0:0:0:
320,192,61365,1,0,0:0:0:0:
192,192,61490,1,0,0:0:0:0:
448,192,61617,1,0,0:0:0:0:
64,192,61617,1,0,0:0:0:0:
64,192,61743,1,0,0:0:0:0:
320,192,61870,1,0,0:0:0:0:
192,192,61996,1,0,0:0:0:0:
320,192,61996,1,0,0:0:0:0:
192,192,62122,1,0,0:0:0:0:
448,192,62122,1,0,0:0:0:0:
64,192,62249,1,0,0:0:0:0:
192,192,62312,1,0,0:0:0:0:
320,192,62375,1,0,0:0:0:0:
448,192,62375,1,0,0:0:0:0:
64,192,62502,1,0,0:0:0:0:
320,192,62628,1,0,0:0:0:0:
448,192,62628,1,0,0:0:0:0:
192,192,62754,1,0,0:0:0:0:
64,192,62880,1,0,0:0:0:0:
448,192,62880,1,0,0:0:0:0:
64,192,63006,1,0,0:0:0:0:
192,192,63133,1,0,0:0:0:0:
448,192,63133,1,0,0:0:0:0:
192,192,63259,1,0,0:0:0:0:
320,192,63386,1,0,0:0:0:0:
448,192,63386,1,0,0:0:0:0:
320,192,63512,1,0,0:0:0:0:
64,192,63638,1,0,0:0:0:0:
448,192,63638,1,0,0:0:0:0:
448,192,63765,1,0,0:0:0:0:
64,192,63890,1,0,0:0:0:0:
192,192,63890,1,0,0:0:0:0:
192,192,64017,1,0,0:0:0:0:
448,192,64143,1,0,0:0:0:0:
320,192,64143,1,0,0:0:0:0:
64,192,64270,1,0,0:0:0:0:
192,192,64333,1,0,0:0:0:0:
320,192,64396,1,0,0:0:0:0:
448,192,64396,1,0,0:0:0:0:
64,192,64522,1,0,0:0:0:0:
320,192,64649,1,0,0:0:0:0:
448,192,64649,1,0,0:0:0:0:
192,192,64775,1,0,0:0:0:0:
64,192,64902,1,0,0:0:0:0:
448,192,64902,1,0,0:0:0:0:
448,192,65028,1,0,0:0:0:0:
64,192,65154,1,0,0:0:0:0:
320,192,65154,1,0,0:0:0:0:
320,192,65280,1,0,0:0:0:0:
192,192,65406,1,0,0:0:0:0:
64,192,65533,1,0,0:0:0:0:
448,192,65533,1,0,0:0:0:0:
64,192,65659,1,0,0:0:0:0:
448,192,65659,1,0,0:0:0:0:
320,192,65754,1,0,0:0:0:0:
192,192,65817,1,0,0:0:0:0:
320,192,65880,1,0,0:0:0:0:
448,192,65912,1,0,0:0:0:0:
64,192,65912,1,0,0:0:0:0:
192,192,66038,1,0,0:0:0:0:
448,192,66165,1,0,0:0:0:0:
64,192,66290,1,0,0:0:0:0:
192,192,66354,1,0,0:0:0:0:
448,192,66417,1,0,0:0:0:0:
320,192,66417,1,0,0:0:0:0:
64,192,66480,1,0,0:0:0:0:
320,192,66543,1,0,0:0:0:0:
192,192,66606,1,0,0:0:0:0:
64,192,66670,1,0,0:0:0:0:
448,192,66796,1,0,0:0:0:0:
320,192,66859,1,0,0:0:0:0:
192,192,66922,1,0,0:0:0:0:
64,192,66922,1,0,0:0:0:0:
448,192,66922,1,0,0:0:0:0:
320,192,66986,1,0,0:0:0:0:
64,192,67049,1,0,0:0:0:0:
192,192,67112,1,0,0:0:0:0:
320,192,67175,1,0,0:0:0:0:
448,192,67175,1,0,0:0:0:0:
192,192,67238,1,0,0:0:0:0:
448,192,67302,1,0,0:0:0:0:
64,192,67365,1,0,0:0:0:0:
320,192,67428,1,0,0:0:0:0:
192,192,67490,1,0,0:0:0:0:
320,192,67554,1,0,0:0:0:0:
192,192,67617,1,0,0:0:0:0:
64,192,67680,1,0,0:0:0:0:
448,192,67680,1,0,0:0:0:0:
320,192,67743,1,0,0:0:0:0:
192,192,67806,1,0,0:0:0:0:
448,192,67870,1,0,0:0:0:0:
64,192,67933,1,0,0:0:0:0:
448,192,67996,1,0,0:0:0:0:
64,192,68059,1,0,0:0:0:0:
192,192,68122,1,0,0:0:0:0:
320,192,68186,1,0,0:0:0:0:
448,192,68186,1,0,0:0:0:0:
192,192,68249,1,0,0:0:0:0:
320,192,68312,1,0,0:0:0:0:
64,192,68375,1,0,0:0:0:0:
448,192,68438,1,0,0:0:0:0:
320,192,68502,1,0,0:0:0:0:
192,192,68565,1,0,0:0:0:0:
448,192,68628,1,0,0:0:0:0:
320,192,68690,1,0,0:0:0:0:
64,192,68690,1,0,0:0:0:0:
192,192,68754,1,0,0:0:0:0:
448,192,68817,1,0,0:0:0:0:
320,192,68880,1,0,0:0:0:0:
192,192,68943,1,0,0:0:0:0:
64,192,68943,1,0,0:0:0:0:
320,192,69006,1,0,0:0:0:0:
64,192,69070,1,0,0:0:0:0:
192,192,69133,1,0,0:0:0:0:
320,192,69196,1,0,0:0:0:0:
448,192,69196,1,0,0:0:0:0:
192,192,69259,1,0,0:0:0:0:
448,192,69322,1,0,0:0:0:0:
64,192,69386,1,0,0:0:0:0:
320,192,69449,1,0,0:0:0:0:
192,192,69512,1,0,0:0:0:0:
448,192,69575,1,0,0:0:0:0:
320,192,69638,1,0,0:0:0:0:
192,192,69702,1,0,0:0:0:0:
64,192,69702,1,0,0:0:0:0:
448,192,69765,1,0,0:0:0:0:
64,192,69828,1,0,0:0:0:0:
192,192,69890,1,0,0:0:0:0:
320,192,69954,1,0,0:0:0:0:
192,192,70017,1,0,0:0:0:0:
320,192,70080,1,0,0:0:0:0:
64,192,70143,1,0,0:0:0:0:
192,192,70206,1,0,0:0:0:0:
448,192,70206,1,0,0:0:0:0:
320,192,70270,1,0,0:0:0:0:
64,192,70333,1,0,0:0:0:0:
448,192,70396,1,0,0:0:0:0:
320,192,70459,1,0,0:0:0:0:
192,192,70522,1,0,0:0:0:0:
448,192,70586,1,0,0:0:0:0:
320,192,70649,1,0,0:0:0:0:
192,192,70712,1,0,0:0:0:0:
64,192,70712,1,0,0:0:0:0:
320,192,70775,1,0,0:0:0:0:
64,192,70838,1,0,0:0:0:0:
448,192,70902,1,0,0:0:0:0:
192,192,70965,1,0,0:0:0:0:
320,192,70965,1,0,0:0:0:0:
64,192,71028,1,0,0:0:0:0:
448,192,71090,1,0,0:0:0:0:
192,192,71154,1,0,0:0:0:0:
320,192,71217,1,0,0:0:0:0:
448,192,71217,1,0,0:0:0:0:
64,192,71280,1,0,0:0:0:0:
320,192,71343,1,0,0:0:0:0:
64,192,71406,1,0,0:0:0:0:
192,192,71470,1,0,0:0:0:0:
448,192,71533,1,0,0:0:0:0:
64,192,71596,1,0,0:0:0:0:
320,192,71659,1,0,0:0:0:0:
192,192,71722,1,0,0:0:0:0:
64,192,71722,1,0,0:0:0:0:
448,192,71786,1,0,0:0:0:0:
320,192,71849,1,0,0:0:0:0:
64,192,71912,1,0,0:0:0:0:
192,192,71975,1,0,0:0:0:0:
320,192,72038,1,0,0:0:0:0:
192,192,72102,1,0,0:0:0:0:
448,192,72165,1,0,0:0:0:0:
320,192,72228,1,0,0:0:0:0:
64,192,72228,1,0,0:0:0:0:
192,192,72290,1,0,0:0:0:0:
448,192,72354,1,0,0:0:0:0:
320,192,72417,1,0,0:0:0:0:
192,192,72480,1,0,0:0:0:0:
448,192,72543,1,0,0:0:0:0:
64,192,72606,1,0,0:0:0:0:
192,192,72670,1,0,0:0:0:0:
320,192,72733,1,0,0:0:0:0:
448,192,72733,1,0,0:0:0:0:
192,192,72796,1,0,0:0:0:0:
448,192,72859,1,0,0:0:0:0:
320,192,72922,1,0,0:0:0:0:
192,192,72986,1,0,0:0:0:0:
64,192,72986,1,0,0:0:0:0:
448,192,73049,1,0,0:0:0:0:
64,192,73112,1,0,0:0:0:0:
192,192,73175,1,0,0:0:0:0:
320,192,73238,1,0,0:0:0:0:
448,192,73238,1,0,0:0:0:0:
64,192,73302,1,0,0:0:0:0:
448,192,73365,1,0,0:0:0:0:
320,192,73428,1,0,0:0:0:0:
192,192,73490,1,0,0:0:0:0:
320,192,73554,1,0,0:0:0:0:
64,192,73617,1,0,0:0:0:0:
192,192,73680,1,0,0:0:0:0:
320,192,73743,1,0,0:0:0:0:
448,192,73743,1,0,0:0:0:0:
192,192,73806,1,0,0:0:0:0:
448,192,73870,1,0,0:0:0:0:
320,192,73933,1,0,0:0:0:0:
64,192,73996,1,0,0:0:0:0:
448,192,74059,1,0,0:0:0:0:
64,192,74122,1,0,0:0:0:0:
320,192,74186,1,0,0:0:0:0:
192,192,74249,1,0,0:0:0:0:
64,192,74249,1,0,0:0:0:0:
448,192,74312,1,0,0:0:0:0:
320,192,74375,1,0,0:0:0:0:
64,192,74438,1,0,0:0:0:0:
448,192,74502,1,0,0:0:0:0:
320,192,74502,1,0,0:0:0:0:
192,192,74565,1,0,0:0:0:0:
320,192,74628,1,0,0:0:0:0:
448,192,74628,1,0,0:0:0:0:
192,192,74690,1,0,0:0:0:0:
64,192,74754,1,0,0:0:0:0:
448,192,74817,1,0,0:0:0:0:
320,192,74880,1,0,0:0:0:0:
192,192,74912,1,0,0:0:0:0:
64,192,74943,1,0,0:0:0:0:
320,192,75006,1,0,0:0:0:0:
448,192,75006,1,0,0:0:0:0:
64,192,75070,1,0,0:0:0:0:
448,192,75133,1,0,0:0:0:0:
192,192,75196,1,0,0:0:0:0:
320,192,75259,1,0,0:0:0:0:
64,192,75259,1,0,0:0:0:0:
448,192,75322,1,0,0:0:0:0:
192,192,75386,1,0,0:0:0:0:
320,192,75449,1,0,0:0:0:0:
64,192,75512,1,0,0:0:0:0:
448,192,75575,1,0,0:0:0:0:
320,192,75638,1,0,0:0:0:0:
192,192,75702,1,0,0:0:0:0:
64,192,75765,1,0,0:0:0:0:
448,192,75765,1,0,0:0:0:0:
192,192,75828,1,0,0:0:0:0:
320,192,75890,1,0,0:0:0:0:
64,192,75954,1,0,0:0:0:0:
448,192,76017,1,0,0:0:0:0:
64,192,76080,1,0,0:0:0:0:
320,192,76143,1,0,0:0:0:0:
192,192,76206,1,0,0:0:0:0:
64,192,76270,1,0,0:0:0:0:
448,192,76270,1,0,0:0:0:0:
192,192,76333,1,0,0:0:0:0:
448,192,76396,1,0,0:0:0:0:
320,192,76459,1,0,0:0:0:0:
64,192,76522,1,0,0:0:0:0:
448,192,76586,1,0,0:0:0:0:
192,192,76649,1,0,0:0:0:0:
320,192,76712,1,0,0:0:0:0:
192,192,76775,1,0,0:0:0:0:
64,192,76775,1,0,0:0:0:0:
448,192,76838,1,0,0:0:0:0:
64,192,76902,1,0,0:0:0:0:
192,192,76965,1,0,0:0:0:0:
448,192,77028,1,0,0:0:0:0:
320,192,77028,1,0,0:0:0:0:
64,192,77090,1,0,0:0:0:0:
320,192,77154,1,0,0:0:0:0:
192,192,77217,1,0,0:0:0:0:
448,192,77280,1,0,0:0:0:0:
64,192,77280,1,0,0:0:0:0:
192,192,77343,1,0,0:0:0:0:
320,192,77406,1,0,0:0:0:0:
64,192,77470,1,0,0:0:0:0:
192,192,77533,1,0,0:0:0:0:
448,192,77596,1,0,0:0:0:0:
64,192,77659,1,0,0:0:0:0:
448,192,77722,1,0,0:0:0:0:
320,192,77786,1,0,0:0:0:0:
64,192,77786,1,0,0:0:0:0:
192,192,77849,1,0,0:0:0:0:
448,192,77912,1,0,0:0:0:0:
320,192,77975,1,0,0:0:0:0:
64,192,78038,1,0,0:0:0:0:
448,192,78102,1,0,0:0:0:0:
192,192,78165,1,0,0:0:0:0:
320,192,78228,1,0,0:0:0:0:
64,192,78290,1,0,0:0:0:0:
448,192,78290,1,0,0:0:0:0:
320,192,78354,1,0,0:0:0:0:
192,192,78417,1,0,0:0:0:0:
320,192,78480,1,0,0:0:0:0:
64,192,78543,1,0,0:0:0:0:
192,192,78606,1,0,0:0:0:0:
448,192,78670,1,0,0:0:0:0:
64,192,78733,1,0,0:0:0:0:
192,192,78796,1,0,0:0:0:0:
448,192,78796,1,0,0:0:0:0:
320,192,78859,1,0,0:0:0:0:
64,192,78922,1,0,0:0:0:0:
192,192,78986,1,0,0:0:0:0:
320,192,79049,1,0,0:0:0:0:
448,192,79049,1,0,0:0:0:0:
192,192,79112,1,0,0:0:0:0:
448,192,79175,1,0,0:0:0:0:
320,192,79238,1,0,0:0:0:0:
192,192,79302,1,0,0:0:0:0:
64,192,79302,1,0,0:0:0:0:
320,192,79365,1,0,0:0:0:0:
64,192,79428,1,0,0:0:0:0:
448,192,79490,1,0,0:0:0:0:
192,192,79554,1,0,0:0:0:0:
320,192,79617,1,0,0:0:0:0:
192,192,79680,1,0,0:0:0:0:
448,192,79743,1,0,0:0:0:0:
320,192,79806,1,0,0:0:0:0:
64,192,79806,1,0,0:0:0:0:
192,192,79870,1,0,0:0:0:0:
448,192,79933,1,0,0:0:0:0:
64,192,79996,1,0,0:0:0:0:
192,192,80059,1,0,0:0:0:0:
320,192,80122,1,0,0:0:0:0:
64,192,80186,1,0,0:0:0:0:
448,192,80249,1,0,0:0:0:0:
320,192,80312,1,0,0:0:0:0:
64,192,80312,1,0,0:0:0:0:
192,192,80375,1,0,0:0:0:0:
448,192,80438,1,0,0:0:0:0:
192,192,80502,1,0,0:0:0:0:
320,192,80565,1,0,0:0:0:0:
64,192,80628,1,0,0:0:0:0:
192,192,80690,1,0,0:0:0:0:
448,192,80754,1,0,0:0:0:0:
320,192,80817,1,0,0:0:0:0:
192,192,80817,1,0,0:0:0:0:
64,192,80880,1,0,0:0:0:0:
448,192,80943,1,0,0:0:0:0:
320,192,81006,1,0,0:0:0:0:
192,192,81070,1,0,0:0:0:0:
64,192,81070,1,0,0:0:0:0:
448,192,81133,1,0,0:0:0:0:
192,192,81196,1,0,0:0:0:0:
320,192,81259,1,0,0:0:0:0:
64,192,81322,1,0,0:0:0:0:
448,192,81322,1,0,0:0:0:0:
192,192,81386,1,0,0:0:0:0:
320,192,81449,1,0,0:0:0:0:
192,192,81512,1,0,0:0:0:0:
448,192,81575,1,0,0:0:0:0:
64,192,81638,1,0,0:0:0:0:
320,192,81702,1,0,0:0:0:0:
192,192,81765,1,0,0:0:0:0:
320,192,81828,1,0,0:0:0:0:
448,192,81828,1,0,0:0:0:0:
64,192,81890,1,0,0:0:0:0:
192,192,81954,1,0,0:0:0:0:
448,192,82017,1,0,0:0:0:0:
64,192,82080,1,0,0:0:0:0:
320,192,82143,1,0,0:0:0:0:
64,192,82206,1,0,0:0:0:0:
192,192,82270,1,0,0:0:0:0:
320,192,82333,1,0,0:0:0:0:
448,192,82333,1,0,0:0:0:0:
64,192,82396,1,0,0:0:0:0:
448,192,82459,1,0,0:0:0:0:
320,192,82522,1,0,0:0:0:0:
192,192,82586,1,0,0:0:0:0:
64,192,82586,1,0,0:0:0:0:
320,192,82649,1,0,0:0:0:0:
448,192,82649,1,0,0:0:0:0:
192,192,82712,1,0,0:0:0:0:
64,192,82712,1,0,0:0:0:0:
320,192,82775,1,0,0:0:0:0:
448,192,82775,1,0,0:0:0:0:
64,192,82838,1,0,0:0:0:0:
192,192,82902,1,0,0:0:0:0:
448,192,82965,1,0,0:0:0:0:
192,192,83028,1,0,0:0:0:0:
448,192,83090,128,0,83217:0:0:0:0:
64,192,83090,128,0,84102:0:0:0:0:
320,192,83090,128,0,83217:0:0:0:0:
192,192,84102,128,0,84228:0:0:0:0:
448,192,84102,128,0,84228:0:0:0:0:
320,192,84102,128,0,84606:0:0:0:0:
192,192,84606,128,0,85112:0:0:0:0:
448,192,85112,128,0,85238:0:0:0:0:
320,192,85112,128,0,85238:0:0:0:0:
64,192,85112,128,0,85617:0:0:0:0:
448,192,85617,128,0,86122:0:0:0:0:
64,192,86122,128,0,86249:0:0:0:0:
320,192,86122,128,0,86249:0:0:0:0:
192,192,86122,128,0,86628:0:0:0:0:
320,192,86628,128,0,87133:0:0:0:0:
64,192,87133,128,0,87259:0:0:0:0:
192,192,87133,128,0,87259:0:0:0:0:
448,192,87133,128,0,87638:0:0:0:0:
192,192,88143,128,0,88586:0:0:0:0:
320,192,88143,128,0,88649:0:0:0:0:
448,192,88143,128,0,88586:0:0:0:0:
64,192,88649,128,0,89090:0:0:0:0:
192,192,88649,128,0,89090:0:0:0:0:
448,192,88649,128,0,89154:0:0:0:0:
64,192,89154,128,0,89280:0:0:0:0:
192,192,89154,128,0,89280:0:0:0:0:
320,192,89154,128,0,89659:0:0:0:0:
64,192,90165,128,0,90670:0:0:0:0:
320,192,90165,128,0,90606:0:0:0:0:
448,192,90165,128,0,90606:0:0:0:0:
192,192,90670,1,0,0:0:0:0:
448,192,90670,1,0,0:0:0:0:
320,192,90670,1,0,0:0:0:0:
64,192,90796,1,0,0:0:0:0:
320,192,90796,1,0,0:0:0:0:
192,192,90922,1,0,0:0:0:0:
64,192,90922,1,0,0:0:0:0:
320,192,90986,1,0,0:0:0:0:
448,192,90986,1,0,0:0:0:0:
192,192,91049,1,0,0:0:0:0:
64,192,91049,1,0,0:0:0:0:
320,192,91112,1,0,0:0:0:0:
448,192,91112,1,0,0:0:0:0:
192,192,91175,1,0,0:0:0:0:
320,192,91238,1,0,0:0:0:0:
64,192,91302,1,0,0:0:0:0:
192,192,91365,1,0,0:0:0:0:
448,192,91428,1,0,0:0:0:0:
320,192,91428,1,0,0:0:0:0:
192,192,91490,1,0,0:0:0:0:
448,192,91554,1,0,0:0:0:0:
64,192,91617,1,0,0:0:0:0:
320,192,91680,1,0,0:0:0:0:
192,192,91743,1,0,0:0:0:0:
448,192,91806,1,0,0:0:0:0:
64,192,91870,1,0,0:0:0:0:
192,192,91933,1,0,0:0:0:0:
448,192,91933,1,0,0:0:0:0:
320,192,91996,1,0,0:0:0:0:
64,192,92059,1,0,0:0:0:0:
192,192,92122,1,0,0:0:0:0:
320,192,92186,1,0,0:0:0:0:
192,192,92249,1,0,0:0:0:0:
448,192,92312,1,0,0:0:0:0:
64,192,92375,1,0,0:0:0:0:
192,192,92438,1,0,0:0:0:0:
448,192,92438,1,0,0:0:0:0:
320,192,92502,1,0,0:0:0:0:
64,192,92565,1,0,0:0:0:0:
192,192,92628,1,0,0:0:0:0:
448,192,92690,1,0,0:0:0:0:
320,192,92754,1,0,0:0:0:0:
192,192,92817,1,0,0:0:0:0:
64,192,92880,1,0,0:0:0:0:
192,192,92943,1,0,0:0:0:0:
448,192,92943,1,0,0:0:0:0:
320,192,93006,1,0,0:0:0:0:
192,192,93070,1,0,0:0:0:0:
64,192,93133,1,0,0:0:0:0:
320,192,93196,1,0,0:0:0:0:
448,192,93196,1,0,0:0:0:0:
192,192,93259,1,0,0:0:0:0:
448,192,93322,1,0,0:0:0:0:
64,192,93386,1,0,0:0:0:0:
192,192,93449,1,0,0:0:0:0:
320,192,93449,1,0,0:0:0:0:
64,192,93512,1,0,0:0:0:0:
448,192,93575,1,0,0:0:0:0:
192,192,93638,1,0,0:0:0:0:
320,192,93702,1,0,0:0:0:0:
64,192,93765,1,0,0:0:0:0:
320,192,93828,1,0,0:0:0:0:
192,192,93890,1,0,0:0:0:0:
64,192,93954,1,0,0:0:0:0:
448,192,93954,1,0,0:0:0:0:
320,192,94017,1,0,0:0:0:0:
192,192,94080,1,0,0:0:0:0:
320,192,94143,1,0,0:0:0:0:
64,192,94206,1,0,0:0:0:0:
192,192,94270,1,0,0:0:0:0:
448,192,94333,1,0,0:0:0:0:
64,192,94396,1,0,0:0:0:0:
192,192,94459,1,0,0:0:0:0:
448,192,94459,1,0,0:0:0:0:
320,192,94522,1,0,0:0:0:0:
64,192,94586,1,0,0:0:0:0:
448,192,94649,1,0,0:0:0:0:
64,192,94712,128,0,94965:0:0:0:0:
192,192,94712,128,0,94902:0:0:0:0:
320,192,94712,128,0,94902:0:0:0:0:
448,192,94965,128,0,95154:0:0:0:0:
320,192,94965,128,0,95154:0:0:0:0:
192,192,94965,128,0,95217:0:0:0:0:
448,192,95217,1,0,0:0:0:0:
320,192,95217,1,0,0:0:0:0:
64,192,95217,1,0,0:0:0:0:
192,192,95280,1,0,0:0:0:0:
320,192,95343,1,0,0:0:0:0:
64,192,95406,1,0,0:0:0:0:
192,192,95470,1,0,0:0:0:0:
448,192,95470,1,0,0:0:0:0:
320,192,95533,1,0,0:0:0:0:
64,192,95596,1,0,0:0:0:0:
448,192,95659,1,0,0:0:0:0:
320,192,95722,1,0,0:0:0:0:
192,192,95786,1,0,0:0:0:0:
320,192,95849,1,0,0:0:0:0:
64,192,95912,1,0,0:0:0:0:
192,192,95975,1,0,0:0:0:0:
448,192,95975,1,0,0:0:0:0:
320,192,96038,1,0,0:0:0:0:
64,192,96102,1,0,0:0:0:0:
448,192,96165,1,0,0:0:0:0:
192,192,96228,1,0,0:0:0:0:
320,192,96290,1,0,0:0:0:0:
192,192,96354,1,0,0:0:0:0:
448,192,96417,1,0,0:0:0:0:
320,192,96480,1,0,0:0:0:0:
64,192,96480,1,0,0:0:0:0:
192,192,96543,1,0,0:0:0:0:
448,192,96606,1,0,0:0:0:0:
64,192,96670,1,0,0:0:0:0:
320,192,96733,1,0,0:0:0:0:
192,192,96733,1,0,0:0:0:0:
64,192,96796,1,0,0:0:0:0:
448,192,96796,1,0,0:0:0:0:
320,192,96859,1,0,0:0:0:0:
192,192,96859,1,0,0:0:0:0:
64,192,96922,1,0,0:0:0:0:
448,192,96922,1,0,0:0:0:0:
320,192,96986,1,0,0:0:0:0:
192,192,97049,1,0,0:0:0:0:
64,192,97112,1,0,0:0:0:0:
192,192,97175,1,0,0:0:0:0:
64,192,97238,1,0,0:0:0:0:
320,192,97238,1,0,0:0:0:0:
448,192,97238,1,0,0:0:0:0:
192,192,97365,1,0,0:0:0:0:
192,192,97490,1,0,0:0:0:0:
320,192,97490,1,0,0:0:0:0:
64,192,97617,1,0,0:0:0:0:
448,192,97617,1,0,0:0:0:0:
320,192,97743,1,0,0:0:0:0:
192,192,97743,1,0,0:0:0:0:
320,192,97870,1,0,0:0:0:0:
64,192,97996,1,0,0:0:0:0:
192,192,97996,1,0,0:0:0:0:
64,192,98122,1,0,0:0:0:0:
448,192,98122,1,0,0:0:0:0:
192,192,98249,1,0,0:0:0:0:
320,192,98249,1,0,0:0:0:0:
64,192,98375,1,0,0:0:0:0:
64,192,98502,1,0,0:0:0:0:
448,192,98502,1,0,0:0:0:0:
448,192,98628,1,0,0:0:0:0:
192,192,98628,1,0,0:0:0:0:
320,192,98754,1,0,0:0:0:0:
64,192,98754,1,0,0:0:0:0:
320,192,98880,1,0,0:0:0:0:
192,192,99006,1,0,0:0:0:0:
64,192,99006,1,0,0:0:0:0:
64,192,99133,1,0,0:0:0:0:
448,192,99133,1,0,0:0:0:0:
448,192,99259,1,0,0:0:0:0:
192,192,99259,128,0,99765:0:0:0:0:
448,192,99765,128,0,100270:0:0:0:0:
320,192,100270,1,0,0:0:0:0:
192,192,100270,1,0,0:0:0:0:
64,192,100270,128,0,100775:0:0:0:0:
192,192,100775,1,0,0:0:0:0:
448,192,100775,1,0,0:0:0:0:
320,192,100902,1,0,0:0:0:0:
192,192,100902,1,0,0:0:0:0:
64,192,101028,1,0,0:0:0:0:
192,192,101090,1,0,0:0:0:0:
320,192,101154,1,0,0:0:0:0:
448,192,101154,1,0,0:0:0:0:
192,192,101217,1,0,0:0:0:0:
64,192,101217,1,0,0:0:0:0:
320,192,101280,1,0,0:0:0:0:
64,192,101343,1,0,0:0:0:0:
448,192,101406,1,0,0:0:0:0:
192,192,101470,1,0,0:0:0:0:
320,192,101533,1,0,0:0:0:0:
448,192,101533,1,0,0:0:0:0:
64,192,101596,1,0,0:0:0:0:
320,192,101659,1,0,0:0:0:0:
192,192,101722,1,0,0:0:0:0:
448,192,101786,1,0,0:0:0:0:
64,192,101849,1,0,0:0:0:0:
448,192,101912,1,0,0:0:0:0:
320,192,101975,1,0,0:0:0:0:
192,192,102038,1,0,0:0:0:0:
64,192,102038,1,0,0:0:0:0:
320,192,102102,1,0,0:0:0:0:
192,192,102165,1,0,0:0:0:0:
448,192,102228,1,0,0:0:0:0:
64,192,102290,1,0,0:0:0:0:
192,192,102354,1,0,0:0:0:0:
320,192,102417,1,0,0:0:0:0:
64,192,102480,1,0,0:0:0:0:
192,192,102543,1,0,0:0:0:0:
448,192,102543,1,0,0:0:0:0:
320,192,102606,1,0,0:0:0:0:
64,192,102670,1,0,0:0:0:0:
320,192,102733,1,0,0:0:0:0:
192,192,102796,1,0,0:0:0:0:
448,192,102859,1,0,0:0:0:0:
320,192,102922,1,0,0:0:0:0:
64,192,102986,1,0,0:0:0:0:
192,192,103049,1,0,0:0:0:0:
448,192,103049,1,0,0:0:0:0:
320,192,103112,1,0,0:0:0:0:
64,192,103175,1,0,0:0:0:0:
192,192,103238,1,0,0:0:0:0:
320,192,103302,1,0,0:0:0:0:
64,192,103365,1,0,0:0:0:0:
448,192,103428,1,0,0:0:0:0:
192,192,103490,1,0,0:0:0:0:
320,192,103554,1,0,0:0:0:0:
448,192,103554,1,0,0:0:0:0:
64,192,103617,1,0,0:0:0:0:
192,192,103680,1,0,0:0:0:0:
320,192,103743,1,0,0:0:0:0:
64,192,103806,1,0,0:0:0:0:
320,192,103870,1,0,0:0:0:0:
192,192,103933,1,0,0:0:0:0:
448,192,103996,1,0,0:0:0:0:
64,192,104059,1,0,0:0:0:0:
192,192,104059,1,0,0:0:0:0:
320,192,104122,1,0,0:0:0:0:
64,192,104186,1,0,0:0:0:0:
192,192,104249,1,0,0:0:0:0:
448,192,104312,1,0,0:0:0:0:
64,192,104375,1,0,0:0:0:0:
320,192,104438,1,0,0:0:0:0:
192,192,104502,1,0,0:0:0:0:
320,192,104565,1,0,0:0:0:0:
448,192,104565,1,0,0:0:0:0:
64,192,104628,1,0,0:0:0:0:
192,192,104690,1,0,0:0:0:0:
448,192,104754,1,0,0:0:0:0:
64,192,104817,1,0,0:0:0:0:
320,192,104880,1,0,0:0:0:0:
64,192,104943,1,0,0:0:0:0:
448,192,105006,1,0,0:0:0:0:
320,192,105070,1,0,0:0:0:0:
192,192,105070,1,0,0:0:0:0:
64,192,105133,1,0,0:0:0:0:
448,192,105196,1,0,0:0:0:0:
320,192,105259,1,0,0:0:0:0:
192,192,105322,1,0,0:0:0:0:
448,192,105386,1,0,0:0:0:0:
64,192,105449,1,0,0:0:0:0:
192,192,105512,1,0,0:0:0:0:
320,192,105575,1,0,0:0:0:0:
448,192,105575,1,0,0:0:0:0:
192,192,105638,1,0,0:0:0:0:
320,192,105702,1,0,0:0:0:0:
64,192,105765,1,0,0:0:0:0:
448,192,105828,1,0,0:0:0:0:
192,192,105890,1,0,0:0:0:0:
320,192,105954,1,0,0:0:0:0:
64,192,106017,1,0,0:0:0:0:
192,192,106080,1,0,0:0:0:0:
320,192,106080,1,0,0:0:0:0:
448,192,106143,1,0,0:0:0:0:
64,192,106206,1,0,0:0:0:0:
320,192,106270,1,0,0:0:0:0:
192,192,106333,1,0,0:0:0:0:
448,192,106396,1,0,0:0:0:0:
192,192,106459,1,0,0:0:0:0:
320,192,106522,1,0,0:0:0:0:
64,192,106586,1,0,0:0:0:0:
448,192,106586,1,0,0:0:0:0:
192,192,106649,1,0,0:0:0:0:
320,192,106712,1,0,0:0:0:0:
192,192,106775,1,0,0:0:0:0:
448,192,106838,1,0,0:0:0:0:
64,192,106902,1,0,0:0:0:0:
448,192,106965,1,0,0:0:0:0:
320,192,107028,1,0,0:0:0:0:
192,192,107090,1,0,0:0:0:0:
64,192,107090,1,0,0:0:0:0:
448,192,107154,1,0,0:0:0:0:
64,192,107217,1,0,0:0:0:0:
192,192,107280,1,0,0:0:0:0:
320,192,107343,1,0,0:0:0:0:
320,192,107470,1,0,0:0:0:0:
192,192,107596,1,0,0:0:0:0:
64,192,107596,1,0,0:0:0:0:
448,192,107722,1,0,0:0:0:0:
448,192,107849,1,0,0:0:0:0:
64,192,107975,1,0,0:0:0:0:
192,192,108102,1,0,0:0:0:0:
448,192,108102,1,0,0:0:0:0:
320,192,108228,1,0,0:0:0:0:
192,192,108290,1,0,0:0:0:0:
64,192,108354,1,0,0:0:0:0:
320,192,108480,1,0,0:0:0:0:
448,192,108480,1,0,0:0:0:0:
320,192,108733,1,0,0:0:0:0:
448,192,108733,1,0,0:0:0:0:
320,192,108986,1,0,0:0:0:0:
448,192,108986,1,0,0:0:0:0:
320,192,109238,1,0,0:0:0:0:
448,192,109238,1,0,0:0:0:0:
64,192,109365,1,0,0:0:0:0:
448,192,109365,1,0,0:0:0:0:
192,192,109428,1,0,0:0:0:0:
320,192,109490,1,0,0:0:0:0:
64,192,109554,1,0,0:0:0:0:
192,192,109617,1,0,0:0:0:0:
320,192,109617,1,0,0:0:0:0:
448,192,109680,1,0,0:0:0:0:
64,192,109743,1,0,0:0:0:0:
320,192,109806,1,0,0:0:0:0:
192,192,109870,1,0,0:0:0:0:
448,192,109933,1,0,0:0:0:0:
64,192,109996,1,0,0:0:0:0:
192,192,110059,1,0,0:0:0:0:
320,192,110122,1,0,0:0:0:0:
448,192,110122,1,0,0:0:0:0:
192,192,110186,1,0,0:0:0:0:
320,192,110249,1,0,0:0:0:0:
64,192,110312,1,0,0:0:0:0:
448,192,110375,1,0,0:0:0:0:
64,192,110438,1,0,0:0:0:0:
320,192,110502,1,0,0:0:0:0:
192,192,110565,1,0,0:0:0:0:
64,192,110628,1,0,0:0:0:0:
448,192,110628,1,0,0:0:0:0:
320,192,110690,1,0,0:0:0:0:
192,192,110754,1,0,0:0:0:0:
448,192,110817,1,0,0:0:0:0:
64,192,110880,1,0,0:0:0:0:
320,192,110943,1,0,0:0:0:0:
64,192,111006,1,0,0:0:0:0:
192,192,111070,1,0,0:0:0:0:
320,192,111133,1,0,0:0:0:0:
448,192,111133,1,0,0:0:0:0:
64,192,111196,1,0,0:0:0:0:
448,192,111259,1,0,0:0:0:0:
64,192,111322,1,0,0:0:0:0:
320,192,111386,1,0,0:0:0:0:
192,192,111449,1,0,0:0:0:0:
320,192,111512,1,0,0:0:0:0:
64,192,111575,1,0,0:0:0:0:
192,192,111638,1,0,0:0:0:0:
448,192,111638,1,0,0:0:0:0:
320,192,111702,1,0,0:0:0:0:
64,192,111765,1,0,0:0:0:0:
192,192,111828,1,0,0:0:0:0:
448,192,111890,1,0,0:0:0:0:
192,192,111954,1,0,0:0:0:0:
320,192,112017,1,0,0:0:0:0:
64,192,112080,1,0,0:0:0:0:
192,192,112143,1,0,0:0:0:0:
448,192,112143,1,0,0:0:0:0:
320,192,112206,1,0,0:0:0:0:
64,192,112270,1,0,0:0:0:0:
320,192,112333,1,0,0:0:0:0:
192,192,112396,1,0,0:0:0:0:
448,192,112459,1,0,0:0:0:0:
320,192,112522,1,0,0:0:0:0:
64,192,112586,1,0,0:0:0:0:
192,192,112649,1,0,0:0:0:0:
320,192,112649,1,0,0:0:0:0:
448,192,112712,1,0,0:0:0:0:
64,192,112775,1,0,0:0:0:0:
448,192,112838,1,0,0:0:0:0:
64,192,112902,1,0,0:0:0:0:
192,192,112965,1,0,0:0:0:0:
320,192,113028,1,0,0:0:0:0:
64,192,113090,1,0,0:0:0:0:
192,192,113154,1,0,0:0:0:0:
448,192,113154,1,0,0:0:0:0:
320,192,113217,1,0,0:0:0:0:
64,192,113280,1,0,0:0:0:0:
448,192,113343,1,0,0:0:0:0:
320,192,113406,1,0,0:0:0:0:
192,192,113470,1,0,0:0:0:0:
320,192,113533,1,0,0:0:0:0:
192,192,113596,1,0,0:0:0:0:
64,192,113659,1,0,0:0:0:0:
448,192,113659,1,0,0:0:0:0:
320,192,113722,1,0,0:0:0:0:
192,192,113786,1,0,0:0:0:0:
448,192,113849,1,0,0:0:0:0:
64,192,113912,1,0,0:0:0:0:
192,192,113975,1,0,0:0:0:0:
320,192,114038,1,0,0:0:0:0:
64,192,114102,1,0,0:0:0:0:
192,192,114165,1,0,0:0:0:0:
320,192,114165,1,0,0:0:0:0:
448,192,114228,1,0,0:0:0:0:
64,192,114290,1,0,0:0:0:0:
448,192,114354,1,0,0:0:0:0:
192,192,114417,1,0,0:0:0:0:
320,192,114480,1,0,0:0:0:0:
64,192,114543,1,0,0:0:0:0:
192,192,114606,1,0,0:0:0:0:
320,192,114670,1,0,0:0:0:0:
448,192,114670,1,0,0:0:0:0:
192,192,114733,1,0,0:0:0:0:
320,192,114796,1,0,0:0:0:0:
64,192,114859,1,0,0:0:0:0:
448,192,114922,1,0,0:0:0:0:
320,192,114986,1,0,0:0:0:0:
64,192,115049,1,0,0:0:0:0:
320,192,115112,1,0,0:0:0:0:
192,192,115175,1,0,0:0:0:0:
64,192,115175,1,0,0:0:0:0:
448,192,115238,1,0,0:0:0:0:
320,192,115302,1,0,0:0:0:0:
64,192,115365,1,0,0:0:0:0:
448,192,115428,1,0,0:0:0:0:
64,192,115490,1,0,0:0:0:0:
192,192,115554,1,0,0:0:0:0:
320,192,115617,1,0,0:0:0:0:
64,192,115680,1,0,0:0:0:0:
448,192,115680,1,0,0:0:0:0:
320,192,115743,1,0,0:0:0:0:
192,192,115806,1,0,0:0:0:0:
320,192,115870,1,0,0:0:0:0:
64,192,115933,1,0,0:0:0:0:
192,192,115996,1,0,0:0:0:0:
448,192,116059,1,0,0:0:0:0:
320,192,116122,1,0,0:0:0:0:
192,192,116186,1,0,0:0:0:0:
64,192,116186,1,0,0:0:0:0:
448,192,116249,1,0,0:0:0:0:
64,192,116312,1,0,0:0:0:0:
192,192,116375,1,0,0:0:0:0:
320,192,116438,1,0,0:0:0:0:
192,192,116502,1,0,0:0:0:0:
448,192,116565,1,0,0:0:0:0:
64,192,116628,1,0,0:0:0:0:
192,192,116690,1,0,0:0:0:0:
448,192,116690,1,0,0:0:0:0:
320,192,116754,1,0,0:0:0:0:
64,192,116817,1,0,0:0:0:0:
448,192,116880,1,0,0:0:0:0:
192,192,116943,1,0,0:0:0:0:
320,192,117006,1,0,0:0:0:0:
64,192,117133,1,0,0:0:0:0:
192,192,117196,1,0,0:0:0:0:
64,192,117259,1,0,0:0:0:0:
192,192,117322,1,0,0:0:0:0:
320,192,117386,1,0,0:0:0:0:
64,192,117449,1,0,0:0:0:0:
192,192,117449,1,0,0:0:0:0:
448,192,117449,1,0,0:0:0:0:
320,192,117575,1,0,0:0:0:0:
320,192,117702,1,0,0:0:0:0:
192,192,117702,1,0,0:0:0:0:
64,192,117828,1,0,0:0:0:0:
64,192,117954,1,0,0:0:0:0:
448,192,117954,1,0,0:0:0:0:
192,192,118080,1,0,0:0:0:0:
320,192,118206,1,0,0:0:0:0:
448,192,118206,1,0,0:0:0:0:
320,192,118333,1,0,0:0:0:0:
64,192,118459,1,0,0:0:0:0:
448,192,118459,1,0,0:0:0:0:
320,192,118586,1,0,0:0:0:0:
192,192,118712,1,0,0:0:0:0:
320,192,118712,1,0,0:0:0:0:
192,192,118838,1,0,0:0:0:0:
64,192,118902,1,0,0:0:0:0:
320,192,118965,1,0,0:0:0:0:
448,192,118965,1,0,0:0:0:0:
192,192,119090,1,0,0:0:0:0:
320,192,119217,1,0,0:0:0:0:
448,192,119217,1,0,0:0:0:0:
64,192,119343,1,0,0:0:0:0:
192,192,119470,1,0,0:0:0:0:
320,192,119470,1,0,0:0:0:0:
320,192,119596,1,0,0:0:0:0:
64,192,119722,1,0,0:0:0:0:
448,192,119722,1,0,0:0:0:0:
192,192,119849,1,0,0:0:0:0:
192,192,119975,1,0,0:0:0:0:
448,192,119975,1,0,0:0:0:0:
320,192,120102,1,0,0:0:0:0:
192,192,120228,1,0,0:0:0:0:
64,192,120228,1,0,0:0:0:0:
64,192,120354,1,0,0:0:0:0:
192,192,120480,1,0,0:0:0:0:
448,192,120480,1,0,0:0:0:0:
320,192,120606,1,0,0:0:0:0:
320,192,120733,1,0,0:0:0:0:
192,192,120733,1,0,0:0:0:0:
64,192,120859,1,0,0:0:0:0:
192,192,120922,1,0,0:0:0:0:
320,192,120986,1,0,0:0:0:0:
448,192,120986,1,0,0:0:0:0:
64,192,121112,1,0,0:0:0:0:
320,192,121238,1,0,0:0:0:0:
448,192,121238,1,0,0:0:0:0:
192,192,121365,1,0,0:0:0:0:
64,192,121490,1,0,0:0:0:0:
448,192,121490,1,0,0:0:0:0:
448,192,121617,1,0,0:0:0:0:
320,192,121743,1,0,0:0:0:0:
64,192,121743,1,0,0:0:0:0:
192,192,121870,1,0,0:0:0:0:
192,192,121996,1,0,0:0:0:0:
320,192,121996,1,0,0:0:0:0:
64,192,122122,1,0,0:0:0:0:
192,192,122249,1,0,0:0:0:0:
448,192,122249,1,0,0:0:0:0:
448,192,122375,1,0,0:0:0:0:
320,192,122502,1,0,0:0:0:0:
64,192,122502,1,0,0:0:0:0:
192,192,122628,1,0,0:0:0:0:
192,192,122754,1,0,0:0:0:0:
320,192,122754,1,0,0:0:0:0:
64,192,122880,1,0,0:0:0:0:
192,192,122943,1,0,0:0:0:0:
320,192,123006,1,0,0:0:0:0:
448,192,123006,1,0,0:0:0:0:
64,192,123133,1,0,0:0:0:0:
320,192,123259,1,0,0:0:0:0:
448,192,123259,1,0,0:0:0:0:
192,192,123386,1,0,0:0:0:0:
64,192,123512,1,0,0:0:0:0:
448,192,123512,1,0,0:0:0:0:
320,192,123638,1,0,0:0:0:0:
320,192,123765,1,0,0:0:0:0:
192,192,123765,1,0,0:0:0:0:
64,192,123890,1,0,0:0:0:0:
64,192,124017,1,0,0:0:0:0:
320,192,124143,1,0,0:0:0:0:
448,192,124143,1,0,0:0:0:0:
320,192,124270,1,0,0:0:0:0:
448,192,124270,1,0,0:0:0:0:
192,192,124396,1,0,0:0:0:0:
448,192,124438,1,0,0:0:0:0:
320,192,124480,1,0,0:0:0:0:
192,192,124522,1,0,0:0:0:0:
64,192,124522,1,0,0:0:0:0:
320,192,124649,1,0,0:0:0:0:
64,192,124775,1,0,0:0:0:0:
192,192,124902,1,0,0:0:0:0:
320,192,125028,1,0,0:0:0:0:
448,192,125028,1,0,0:0:0:0:
64,192,125090,1,0,0:0:0:0:
320,192,125154,1,0,0:0:0:0:
192,192,125217,1,0,0:0:0:0:
64,192,125280,1,0,0:0:0:0:
192,192,125343,1,0,0:0:0:0:
448,192,125406,1,0,0:0:0:0:
320,192,125470,1,0,0:0:0:0:
192,192,125533,1,0,0:0:0:0:
64,192,125533,1,0,0:0:0:0:
448,192,125596,1,0,0:0:0:0:
64,192,125659,1,0,0:0:0:0:
192,192,125722,1,0,0:0:0:0:
448,192,125786,1,0,0:0:0:0:
320,192,125786,1,0,0:0:0:0:
192,192,125849,1,0,0:0:0:0:
320,192,125912,1,0,0:0:0:0:
64,192,125975,1,0,0:0:0:0:
448,192,126038,1,0,0:0:0:0:
320,192,126102,1,0,0:0:0:0:
192,192,126165,1,0,0:0:0:0:
448,192,126228,1,0,0:0:0:0:
320,192,126290,1,0,0:0:0:0:
64,192,126290,1,0,0:0:0:0:
192,192,126354,1,0,0:0:0:0:
448,192,126417,1,0,0:0:0:0:
64,192,126480,1,0,0:0:0:0:
192,192,126543,1,0,0:0:0:0:
320,192,126606,1,0,0:0:0:0:
192,192,126670,1,0,0:0:0:0:
448,192,126733,1,0,0:0:0:0:
320,192,126796,1,0,0:0:0:0:
192,192,126796,1,0,0:0:0:0:
64,192,126859,1,0,0:0:0:0:
448,192,126922,1,0,0:0:0:0:
64,192,126986,1,0,0:0:0:0:
320,192,127049,1,0,0:0:0:0:
192,192,127112,1,0,0:0:0:0:
448,192,127175,1,0,0:0:0:0:
64,192,127238,1,0,0:0:0:0:
192,192,127302,1,0,0:0:0:0:
448,192,127302,1,0,0:0:0:0:
320,192,127365,1,0,0:0:0:0:
64,192,127428,1,0,0:0:0:0:
192,192,127490,1,0,0:0:0:0:
320,192,127554,1,0,0:0:0:0:
448,192,127554,1,0,0:0:0:0:
192,192,127617,1,0,0:0:0:0:
320,192,127680,1,0,0:0:0:0:
64,192,127743,1,0,0:0:0:0:
448,192,127806,1,0,0:0:0:0:
192,192,127806,1,0,0:0:0:0:
320,192,127870,1,0,0:0:0:0:
64,192,127933,1,0,0:0:0:0:
320,192,127996,1,0,0:0:0:0:
192,192,128059,1,0,0:0:0:0:
448,192,128122,1,0,0:0:0:0:
64,192,128186,1,0,0:0:0:0:
320,192,128249,1,0,0:0:0:0:
192,192,128312,1,0,0:0:0:0:
64,192,128312,1,0,0:0:0:0:
448,192,128375,1,0,0:0:0:0:
192,192,128438,1,0,0:0:0:0:
320,192,128502,1,0,0:0:0:0:
64,192,128565,1,0,0:0:0:0:
192,192,128628,1,0,0:0:0:0:
448,192,128690,1,0,0:0:0:0:
64,192,128754,1,0,0:0:0:0:
320,192,128817,1,0,0:0:0:0:
192,192,128817,1,0,0:0:0:0:
448,192,128880,1,0,0:0:0:0:
64,192,128943,1,0,0:0:0:0:
448,192,129006,1,0,0:0:0:0:
320,192,129070,1,0,0:0:0:0:
192,192,129133,1,0,0:0:0:0:
448,192,129196,1,0,0:0:0:0:
64,192,129259,1,0,0:0:0:0:
192,192,129322,1,0,0:0:0:0:
320,192,129322,1,0,0:0:0:0:
448,192,129386,1,0,0:0:0:0:
192,192,129449,1,0,0:0:0:0:
320,192,129512,1,0,0:0:0:0:
448,192,129575,1,0,0:0:0:0:
64,192,129575,1,0,0:0:0:0:
320,192,129638,1,0,0:0:0:0:
192,192,129702,1,0,0:0:0:0:
320,192,129765,1,0,0:0:0:0:
64,192,129828,1,0,0:0:0:0:
192,192,129828,1,0,0:0:0:0:
448,192,129890,1,0,0:0:0:0:
64,192,129954,1,0,0:0:0:0:
320,192,130017,1,0,0:0:0:0:
192,192,130080,1,0,0:0:0:0:
448,192,130143,1,0,0:0:0:0:
64,192,130206,1,0,0:0:0:0:
320,192,130270,1,0,0:0:0:0:
192,192,130333,1,0,0:0:0:0:
64,192,130333,1,0,0:0:0:0:
448,192,130396,1,0,0:0:0:0:
320,192,130459,1,0,0:0:0:0:
192,192,130522,1,0,0:0:0:0:
448,192,130586,1,0,0:0:0:0:
64,192,130649,1,0,0:0:0:0:
320,192,130712,1,0,0:0:0:0:
64,192,130775,1,0,0:0:0:0:
192,192,130838,1,0,0:0:0:0:
320,192,130838,1,0,0:0:0:0:
448,192,130902,1,0,0:0:0:0:
64,192,130965,1,0,0:0:0:0:
320,192,131028,1,0,0:0:0:0:
192,192,131090,1,0,0:0:0:0:
448,192,131154,1,0,0:0:0:0:
64,192,131217,1,0,0:0:0:0:
320,192,131280,1,0,0:0:0:0:
448,192,131343,1,0,0:0:0:0:
64,192,131343,1,0,0:0:0:0:
192,192,131406,1,0,0:0:0:0:
320,192,131470,1,0,0:0:0:0:
192,192,131533,1,0,0:0:0:0:
448,192,131596,1,0,0:0:0:0:
320,192,131596,1,0,0:0:0:0:
64,192,131659,1,0,0:0:0:0:
192,192,131722,1,0,0:0:0:0:
448,192,131786,1,0,0:0:0:0:
320,192,131849,1,0,0:0:0:0:
192,192,131849,1,0,0:0:0:0:
64,192,131912,1,0,0:0:0:0:
448,192,131975,1,0,0:0:0:0:
192,192,132038,1,0,0:0:0:0:
320,192,132102,1,0,0:0:0:0:
64,192,132165,1,0,0:0:0:0:
448,192,132228,1,0,0:0:0:0:
64,192,132290,1,0,0:0:0:0:
192,192,132354,1,0,0:0:0:0:
448,192,132354,1,0,0:0:0:0:
320,192,132417,1,0,0:0:0:0:
192,192,132480,1,0,0:0:0:0:
448,192,132543,1,0,0:0:0:0:
320,192,132606,1,0,0:0:0:0:
64,192,132670,1,0,0:0:0:0:
448,192,132733,1,0,0:0:0:0:
64,192,132796,1,0,0:0:0:0:
192,192,132859,1,0,0:0:0:0:
448,192,132859,1,0,0:0:0:0:
320,192,132922,1,0,0:0:0:0:
64,192,132986,1,0,0:0:0:0:
320,192,133049,1,0,0:0:0:0:
64,192,133112,1,0,0:0:0:0:
448,192,133112,1,0,0:0:0:0:
192,192,133175,1,0,0:0:0:0:
320,192,133238,1,0,0:0:0:0:
448,192,133238,1,0,0:0:0:0:
64,192,133302,1,0,0:0:0:0:
192,192,133365,1,0,0:0:0:0:
64,192,133428,1,0,0:0:0:0:
448,192,133490,1,0,0:0:0:0:
320,192,133554,1,0,0:0:0:0:
192,192,133617,1,0,0:0:0:0:
64,192,133617,1,0,0:0:0:0:
320,192,133680,1,0,0:0:0:0:
64,192,133743,1,0,0:0:0:0:
448,192,133806,1,0,0:0:0:0:
320,192,133870,1,0,0:0:0:0:
192,192,133870,1,0,0:0:0:0:
64,192,133933,1,0,0:0:0:0:
448,192,133996,1,0,0:0:0:0:
192,192,134059,1,0,0:0:0:0:
320,192,134122,1,0,0:0:0:0:
64,192,134186,1,0,0:0:0:0:
448,192,134249,1,0,0:0:0:0:
192,192,134312,1,0,0:0:0:0:
320,192,134375,1,0,0:0:0:0:
448,192,134375,1,0,0:0:0:0:
64,192,134438,1,0,0:0:0:0:
192,192,134502,1,0,0:0:0:0:
320,192,134565,1,0,0:0:0:0:
192,192,134628,1,0,0:0:0:0:
448,192,134690,1,0,0:0:0:0:
320,192,134754,1,0,0:0:0:0:
64,192,134817,1,0,0:0:0:0:
192,192,134880,1,0,0:0:0:0:
448,192,134880,1,0,0:0:0:0:
320,192,134943,1,0,0:0:0:0:
192,192,135006,1,0,0:0:0:0:
320,192,135070,1,0,0:0:0:0:
64,192,135133,1,0,0:0:0:0:
448,192,135196,1,0,0:0:0:0:
64,192,135259,1,0,0:0:0:0:
192,192,135322,1,0,0:0:0:0:
320,192,135386,1,0,0:0:0:0:
448,192,135386,1,0,0:0:0:0:
64,192,135449,1,0,0:0:0:0:
320,192,135512,1,0,0:0:0:0:
192,192,135575,1,0,0:0:0:0:
448,192,135638,1,0,0:0:0:0:
64,192,135638,1,0,0:0:0:0:
320,192,135702,1,0,0:0:0:0:
64,192,135765,1,0,0:0:0:0:
192,192,135828,1,0,0:0:0:0:
448,192,135890,1,0,0:0:0:0:
320,192,135890,1,0,0:0:0:0:
192,192,135954,1,0,0:0:0:0:
448,192,136017,1,0,0:0:0:0:
64,192,136080,1,0,0:0:0:0:
320,192,136143,1,0,0:0:0:0:
192,192,136206,1,0,0:0:0:0:
448,192,136270,1,0,0:0:0:0:
192,192,136333,1,0,0:0:0:0:
320,192,136396,1,0,0:0:0:0:
448,192,136396,1,0,0:0:0:0:
64,192,136459,1,0,0:0:0:0:
192,192,136522,1,0,0:0:0:0:
448,192,136586,1,0,0:0:0:0:
64,192,136649,1,0,0:0:0:0:
320,192,136712,1,0,0:0:0:0:
64,192,136775,1,0,0:0:0:0:
192,192,136838,1,0,0:0:0:0:
320,192,136902,1,0,0:0:0:0:
448,192,136902,1,0,0:0:0:0:
192,192,136965,1,0,0:0:0:0:
320,192,137028,1,0,0:0:0:0:
64,192,137090,1,0,0:0:0:0:
448,192,137154,1,0,0:0:0:0:
192,192,137217,1,0,0:0:0:0:
320,192,137280,1,0,0:0:0:0:
192,192,137343,1,0,0:0:0:0:
64,192,137406,1,0,0:0:0:0:
448,192,137406,1,0,0:0:0:0:
320,192,137470,1,0,0:0:0:0:
192,192,137533,1,0,0:0:0:0:
320,192,137596,1,0,0:0:0:0:
192,192,137659,1,0,0:0:0:0:
64,192,137659,1,0,0:0:0:0:
448,192,137722,1,0,0:0:0:0:
64,192,137786,1,0,0:0:0:0:
320,192,137849,1,0,0:0:0:0:
192,192,137912,1,0,0:0:0:0:
64,192,137912,1,0,0:0:0:0:
448,192,137975,1,0,0:0:0:0:
192,192,138038,1,0,0:0:0:0:
320,192,138102,1,0,0:0:0:0:
64,192,138165,1,0,0:0:0:0:
448,192,138228,1,0,0:0:0:0:
192,192,138290,1,0,0:0:0:0:
320,192,138354,1,0,0:0:0:0:
192,192,138417,1,0,0:0:0:0:
64,192,138417,1,0,0:0:0:0:
448,192,138480,1,0,0:0:0:0:
64,192,138543,1,0,0:0:0:0:
320,192,138606,1,0,0:0:0:0:
192,192,138670,1,0,0:0:0:0:
448,192,138733,1,0,0:0:0:0:
64,192,138796,1,0,0:0:0:0:
448,192,138859,1,0,0:0:0:0:
192,192,138922,1,0,0:0:0:0:
64,192,138922,1,0,0:0:0:0:
320,192,138986,1,0,0:0:0:0:
192,192,139049,1,0,0:0:0:0:
448,192,139112,1,0,0:0:0:0:
64,192,139175,1,0,0:0:0:0:
192,192,139238,1,0,0:0:0:0:
320,192,139302,1,0,0:0:0:0:
64,192,139365,1,0,0:0:0:0:
192,192,139428,1,0,0:0:0:0:
320,192,139428,1,0,0:0:0:0:
448,192,139490,1,0,0:0:0:0:
192,192,139554,1,0,0:0:0:0:
448,192,139617,1,0,0:0:0:0:
320,192,139680,1,0,0:0:0:0:
64,192,139680,1,0,0:0:0:0:
192,192,139743,1,0,0:0:0:0:
448,192,139806,1,0,0:0:0:0:
320,192,139870,1,0,0:0:0:0:
64,192,139933,1,0,0:0:0:0:
192,192,139933,1,0,0:0:0:0:
448,192,139996,1,0,0:0:0:0:
192,192,140059,1,0,0:0:0:0:
320,192,140122,1,0,0:0:0:0:
64,192,140186,1,0,0:0:0:0:
448,192,140249,1,0,0:0:0:0:
192,192,140312,1,0,0:0:0:0:
320,192,140375,1,0,0:0:0:0:
192,192,140438,1,0,0:0:0:0:
64,192,140438,1,0,0:0:0:0:
448,192,140502,1,0,0:0:0:0:
64,192,140565,1,0,0:0:0:0:
448,192,140628,1,0,0:0:0:0:
320,192,140690,1,0,0:0:0:0:
192,192,140754,1,0,0:0:0:0:
320,192,140817,1,0,0:0:0:0:
192,192,140880,1,0,0:0:0:0:
64,192,140943,1,0,0:0:0:0:
448,192,140943,1,0,0:0:0:0:
192,192,141006,1,0,0:0:0:0:
320,192,141070,1,0,0:0:0:0:
64,192,141133,1,0,0:0:0:0:
448,192,141196,1,0,0:0:0:0:
320,192,141196,1,0,0:0:0:0:
192,192,141259,1,0,0:0:0:0:
64,192,141259,1,0,0:0:0:0:
448,192,141322,1,0,0:0:0:0:
320,192,141322,1,0,0:0:0:0:
192,192,141386,1,0,0:0:0:0:
64,192,141386,1,0,0:0:0:0:
320,192,141449,1,0,0:0:0:0:
192,192,141512,1,0,0:0:0:0:
64,192,141575,1,0,0:0:0:0:
320,192,141638,1,0,0:0:0:0:
64,192,141702,128,0,141828:0:0:0:0:
192,192,141702,128,0,141828:0:0:0:0:
448,192,141702,128,0,142712:0:0:0:0:
320,192,142712,128,0,142838:0:0:0:0:
64,192,142712,128,0,142838:0:0:0:0:
192,192,142712,128,0,143217:0:0:0:0:
448,192,143217,128,0,143722:0:0:0:0:
64,192,143722,128,0,143849:0:0:0:0:
192,192,143722,128,0,143849:0:0:0:0:
320,192,143722,128,0,144228:0:0:0:0:
64,192,144228,128,0,144733:0:0:0:0:
192,192,144733,128,0,144859:0:0:0:0:
320,192,144733,128,0,144859:0:0:0:0:
448,192,144733,128,0,145238:0:0:0:0:
64,192,145238,128,0,145743:0:0:0:0:
192,192,145743,128,0,145870:0:0:0:0:
448,192,145743,128,0,145870:0:0:0:0:
320,192,145743,128,0,146249:0:0:0:0:
64,192,146754,128,0,147196:0:0:0:0:
192,192,146754,128,0,147196:0:0:0:0:
320,192,146754,128,0,147259:0:0:0:0:
64,192,147259,128,0,147765:0:0:0:0:
448,192,147259,128,0,147702:0:0:0:0:
192,192,147259,128,0,147702:0:0:0:0:
192,192,147765,128,0,147890:0:0:0:0:
320,192,147765,128,0,147890:0:0:0:0:
448,192,147765,128,0,148270:0:0:0:0:
64,192,148775,128,0,149217:0:0:0:0:
192,192,148775,128,0,149217:0:0:0:0:
448,192,148775,128,0,149280:0:0:0:0:
64,192,149280,1,0,0:0:0:0:
192,192,149280,1,0,0:0:0:0:
320,192,149280,1,0,0:0:0:0:
320,192,149406,1,0,0:0:0:0:
64,192,149406,1,0,0:0:0:0:
320,192,149533,1,0,0:0:0:0:
448,192,149533,1,0,0:0:0:0:
192,192,149596,1,0,0:0:0:0:
64,192,149596,1,0,0:0:0:0:
320,192,149659,1,0,0:0:0:0:
448,192,149659,1,0,0:0:0:0:
192,192,149722,1,0,0:0:0:0:
64,192,149722,1,0,0:0:0:0:
320,192,149786,1,0,0:0:0:0:
192,192,149849,1,0,0:0:0:0:
448,192,149912,1,0,0:0:0:0:
64,192,149975,1,0,0:0:0:0:
192,192,150038,1,0,0:0:0:0:
448,192,150038,1,0,0:0:0:0:
320,192,150102,1,0,0:0:0:0:
64,192,150165,1,0,0:0:0:0:
192,192,150228,1,0,0:0:0:0:
448,192,150290,1,0,0:0:0:0:
64,192,150354,1,0,0:0:0:0:
320,192,150417,1,0,0:0:0:0:
192,192,150480,1,0,0:0:0:0:
320,192,150543,1,0,0:0:0:0:
448,192,150543,1,0,0:0:0:0:
64,192,150606,1,0,0:0:0:0:
448,192,150670,1,0,0:0:0:0:
64,192,150733,1,0,0:0:0:0:
192,192,150796,1,0,0:0:0:0:
320,192,150859,1,0,0:0:0:0:
192,192,150922,1,0,0:0:0:0:
320,192,150986,1,0,0:0:0:0:
64,192,151049,1,0,0:0:0:0:
448,192,151049,1,0,0:0:0:0:
192,192,151112,1,0,0:0:0:0:
320,192,151175,1,0,0:0:0:0:
64,192,151238,1,0,0:0:0:0:
448,192,151302,1,0,0:0:0:0:
320,192,151365,1,0,0:0:0:0:
192,192,151428,1,0,0:0:0:0:
64,192,151490,1,0,0:0:0:0:
192,192,151554,1,0,0:0:0:0:
448,192,151554,1,0,0:0:0:0:
320,192,151617,1,0,0:0:0:0:
192,192,151680,1,0,0:0:0:0:
64,192,151743,1,0,0:0:0:0:
320,192,151806,1,0,0:0:0:0:
192,192,151870,1,0,0:0:0:0:
448,192,151933,1,0,0:0:0:0:
192,192,151996,1,0,0:0:0:0:
64,192,152059,1,0,0:0:0:0:
448,192,152059,1,0,0:0:0:0:
320,192,152122,1,0,0:0:0:0:
192,192,152186,1,0,0:0:0:0:
320,192,152249,1,0,0:0:0:0:
64,192,152312,1,0,0:0:0:0:
192,192,152375,1,0,0:0:0:0:
320,192,152438,1,0,0:0:0:0:
192,192,152502,1,0,0:0:0:0:
320,192,152565,1,0,0:0:0:0:
448,192,152565,1,0,0:0:0:0:
64,192,152628,1,0,0:0:0:0:
192,192,152690,1,0,0:0:0:0:
448,192,152754,1,0,0:0:0:0:
192,192,152817,1,0,0:0:0:0:
320,192,152880,1,0,0:0:0:0:
64,192,152943,1,0,0:0:0:0:
448,192,153006,1,0,0:0:0:0:
320,192,153070,1,0,0:0:0:0:
192,192,153070,1,0,0:0:0:0:
64,192,153133,1,0,0:0:0:0:
320,192,153196,1,0,0:0:0:0:
64,192,153259,1,0,0:0:0:0:
192,192,153322,128,0,153512:0:0:0:0:
320,192,153322,128,0,153512:0:0:0:0:
448,192,153322,128,0,153575:0:0:0:0:
64,192,153575,128,0,153828:0:0:0:0:
192,192,153575,128,0,153765:0:0:0:0:
320,192,153575,128,0,153765:0:0:0:0:
192,192,153828,1,0,0:0:0:0:
448,192,153828,1,0,0:0:0:0:
320,192,153828,1,0,0:0:0:0:
64,192,153890,1,0,0:0:0:0:
448,192,153954,1,0,0:0:0:0:
192,192,154017,1,0,0:0:0:0:
320,192,154080,1,0,0:0:0:0:
64,192,154080,1,0,0:0:0:0:
448,192,154143,1,0,0:0:0:0:
192,192,154206,1,0,0:0:0:0:
320,192,154270,1,0,0:0:0:0:
64,192,154333,1,0,0:0:0:0:
448,192,154396,1,0,0:0:0:0:
192,192,154459,1,0,0:0:0:0:
320,192,154522,1,0,0:0:0:0:
192,192,154586,1,0,0:0:0:0:
64,192,154586,1,0,0:0:0:0:
448,192,154649,1,0,0:0:0:0:
64,192,154712,1,0,0:0:0:0:
320,192,154775,1,0,0:0:0:0:
192,192,154838,1,0,0:0:0:0:
448,192,154902,1,0,0:0:0:0:
64,192,154965,1,0,0:0:0:0:
320,192,155028,1,0,0:0:0:0:
192,192,155090,1,0,0:0:0:0:
64,192,155090,1,0,0:0:0:0:
320,192,155154,1,0,0:0:0:0:
192,192,155217,1,0,0:0:0:0:
448,192,155280,1,0,0:0:0:0:
64,192,155343,1,0,0:0:0:0:
192,192,155343,1,0,0:0:0:0:
320,192,155406,1,0,0:0:0:0:
448,192,155406,1,0,0:0:0:0:
192,192,155470,1,0,0:0:0:0:
64,192,155470,1,0,0:0:0:0:
320,192,155533,1,0,0:0:0:0:
448,192,155533,1,0,0:0:0:0:
64,192,155596,1,0,0:0:0:0:
192,192,155659,1,0,0:0:0:0:
320,192,155722,1,0,0:0:0:0:
192,192,155786,1,0,0:0:0:0:
320,192,155849,1,0,0:0:0:0:
448,192,155849,1,0,0:0:0:0:
64,192,155849,1,0,0:0:0:0:
192,192,156017,1,0,0:0:0:0:
64,192,156017,1,0,0:0:0:0:
64,192,156102,1,0,0:0:0:0:
448,192,156102,1,0,0:0:0:0:
320,192,156102,1,0,0:0:0:0:
192,192,156228,1,0,0:0:0:0:
320,192,156228,1,0,0:0:0:0:
64,192,156354,1,0,0:0:0:0:
192,192,156480,1,0,0:0:0:0:
448,192,156480,1,0,0:0:0:0:
320,192,156606,1,0,0:0:0:0:
192,192,156606,1,0,0:0:0:0:
64,192,156606,1,0,0:0:0:0:
64,192,156733,1,0,0:0:0:0:
448,192,156733,1,0,0:0:0:0:
192,192,156859,1,0,0:0:0:0:
320,192,156859,1,0,0:0:0:0:
448,192,156859,1,0,0:0:0:0:
64,192,156986,5,0,0:0:0:0:
192,192,157112,1,0,0:0:0:0:
448,192,157112,1,0,0:0:0:0:
320,192,157238,1,0,0:0:0:0:
192,192,157238,1,0,0:0:0:0:
64,192,157238,1,0,0:0:0:0:
448,192,157365,1,0,0:0:0:0:
64,192,157490,1,0,0:0:0:0:
192,192,157490,1,0,0:0:0:0:
64,192,157617,1,0,0:0:0:0:
320,192,157617,1,0,0:0:0:0:
448,192,157617,1,0,0:0:0:0:
192,192,157743,1,0,0:0:0:0:
320,192,157743,1,0,0:0:0:0:
448,192,157870,5,0,0:0:0:0:
64,192,157870,1,0,0:0:0:0:
192,192,157933,1,0,0:0:0:0:
320,192,157996,1,0,0:0:0:0:
192,192,158059,1,0,0:0:0:0:
448,192,158122,1,0,0:0:0:0:
64,192,158186,1,0,0:0:0:0:
320,192,158249,1,0,0:0:0:0:
64,192,158312,1,0,0:0:0:0:
448,192,158375,1,0,0:0:0:0:
192,192,158438,1,0,0:0:0:0:
320,192,158502,1,0,0:0:0:0:
192,192,158565,1,0,0:0:0:0:
448,192,158628,1,0,0:0:0:0:
64,192,158690,1,0,0:0:0:0:
320,192,158754,1,0,0:0:0:0:
64,192,158817,1,0,0:0:0:0:
192,192,158880,1,0,0:0:0:0:
448,192,158880,1,0,0:0:0:0:
320,192,158943,1,0,0:0:0:0:
64,192,159006,1,0,0:0:0:0:
320,192,159070,1,0,0:0:0:0:
192,192,159133,1,0,0:0:0:0:
448,192,159196,1,0,0:0:0:0:
64,192,159259,1,0,0:0:0:0:
448,192,159322,1,0,0:0:0:0:
64,192,159386,1,0,0:0:0:0:
192,192,159428,1,0,0:0:0:0:
320,192,159470,1,0,0:0:0:0:
448,192,159512,1,0,0:0:0:0:
192,192,159554,1,0,0:0:0:0:
320,192,159596,1,0,0:0:0:0:
64,192,159638,1,0,0:0:0:0:
192,192,159680,1,0,0:0:0:0:
320,192,159722,1,0,0:0:0:0:
448,192,159765,1,0,0:0:0:0:
192,192,159806,1,0,0:0:0:0:
320,192,159849,1,0,0:0:0:0:
64,192,159890,1,0,0:0:0:0:
448,192,159890,1,0,0:0:0:0:
192,192,159954,1,0,0:0:0:0:
320,192,160017,1,0,0:0:0:0:
192,192,160080,1,0,0:0:0:0:
448,192,160143,1,0,0:0:0:0:
64,192,160206,1,0,0:0:0:0:
320,192,160270,1,0,0:0:0:0:
64,192,160333,1,0,0:0:0:0:
448,192,160396,1,0,0:0:0:0:
192,192,160459,1,0,0:0:0:0:
320,192,160522,1,0,0:0:0:0:
192,192,160586,1,0,0:0:0:0:
448,192,160649,1,0,0:0:0:0:
64,192,160712,1,0,0:0:0:0:
320,192,160775,1,0,0:0:0:0:
64,192,160838,1,0,0:0:0:0:
448,192,160902,1,0,0:0:0:0:
320,192,160902,1,0,0:0:0:0:
64,192,160965,1,0,0:0:0:0:
448,192,161028,1,0,0:0:0:0:
192,192,161090,1,0,0:0:0:0:
320,192,161154,1,0,0:0:0:0:
64,192,161217,1,0,0:0:0:0:
320,192,161280,1,0,0:0:0:0:
192,192,161343,1,0,0:0:0:0:
64,192,161406,1,0,0:0:0:0:
192,192,161449,1,0,0:0:0:0:
320,192,161490,1,0,0:0:0:0:
448,192,161533,1,0,0:0:0:0:
192,192,161575,1,0,0:0:0:0:
320,192,161617,1,0,0:0:0:0:
64,192,161659,1,0,0:0:0:0:
192,192,161702,1,0,0:0:0:0:
320,192,161743,1,0,0:0:0:0:
448,192,161786,1,0,0:0:0:0:
192,192,161828,1,0,0:0:0:0:
320,192,161870,1,0,0:0:0:0:
64,192,161912,1,0,0:0:0:0:
448,192,161912,1,0,0:0:0:0:
192,192,161975,1,0,0:0:0:0:
320,192,162038,1,0,0:0:0:0:
192,192,162102,1,0,0:0:0:0:
448,192,162165,1,0,0:0:0:0:
64,192,162228,1,0,0:0:0:0:
320,192,162290,1,0,0:0:0:0:
64,192,162354,1,0,0:0:0:0:
448,192,162417,1,0,0:0:0:0:
192,192,162480,1,0,0:0:0:0:
320,192,162543,1,0,0:0:0:0:
192,192,162606,1,0,0:0:0:0:
448,192,162670,1,0,0:0:0:0:
64,192,162733,1,0,0:0:0:0:
320,192,162796,1,0,0:0:0:0:
64,192,162859,1,0,0:0:0:0:
448,192,162922,1,0,0:0:0:0:
192,192,162922,1,0,0:0:0:0:
320,192,162986,1,0,0:0:0:0:
64,192,163049,1,0,0:0:0:0:
320,192,163112,1,0,0:0:0:0:
192,192,163175,1,0,0:0:0:0:
448,192,163238,1,0,0:0:0:0:
64,192,163302,1,0,0:0:0:0:
448,192,163365,1,0,0:0:0:0:
64,192,163428,1,0,0:0:0:0:
192,192,163470,1,0,0:0:0:0:
320,192,163512,1,0,0:0:0:0:
448,192,163554,1,0,0:0:0:0:
192,192,163596,1,0,0:0:0:0:
320,192,163638,1,0,0:0:0:0:
64,192,163680,1,0,0:0:0:0:
192,192,163722,1,0,0:0:0:0:
320,192,163765,1,0,0:0:0:0:
448,192,163806,1,0,0:0:0:0:
192,192,163849,1,0,0:0:0:0:
320,192,163890,1,0,0:0:0:0:
64,192,163933,1,0,0:0:0:0:
448,192,163933,1,0,0:0:0:0:
192,192,163996,1,0,0:0:0:0:
320,192,164059,1,0,0:0:0:0:
192,192,164122,1,0,0:0:0:0:
448,192,164186,1,0,0:0:0:0:
64,192,164249,1,0,0:0:0:0:
320,192,164312,1,0,0:0:0:0:
64,192,164375,1,0,0:0:0:0:
448,192,164438,1,0,0:0:0:0:
192,192,164502,1,0,0:0:0:0:
320,192,164565,1,0,0:0:0:0:
192,192,164628,1,0,0:0:0:0:
448,192,164690,1,0,0:0:0:0:
64,192,164754,1,0,0:0:0:0:
320,192,164817,1,0,0:0:0:0:
64,192,164880,1,0,0:0:0:0:
192,192,164943,1,0,0:0:0:0:
448,192,164943,1,0,0:0:0:0:
320,192,165006,1,0,0:0:0:0:
64,192,165070,1,0,0:0:0:0:
192,192,165070,1,0,0:0:0:0:
320,192,165133,1,0,0:0:0:0:
448,192,165133,1,0,0:0:0:0:
192,192,165196,1,0,0:0:0:0:
64,192,165196,1,0,0:0:0:0:
320,192,165259,1,0,0:0:0:0:
448,192,165259,1,0,0:0:0:0:
64,192,165322,1,0,0:0:0:0:
192,192,165386,1,0,0:0:0:0:
320,192,165449,1,0,0:0:0:0:
448,192,165449,1,0,0:0:0:0:
64,192,165512,1,0,0:0:0:0:
320,192,165575,1,0,0:0:0:0:
192,192,165638,1,0,0:0:0:0:
448,192,165702,1,0,0:0:0:0:
320,192,165765,1,0,0:0:0:0:
192,192,165828,1,0,0:0:0:0:
64,192,165890,1,0,0:0:0:0:
192,192,165954,1,0,0:0:0:0:
320,192,165954,1,0,0:0:0:0:
448,192,166017,1,0,0:0:0:0:
64,192,166080,1,0,0:0:0:0:
448,192,166143,1,0,0:0:0:0:
64,192,166206,1,0,0:0:0:0:
320,192,166206,1,0,0:0:0:0:
192,192,166270,1,0,0:0:0:0:
448,192,166333,1,0,0:0:0:0:
192,192,166396,1,0,0:0:0:0:
320,192,166459,1,0,0:0:0:0:
64,192,166522,1,0,0:0:0:0:
448,192,166586,1,0,0:0:0:0:
64,192,166649,1,0,0:0:0:0:
320,192,166712,1,0,0:0:0:0:
192,192,166712,1,0,0:0:0:0:
448,192,166775,1,0,0:0:0:0:
64,192,166838,1,0,0:0:0:0:
448,192,166902,1,0,0:0:0:0:
192,192,166965,1,0,0:0:0:0:
320,192,167028,1,0,0:0:0:0:
64,192,167090,1,0,0:0:0:0:
320,192,167154,1,0,0:0:0:0:
64,192,167217,1,0,0:0:0:0:
448,192,167217,1,0,0:0:0:0:
192,192,167280,1,0,0:0:0:0:
320,192,167343,1,0,0:0:0:0:
192,192,167406,1,0,0:0:0:0:
448,192,167470,1,0,0:0:0:0:
320,192,167512,1,0,0:0:0:0:
192,192,167554,1,0,0:0:0:0:
64,192,167596,1,0,0:0:0:0:
320,192,167638,1,0,0:0:0:0:
192,192,167680,1,0,0:0:0:0:
448,192,167722,1,0,0:0:0:0:
320,192,167765,1,0,0:0:0:0:
192,192,167806,1,0,0:0:0:0:
64,192,167849,1,0,0:0:0:0:
320,192,167890,1,0,0:0:0:0:
192,192,167933,1,0,0:0:0:0:
64,192,167975,1,0,0:0:0:0:
448,192,167975,1,0,0:0:0:0:
320,192,168038,1,0,0:0:0:0:
192,192,168102,1,0,0:0:0:0:
320,192,168165,1,0,0:0:0:0:
448,192,168228,1,0,0:0:0:0:
192,192,168228,1,0,0:0:0:0:
64,192,168290,1,0,0:0:0:0:
320,192,168354,1,0,0:0:0:0:
64,192,168417,1,0,0:0:0:0:
448,192,168480,1,0,0:0:0:0:
192,192,168543,1,0,0:0:0:0:
320,192,168606,1,0,0:0:0:0:
192,192,168670,1,0,0:0:0:0:
64,192,168733,1,0,0:0:0:0:
320,192,168733,1,0,0:0:0:0:
448,192,168796,1,0,0:0:0:0:
192,192,168859,1,0,0:0:0:0:
448,192,168922,1,0,0:0:0:0:
64,192,168986,1,0,0:0:0:0:
320,192,169049,1,0,0:0:0:0:
192,192,169112,1,0,0:0:0:0:
320,192,169175,1,0,0:0:0:0:
448,192,169238,1,0,0:0:0:0:
64,192,169238,1,0,0:0:0:0:
192,192,169302,1,0,0:0:0:0:
320,192,169365,1,0,0:0:0:0:
192,192,169428,1,0,0:0:0:0:
448,192,169490,1,0,0:0:0:0:
320,192,169533,1,0,0:0:0:0:
192,192,169575,1,0,0:0:0:0:
64,192,169617,1,0,0:0:0:0:
320,192,169659,1,0,0:0:0:0:
192,192,169702,1,0,0:0:0:0:
448,192,169743,1,0,0:0:0:0:
320,192,169786,1,0,0:0:0:0:
192,192,169828,1,0,0:0:0:0:
64,192,169870,1,0,0:0:0:0:
320,192,169912,1,0,0:0:0:0:
192,192,169954,1,0,0:0:0:0:
448,192,169996,1,0,0:0:0:0:
64,192,169996,1,0,0:0:0:0:
320,192,170059,1,0,0:0:0:0:
192,192,170122,1,0,0:0:0:0:
320,192,170186,1,0,0:0:0:0:
192,192,170249,1,0,0:0:0:0:
448,192,170249,1,0,0:0:0:0:
64,192,170312,1,0,0:0:0:0:
320,192,170375,1,0,0:0:0:0:
64,192,170438,1,0,0:0:0:0:
448,192,170502,1,0,0:0:0:0:
192,192,170565,1,0,0:0:0:0:
320,192,170628,1,0,0:0:0:0:
192,192,170690,1,0,0:0:0:0:
64,192,170754,1,0,0:0:0:0:
320,192,170754,1,0,0:0:0:0:
448,192,170817,1,0,0:0:0:0:
64,192,170880,1,0,0:0:0:0:
448,192,170943,1,0,0:0:0:0:
192,192,171006,1,0,0:0:0:0:
320,192,171070,1,0,0:0:0:0:
64,192,171133,1,0,0:0:0:0:
320,192,171196,1,0,0:0:0:0:
192,192,171259,1,0,0:0:0:0:
448,192,171259,1,0,0:0:0:0:
64,192,171322,1,0,0:0:0:0:
320,192,171386,1,0,0:0:0:0:
64,192,171449,1,0,0:0:0:0:
320,192,171512,1,0,0:0:0:0:
448,192,171512,1,0,0:0:0:0:
192,192,171575,1,0,0:0:0:0:
64,192,171575,1,0,0:0:0:0:
320,192,171638,1,0,0:0:0:0:
448,192,171638,1,0,0:0:0:0:
192,192,171702,1,0,0:0:0:0:
64,192,171702,1,0,0:0:0:0:
320,192,171765,1,0,0:0:0:0:
192,192,171828,1,0,0:0:0:0:
64,192,171890,1,0,0:0:0:0:
448,192,171922,1,0,0:0:0:0:
320,192,171954,1,0,0:0:0:0:
192,192,172017,1,0,0:0:0:0:
448,192,172080,1,0,0:0:0:0:
64,192,172143,1,0,0:0:0:0:
448,192,172206,1,0,0:0:0:0:
192,192,172270,1,0,0:0:0:0:
320,192,172270,1,0,0:0:0:0:
64,192,172333,1,0,0:0:0:0:
448,192,172396,1,0,0:0:0:0:
320,192,172396,1,0,0:0:0:0:
64,192,172459,1,0,0:0:0:0:
192,192,172522,1,0,0:0:0:0:
448,192,172522,1,0,0:0:0:0:
320,192,172586,1,0,0:0:0:0:
192,192,172649,1,0,0:0:0:0:
64,192,172649,1,0,0:0:0:0:
320,192,172712,1,0,0:0:0:0:
64,192,172775,1,0,0:0:0:0:
448,192,172775,1,0,0:0:0:0:
192,192,172838,1,0,0:0:0:0:
320,192,172902,1,0,0:0:0:0:
448,192,172902,1,0,0:0:0:0:
192,192,172965,1,0,0:0:0:0:
64,192,173028,1,0,0:0:0:0:
320,192,173028,1,0,0:0:0:0:
448,192,173090,1,0,0:0:0:0:
192,192,173154,1,0,0:0:0:0:
64,192,173154,1,0,0:0:0:0:
448,192,173217,1,0,0:0:0:0:
320,192,173217,1,0,0:0:0:0:
192,192,173280,1,0,0:0:0:0:
64,192,173280,1,0,0:0:0:0:
320,192,173343,1,0,0:0:0:0:
448,192,173343,1,0,0:0:0:0:
64,192,173406,1,0,0:0:0:0:
192,192,173470,1,0,0:0:0:0:
448,192,173533,1,0,0:0:0:0:
64,192,173533,1,0,0:0:0:0:
192,192,173575,1,0,0:0:0:0:
320,192,173617,1,0,0:0:0:0:
448,192,173659,1,0,0:0:0:0:
192,192,173702,1,0,0:0:0:0:
320,192,173743,1,0,0:0:0:0:
64,192,173786,1,0,0:0:0:0:
192,192,173828,1,0,0:0:0:0:
320,192,173870,1,0,0:0:0:0:
448,192,173912,1,0,0:0:0:0:
192,192,173954,1,0,0:0:0:0:
320,192,173996,1,0,0:0:0:0:
448,192,174038,1,0,0:0:0:0:
64,192,174038,1,0,0:0:0:0:
192,192,174102,1,0,0:0:0:0:
320,192,174165,1,0,0:0:0:0:
192,192,174228,1,0,0:0:0:0:
448,192,174290,1,0,0:0:0:0:
64,192,174290,1,0,0:0:0:0:
320,192,174354,1,0,0:0:0:0:
192,192,174417,1,0,0:0:0:0:
320,192,174480,1,0,0:0:0:0:
64,192,174543,1,0,0:0:0:0:
448,192,174606,1,0,0:0:0:0:
192,192,174670,1,0,0:0:0:0:
448,192,174733,1,0,0:0:0:0:
192,192,174796,1,0,0:0:0:0:
320,192,174796,1,0,0:0:0:0:
64,192,174859,1,0,0:0:0:0:
448,192,174922,1,0,0:0:0:0:
64,192,174986,1,0,0:0:0:0:
320,192,175049,1,0,0:0:0:0:
192,192,175112,1,0,0:0:0:0:
448,192,175175,1,0,0:0:0:0:
192,192,175238,1,0,0:0:0:0:
320,192,175302,1,0,0:0:0:0:
64,192,175302,1,0,0:0:0:0:
448,192,175365,1,0,0:0:0:0:
192,192,175428,1,0,0:0:0:0:
448,192,175490,1,0,0:0:0:0:
64,192,175554,1,0,0:0:0:0:
192,192,175596,1,0,0:0:0:0:
320,192,175638,1,0,0:0:0:0:
448,192,175680,1,0,0:0:0:0:
192,192,175722,1,0,0:0:0:0:
320,192,175765,1,0,0:0:0:0:
64,192,175806,1,0,0:0:0:0:
192,192,175849,1,0,0:0:0:0:
320,192,175890,1,0,0:0:0:0:
448,192,175933,1,0,0:0:0:0:
192,192,175975,1,0,0:0:0:0:
320,192,176017,1,0,0:0:0:0:
64,192,176059,1,0,0:0:0:0:
448,192,176059,1,0,0:0:0:0:
192,192,176122,1,0,0:0:0:0:
320,192,176186,1,0,0:0:0:0:
192,192,176249,1,0,0:0:0:0:
64,192,176312,1,0,0:0:0:0:
320,192,176312,1,0,0:0:0:0:
448,192,176375,1,0,0:0:0:0:
64,192,176438,1,0,0:0:0:0:
448,192,176502,1,0,0:0:0:0:
192,192,176565,1,0,0:0:0:0:
320,192,176628,1,0,0:0:0:0:
64,192,176690,1,0,0:0:0:0:
320,192,176754,1,0,0:0:0:0:
192,192,176817,1,0,0:0:0:0:
448,192,176817,1,0,0:0:0:0:
64,192,176880,1,0,0:0:0:0:
320,192,176943,1,0,0:0:0:0:
64,192,177006,1,0,0:0:0:0:
448,192,177070,1,0,0:0:0:0:
192,192,177133,1,0,0:0:0:0:
320,192,177196,1,0,0:0:0:0:
192,192,177259,1,0,0:0:0:0:
64,192,177322,1,0,0:0:0:0:
320,192,177322,1,0,0:0:0:0:
448,192,177386,1,0,0:0:0:0:
192,192,177449,1,0,0:0:0:0:
448,192,177512,1,0,0:0:0:0:
64,192,177575,1,0,0:0:0:0:
192,192,177617,1,0,0:0:0:0:
320,192,177659,1,0,0:0:0:0:
448,192,177702,1,0,0:0:0:0:
192,192,177743,1,0,0:0:0:0:
320,192,177786,1,0,0:0:0:0:
64,192,177828,1,0,0:0:0:0:
192,192,177870,1,0,0:0:0:0:
320,192,177912,1,0,0:0:0:0:
448,192,177954,1,0,0:0:0:0:
192,192,177996,1,0,0:0:0:0:
320,192,178038,1,0,0:0:0:0:
64,192,178080,1,0,0:0:0:0:
448,192,178080,1,0,0:0:0:0:
192,192,178143,1,0,0:0:0:0:
320,192,178206,1,0,0:0:0:0:
192,192,178270,1,0,0:0:0:0:
64,192,178333,1,0,0:0:0:0:
320,192,178333,1,0,0:0:0:0:
448,192,178396,1,0,0:0:0:0:
64,192,178459,1,0,0:0:0:0:
448,192,178522,1,0,0:0:0:0:
192,192,178586,1,0,0:0:0:0:
320,192,178649,1,0,0:0:0:0:
64,192,178712,1,0,0:0:0:0:
320,192,178775,1,0,0:0:0:0:
192,192,178838,1,0,0:0:0:0:
448,192,178838,1,0,0:0:0:0:
64,192,178902,1,0,0:0:0:0:
320,192,178965,1,0,0:0:0:0:
64,192,179028,1,0,0:0:0:0:
448,192,179090,1,0,0:0:0:0:
192,192,179154,1,0,0:0:0:0:
320,192,179217,1,0,0:0:0:0:
192,192,179280,1,0,0:0:0:0:
320,192,179343,1,0,0:0:0:0:
64,192,179343,1,0,0:0:0:0:
448,192,179406,1,0,0:0:0:0:
64,192,179470,1,0,0:0:0:0:
448,192,179533,1,0,0:0:0:0:
192,192,179596,1,0,0:0:0:0:
320,192,179596,1,0,0:0:0:0:
64,192,179659,1,0,0:0:0:0:
448,192,179659,1,0,0:0:0:0:
320,192,179722,1,0,0:0:0:0:
192,192,179722,1,0,0:0:0:0:
64,192,179786,1,0,0:0:0:0:
448,192,179786,1,0,0:0:0:0:
320,192,179849,1,0,0:0:0:0:
192,192,179912,1,0,0:0:0:0:
64,192,180038,1,0,0:0:0:0:
192,192,180102,1,0,0:0:0:0:
320,192,180102,1,0,0:0:0:0:
448,192,180165,1,0,0:0:0:0:
192,192,180228,1,0,0:0:0:0:
64,192,180228,1,0,0:0:0:0:
448,192,180290,1,0,0:0:0:0:
320,192,180354,1,0,0:0:0:0:
192,192,180354,1,0,0:0:0:0:
64,192,180417,1,0,0:0:0:0:
192,192,180480,1,0,0:0:0:0:
448,192,180480,1,0,0:0:0:0:
64,192,180543,1,0,0:0:0:0:
320,192,180606,1,0,0:0:0:0:
192,192,180606,1,0,0:0:0:0:
448,192,180670,1,0,0:0:0:0:
64,192,180733,1,0,0:0:0:0:
320,192,180733,1,0,0:0:0:0:
448,192,180796,1,0,0:0:0:0:
192,192,180859,1,0,0:0:0:0:
320,192,180859,1,0,0:0:0:0:
64,192,180922,1,0,0:0:0:0:
192,192,180986,1,0,0:0:0:0:
448,192,180986,1,0,0:0:0:0:
64,192,181049,1,0,0:0:0:0:
320,192,181112,1,0,0:0:0:0:
192,192,181112,1,0,0:0:0:0:
448,192,181175,1,0,0:0:0:0:
320,192,181238,1,0,0:0:0:0:
64,192,181238,1,0,0:0:0:0:
448,192,181302,1,0,0:0:0:0:
192,192,181365,1,0,0:0:0:0:
64,192,181365,1,0,0:0:0:0:
320,192,181428,1,0,0:0:0:0:
192,192,181490,1,0,0:0:0:0:
64,192,181490,1,0,0:0:0:0:
320,192,181554,1,0,0:0:0:0:
64,192,181617,1,0,0:0:0:0:
192,192,181659,1,0,0:0:0:0:
320,192,181702,1,0,0:0:0:0:
448,192,181743,1,0,0:0:0:0:
192,192,181786,1,0,0:0:0:0:
320,192,181828,1,0,0:0:0:0:
64,192,181870,1,0,0:0:0:0:
192,192,181912,1,0,0:0:0:0:
320,192,181954,1,0,0:0:0:0:
448,192,181996,1,0,0:0:0:0:
192,192,182038,1,0,0:0:0:0:
320,192,182080,1,0,0:0:0:0:
448,192,182122,1,0,0:0:0:0:
64,192,182122,128,0,182628:0:0:0:0:
320,192,182628,128,0,183133:0:0:0:0:
64,192,183133,1,0,0:0:0:0:
448,192,183133,1,0,0:0:0:0:
192,192,183133,128,0,183638:0:0:0:0:
320,192,183638,128,0,184143:0:0:0:0:
448,192,184143,1,0,0:0:0:0:
192,192,184143,1,0,0:0:0:0:
64,192,184143,128,0,184902:0:0:0:0:
448,192,184649,1,0,0:0:0:0:
320,192,184902,128,0,185154:0:0:0:0:
448,192,185154,1,0,0:0:0:0:
64,192,185154,128,0,185659:0:0:0:0:
448,192,185406,1,0,0:0:0:0:
192,192,185470,1,0,0:0:0:0:
448,192,185533,1,0,0:0:0:0:
192,192,185596,1,0,0:0:0:0:
448,192,185659,1,0,0:0:0:0:
320,192,185659,128,0,186165:0:0:0:0:
448,192,186165,1,0,0:0:0:0:
64,192,186165,1,0,0:0:0:0:
192,192,186165,128,0,186922:0:0:0:0:
320,192,186670,1,0,0:0:0:0:
448,192,186922,128,0,187175:0:0:0:0:
64,192,186986,1,0,0:0:0:0:
320,192,187049,1,0,0:0:0:0:
64,192,187112,1,0,0:0:0:0:
192,192,187175,1,0,0:0:0:0:
320,192,187175,128,0,188186:0:0:0:0:
448,192,187428,1,0,0:0:0:0:
192,192,187554,1,0,0:0:0:0:
64,192,187554,1,0,0:0:0:0:
192,192,187680,1,0,0:0:0:0:
64,192,187680,1,0,0:0:0:0:
64,192,187933,1,0,0:0:0:0:
64,192,188186,1,0,0:0:0:0:
448,192,188186,1,0,0:0:0:0:
192,192,188186,128,0,188943:0:0:0:0:
448,192,188438,1,0,0:0:0:0:
320,192,188690,1,0,0:0:0:0:
448,192,188690,1,0,0:0:0:0:
448,192,188943,128,0,189196:0:0:0:0:
64,192,189070,1,0,0:0:0:0:
320,192,189070,1,0,0:0:0:0:
64,192,189196,1,0,0:0:0:0:
192,192,189196,128,0,189702:0:0:0:0:
64,192,189449,1,0,0:0:0:0:
448,192,189575,1,0,0:0:0:0:
320,192,189575,1,0,0:0:0:0:
64,192,189702,1,0,0:0:0:0:
320,192,189702,1,0,0:0:0:0:
448,192,189702,128,0,190206:0:0:0:0:
192,192,190206,1,0,0:0:0:0:
320,192,190206,1,0,0:0:0:0:
64,192,190206,128,0,190965:0:0:0:0:
320,192,190712,1,0,0:0:0:0:
320,192,190838,1,0,0:0:0:0:
448,192,190965,128,0,191217:0:0:0:0:
192,192,191028,1,0,0:0:0:0:
320,192,191090,1,0,0:0:0:0:
192,192,191154,1,0,0:0:0:0:
320,192,191217,1,0,0:0:0:0:
64,192,191217,128,0,192228:0:0:0:0:
192,192,191343,1,0,0:0:0:0:
192,192,191470,1,0,0:0:0:0:
320,192,191596,1,0,0:0:0:0:
448,192,191596,1,0,0:0:0:0:
192,192,191722,1,0,0:0:0:0:
448,192,191722,1,0,0:0:0:0:
320,192,191975,1,0,0:0:0:0:
192,192,191975,1,0,0:0:0:0:
192,192,192228,1,0,0:0:0:0:
320,192,192228,1,0,0:0:0:0:
448,192,192228,128,0,192986:0:0:0:0:
64,192,192733,1,0,0:0:0:0:
320,192,192733,1,0,0:0:0:0:
64,192,192986,128,0,193238:0:0:0:0:
320,192,193238,128,0,193743:0:0:0:0:
192,192,193238,1,0,0:0:0:0:
64,192,193617,1,0,0:0:0:0:
192,192,193617,1,0,0:0:0:0:
64,192,193743,1,0,0:0:0:0:
192,192,193743,128,0,194249:0:0:0:0:
64,192,194249,1,0,0:0:0:0:
320,192,194249,1,0,0:0:0:0:
448,192,194249,128,0,195006:0:0:0:0:
192,192,194502,1,0,0:0:0:0:
192,192,194754,1,0,0:0:0:0:
320,192,194754,1,0,0:0:0:0:
64,192,195006,128,0,195259:0:0:0:0:
320,192,195259,128,0,196270:0:0:0:0:
192,192,195259,1,0,0:0:0:0:
64,192,195638,1,0,0:0:0:0:
192,192,195638,1,0,0:0:0:0:
64,192,195765,1,0,0:0:0:0:
192,192,195765,1,0,0:0:0:0:
64,192,196017,1,0,0:0:0:0:
64,192,196270,1,0,0:0:0:0:
448,192,196270,1,0,0:0:0:0:
192,192,196270,128,0,197028:0:0:0:0:
320,192,196775,1,0,0:0:0:0:
448,192,196775,1,0,0:0:0:0:
448,192,197028,128,0,197280:0:0:0:0:
64,192,197154,1,0,0:0:0:0:
320,192,197154,1,0,0:0:0:0:
320,192,197280,1,0,0:0:0:0:
64,192,197280,128,0,197786:0:0:0:0:
192,192,197659,1,0,0:0:0:0:
320,192,197659,1,0,0:0:0:0:
192,192,197786,1,0,0:0:0:0:
320,192,197786,1,0,0:0:0:0:
448,192,197786,128,0,198228:0:0:0:0:
64,192,198290,1,0,0:0:0:0:
192,192,198290,1,0,0:0:0:0:
448,192,198290,128,0,199049:0:0:0:0:
320,192,198543,1,0,0:0:0:0:
320,192,198796,1,0,0:0:0:0:
192,192,198796,1,0,0:0:0:0:
64,192,199049,128,0,199302:0:0:0:0:
192,192,199175,1,0,0:0:0:0:
320,192,199175,1,0,0:0:0:0:
192,192,199302,1,0,0:0:0:0:
448,192,199302,1,0,0:0:0:0:
320,192,199428,1,0,0:0:0:0:
448,192,199428,1,0,0:0:0:0:
192,192,199490,1,0,0:0:0:0:
64,192,199490,1,0,0:0:0:0:
448,192,199554,1,0,0:0:0:0:
320,192,199554,1,0,0:0:0:0:
64,192,199617,1,0,0:0:0:0:
192,192,199617,1,0,0:0:0:0:
320,192,199680,1,0,0:0:0:0:
64,192,199743,1,0,0:0:0:0:
320,192,199806,1,0,0:0:0:0:
64,192,199870,1,0,0:0:0:0:
192,192,199933,1,0,0:0:0:0:
320,192,199996,1,0,0:0:0:0:
448,192,200059,1,0,0:0:0:0:
192,192,200122,1,0,0:0:0:0:
448,192,200186,1,0,0:0:0:0:
192,192,200249,1,0,0:0:0:0:
448,192,200312,1,0,0:0:0:0:
64,192,200312,1,0,0:0:0:0:
320,192,200375,1,0,0:0:0:0:
192,192,200438,1,0,0:0:0:0:
320,192,200502,1,0,0:0:0:0:
192,192,200565,1,0,0:0:0:0:
64,192,200565,1,0,0:0:0:0:
448,192,200628,1,0,0:0:0:0:
320,192,200690,1,0,0:0:0:0:
64,192,200754,1,0,0:0:0:0:
192,192,200817,1,0,0:0:0:0:
320,192,200880,1,0,0:0:0:0:
192,192,200943,1,0,0:0:0:0:
448,192,201006,1,0,0:0:0:0:
320,192,201070,1,0,0:0:0:0:
64,192,201070,1,0,0:0:0:0:
192,192,201133,1,0,0:0:0:0:
320,192,201196,1,0,0:0:0:0:
192,192,201259,1,0,0:0:0:0:
64,192,201322,1,0,0:0:0:0:
448,192,201386,1,0,0:0:0:0:
64,192,201449,1,0,0:0:0:0:
192,192,201512,1,0,0:0:0:0:
448,192,201575,1,0,0:0:0:0:
320,192,201575,1,0,0:0:0:0:
192,192,201638,1,0,0:0:0:0:
320,192,201702,1,0,0:0:0:0:
64,192,201765,1,0,0:0:0:0:
448,192,201828,1,0,0:0:0:0:
64,192,201890,1,0,0:0:0:0:
320,192,201954,1,0,0:0:0:0:
192,192,202017,1,0,0:0:0:0:
64,192,202080,1,0,0:0:0:0:
448,192,202080,1,0,0:0:0:0:
320,192,202143,1,0,0:0:0:0:
64,192,202206,1,0,0:0:0:0:
192,192,202270,1,0,0:0:0:0:
320,192,202333,1,0,0:0:0:0:
448,192,202333,1,0,0:0:0:0:
64,192,202396,1,0,0:0:0:0:
192,192,202459,1,0,0:0:0:0:
448,192,202522,1,0,0:0:0:0:
64,192,202586,1,0,0:0:0:0:
320,192,202586,1,0,0:0:0:0:
192,192,202649,1,0,0:0:0:0:
448,192,202712,1,0,0:0:0:0:
192,192,202775,1,0,0:0:0:0:
448,192,202838,1,0,0:0:0:0:
320,192,202902,1,0,0:0:0:0:
64,192,202965,1,0,0:0:0:0:
448,192,203028,1,0,0:0:0:0:
320,192,203090,1,0,0:0:0:0:
64,192,203090,1,0,0:0:0:0:
192,192,203154,1,0,0:0:0:0:
448,192,203217,1,0,0:0:0:0:
64,192,203280,1,0,0:0:0:0:
192,192,203343,1,0,0:0:0:0:
320,192,203406,1,0,0:0:0:0:
192,192,203470,1,0,0:0:0:0:
320,192,203533,1,0,0:0:0:0:
64,192,203596,1,0,0:0:0:0:
448,192,203596,1,0,0:0:0:0:
192,192,203659,1,0,0:0:0:0:
320,192,203722,1,0,0:0:0:0:
64,192,203786,1,0,0:0:0:0:
448,192,203849,1,0,0:0:0:0:
320,192,203912,1,0,0:0:0:0:
192,192,203975,1,0,0:0:0:0:
448,192,204038,1,0,0:0:0:0:
320,192,204102,1,0,0:0:0:0:
64,192,204102,1,0,0:0:0:0:
192,192,204165,1,0,0:0:0:0:
320,192,204228,1,0,0:0:0:0:
192,192,204290,1,0,0:0:0:0:
64,192,204354,1,0,0:0:0:0:
448,192,204354,1,0,0:0:0:0:
320,192,204417,1,0,0:0:0:0:
192,192,204480,1,0,0:0:0:0:
448,192,204543,1,0,0:0:0:0:
64,192,204606,1,0,0:0:0:0:
320,192,204606,1,0,0:0:0:0:
192,192,204670,1,0,0:0:0:0:
448,192,204733,1,0,0:0:0:0:
64,192,204796,1,0,0:0:0:0:
192,192,204859,1,0,0:0:0:0:
448,192,204922,1,0,0:0:0:0:
192,192,204986,1,0,0:0:0:0:
448,192,205049,1,0,0:0:0:0:
320,192,205112,1,0,0:0:0:0:
64,192,205112,1,0,0:0:0:0:
192,192,205175,1,0,0:0:0:0:
448,192,205238,1,0,0:0:0:0:
192,192,205302,1,0,0:0:0:0:
448,192,205365,1,0,0:0:0:0:
320,192,205428,1,0,0:0:0:0:
64,192,205490,1,0,0:0:0:0:
448,192,205554,1,0,0:0:0:0:
320,192,205617,1,0,0:0:0:0:
64,192,205617,1,0,0:0:0:0:
192,192,205680,1,0,0:0:0:0:
320,192,205743,1,0,0:0:0:0:
64,192,205806,1,0,0:0:0:0:
448,192,205870,1,0,0:0:0:0:
192,192,205933,1,0,0:0:0:0:
448,192,205996,1,0,0:0:0:0:
192,192,206059,1,0,0:0:0:0:
64,192,206122,1,0,0:0:0:0:
320,192,206122,1,0,0:0:0:0:
448,192,206186,1,0,0:0:0:0:
192,192,206249,1,0,0:0:0:0:
320,192,206312,1,0,0:0:0:0:
192,192,206375,1,0,0:0:0:0:
64,192,206375,1,0,0:0:0:0:
448,192,206438,1,0,0:0:0:0:
320,192,206502,1,0,0:0:0:0:
64,192,206565,1,0,0:0:0:0:
448,192,206628,1,0,0:0:0:0:
192,192,206628,1,0,0:0:0:0:
320,192,206690,1,0,0:0:0:0:
64,192,206754,1,0,0:0:0:0:
192,192,206817,1,0,0:0:0:0:
320,192,206880,1,0,0:0:0:0:
192,192,206943,1,0,0:0:0:0:
320,192,207006,1,0,0:0:0:0:
64,192,207070,1,0,0:0:0:0:
192,192,207133,1,0,0:0:0:0:
448,192,207133,1,0,0:0:0:0:
320,192,207196,1,0,0:0:0:0:
64,192,207259,1,0,0:0:0:0:
320,192,207322,1,0,0:0:0:0:
64,192,207386,1,0,0:0:0:0:
448,192,207449,1,0,0:0:0:0:
320,192,207512,1,0,0:0:0:0:
192,192,207575,1,0,0:0:0:0:
64,192,207638,1,0,0:0:0:0:
448,192,207638,1,0,0:0:0:0:
192,192,207702,1,0,0:0:0:0:
448,192,207765,1,0,0:0:0:0:
320,192,207828,1,0,0:0:0:0:
64,192,207890,1,0,0:0:0:0:
192,192,207954,1,0,0:0:0:0:
64,192,208017,1,0,0:0:0:0:
192,192,208080,1,0,0:0:0:0:
448,192,208143,1,0,0:0:0:0:
64,192,208206,1,0,0:0:0:0:
448,192,208270,1,0,0:0:0:0:
64,192,208333,1,0,0:0:0:0:
192,192,208396,1,0,0:0:0:0:
320,192,208396,1,0,0:0:0:0:
448,192,208459,1,0,0:0:0:0:
64,192,208522,1,0,0:0:0:0:
320,192,208586,1,0,0:0:0:0:
192,192,208649,1,0,0:0:0:0:
64,192,208649,1,0,0:0:0:0:
448,192,208712,1,0,0:0:0:0:
192,192,208775,1,0,0:0:0:0:
320,192,208838,1,0,0:0:0:0:
64,192,208902,1,0,0:0:0:0:
192,192,208965,1,0,0:0:0:0:
448,192,209028,1,0,0:0:0:0:
64,192,209090,1,0,0:0:0:0:
320,192,209154,1,0,0:0:0:0:
192,192,209154,1,0,0:0:0:0:
448,192,209217,1,0,0:0:0:0:
64,192,209280,1,0,0:0:0:0:
448,192,209343,1,0,0:0:0:0:
192,192,209406,1,0,0:0:0:0:
320,192,209470,1,0,0:0:0:0:
64,192,209533,1,0,0:0:0:0:
448,192,209596,1,0,0:0:0:0:
64,192,209659,1,0,0:0:0:0:
192,192,209659,1,0,0:0:0:0:
320,192,209722,1,0,0:0:0:0:
192,192,209786,1,0,0:0:0:0:
320,192,209849,1,0,0:0:0:0:
64,192,209912,1,0,0:0:0:0:
448,192,209975,1,0,0:0:0:0:
192,192,210038,1,0,0:0:0:0:
448,192,210102,1,0,0:0:0:0:
64,192,210165,1,0,0:0:0:0:
320,192,210165,1,0,0:0:0:0:
192,192,210228,1,0,0:0:0:0:
320,192,210290,1,0,0:0:0:0:
192,192,210354,1,0,0:0:0:0:
448,192,210417,1,0,0:0:0:0:
320,192,210417,1,0,0:0:0:0:
64,192,210480,1,0,0:0:0:0:
192,192,210543,1,0,0:0:0:0:
448,192,210606,1,0,0:0:0:0:
64,192,210670,1,0,0:0:0:0:
320,192,210670,1,0,0:0:0:0:
192,192,210733,1,0,0:0:0:0:
448,192,210796,1,0,0:0:0:0:
192,192,210859,1,0,0:0:0:0:
448,192,210922,1,0,0:0:0:0:
320,192,210986,1,0,0:0:0:0:
64,192,211049,1,0,0:0:0:0:
448,192,211112,1,0,0:0:0:0:
64,192,211175,1,0,0:0:0:0:
320,192,211175,1,0,0:0:0:0:
192,192,211238,1,0,0:0:0:0:
448,192,211302,1,0,0:0:0:0:
64,192,211365,1,0,0:0:0:0:
192,192,211428,1,0,0:0:0:0:
448,192,211490,1,0,0:0:0:0:
64,192,211554,1,0,0:0:0:0:
320,192,211617,1,0,0:0:0:0:
192,192,211680,1,0,0:0:0:0:
64,192,211680,1,0,0:0:0:0:
320,192,211743,1,0,0:0:0:0:
192,192,211806,1,0,0:0:0:0:
448,192,211870,1,0,0:0:0:0:
64,192,211933,1,0,0:0:0:0:
320,192,211996,1,0,0:0:0:0:
64,192,212059,1,0,0:0:0:0:
192,192,212122,1,0,0:0:0:0:
320,192,212186,1,0,0:0:0:0:
448,192,212186,1,0,0:0:0:0:
64,192,212249,1,0,0:0:0:0:
192,192,212312,1,0,0:0:0:0:
64,192,212375,1,0,0:0:0:0:
320,192,212438,1,0,0:0:0:0:
448,192,212438,1,0,0:0:0:0:
192,192,212502,1,0,0:0:0:0:
448,192,212565,1,0,0:0:0:0:
64,192,212628,1,0,0:0:0:0:
192,192,212690,1,0,0:0:0:0:
320,192,212690,1,0,0:0:0:0:
448,192,212754,1,0,0:0:0:0:
64,192,212817,1,0,0:0:0:0:
320,192,212880,1,0,0:0:0:0:
192,192,212943,1,0,0:0:0:0:
320,192,213006,1,0,0:0:0:0:
64,192,213070,1,0,0:0:0:0:
192,192,213133,1,0,0:0:0:0:
320,192,213196,1,0,0:0:0:0:
448,192,213196,1,0,0:0:0:0:
64,192,213259,1,0,0:0:0:0:
448,192,213322,1,0,0:0:0:0:
64,192,213386,1,0,0:0:0:0:
320,192,213449,1,0,0:0:0:0:
192,192,213512,1,0,0:0:0:0:
320,192,213575,1,0,0:0:0:0:
192,192,213638,1,0,0:0:0:0:
64,192,213702,1,0,0:0:0:0:
448,192,213702,1,0,0:0:0:0:
320,192,213765,1,0,0:0:0:0:
192,192,213828,1,0,0:0:0:0:
448,192,213890,1,0,0:0:0:0:
64,192,213954,1,0,0:0:0:0:
192,192,214017,1,0,0:0:0:0:
320,192,214080,1,0,0:0:0:0:
192,192,214143,1,0,0:0:0:0:
320,192,214206,1,0,0:0:0:0:
448,192,214206,1,0,0:0:0:0:
64,192,214270,1,0,0:0:0:0:
448,192,214333,1,0,0:0:0:0:
320,192,214396,1,0,0:0:0:0:
192,192,214459,1,0,0:0:0:0:
64,192,214459,1,0,0:0:0:0:
320,192,214522,1,0,0:0:0:0:
64,192,214586,1,0,0:0:0:0:
192,192,214649,1,0,0:0:0:0:
320,192,214712,1,0,0:0:0:0:
448,192,214712,1,0,0:0:0:0:
64,192,214775,1,0,0:0:0:0:
192,192,214838,1,0,0:0:0:0:
320,192,214902,1,0,0:0:0:0:
64,192,214965,1,0,0:0:0:0:
320,192,215028,1,0,0:0:0:0:
192,192,215090,1,0,0:0:0:0:
448,192,215154,1,0,0:0:0:0:
320,192,215217,1,0,0:0:0:0:
64,192,215217,1,0,0:0:0:0:
192,192,215280,1,0,0:0:0:0:
448,192,215343,1,0,0:0:0:0:
192,192,215406,1,0,0:0:0:0:
448,192,215470,1,0,0:0:0:0:
320,192,215533,1,0,0:0:0:0:
64,192,215596,1,0,0:0:0:0:
192,192,215659,1,0,0:0:0:0:
320,192,215722,1,0,0:0:0:0:
448,192,215722,1,0,0:0:0:0:
192,192,215786,1,0,0:0:0:0:
448,192,215849,1,0,0:0:0:0:
320,192,215912,1,0,0:0:0:0:
192,192,215975,1,0,0:0:0:0:
64,192,215975,1,0,0:0:0:0:
320,192,216038,1,0,0:0:0:0:
448,192,216038,1,0,0:0:0:0:
192,192,216102,1,0,0:0:0:0:
64,192,216102,1,0,0:0:0:0:
320,192,216165,1,0,0:0:0:0:
448,192,216165,1,0,0:0:0:0:
64,192,216228,1,0,0:0:0:0:
192,192,216290,1,0,0:0:0:0:
448,192,216354,1,0,0:0:0:0:
64,192,216417,1,0,0:0:0:0:
320,192,216480,1,0,0:0:0:0:
448,192,216480,1,0,0:0:0:0:
192,192,216480,1,0,0:0:0:0:
64,192,216606,1,0,0:0:0:0:
320,192,216606,1,0,0:0:0:0:
192,192,216733,1,0,0:0:0:0:
64,192,216733,1,0,0:0:0:0:
448,192,216733,1,0,0:0:0:0:
320,192,216859,1,0,0:0:0:0:
192,192,216859,1,0,0:0:0:0:
64,192,216986,1,0,0:0:0:0:
320,192,216986,1,0,0:0:0:0:
192,192,217112,1,0,0:0:0:0:
448,192,217112,1,0,0:0:0:0:
320,192,217238,1,0,0:0:0:0:
192,192,217238,1,0,0:0:0:0:
64,192,217238,1,0,0:0:0:0:
64,192,217365,1,0,0:0:0:0:
448,192,217365,1,0,0:0:0:0:
192,192,217490,1,0,0:0:0:0:
320,192,217490,1,0,0:0:0:0:
448,192,217490,1,0,0:0:0:0:
320,192,217617,1,0,0:0:0:0:
64,192,217617,1,0,0:0:0:0:
192,192,217743,1,0,0:0:0:0:
64,192,217743,1,0,0:0:0:0:
448,192,217743,1,0,0:0:0:0:
320,192,217870,1,0,0:0:0:0:
192,192,217870,1,0,0:0:0:0:
64,192,217996,1,0,0:0:0:0:
320,192,217996,1,0,0:0:0:0:
192,192,218122,1,0,0:0:0:0:
64,192,218122,1,0,0:0:0:0:
192,192,218249,1,0,0:0:0:0:
320,192,218249,1,0,0:0:0:0:
448,192,218249,1,0,0:0:0:0:
64,192,218375,1,0,0:0:0:0:
448,192,218375,1,0,0:0:0:0:
320,192,218502,1,0,0:0:0:0:
64,192,218502,1,0,0:0:0:0:
192,192,218628,1,0,0:0:0:0:
320,192,218628,1,0,0:0:0:0:
192,192,218754,1,0,0:0:0:0:
64,192,218754,1,0,0:0:0:0:
448,192,218754,1,0,0:0:0:0:
320,192,218880,1,0,0:0:0:0:
64,192,218880,1,0,0:0:0:0:
320,192,219006,1,0,0:0:0:0:
448,192,219006,1,0,0:0:0:0:
192,192,219133,1,0,0:0:0:0:
64,192,219133,1,0,0:0:0:0:
448,192,219133,1,0,0:0:0:0:
64,192,219259,1,0,0:0:0:0:
192,192,219259,1,0,0:0:0:0:
320,192,219322,1,0,0:0:0:0:
448,192,219322,1,0,0:0:0:0:
192,192,219386,1,0,0:0:0:0:
320,192,219449,1,0,0:0:0:0:
64,192,219512,1,0,0:0:0:0:
192,192,219512,1,0,0:0:0:0:
448,192,219575,1,0,0:0:0:0:
320,192,219638,1,0,0:0:0:0:
192,192,219702,1,0,0:0:0:0:
448,192,219765,1,0,0:0:0:0:
64,192,219828,1,0,0:0:0:0:
320,192,219890,1,0,0:0:0:0:
448,192,219890,1,0,0:0:0:0:
192,192,219954,1,0,0:0:0:0:
64,192,219954,1,0,0:0:0:0:
320,192,220017,1,0,0:0:0:0:
448,192,220017,1,0,0:0:0:0:
192,192,220080,1,0,0:0:0:0:
64,192,220080,1,0,0:0:0:0:
320,192,220143,1,0,0:0:0:0:
192,192,220206,1,0,0:0:0:0:
64,192,220270,1,0,0:0:0:0:
448,192,220333,1,0,0:0:0:0:
192,192,220396,1,0,0:0:0:0:
320,192,220459,1,0,0:0:0:0:
192,192,220522,1,0,0:0:0:0:
64,192,220522,1,0,0:0:0:0:
448,192,220586,1,0,0:0:0:0:
320,192,220649,1,0,0:0:0:0:
192,192,220712,1,0,0:0:0:0:
320,192,220775,1,0,0:0:0:0:
192,192,220838,1,0,0:0:0:0:
448,192,220902,1,0,0:0:0:0:
64,192,220965,1,0,0:0:0:0:
320,192,221028,1,0,0:0:0:0:
64,192,221090,1,0,0:0:0:0:
320,192,221154,1,0,0:0:0:0:
192,192,221217,1,0,0:0:0:0:
64,192,221280,1,0,0:0:0:0:
448,192,221280,1,0,0:0:0:0:
320,192,221343,1,0,0:0:0:0:
192,192,221406,1,0,0:0:0:0:
320,192,221470,1,0,0:0:0:0:
64,192,221533,1,0,0:0:0:0:
448,192,221596,1,0,0:0:0:0:
64,192,221659,1,0,0:0:0:0:
448,192,221722,1,0,0:0:0:0:
320,192,221786,1,0,0:0:0:0:
64,192,221786,1,0,0:0:0:0:
192,192,221849,1,0,0:0:0:0:
448,192,221912,1,0,0:0:0:0:
320,192,221975,1,0,0:0:0:0:
192,192,222038,1,0,0:0:0:0:
448,192,222102,1,0,0:0:0:0:
64,192,222165,1,0,0:0:0:0:
320,192,222228,1,0,0:0:0:0:
192,192,222290,1,0,0:0:0:0:
64,192,222290,1,0,0:0:0:0:
448,192,222354,1,0,0:0:0:0:
320,192,222417,1,0,0:0:0:0:
64,192,222480,1,0,0:0:0:0:
320,192,222543,1,0,0:0:0:0:
64,192,222606,1,0,0:0:0:0:
448,192,222670,1,0,0:0:0:0:
192,192,222733,1,0,0:0:0:0:
320,192,222796,1,0,0:0:0:0:
448,192,222796,1,0,0:0:0:0:
64,192,222859,1,0,0:0:0:0:
192,192,222922,1,0,0:0:0:0:
448,192,222986,1,0,0:0:0:0:
64,192,223049,1,0,0:0:0:0:
320,192,223112,1,0,0:0:0:0:
192,192,223175,1,0,0:0:0:0:
448,192,223238,1,0,0:0:0:0:
320,192,223302,1,0,0:0:0:0:
192,192,223302,1,0,0:0:0:0:
64,192,223365,1,0,0:0:0:0:
448,192,223428,1,0,0:0:0:0:
64,192,223490,1,0,0:0:0:0:
320,192,223554,1,0,0:0:0:0:
192,192,223617,1,0,0:0:0:0:
320,192,223680,1,0,0:0:0:0:
64,192,223743,1,0,0:0:0:0:
192,192,223806,1,0,0:0:0:0:
448,192,223806,1,0,0:0:0:0:
320,192,223870,1,0,0:0:0:0:
64,192,223933,1,0,0:0:0:0:
192,192,223996,1,0,0:0:0:0:
448,192,224059,1,0,0:0:0:0:
64,192,224122,1,0,0:0:0:0:
448,192,224186,1,0,0:0:0:0:
320,192,224249,1,0,0:0:0:0:
192,192,224312,1,0,0:0:0:0:
64,192,224312,1,0,0:0:0:0:
448,192,224375,1,0,0:0:0:0:
320,192,224438,1,0,0:0:0:0:
64,192,224502,1,0,0:0:0:0:
320,192,224565,1,0,0:0:0:0:
192,192,224565,1,0,0:0:0:0:
448,192,224628,1,0,0:0:0:0:
64,192,224690,1,0,0:0:0:0:
320,192,224754,1,0,0:0:0:0:
192,192,224817,1,0,0:0:0:0:
64,192,224817,1,0,0:0:0:0:
448,192,224880,1,0,0:0:0:0:
320,192,224943,1,0,0:0:0:0:
192,192,225006,1,0,0:0:0:0:
320,192,225070,1,0,0:0:0:0:
192,192,225133,1,0,0:0:0:0:
448,192,225196,1,0,0:0:0:0:
64,192,225259,1,0,0:0:0:0:
192,192,225322,1,0,0:0:0:0:
448,192,225322,1,0,0:0:0:0:
320,192,225386,1,0,0:0:0:0:
64,192,225449,1,0,0:0:0:0:
192,192,225512,1,0,0:0:0:0:
448,192,225575,1,0,0:0:0:0:
192,192,225638,1,0,0:0:0:0:
320,192,225702,1,0,0:0:0:0:
64,192,225765,1,0,0:0:0:0:
192,192,225828,1,0,0:0:0:0:
448,192,225828,1,0,0:0:0:0:
320,192,225890,1,0,0:0:0:0:
192,192,225954,1,0,0:0:0:0:
320,192,226017,1,0,0:0:0:0:
64,192,226080,1,0,0:0:0:0:
448,192,226143,1,0,0:0:0:0:
192,192,226206,1,0,0:0:0:0:
320,192,226270,1,0,0:0:0:0:
192,192,226333,1,0,0:0:0:0:
64,192,226333,1,0,0:0:0:0:
448,192,226396,1,0,0:0:0:0:
320,192,226459,1,0,0:0:0:0:
64,192,226522,1,0,0:0:0:0:
192,192,226586,1,0,0:0:0:0:
448,192,226586,1,0,0:0:0:0:
320,192,226649,1,0,0:0:0:0:
192,192,226712,1,0,0:0:0:0:
320,192,226775,1,0,0:0:0:0:
64,192,226838,1,0,0:0:0:0:
448,192,226838,1,0,0:0:0:0:
192,192,226902,1,0,0:0:0:0:
320,192,226965,1,0,0:0:0:0:
64,192,227028,1,0,0:0:0:0:
448,192,227090,1,0,0:0:0:0:
192,192,227154,1,0,0:0:0:0:
448,192,227217,1,0,0:0:0:0:
320,192,227280,1,0,0:0:0:0:
192,192,227343,1,0,0:0:0:0:
64,192,227343,1,0,0:0:0:0:
448,192,227406,1,0,0:0:0:0:
64,192,227470,1,0,0:0:0:0:
192,192,227533,1,0,0:0:0:0:
448,192,227596,1,0,0:0:0:0:
64,192,227659,1,0,0:0:0:0:
320,192,227722,1,0,0:0:0:0:
64,192,227786,1,0,0:0:0:0:
192,192,227849,1,0,0:0:0:0:
448,192,227849,1,0,0:0:0:0:
320,192,227912,1,0,0:0:0:0:
192,192,227975,1,0,0:0:0:0:
320,192,228038,1,0,0:0:0:0:
64,192,228102,1,0,0:0:0:0:
192,192,228165,1,0,0:0:0:0:
448,192,228228,1,0,0:0:0:0:
192,192,228290,1,0,0:0:0:0:
448,192,228354,1,0,0:0:0:0:
320,192,228417,1,0,0:0:0:0:
192,192,228480,1,0,0:0:0:0:
320,192,228543,1,0,0:0:0:0:
192,192,228606,1,0,0:0:0:0:
64,192,228606,1,0,0:0:0:0:
448,192,228670,1,0,0:0:0:0:
320,192,228733,1,0,0:0:0:0:
64,192,228796,1,0,0:0:0:0:
192,192,228859,1,0,0:0:0:0:
448,192,228859,1,0,0:0:0:0:
320,192,228922,1,0,0:0:0:0:
192,192,228986,1,0,0:0:0:0:
320,192,229049,1,0,0:0:0:0:
64,192,229112,1,0,0:0:0:0:
448,192,229175,1,0,0:0:0:0:
320,192,229238,1,0,0:0:0:0:
192,192,229302,1,0,0:0:0:0:
64,192,229365,1,0,0:0:0:0:
448,192,229365,1,0,0:0:0:0:
192,192,229428,1,0,0:0:0:0:
320,192,229490,1,0,0:0:0:0:
64,192,229554,1,0,0:0:0:0:
448,192,229617,1,0,0:0:0:0:
64,192,229680,1,0,0:0:0:0:
448,192,229743,1,0,0:0:0:0:
320,192,229806,1,0,0:0:0:0:
192,192,229870,1,0,0:0:0:0:
64,192,229870,1,0,0:0:0:0:
320,192,229933,1,0,0:0:0:0:
192,192,229996,1,0,0:0:0:0:
448,192,230059,1,0,0:0:0:0:
64,192,230122,1,0,0:0:0:0:
320,192,230186,1,0,0:0:0:0:
192,192,230249,1,0,0:0:0:0:
320,192,230312,1,0,0:0:0:0:
192,192,230375,1,0,0:0:0:0:
64,192,230375,1,0,0:0:0:0:
448,192,230438,1,0,0:0:0:0:
320,192,230502,1,0,0:0:0:0:
64,192,230565,1,0,0:0:0:0:
320,192,230628,1,0,0:0:0:0:
192,192,230628,1,0,0:0:0:0:
448,192,230690,1,0,0:0:0:0:
64,192,230754,1,0,0:0:0:0:
448,192,230817,1,0,0:0:0:0:
192,192,230880,1,0,0:0:0:0:
64,192,230880,1,0,0:0:0:0:
320,192,230943,1,0,0:0:0:0:
192,192,231006,1,0,0:0:0:0:
448,192,231070,1,0,0:0:0:0:
64,192,231133,1,0,0:0:0:0:
320,192,231196,1,0,0:0:0:0:
64,192,231259,1,0,0:0:0:0:
320,192,231322,1,0,0:0:0:0:
192,192,231386,1,0,0:0:0:0:
448,192,231386,1,0,0:0:0:0:
64,192,231449,1,0,0:0:0:0:
320,192,231512,1,0,0:0:0:0:
192,192,231575,1,0,0:0:0:0:
448,192,231638,1,0,0:0:0:0:
64,192,231702,1,0,0:0:0:0:
448,192,231765,1,0,0:0:0:0:
320,192,231828,1,0,0:0:0:0:
192,192,231890,1,0,0:0:0:0:
64,192,231890,1,0,0:0:0:0:
320,192,231954,1,0,0:0:0:0:
192,192,232017,1,0,0:0:0:0:
448,192,232080,1,0,0:0:0:0:
64,192,232143,1,0,0:0:0:0:
320,192,232206,1,0,0:0:0:0:
192,192,232270,1,0,0:0:0:0:
448,192,232333,1,0,0:0:0:0:
64,192,232396,1,0,0:0:0:0:
320,192,232396,1,0,0:0:0:0:
192,192,232459,1,0,0:0:0:0:
320,192,232522,1,0,0:0:0:0:
192,192,232586,1,0,0:0:0:0:
64,192,232649,1,0,0:0:0:0:
448,192,232649,1,0,0:0:0:0:
320,192,232712,1,0,0:0:0:0:
192,192,232775,1,0,0:0:0:0:
448,192,232838,1,0,0:0:0:0:
64,192,232902,1,0,0:0:0:0:
192,192,232902,1,0,0:0:0:0:
320,192,232965,1,0,0:0:0:0:
64,192,233028,1,0,0:0:0:0:
320,192,233090,1,0,0:0:0:0:
192,192,233154,1,0,0:0:0:0:
448,192,233217,1,0,0:0:0:0:
320,192,233280,1,0,0:0:0:0:
64,192,233343,1,0,0:0:0:0:
192,192,233406,1,0,0:0:0:0:
320,192,233406,1,0,0:0:0:0:
448,192,233470,1,0,0:0:0:0:
64,192,233533,1,0,0:0:0:0:
320,192,233596,1,0,0:0:0:0:
192,192,233659,1,0,0:0:0:0:
320,192,233722,1,0,0:0:0:0:
192,192,233786,1,0,0:0:0:0:
448,192,233849,1,0,0:0:0:0:
320,192,233912,1,0,0:0:0:0:
64,192,233912,1,0,0:0:0:0:
192,192,233975,1,0,0:0:0:0:
448,192,234038,1,0,0:0:0:0:
64,192,234102,1,0,0:0:0:0:
320,192,234165,1,0,0:0:0:0:
64,192,234228,1,0,0:0:0:0:
192,192,234290,1,0,0:0:0:0:
320,192,234354,1,0,0:0:0:0:
192,192,234417,1,0,0:0:0:0:
64,192,234417,1,0,0:0:0:0:
448,192,234480,1,0,0:0:0:0:
64,192,234543,1,0,0:0:0:0:
192,192,234606,1,0,0:0:0:0:
320,192,234670,1,0,0:0:0:0:
448,192,234670,1,0,0:0:0:0:
64,192,234733,1,0,0:0:0:0:
320,192,234796,1,0,0:0:0:0:
64,192,234859,1,0,0:0:0:0:
192,192,234922,1,0,0:0:0:0:
448,192,234922,1,0,0:0:0:0:
320,192,234986,1,0,0:0:0:0:
64,192,235049,1,0,0:0:0:0:
448,192,235112,1,0,0:0:0:0:
64,192,235175,1,0,0:0:0:0:
320,192,235238,1,0,0:0:0:0:
192,192,235302,1,0,0:0:0:0:
320,192,235365,1,0,0:0:0:0:
192,192,235428,1,0,0:0:0:0:
64,192,235428,1,0,0:0:0:0:
448,192,235490,1,0,0:0:0:0:
64,192,235554,1,0,0:0:0:0:
192,192,235617,1,0,0:0:0:0:
320,192,235680,1,0,0:0:0:0:
64,192,235743,1,0,0:0:0:0:
448,192,235806,1,0,0:0:0:0:
64,192,235870,1,0,0:0:0:0:
192,192,235933,1,0,0:0:0:0:
448,192,235933,1,0,0:0:0:0:
320,192,235996,1,0,0:0:0:0:
64,192,236059,1,0,0:0:0:0:
192,192,236122,1,0,0:0:0:0:
448,192,236186,1,0,0:0:0:0:
320,192,236249,1,0,0:0:0:0:
192,192,236312,1,0,0:0:0:0:
64,192,236375,1,0,0:0:0:0:
448,192,236438,1,0,0:0:0:0:
320,192,236502,1,0,0:0:0:0:
192,192,236565,1,0,0:0:0:0:
64,192,236628,1,0,0:0:0:0:
320,192,236690,1,0,0:0:0:0:
448,192,236690,1,0,0:0:0:0:
192,192,236754,1,0,0:0:0:0:
448,192,236817,1,0,0:0:0:0:
64,192,236880,1,0,0:0:0:0:
192,192,236943,1,0,0:0:0:0:
320,192,236943,1,0,0:0:0:0:
448,192,237006,1,0,0:0:0:0:
64,192,237070,1,0,0:0:0:0:
320,192,237133,1,0,0:0:0:0:
64,192,237196,1,0,0:0:0:0:
320,192,237259,1,0,0:0:0:0:
192,192,237322,1,0,0:0:0:0:
448,192,237386,1,0,0:0:0:0:
320,192,237449,1,0,0:0:0:0:
64,192,237449,1,0,0:0:0:0:
192,192,237512,1,0,0:0:0:0:
448,192,237575,1,0,0:0:0:0:
192,192,237638,1,0,0:0:0:0:
64,192,237702,1,0,0:0:0:0:
448,192,237765,1,0,0:0:0:0:
320,192,237828,1,0,0:0:0:0:
192,192,237890,1,0,0:0:0:0:
64,192,237954,1,0,0:0:0:0:
448,192,237954,1,0,0:0:0:0:
320,192,238017,1,0,0:0:0:0:
192,192,238080,1,0,0:0:0:0:
320,192,238143,1,0,0:0:0:0:
64,192,238206,1,0,0:0:0:0:
448,192,238270,1,0,0:0:0:0:
64,192,238333,1,0,0:0:0:0:
448,192,238396,1,0,0:0:0:0:
320,192,238459,1,0,0:0:0:0:
64,192,238459,1,0,0:0:0:0:
192,192,238522,1,0,0:0:0:0:
320,192,238586,1,0,0:0:0:0:
64,192,238649,1,0,0:0:0:0:
192,192,238712,1,0,0:0:0:0:
448,192,238712,1,0,0:0:0:0:
320,192,238775,1,0,0:0:0:0:
64,192,238838,1,0,0:0:0:0:
448,192,238902,1,0,0:0:0:0:
320,192,238965,1,0,0:0:0:0:
64,192,238965,1,0,0:0:0:0:
192,192,239028,1,0,0:0:0:0:
448,192,239090,1,0,0:0:0:0:
64,192,239154,1,0,0:0:0:0:
192,192,239217,1,0,0:0:0:0:
448,192,239280,1,0,0:0:0:0:
192,192,239343,1,0,0:0:0:0:
320,192,239406,1,0,0:0:0:0:
64,192,239470,1,0,0:0:0:0:
448,192,239470,1,0,0:0:0:0:
192,192,239533,1,0,0:0:0:0:
320,192,239596,1,0,0:0:0:0:
192,192,239659,1,0,0:0:0:0:
320,192,239722,1,0,0:0:0:0:
448,192,239722,1,0,0:0:0:0:
64,192,239786,1,0,0:0:0:0:
192,192,239849,1,0,0:0:0:0:
448,192,239912,1,0,0:0:0:0:
320,192,239975,1,0,0:0:0:0:
64,192,239975,1,0,0:0:0:0:
192,192,240038,1,0,0:0:0:0:
448,192,240102,1,0,0:0:0:0:
64,192,240165,1,0,0:0:0:0:
192,192,240228,1,0,0:0:0:0:
320,192,240290,1,0,0:0:0:0:
64,192,240354,1,0,0:0:0:0:
448,192,240417,1,0,0:0:0:0:
320,192,240480,1,0,0:0:0:0:
64,192,240480,1,0,0:0:0:0:
192,192,240543,1,0,0:0:0:0:
448,192,240606,1,0,0:0:0:0:
192,192,240670,1,0,0:0:0:0:
320,192,240733,1,0,0:0:0:0:
448,192,240733,1,0,0:0:0:0:
64,192,240796,1,0,0:0:0:0:
192,192,240859,1,0,0:0:0:0:
448,192,240922,1,0,0:0:0:0:
320,192,240986,1,0,0:0:0:0:
64,192,240986,1,0,0:0:0:0:
192,192,241049,1,0,0:0:0:0:
320,192,241112,1,0,0:0:0:0:
192,192,241175,1,0,0:0:0:0:
448,192,241238,1,0,0:0:0:0:
64,192,241302,1,0,0:0:0:0:
320,192,241365,1,0,0:0:0:0:
192,192,241428,1,0,0:0:0:0:
64,192,241490,1,0,0:0:0:0:
448,192,241490,1,0,0:0:0:0:
320,192,241554,1,0,0:0:0:0:
64,192,241617,1,0,0:0:0:0:
320,192,241680,1,0,0:0:0:0:
192,192,241743,1,0,0:0:0:0:
448,192,241806,1,0,0:0:0:0:
64,192,241870,1,0,0:0:0:0:
192,192,241933,1,0,0:0:0:0:
320,192,241996,1,0,0:0:0:0:
448,192,241996,1,0,0:0:0:0:
192,192,242059,1,0,0:0:0:0:
320,192,242122,1,0,0:0:0:0:
64,192,242186,1,0,0:0:0:0:
448,192,242249,1,0,0:0:0:0:
320,192,242312,1,0,0:0:0:0:
64,192,242375,1,0,0:0:0:0:
320,192,242438,1,0,0:0:0:0:
192,192,242502,1,0,0:0:0:0:
64,192,242502,1,0,0:0:0:0:
448,192,242565,1,0,0:0:0:0:
192,192,242628,1,0,0:0:0:0:
320,192,242690,1,0,0:0:0:0:
64,192,242754,1,0,0:0:0:0:
192,192,242754,1,0,0:0:0:0:
448,192,242817,1,0,0:0:0:0:
64,192,242880,1,0,0:0:0:0:
448,192,242943,1,0,0:0:0:0:
320,192,243006,1,0,0:0:0:0:
192,192,243006,1,0,0:0:0:0:
64,192,243070,1,0,0:0:0:0:
448,192,243133,1,0,0:0:0:0:
64,192,243196,1,0,0:0:0:0:
192,192,243259,1,0,0:0:0:0:
448,192,243322,1,0,0:0:0:0:
320,192,243386,1,0,0:0:0:0:
192,192,243449,1,0,0:0:0:0:
64,192,243512,1,0,0:0:0:0:
448,192,243512,1,0,0:0:0:0:
320,192,243575,1,0,0:0:0:0:
64,192,243638,1,0,0:0:0:0:
192,192,243702,1,0,0:0:0:0:
320,192,243765,1,0,0:0:0:0:
64,192,243828,1,0,0:0:0:0:
320,192,243890,1,0,0:0:0:0:
448,192,243890,1,0,0:0:0:0:
64,192,243954,1,0,0:0:0:0:
192,192,244017,1,0,0:0:0:0:
320,192,244080,1,0,0:0:0:0:
64,192,244143,1,0,0:0:0:0:
192,192,244206,1,0,0:0:0:0:
320,192,244270,1,0,0:0:0:0:
448,192,244270,1,0,0:0:0:0:
192,192,244333,1,0,0:0:0:0:
64,192,244396,1,0,0:0:0:0:
448,192,244522,1,0,0:0:0:0:
320,192,244586,1,0,0:0:0:0:
192,192,244649,1,0,0:0:0:0:
320,192,244712,1,0,0:0:0:0:
64,192,244775,1,0,0:0:0:0:
192,192,244775,1,0,0:0:0:0:
448,192,244838,1,0,0:0:0:0:
64,192,244902,1,0,0:0:0:0:
448,192,244965,1,0,0:0:0:0:
320,192,245028,1,0,0:0:0:0:
192,192,245028,1,0,0:0:0:0:
64,192,245090,1,0,0:0:0:0:
320,192,245154,1,0,0:0:0:0:
64,192,245217,1,0,0:0:0:0:
448,192,245280,1,0,0:0:0:0:
192,192,245343,1,0,0:0:0:0:
320,192,245406,1,0,0:0:0:0:
192,192,245470,1,0,0:0:0:0:
64,192,245533,1,0,0:0:0:0:
448,192,245533,1,0,0:0:0:0:
320,192,245596,1,0,0:0:0:0:
192,192,245659,1,0,0:0:0:0:
320,192,245722,1,0,0:0:0:0:
64,192,245786,1,0,0:0:0:0:
448,192,245849,1,0,0:0:0:0:
192,192,245912,1,0,0:0:0:0:
448,192,245975,1,0,0:0:0:0:
320,192,246038,1,0,0:0:0:0:
64,192,246038,1,0,0:0:0:0:
192,192,246102,1,0,0:0:0:0:
448,192,246165,1,0,0:0:0:0:
192,192,246228,1,0,0:0:0:0:
448,192,246290,1,0,0:0:0:0:
320,192,246333,1,0,0:0:0:0:
192,192,246375,1,0,0:0:0:0:
64,192,246417,1,0,0:0:0:0:
320,192,246459,1,0,0:0:0:0:
192,192,246502,1,0,0:0:0:0:
448,192,246543,1,0,0:0:0:0:
320,192,246586,1,0,0:0:0:0:
192,192,246628,1,0,0:0:0:0:
64,192,246670,1,0,0:0:0:0:
320,192,246712,1,0,0:0:0:0:
192,192,246754,1,0,0:0:0:0:
64,192,246796,1,0,0:0:0:0:
448,192,246796,1,0,0:0:0:0:
320,192,246859,1,0,0:0:0:0:
192,192,246922,1,0,0:0:0:0:
320,192,246986,1,0,0:0:0:0:
448,192,247049,1,0,0:0:0:0:
192,192,247049,1,0,0:0:0:0:
64,192,247112,1,0,0:0:0:0:
320,192,247175,1,0,0:0:0:0:
64,192,247238,1,0,0:0:0:0:
448,192,247302,1,0,0:0:0:0:
192,192,247365,1,0,0:0:0:0:
320,192,247428,1,0,0:0:0:0:
192,192,247490,1,0,0:0:0:0:
320,192,247554,1,0,0:0:0:0:
64,192,247554,1,0,0:0:0:0:
448,192,247617,1,0,0:0:0:0:
192,192,247680,1,0,0:0:0:0:
448,192,247743,1,0,0:0:0:0:
64,192,247806,1,0,0:0:0:0:
320,192,247870,1,0,0:0:0:0:
192,192,247933,1,0,0:0:0:0:
320,192,247996,1,0,0:0:0:0:
448,192,248059,1,0,0:0:0:0:
192,192,248059,1,0,0:0:0:0:
64,192,248122,1,0,0:0:0:0:
320,192,248186,1,0,0:0:0:0:
64,192,248249,1,0,0:0:0:0:
448,192,248312,1,0,0:0:0:0:
320,192,248354,1,0,0:0:0:0:
192,192,248396,1,0,0:0:0:0:
64,192,248438,1,0,0:0:0:0:
320,192,248480,1,0,0:0:0:0:
192,192,248522,1,0,0:0:0:0:
448,192,248565,1,0,0:0:0:0:
320,192,248606,1,0,0:0:0:0:
192,192,248649,1,0,0:0:0:0:
64,192,248690,1,0,0:0:0:0:
320,192,248733,1,0,0:0:0:0:
192,192,248775,1,0,0:0:0:0:
64,192,248817,1,0,0:0:0:0:
448,192,248817,1,0,0:0:0:0:
320,192,248880,1,0,0:0:0:0:
64,192,248943,1,0,0:0:0:0:
320,192,249006,1,0,0:0:0:0:
192,192,249070,1,0,0:0:0:0:
448,192,249070,1,0,0:0:0:0:
64,192,249133,1,0,0:0:0:0:
320,192,249196,1,0,0:0:0:0:
64,192,249259,1,0,0:0:0:0:
448,192,249322,1,0,0:0:0:0:
192,192,249386,1,0,0:0:0:0:
320,192,249449,1,0,0:0:0:0:
192,192,249512,1,0,0:0:0:0:
64,192,249575,1,0,0:0:0:0:
320,192,249575,1,0,0:0:0:0:
448,192,249638,1,0,0:0:0:0:
192,192,249702,1,0,0:0:0:0:
448,192,249765,1,0,0:0:0:0:
64,192,249828,1,0,0:0:0:0:
320,192,249890,1,0,0:0:0:0:
192,192,249954,1,0,0:0:0:0:
320,192,250017,1,0,0:0:0:0:
192,192,250080,1,0,0:0:0:0:
448,192,250080,1,0,0:0:0:0:
64,192,250143,1,0,0:0:0:0:
320,192,250206,1,0,0:0:0:0:
64,192,250270,1,0,0:0:0:0:
448,192,250333,1,0,0:0:0:0:
320,192,250333,1,0,0:0:0:0:
192,192,250396,1,0,0:0:0:0:
64,192,250396,1,0,0:0:0:0:
320,192,250459,1,0,0:0:0:0:
448,192,250459,1,0,0:0:0:0:
192,192,250522,1,0,0:0:0:0:
64,192,250522,1,0,0:0:0:0:
320,192,250586,1,0,0:0:0:0:
192,192,250649,1,0,0:0:0:0:
64,192,250712,1,0,0:0:0:0:
320,192,250775,1,0,0:0:0:0:
192,192,250838,1,0,0:0:0:0:
448,192,250838,1,0,0:0:0:0:
64,192,250902,1,0,0:0:0:0:
320,192,250965,1,0,0:0:0:0:
448,192,250965,1,0,0:0:0:0:
64,192,251028,1,0,0:0:0:0:
192,192,251090,1,0,0:0:0:0:
448,192,251090,1,0,0:0:0:0:
320,192,251154,1,0,0:0:0:0:
192,192,251217,1,0,0:0:0:0:
64,192,251217,1,0,0:0:0:0:
320,192,251280,1,0,0:0:0:0:
64,192,251343,1,0,0:0:0:0:
448,192,251406,1,0,0:0:0:0:
192,192,251470,1,0,0:0:0:0:
320,192,251470,1,0,0:0:0:0:
448,192,251533,1,0,0:0:0:0:
320,192,251596,1,0,0:0:0:0:
64,192,251596,1,0,0:0:0:0:
192,192,251659,1,0,0:0:0:0:
320,192,251722,1,0,0:0:0:0:
448,192,251722,1,0,0:0:0:0:
192,192,251786,1,0,0:0:0:0:
64,192,251849,1,0,0:0:0:0:
320,192,251849,1,0,0:0:0:0:
448,192,251912,1,0,0:0:0:0:
192,192,251975,1,0,0:0:0:0:
64,192,251975,1,0,0:0:0:0:
448,192,252038,1,0,0:0:0:0:
320,192,252038,1,0,0:0:0:0:
192,192,252102,1,0,0:0:0:0:
64,192,252102,1,0,0:0:0:0:
320,192,252165,1,0,0:0:0:0:
448,192,252165,1,0,0:0:0:0:
64,192,252228,1,0,0:0:0:0:
192,192,252290,1,0,0:0:0:0:
320,192,252354,1,0,0:0:0:0:
448,192,252354,1,0,0:0:0:0:
192,192,252417,1,0,0:0:0:0:
64,192,252480,1,0,0:0:0:0:
448,192,252480,1,0,0:0:0:0:
320,192,252543,1,0,0:0:0:0:
192,192,252606,1,0,0:0:0:0:
64,192,252606,1,0,0:0:0:0:
320,192,252670,1,0,0:0:0:0:
64,192,252733,1,0,0:0:0:0:
192,192,252796,1,0,0:0:0:0:
320,192,252859,1,0,0:0:0:0:
448,192,252859,1,0,0:0:0:0:
64,192,252922,1,0,0:0:0:0:
320,192,252986,1,0,0:0:0:0:
64,192,253049,1,0,0:0:0:0:
448,192,253112,1,0,0:0:0:0:
192,192,253112,1,0,0:0:0:0:
320,192,253175,1,0,0:0:0:0:
64,192,253238,1,0,0:0:0:0:
320,192,253302,1,0,0:0:0:0:
192,192,253365,1,0,0:0:0:0:
448,192,253428,1,0,0:0:0:0:
64,192,253490,1,0,0:0:0:0:
448,192,253554,1,0,0:0:0:0:
192,192,253617,1,0,0:0:0:0:
320,192,253617,1,0,0:0:0:0:
64,192,253680,1,0,0:0:0:0:
448,192,253743,1,0,0:0:0:0:
64,192,253806,1,0,0:0:0:0:
320,192,253870,1,0,0:0:0:0:
192,192,253933,1,0,0:0:0:0:
448,192,253996,1,0,0:0:0:0:
192,192,254059,1,0,0:0:0:0:
320,192,254122,1,0,0:0:0:0:
64,192,254122,1,0,0:0:0:0:
448,192,254186,1,0,0:0:0:0:
192,192,254249,1,0,0:0:0:0:
448,192,254312,1,0,0:0:0:0:
64,192,254375,1,0,0:0:0:0:
192,192,254417,1,0,0:0:0:0:
320,192,254459,1,0,0:0:0:0:
448,192,254502,1,0,0:0:0:0:
192,192,254543,1,0,0:0:0:0:
320,192,254586,1,0,0:0:0:0:
64,192,254628,1,0,0:0:0:0:
192,192,254670,1,0,0:0:0:0:
320,192,254712,1,0,0:0:0:0:
448,192,254754,1,0,0:0:0:0:
192,192,254796,1,0,0:0:0:0:
320,192,254838,1,0,0:0:0:0:
64,192,254880,1,0,0:0:0:0:
448,192,254880,1,0,0:0:0:0:
192,192,254943,1,0,0:0:0:0:
320,192,255006,1,0,0:0:0:0:
192,192,255070,1,0,0:0:0:0:
448,192,255133,1,0,0:0:0:0:
64,192,255133,1,0,0:0:0:0:
320,192,255196,1,0,0:0:0:0:
64,192,255259,1,0,0:0:0:0:
320,192,255322,1,0,0:0:0:0:
192,192,255386,1,0,0:0:0:0:
448,192,255449,1,0,0:0:0:0:
64,192,255512,1,0,0:0:0:0:
448,192,255575,1,0,0:0:0:0:
64,192,255638,1,0,0:0:0:0:
320,192,255638,1,0,0:0:0:0:
192,192,255702,1,0,0:0:0:0:
448,192,255765,1,0,0:0:0:0:
192,192,255828,1,0,0:0:0:0:
320,192,255890,1,0,0:0:0:0:
64,192,255954,1,0,0:0:0:0:
448,192,256017,1,0,0:0:0:0:
64,192,256080,1,0,0:0:0:0:
192,192,256143,1,0,0:0:0:0:
320,192,256143,1,0,0:0:0:0:
448,192,256206,1,0,0:0:0:0:
64,192,256270,1,0,0:0:0:0:
448,192,256333,1,0,0:0:0:0:
192,192,256396,1,0,0:0:0:0:
64,192,256396,1,0,0:0:0:0:
320,192,256459,1,0,0:0:0:0:
192,192,256522,1,0,0:0:0:0:
448,192,256586,1,0,0:0:0:0:
64,192,256649,1,0,0:0:0:0:
192,192,256712,1,0,0:0:0:0:
320,192,256775,1,0,0:0:0:0:
64,192,256838,1,0,0:0:0:0:
192,192,256902,1,0,0:0:0:0:
448,192,256902,1,0,0:0:0:0:
320,192,256965,1,0,0:0:0:0:
64,192,257028,1,0,0:0:0:0:
320,192,257090,1,0,0:0:0:0:
64,192,257154,1,0,0:0:0:0:
448,192,257154,1,0,0:0:0:0:
192,192,257217,1,0,0:0:0:0:
320,192,257280,1,0,0:0:0:0:
192,192,257343,1,0,0:0:0:0:
64,192,257406,1,0,0:0:0:0:
320,192,257406,1,0,0:0:0:0:
448,192,257470,1,0,0:0:0:0:
192,192,257533,1,0,0:0:0:0:
448,192,257596,1,0,0:0:0:0:
320,192,257659,1,0,0:0:0:0:
64,192,257659,1,0,0:0:0:0:
192,192,257722,1,0,0:0:0:0:
320,192,257786,1,0,0:0:0:0:
192,192,257849,1,0,0:0:0:0:
64,192,257912,1,0,0:0:0:0:
448,192,257912,1,0,0:0:0:0:
320,192,257975,1,0,0:0:0:0:
64,192,258038,1,0,0:0:0:0:
320,192,258102,1,0,0:0:0:0:
192,192,258165,1,0,0:0:0:0:
448,192,258165,1,0,0:0:0:0:
64,192,258228,1,0,0:0:0:0:
320,192,258290,1,0,0:0:0:0:
64,192,258354,1,0,0:0:0:0:
320,192,258417,1,0,0:0:0:0:
448,192,258417,1,0,0:0:0:0:
192,192,258480,1,0,0:0:0:0:
64,192,258480,1,0,0:0:0:0:
320,192,258543,1,0,0:0:0:0:
448,192,258543,1,0,0:0:0:0:
192,192,258606,1,0,0:0:0:0:
64,192,258606,1,0,0:0:0:0:
320,192,258670,1,0,0:0:0:0:
192,192,258733,1,0,0:0:0:0:
64,192,258796,1,0,0:0:0:0:
320,192,258859,1,0,0:0:0:0:
192,192,258922,1,0,0:0:0:0:
64,192,258922,1,0,0:0:0:0:
448,192,258922,1,0,0:0:0:0:
320,192,259049,1,0,0:0:0:0:
192,192,259049,1,0,0:0:0:0:
64,192,259175,1,0,0:0:0:0:
320,192,259175,1,0,0:0:0:0:
192,192,259302,1,0,0:0:0:0:
320,192,259302,1,0,0:0:0:0:
448,192,259302,1,0,0:0:0:0:
192,192,259428,1,0,0:0:0:0:
64,192,259428,1,0,0:0:0:0:
448,192,259554,1,0,0:0:0:0:
64,192,259554,1,0,0:0:0:0:
192,192,259680,1,0,0:0:0:0:
320,192,259806,1,0,0:0:0:0:
448,192,259806,1,0,0:0:0:0:
192,192,259933,1,0,0:0:0:0:
64,192,259933,1,0,0:0:0:0:
448,192,259933,1,0,0:0:0:0:
320,192,260059,1,0,0:0:0:0:
64,192,260059,1,0,0:0:0:0:
192,192,260186,1,0,0:0:0:0:
320,192,260186,1,0,0:0:0:0:
64,192,260312,1,0,0:0:0:0:
192,192,260312,1,0,0:0:0:0:
448,192,260312,1,0,0:0:0:0:
320,192,260438,1,0,0:0:0:0:
64,192,260438,1,0,0:0:0:0:
192,192,260565,1,0,0:0:0:0:
320,192,260565,1,0,0:0:0:0:
64,192,260690,1,0,0:0:0:0:
448,192,260690,1,0,0:0:0:0:
192,192,260754,1,0,0:0:0:0:
320,192,260817,1,0,0:0:0:0:
192,192,260880,1,0,0:0:0:0:
64,192,260943,1,0,0:0:0:0:
320,192,260943,1,0,0:0:0:0:
448,192,260943,1,0,0:0:0:0:
