osu file format v14

[General]
AudioFilename: audio110.mp3
AudioLeadIn: 0
PreviewTime: 76003
Countdown: 0
SampleSet: Normal
StackLeniency: 0.7
Mode: 3
LetterboxInBreaks: 0
SpecialStyle: 0
WidescreenStoryboard: 0

[Editor]
DistanceSpacing: 0.8
BeatDivisor: 4
GridSize: 8
TimelineZoom: 1.5

[Metadata]
Title:Master of Peace
TitleUnicode:Master of Peace
Artist:Rhapsody of Fire
ArtistUnicode:Rhapsody of Fire
Creator:Cokiiplay
Version:Peacful 1,1x
Source:
Tags:
BeatmapID:1964596
BeatmapSetID:940666

[Difficulty]
HPDrainRate:8
CircleSize:4
OverallDifficulty:8
ApproachRate:5
SliderMultiplier:1.4
SliderTickRate:1

[Events]
//Background and Video events
0,0,"338596.jpg",0,0
//Break Periods
//Storyboard Layer 0 (Background)
//Storyboard Layer 1 (Fail)
//Storyboard Layer 2 (Pass)
//Storyboard Layer 3 (Foreground)
//Storyboard Sound Samples

[TimingPoints]
254,287.081339712919,4,1,0,50,1,0

[HitObjects]
64,192,254,5,0,0:0:0:0:
320,192,254,1,0,0:0:0:0:
448,192,254,1,0,0:0:0:0:
192,192,396,1,0,0:0:0:0:
448,192,468,1,0,0:0:0:0:
64,192,540,1,0,0:0:0:0:
320,192,612,1,0,0:0:0:0:
192,192,684,128,0,755:0:0:0:0:
448,192,827,1,0,0:0:0:0:
320,192,899,1,0,0:0:0:0:
64,192,971,1,0,0:0:0:0:
448,192,1043,1,0,0:0:0:0:
192,192,1115,128,0,1186:0:0:0:0:
320,192,1258,1,0,0:0:0:0:
192,192,1330,1,0,0:0:0:0:
448,192,1402,1,0,0:0:0:0:
64,192,1474,1,0,0:0:0:0:
320,192,1545,128,0,1617:0:0:0:0:
192,192,1688,1,0,0:0:0:0:
320,192,1760,1,0,0:0:0:0:
64,192,1832,1,0,0:0:0:0:
192,192,1904,1,0,0:0:0:0:
448,192,1975,1,0,0:0:0:0:
192,192,2047,1,0,0:0:0:0:
448,192,2119,1,0,0:0:0:0:
192,192,2191,1,0,0:0:0:0:
320,192,2263,1,0,0:0:0:0:
64,192,2335,1,0,0:0:0:0:
320,192,2406,1,0,0:0:0:0:
64,192,2478,1,0,0:0:0:0:
192,192,2550,1,0,0:0:0:0:
448,192,2550,1,0,0:0:0:0:
320,192,2550,1,0,0:0:0:0:
64,192,2694,1,0,0:0:0:0:
448,192,2765,1,0,0:0:0:0:
192,192,2837,1,0,0:0:0:0:
320,192,2909,1,0,0:0:0:0:
64,192,2981,128,0,3052:0:0:0:0:
448,192,3124,1,0,0:0:0:0:
192,192,3195,1,0,0:0:0:0:
320,192,3267,1,0,0:0:0:0:
64,192,3339,1,0,0:0:0:0:
448,192,3411,128,0,3483:0:0:0:0:
192,192,3555,1,0,0:0:0:0:
320,192,3626,1,0,0:0:0:0:
64,192,3698,1,0,0:0:0:0:
192,192,3770,1,0,0:0:0:0:
448,192,3842,128,0,3914:0:0:0:0:
320,192,3985,1,0,0:0:0:0:
192,192,4057,1,0,0:0:0:0:
64,192,4129,1,0,0:0:0:0:
320,192,4201,1,0,0:0:0:0:
192,192,4273,128,0,4487:0:0:0:0:
64,192,4273,128,0,4487:0:0:0:0:
448,192,4273,128,0,4559:0:0:0:0:
64,192,4559,128,0,4846:0:0:0:0:
192,192,4559,128,0,4775:0:0:0:0:
320,192,4559,128,0,4775:0:0:0:0:
192,192,4846,1,0,0:0:0:0:
320,192,4846,1,0,0:0:0:0:
448,192,4846,1,0,0:0:0:0:
64,192,4990,1,0,0:0:0:0:
448,192,5062,1,0,0:0:0:0:
192,192,5134,1,0,0:0:0:0:
320,192,5205,1,0,0:0:0:0:
64,192,5277,128,0,5349:0:0:0:0:
448,192,5421,1,0,0:0:0:0:
192,192,5493,1,0,0:0:0:0:
320,192,5565,1,0,0:0:0:0:
64,192,5636,1,0,0:0:0:0:
448,192,5708,128,0,5779:0:0:0:0:
320,192,5851,1,0,0:0:0:0:
192,192,5923,1,0,0:0:0:0:
448,192,5995,1,0,0:0:0:0:
64,192,6066,1,0,0:0:0:0:
192,192,6138,128,0,6210:0:0:0:0:
320,192,6282,1,0,0:0:0:0:
64,192,6354,1,0,0:0:0:0:
448,192,6425,1,0,0:0:0:0:
192,192,6497,1,0,0:0:0:0:
320,192,6569,1,0,0:0:0:0:
64,192,6641,1,0,0:0:0:0:
320,192,6713,1,0,0:0:0:0:
64,192,6785,1,0,0:0:0:0:
192,192,6856,1,0,0:0:0:0:
448,192,6928,1,0,0:0:0:0:
192,192,7000,1,0,0:0:0:0:
448,192,7072,1,0,0:0:0:0:
320,192,7143,1,0,0:0:0:0:
192,192,7143,1,0,0:0:0:0:
64,192,7143,1,0,0:0:0:0:
448,192,7286,1,0,0:0:0:0:
320,192,7430,1,0,0:0:0:0:
448,192,7430,1,0,0:0:0:0:
64,192,7574,1,0,0:0:0:0:
192,192,7574,1,0,0:0:0:0:
448,192,7574,1,0,0:0:0:0:
320,192,7717,1,0,0:0:0:0:
320,192,7861,1,0,0:0:0:0:
64,192,7861,1,0,0:0:0:0:
192,192,8005,1,0,0:0:0:0:
64,192,8005,1,0,0:0:0:0:
448,192,8005,1,0,0:0:0:0:
192,192,8148,1,0,0:0:0:0:
320,192,8148,1,0,0:0:0:0:
64,192,8292,1,0,0:0:0:0:
320,192,8292,1,0,0:0:0:0:
448,192,8292,1,0,0:0:0:0:
64,192,8435,1,0,0:0:0:0:
192,192,8506,1,0,0:0:0:0:
320,192,8578,1,0,0:0:0:0:
448,192,8650,1,0,0:0:0:0:
192,192,8722,1,0,0:0:0:0:
64,192,8794,1,0,0:0:0:0:
448,192,8865,1,0,0:0:0:0:
192,192,8937,1,0,0:0:0:0:
320,192,9009,1,0,0:0:0:0:
448,192,9081,1,0,0:0:0:0:
192,192,9153,1,0,0:0:0:0:
64,192,9225,1,0,0:0:0:0:
320,192,9296,1,0,0:0:0:0:
192,192,9368,1,0,0:0:0:0:
64,192,9440,1,0,0:0:0:0:
448,192,9440,1,0,0:0:0:0:
320,192,9512,1,0,0:0:0:0:
192,192,9584,1,0,0:0:0:0:
448,192,9655,1,0,0:0:0:0:
64,192,9727,1,0,0:0:0:0:
192,192,9727,1,0,0:0:0:0:
448,192,9799,1,0,0:0:0:0:
320,192,9870,1,0,0:0:0:0:
64,192,9942,1,0,0:0:0:0:
192,192,10014,1,0,0:0:0:0:
448,192,10085,1,0,0:0:0:0:
64,192,10157,1,0,0:0:0:0:
192,192,10229,1,0,0:0:0:0:
320,192,10301,1,0,0:0:0:0:
448,192,10301,1,0,0:0:0:0:
192,192,10373,1,0,0:0:0:0:
448,192,10445,1,0,0:0:0:0:
64,192,10516,1,0,0:0:0:0:
320,192,10588,1,0,0:0:0:0:
64,192,10660,1,0,0:0:0:0:
192,192,10732,1,0,0:0:0:0:
448,192,10804,1,0,0:0:0:0:
320,192,10875,1,0,0:0:0:0:
192,192,10875,1,0,0:0:0:0:
448,192,10947,1,0,0:0:0:0:
64,192,11019,1,0,0:0:0:0:
192,192,11091,1,0,0:0:0:0:
448,192,11163,1,0,0:0:0:0:
320,192,11234,1,0,0:0:0:0:
192,192,11305,1,0,0:0:0:0:
64,192,11377,1,0,0:0:0:0:
448,192,11449,1,0,0:0:0:0:
192,192,11449,1,0,0:0:0:0:
320,192,11521,1,0,0:0:0:0:
192,192,11593,1,0,0:0:0:0:
64,192,11665,1,0,0:0:0:0:
448,192,11736,1,0,0:0:0:0:
320,192,11808,1,0,0:0:0:0:
192,192,11880,1,0,0:0:0:0:
448,192,11952,1,0,0:0:0:0:
320,192,12024,1,0,0:0:0:0:
64,192,12024,1,0,0:0:0:0:
448,192,12095,1,0,0:0:0:0:
64,192,12167,1,0,0:0:0:0:
192,192,12239,1,0,0:0:0:0:
320,192,12311,1,0,0:0:0:0:
64,192,12383,1,0,0:0:0:0:
448,192,12455,1,0,0:0:0:0:
320,192,12526,1,0,0:0:0:0:
64,192,12597,1,0,0:0:0:0:
192,192,12597,1,0,0:0:0:0:
320,192,12669,1,0,0:0:0:0:
192,192,12741,1,0,0:0:0:0:
64,192,12813,1,0,0:0:0:0:
448,192,12885,1,0,0:0:0:0:
192,192,12956,1,0,0:0:0:0:
320,192,13028,1,0,0:0:0:0:
64,192,13100,1,0,0:0:0:0:
192,192,13172,1,0,0:0:0:0:
448,192,13172,1,0,0:0:0:0:
64,192,13244,1,0,0:0:0:0:
448,192,13315,1,0,0:0:0:0:
320,192,13387,1,0,0:0:0:0:
64,192,13459,128,0,13746:0:0:0:0:
192,192,13459,128,0,13675:0:0:0:0:
448,192,13459,128,0,13675:0:0:0:0:
192,192,13746,128,0,13961:0:0:0:0:
320,192,13746,128,0,13961:0:0:0:0:
448,192,13746,128,0,14033:0:0:0:0:
192,192,14033,1,0,0:0:0:0:
320,192,14033,1,0,0:0:0:0:
64,192,14033,1,0,0:0:0:0:
448,192,14105,1,0,0:0:0:0:
64,192,14176,1,0,0:0:0:0:
192,192,14248,1,0,0:0:0:0:
320,192,14320,1,0,0:0:0:0:
448,192,14320,1,0,0:0:0:0:
192,192,14392,1,0,0:0:0:0:
448,192,14464,1,0,0:0:0:0:
64,192,14535,1,0,0:0:0:0:
320,192,14607,1,0,0:0:0:0:
64,192,14679,1,0,0:0:0:0:
192,192,14751,1,0,0:0:0:0:
448,192,14823,1,0,0:0:0:0:
320,192,14895,1,0,0:0:0:0:
192,192,14895,1,0,0:0:0:0:
448,192,14966,1,0,0:0:0:0:
64,192,15038,1,0,0:0:0:0:
320,192,15110,1,0,0:0:0:0:
192,192,15182,1,0,0:0:0:0:
320,192,15254,1,0,0:0:0:0:
64,192,15325,1,0,0:0:0:0:
192,192,15396,1,0,0:0:0:0:
448,192,15468,1,0,0:0:0:0:
320,192,15468,1,0,0:0:0:0:
64,192,15540,1,0,0:0:0:0:
192,192,15612,1,0,0:0:0:0:
448,192,15684,1,0,0:0:0:0:
192,192,15755,1,0,0:0:0:0:
64,192,15755,1,0,0:0:0:0:
320,192,15827,1,0,0:0:0:0:
448,192,15827,1,0,0:0:0:0:
192,192,15899,1,0,0:0:0:0:
64,192,15899,1,0,0:0:0:0:
320,192,15971,1,0,0:0:0:0:
448,192,15971,1,0,0:0:0:0:
64,192,16043,1,0,0:0:0:0:
320,192,16115,1,0,0:0:0:0:
64,192,16186,1,0,0:0:0:0:
320,192,16258,1,0,0:0:0:0:
448,192,16330,1,0,0:0:0:0:
64,192,16330,1,0,0:0:0:0:
192,192,16330,1,0,0:0:0:0:
320,192,16474,1,0,0:0:0:0:
320,192,16617,1,0,0:0:0:0:
192,192,16617,1,0,0:0:0:0:
64,192,16760,1,0,0:0:0:0:
192,192,16760,1,0,0:0:0:0:
448,192,16760,1,0,0:0:0:0:
320,192,16904,1,0,0:0:0:0:
64,192,17047,1,0,0:0:0:0:
448,192,17047,1,0,0:0:0:0:
192,192,17191,1,0,0:0:0:0:
320,192,17191,1,0,0:0:0:0:
448,192,17191,1,0,0:0:0:0:
64,192,17335,1,0,0:0:0:0:
320,192,17335,1,0,0:0:0:0:
64,192,17478,1,0,0:0:0:0:
192,192,17478,1,0,0:0:0:0:
448,192,17478,1,0,0:0:0:0:
320,192,17622,1,0,0:0:0:0:
192,192,17765,1,0,0:0:0:0:
320,192,17765,1,0,0:0:0:0:
192,192,17909,1,0,0:0:0:0:
64,192,17909,1,0,0:0:0:0:
448,192,17909,1,0,0:0:0:0:
320,192,18052,1,0,0:0:0:0:
64,192,18052,1,0,0:0:0:0:
64,192,18195,1,0,0:0:0:0:
320,192,18195,1,0,0:0:0:0:
192,192,18339,1,0,0:0:0:0:
320,192,18339,1,0,0:0:0:0:
448,192,18339,1,0,0:0:0:0:
64,192,18483,1,0,0:0:0:0:
448,192,18483,1,0,0:0:0:0:
320,192,18626,1,0,0:0:0:0:
64,192,18626,1,0,0:0:0:0:
192,192,18626,1,0,0:0:0:0:
64,192,19201,1,0,0:0:0:0:
192,192,19273,1,0,0:0:0:0:
320,192,19345,1,0,0:0:0:0:
64,192,19415,1,0,0:0:0:0:
192,192,19487,1,0,0:0:0:0:
448,192,19559,1,0,0:0:0:0:
64,192,19631,1,0,0:0:0:0:
192,192,19703,1,0,0:0:0:0:
320,192,19775,1,0,0:0:0:0:
448,192,19775,1,0,0:0:0:0:
64,192,19775,1,0,0:0:0:0:
64,192,20923,1,0,0:0:0:0:
448,192,20923,1,0,0:0:0:0:
320,192,20995,1,0,0:0:0:0:
192,192,21066,1,0,0:0:0:0:
448,192,21138,1,0,0:0:0:0:
320,192,21210,1,0,0:0:0:0:
64,192,21210,1,0,0:0:0:0:
192,192,21282,1,0,0:0:0:0:
448,192,21354,1,0,0:0:0:0:
192,192,21425,1,0,0:0:0:0:
320,192,21497,1,0,0:0:0:0:
64,192,21569,1,0,0:0:0:0:
192,192,21641,1,0,0:0:0:0:
448,192,21713,1,0,0:0:0:0:
320,192,21785,1,0,0:0:0:0:
64,192,21785,1,0,0:0:0:0:
192,192,21856,1,0,0:0:0:0:
448,192,21928,1,0,0:0:0:0:
320,192,22000,1,0,0:0:0:0:
64,192,22072,1,0,0:0:0:0:
448,192,22143,1,0,0:0:0:0:
192,192,22215,1,0,0:0:0:0:
320,192,22286,1,0,0:0:0:0:
64,192,22358,1,0,0:0:0:0:
192,192,22358,1,0,0:0:0:0:
448,192,22430,1,0,0:0:0:0:
320,192,22502,1,0,0:0:0:0:
64,192,22574,1,0,0:0:0:0:
192,192,22645,1,0,0:0:0:0:
448,192,22717,1,0,0:0:0:0:
192,192,22789,1,0,0:0:0:0:
320,192,22861,1,0,0:0:0:0:
448,192,22933,1,0,0:0:0:0:
64,192,22933,1,0,0:0:0:0:
192,192,23005,1,0,0:0:0:0:
320,192,23076,1,0,0:0:0:0:
64,192,23148,1,0,0:0:0:0:
448,192,23220,1,0,0:0:0:0:
320,192,23292,1,0,0:0:0:0:
64,192,23364,1,0,0:0:0:0:
320,192,23435,1,0,0:0:0:0:
192,192,23506,1,0,0:0:0:0:
64,192,23506,1,0,0:0:0:0:
448,192,23578,1,0,0:0:0:0:
320,192,23650,1,0,0:0:0:0:
64,192,23722,1,0,0:0:0:0:
448,192,23794,1,0,0:0:0:0:
320,192,23865,1,0,0:0:0:0:
64,192,23937,1,0,0:0:0:0:
448,192,24009,1,0,0:0:0:0:
320,192,24081,1,0,0:0:0:0:
192,192,24081,1,0,0:0:0:0:
64,192,24153,1,0,0:0:0:0:
448,192,24225,1,0,0:0:0:0:
64,192,24296,1,0,0:0:0:0:
192,192,24368,1,0,0:0:0:0:
320,192,24440,1,0,0:0:0:0:
64,192,24512,1,0,0:0:0:0:
448,192,24584,1,0,0:0:0:0:
320,192,24655,1,0,0:0:0:0:
192,192,24655,1,0,0:0:0:0:
64,192,24727,1,0,0:0:0:0:
448,192,24799,1,0,0:0:0:0:
320,192,24870,1,0,0:0:0:0:
192,192,24942,1,0,0:0:0:0:
320,192,25014,1,0,0:0:0:0:
64,192,25085,1,0,0:0:0:0:
192,192,25157,1,0,0:0:0:0:
320,192,25229,1,0,0:0:0:0:
448,192,25229,1,0,0:0:0:0:
64,192,25301,1,0,0:0:0:0:
448,192,25373,1,0,0:0:0:0:
192,192,25445,1,0,0:0:0:0:
320,192,25516,1,0,0:0:0:0:
64,192,25588,1,0,0:0:0:0:
192,192,25660,1,0,0:0:0:0:
448,192,25732,1,0,0:0:0:0:
320,192,25804,1,0,0:0:0:0:
64,192,25804,1,0,0:0:0:0:
192,192,25875,1,0,0:0:0:0:
448,192,25947,1,0,0:0:0:0:
64,192,26019,1,0,0:0:0:0:
320,192,26091,1,0,0:0:0:0:
64,192,26163,1,0,0:0:0:0:
192,192,26234,1,0,0:0:0:0:
320,192,26305,1,0,0:0:0:0:
64,192,26377,1,0,0:0:0:0:
448,192,26377,1,0,0:0:0:0:
192,192,26449,1,0,0:0:0:0:
320,192,26521,1,0,0:0:0:0:
192,192,26593,1,0,0:0:0:0:
320,192,26665,1,0,0:0:0:0:
64,192,26736,1,0,0:0:0:0:
448,192,26808,1,0,0:0:0:0:
320,192,26880,1,0,0:0:0:0:
192,192,26952,1,0,0:0:0:0:
64,192,26952,1,0,0:0:0:0:
448,192,27024,1,0,0:0:0:0:
320,192,27095,1,0,0:0:0:0:
192,192,27167,1,0,0:0:0:0:
448,192,27239,1,0,0:0:0:0:
64,192,27239,1,0,0:0:0:0:
320,192,27311,1,0,0:0:0:0:
192,192,27311,1,0,0:0:0:0:
64,192,27383,1,0,0:0:0:0:
448,192,27383,1,0,0:0:0:0:
192,192,27455,1,0,0:0:0:0:
320,192,27455,1,0,0:0:0:0:
64,192,27526,1,0,0:0:0:0:
320,192,27597,1,0,0:0:0:0:
64,192,27669,1,0,0:0:0:0:
320,192,27741,1,0,0:0:0:0:
448,192,27813,1,0,0:0:0:0:
64,192,27813,1,0,0:0:0:0:
192,192,27813,1,0,0:0:0:0:
320,192,28100,1,0,0:0:0:0:
192,192,28100,1,0,0:0:0:0:
64,192,28387,1,0,0:0:0:0:
64,192,28531,1,0,0:0:0:0:
192,192,28675,1,0,0:0:0:0:
320,192,28675,1,0,0:0:0:0:
64,192,28818,1,0,0:0:0:0:
192,192,28890,1,0,0:0:0:0:
320,192,28961,1,0,0:0:0:0:
320,192,29105,1,0,0:0:0:0:
448,192,29105,1,0,0:0:0:0:
320,192,29392,1,0,0:0:0:0:
448,192,29392,1,0,0:0:0:0:
320,192,29679,1,0,0:0:0:0:
448,192,29679,1,0,0:0:0:0:
320,192,29966,1,0,0:0:0:0:
448,192,29966,1,0,0:0:0:0:
192,192,30110,1,0,0:0:0:0:
64,192,30110,1,0,0:0:0:0:
448,192,30110,1,0,0:0:0:0:
320,192,30182,1,0,0:0:0:0:
64,192,30254,1,0,0:0:0:0:
448,192,30325,1,0,0:0:0:0:
320,192,30396,1,0,0:0:0:0:
192,192,30396,1,0,0:0:0:0:
64,192,30468,1,0,0:0:0:0:
448,192,30540,1,0,0:0:0:0:
192,192,30612,1,0,0:0:0:0:
320,192,30684,1,0,0:0:0:0:
192,192,30755,1,0,0:0:0:0:
448,192,30827,1,0,0:0:0:0:
320,192,30899,1,0,0:0:0:0:
192,192,30971,1,0,0:0:0:0:
64,192,30971,1,0,0:0:0:0:
448,192,31043,1,0,0:0:0:0:
64,192,31115,1,0,0:0:0:0:
192,192,31186,1,0,0:0:0:0:
320,192,31258,1,0,0:0:0:0:
192,192,31330,1,0,0:0:0:0:
448,192,31402,1,0,0:0:0:0:
320,192,31474,1,0,0:0:0:0:
192,192,31545,1,0,0:0:0:0:
64,192,31545,1,0,0:0:0:0:
320,192,31617,1,0,0:0:0:0:
64,192,31688,1,0,0:0:0:0:
192,192,31760,1,0,0:0:0:0:
320,192,31832,1,0,0:0:0:0:
64,192,31904,1,0,0:0:0:0:
448,192,31975,1,0,0:0:0:0:
192,192,32047,1,0,0:0:0:0:
320,192,32119,1,0,0:0:0:0:
448,192,32119,1,0,0:0:0:0:
64,192,32191,1,0,0:0:0:0:
192,192,32263,1,0,0:0:0:0:
448,192,32335,1,0,0:0:0:0:
64,192,32406,1,0,0:0:0:0:
320,192,32478,1,0,0:0:0:0:
64,192,32550,1,0,0:0:0:0:
448,192,32622,1,0,0:0:0:0:
320,192,32694,1,0,0:0:0:0:
192,192,32694,1,0,0:0:0:0:
64,192,32765,1,0,0:0:0:0:
448,192,32837,1,0,0:0:0:0:
320,192,32909,1,0,0:0:0:0:
192,192,32981,1,0,0:0:0:0:
320,192,33052,1,0,0:0:0:0:
64,192,33124,1,0,0:0:0:0:
192,192,33195,1,0,0:0:0:0:
320,192,33267,1,0,0:0:0:0:
448,192,33267,1,0,0:0:0:0:
192,192,33339,1,0,0:0:0:0:
448,192,33411,1,0,0:0:0:0:
320,192,33483,1,0,0:0:0:0:
64,192,33555,1,0,0:0:0:0:
448,192,33626,1,0,0:0:0:0:
192,192,33698,1,0,0:0:0:0:
320,192,33770,1,0,0:0:0:0:
192,192,33842,1,0,0:0:0:0:
64,192,33842,1,0,0:0:0:0:
448,192,33914,1,0,0:0:0:0:
320,192,33985,1,0,0:0:0:0:
64,192,34057,1,0,0:0:0:0:
320,192,34129,1,0,0:0:0:0:
192,192,34201,1,0,0:0:0:0:
448,192,34273,1,0,0:0:0:0:
64,192,34345,1,0,0:0:0:0:
192,192,34415,1,0,0:0:0:0:
448,192,34415,1,0,0:0:0:0:
320,192,34487,1,0,0:0:0:0:
192,192,34559,1,0,0:0:0:0:
320,192,34631,1,0,0:0:0:0:
64,192,34703,1,0,0:0:0:0:
192,192,34775,1,0,0:0:0:0:
448,192,34846,1,0,0:0:0:0:
64,192,34918,1,0,0:0:0:0:
192,192,34990,1,0,0:0:0:0:
448,192,34990,1,0,0:0:0:0:
320,192,35062,1,0,0:0:0:0:
192,192,35134,1,0,0:0:0:0:
448,192,35205,1,0,0:0:0:0:
64,192,35277,1,0,0:0:0:0:
320,192,35349,1,0,0:0:0:0:
192,192,35421,1,0,0:0:0:0:
448,192,35493,1,0,0:0:0:0:
320,192,35565,1,0,0:0:0:0:
64,192,35565,1,0,0:0:0:0:
192,192,35636,1,0,0:0:0:0:
448,192,35708,1,0,0:0:0:0:
64,192,35779,1,0,0:0:0:0:
192,192,35851,1,0,0:0:0:0:
320,192,35923,1,0,0:0:0:0:
64,192,35995,1,0,0:0:0:0:
448,192,36066,1,0,0:0:0:0:
320,192,36138,1,0,0:0:0:0:
64,192,36138,1,0,0:0:0:0:
192,192,36210,1,0,0:0:0:0:
320,192,36282,1,0,0:0:0:0:
64,192,36354,1,0,0:0:0:0:
192,192,36425,1,0,0:0:0:0:
448,192,36497,1,0,0:0:0:0:
192,192,36569,1,0,0:0:0:0:
320,192,36641,1,0,0:0:0:0:
448,192,36713,1,0,0:0:0:0:
64,192,36713,1,0,0:0:0:0:
192,192,36785,1,0,0:0:0:0:
320,192,36856,1,0,0:0:0:0:
192,192,36928,1,0,0:0:0:0:
448,192,37000,1,0,0:0:0:0:
320,192,37072,1,0,0:0:0:0:
192,192,37143,1,0,0:0:0:0:
448,192,37215,1,0,0:0:0:0:
320,192,37286,1,0,0:0:0:0:
64,192,37286,1,0,0:0:0:0:
192,192,37358,1,0,0:0:0:0:
448,192,37430,1,0,0:0:0:0:
64,192,37502,1,0,0:0:0:0:
320,192,37574,1,0,0:0:0:0:
64,192,37645,1,0,0:0:0:0:
448,192,37717,1,0,0:0:0:0:
192,192,37789,1,0,0:0:0:0:
320,192,37861,1,0,0:0:0:0:
448,192,37861,1,0,0:0:0:0:
64,192,37933,1,0,0:0:0:0:
192,192,38005,1,0,0:0:0:0:
448,192,38076,1,0,0:0:0:0:
64,192,38148,1,0,0:0:0:0:
320,192,38220,1,0,0:0:0:0:
192,192,38292,1,0,0:0:0:0:
448,192,38364,1,0,0:0:0:0:
320,192,38435,1,0,0:0:0:0:
64,192,38435,1,0,0:0:0:0:
192,192,38506,1,0,0:0:0:0:
448,192,38578,1,0,0:0:0:0:
64,192,38650,1,0,0:0:0:0:
448,192,38722,1,0,0:0:0:0:
320,192,38722,1,0,0:0:0:0:
192,192,38794,1,0,0:0:0:0:
64,192,38794,1,0,0:0:0:0:
448,192,38865,1,0,0:0:0:0:
320,192,38937,1,0,0:0:0:0:
64,192,39009,1,0,0:0:0:0:
192,192,39081,1,0,0:0:0:0:
64,192,39153,1,0,0:0:0:0:
192,192,39225,1,0,0:0:0:0:
320,192,39296,1,0,0:0:0:0:
448,192,39296,1,0,0:0:0:0:
320,192,39440,1,0,0:0:0:0:
64,192,39584,1,0,0:0:0:0:
448,192,39584,1,0,0:0:0:0:
192,192,39727,1,0,0:0:0:0:
320,192,39727,1,0,0:0:0:0:
192,192,39870,1,0,0:0:0:0:
64,192,40014,1,0,0:0:0:0:
320,192,40157,1,0,0:0:0:0:
448,192,40157,1,0,0:0:0:0:
320,192,40301,1,0,0:0:0:0:
192,192,40445,1,0,0:0:0:0:
64,192,40588,1,0,0:0:0:0:
320,192,40588,1,0,0:0:0:0:
192,192,40732,1,0,0:0:0:0:
320,192,40732,1,0,0:0:0:0:
64,192,40875,1,0,0:0:0:0:
192,192,40947,1,0,0:0:0:0:
320,192,41019,1,0,0:0:0:0:
448,192,41019,1,0,0:0:0:0:
64,192,41163,1,0,0:0:0:0:
320,192,41305,1,0,0:0:0:0:
448,192,41305,1,0,0:0:0:0:
192,192,41449,1,0,0:0:0:0:
64,192,41593,1,0,0:0:0:0:
448,192,41593,1,0,0:0:0:0:
448,192,41736,1,0,0:0:0:0:
320,192,41880,1,0,0:0:0:0:
192,192,41880,1,0,0:0:0:0:
64,192,42024,1,0,0:0:0:0:
320,192,42024,1,0,0:0:0:0:
64,192,42167,1,0,0:0:0:0:
192,192,42311,1,0,0:0:0:0:
320,192,42455,1,0,0:0:0:0:
448,192,42455,1,0,0:0:0:0:
320,192,42597,1,0,0:0:0:0:
64,192,42741,1,0,0:0:0:0:
192,192,42885,1,0,0:0:0:0:
448,192,42885,1,0,0:0:0:0:
320,192,43028,1,0,0:0:0:0:
192,192,43028,1,0,0:0:0:0:
64,192,43172,1,0,0:0:0:0:
192,192,43244,1,0,0:0:0:0:
320,192,43315,1,0,0:0:0:0:
448,192,43315,1,0,0:0:0:0:
64,192,43459,1,0,0:0:0:0:
320,192,43603,1,0,0:0:0:0:
448,192,43603,1,0,0:0:0:0:
192,192,43746,1,0,0:0:0:0:
64,192,43890,1,0,0:0:0:0:
448,192,43890,1,0,0:0:0:0:
448,192,44033,1,0,0:0:0:0:
192,192,44176,1,0,0:0:0:0:
64,192,44176,1,0,0:0:0:0:
192,192,44320,1,0,0:0:0:0:
320,192,44320,1,0,0:0:0:0:
320,192,44464,1,0,0:0:0:0:
64,192,44607,1,0,0:0:0:0:
320,192,44751,1,0,0:0:0:0:
448,192,44751,1,0,0:0:0:0:
448,192,44895,1,0,0:0:0:0:
64,192,45038,1,0,0:0:0:0:
192,192,45182,1,0,0:0:0:0:
448,192,45182,1,0,0:0:0:0:
320,192,45325,1,0,0:0:0:0:
192,192,45325,1,0,0:0:0:0:
64,192,45468,1,0,0:0:0:0:
192,192,45540,1,0,0:0:0:0:
320,192,45612,1,0,0:0:0:0:
448,192,45612,1,0,0:0:0:0:
64,192,45755,1,0,0:0:0:0:
320,192,45899,1,0,0:0:0:0:
448,192,45899,1,0,0:0:0:0:
192,192,46043,1,0,0:0:0:0:
64,192,46186,1,0,0:0:0:0:
448,192,46186,1,0,0:0:0:0:
448,192,46330,1,0,0:0:0:0:
192,192,46474,1,0,0:0:0:0:
320,192,46474,1,0,0:0:0:0:
64,192,46617,1,0,0:0:0:0:
64,192,46760,1,0,0:0:0:0:
192,192,46904,1,0,0:0:0:0:
448,192,46904,1,0,0:0:0:0:
192,192,47047,1,0,0:0:0:0:
448,192,47047,1,0,0:0:0:0:
320,192,47191,1,0,0:0:0:0:
192,192,47263,1,0,0:0:0:0:
64,192,47335,1,0,0:0:0:0:
320,192,47335,1,0,0:0:0:0:
448,192,47335,1,0,0:0:0:0:
192,192,47478,1,0,0:0:0:0:
448,192,47622,1,0,0:0:0:0:
192,192,47765,1,0,0:0:0:0:
320,192,47909,1,0,0:0:0:0:
448,192,47909,1,0,0:0:0:0:
64,192,47981,1,0,0:0:0:0:
192,192,48052,1,0,0:0:0:0:
320,192,48124,1,0,0:0:0:0:
64,192,48195,1,0,0:0:0:0:
192,192,48195,1,0,0:0:0:0:
320,192,48267,1,0,0:0:0:0:
448,192,48267,1,0,0:0:0:0:
64,192,48339,1,0,0:0:0:0:
192,192,48339,1,0,0:0:0:0:
320,192,48411,1,0,0:0:0:0:
448,192,48411,1,0,0:0:0:0:
64,192,48483,1,0,0:0:0:0:
192,192,48555,1,0,0:0:0:0:
448,192,48626,1,0,0:0:0:0:
64,192,48698,1,0,0:0:0:0:
192,192,48770,1,0,0:0:0:0:
320,192,48770,1,0,0:0:0:0:
448,192,48842,1,0,0:0:0:0:
192,192,48914,1,0,0:0:0:0:
320,192,48985,1,0,0:0:0:0:
64,192,49057,1,0,0:0:0:0:
448,192,49129,1,0,0:0:0:0:
320,192,49201,1,0,0:0:0:0:
192,192,49273,1,0,0:0:0:0:
64,192,49345,1,0,0:0:0:0:
448,192,49345,1,0,0:0:0:0:
192,192,49415,1,0,0:0:0:0:
320,192,49487,1,0,0:0:0:0:
64,192,49559,1,0,0:0:0:0:
192,192,49631,1,0,0:0:0:0:
448,192,49703,1,0,0:0:0:0:
64,192,49775,1,0,0:0:0:0:
320,192,49846,1,0,0:0:0:0:
64,192,49918,1,0,0:0:0:0:
192,192,49918,1,0,0:0:0:0:
448,192,49990,1,0,0:0:0:0:
320,192,50062,1,0,0:0:0:0:
64,192,50134,1,0,0:0:0:0:
448,192,50205,1,0,0:0:0:0:
192,192,50277,1,0,0:0:0:0:
448,192,50349,1,0,0:0:0:0:
64,192,50421,1,0,0:0:0:0:
192,192,50493,1,0,0:0:0:0:
320,192,50493,1,0,0:0:0:0:
448,192,50565,1,0,0:0:0:0:
64,192,50636,1,0,0:0:0:0:
192,192,50708,1,0,0:0:0:0:
448,192,50779,1,0,0:0:0:0:
64,192,50851,1,0,0:0:0:0:
320,192,50923,1,0,0:0:0:0:
192,192,50995,1,0,0:0:0:0:
64,192,51066,1,0,0:0:0:0:
448,192,51066,1,0,0:0:0:0:
320,192,51138,1,0,0:0:0:0:
192,192,51210,1,0,0:0:0:0:
320,192,51282,1,0,0:0:0:0:
192,192,51354,1,0,0:0:0:0:
64,192,51425,1,0,0:0:0:0:
448,192,51497,1,0,0:0:0:0:
192,192,51569,1,0,0:0:0:0:
64,192,51641,1,0,0:0:0:0:
448,192,51641,1,0,0:0:0:0:
320,192,51713,1,0,0:0:0:0:
192,192,51785,1,0,0:0:0:0:
448,192,51856,1,0,0:0:0:0:
320,192,51928,1,0,0:0:0:0:
64,192,52000,1,0,0:0:0:0:
192,192,52072,1,0,0:0:0:0:
320,192,52143,1,0,0:0:0:0:
192,192,52215,1,0,0:0:0:0:
64,192,52215,1,0,0:0:0:0:
448,192,52286,1,0,0:0:0:0:
320,192,52358,1,0,0:0:0:0:
64,192,52430,1,0,0:0:0:0:
448,192,52502,1,0,0:0:0:0:
192,192,52574,1,0,0:0:0:0:
320,192,52645,1,0,0:0:0:0:
64,192,52717,1,0,0:0:0:0:
192,192,52789,1,0,0:0:0:0:
448,192,52789,1,0,0:0:0:0:
320,192,52861,1,0,0:0:0:0:
192,192,52933,1,0,0:0:0:0:
320,192,53005,1,0,0:0:0:0:
448,192,53076,1,0,0:0:0:0:
64,192,53148,1,0,0:0:0:0:
320,192,53220,1,0,0:0:0:0:
192,192,53292,1,0,0:0:0:0:
64,192,53364,1,0,0:0:0:0:
448,192,53364,1,0,0:0:0:0:
320,192,53435,1,0,0:0:0:0:
192,192,53506,1,0,0:0:0:0:
448,192,53578,1,0,0:0:0:0:
64,192,53650,1,0,0:0:0:0:
448,192,53722,1,0,0:0:0:0:
320,192,53794,1,0,0:0:0:0:
192,192,53865,1,0,0:0:0:0:
64,192,53937,1,0,0:0:0:0:
448,192,53937,1,0,0:0:0:0:
192,192,54009,1,0,0:0:0:0:
320,192,54081,1,0,0:0:0:0:
64,192,54153,1,0,0:0:0:0:
320,192,54225,1,0,0:0:0:0:
192,192,54296,1,0,0:0:0:0:
448,192,54368,1,0,0:0:0:0:
320,192,54440,1,0,0:0:0:0:
64,192,54512,1,0,0:0:0:0:
192,192,54512,1,0,0:0:0:0:
448,192,54584,1,0,0:0:0:0:
320,192,54655,1,0,0:0:0:0:
64,192,54727,1,0,0:0:0:0:
192,192,54799,1,0,0:0:0:0:
448,192,54870,1,0,0:0:0:0:
64,192,54942,1,0,0:0:0:0:
192,192,55014,1,0,0:0:0:0:
320,192,55085,1,0,0:0:0:0:
448,192,55085,1,0,0:0:0:0:
192,192,55157,1,0,0:0:0:0:
64,192,55157,1,0,0:0:0:0:
448,192,55229,1,0,0:0:0:0:
320,192,55229,1,0,0:0:0:0:
192,192,55301,1,0,0:0:0:0:
64,192,55301,1,0,0:0:0:0:
320,192,55373,1,0,0:0:0:0:
192,192,55660,1,0,0:0:0:0:
448,192,55660,1,0,0:0:0:0:
64,192,55947,1,0,0:0:0:0:
64,192,56091,1,0,0:0:0:0:
192,192,56234,1,0,0:0:0:0:
448,192,56234,1,0,0:0:0:0:
320,192,56377,1,0,0:0:0:0:
192,192,56449,1,0,0:0:0:0:
64,192,56521,1,0,0:0:0:0:
320,192,56665,1,0,0:0:0:0:
448,192,56665,1,0,0:0:0:0:
320,192,56952,1,0,0:0:0:0:
448,192,56952,1,0,0:0:0:0:
320,192,57239,1,0,0:0:0:0:
448,192,57239,1,0,0:0:0:0:
320,192,57526,1,0,0:0:0:0:
448,192,57526,1,0,0:0:0:0:
192,192,57669,1,0,0:0:0:0:
64,192,57669,1,0,0:0:0:0:
448,192,57669,1,0,0:0:0:0:
320,192,57741,1,0,0:0:0:0:
192,192,57813,1,0,0:0:0:0:
448,192,57885,1,0,0:0:0:0:
320,192,57956,1,0,0:0:0:0:
64,192,57956,1,0,0:0:0:0:
192,192,58028,1,0,0:0:0:0:
448,192,58100,1,0,0:0:0:0:
64,192,58172,1,0,0:0:0:0:
320,192,58244,1,0,0:0:0:0:
192,192,58315,1,0,0:0:0:0:
320,192,58387,1,0,0:0:0:0:
64,192,58459,1,0,0:0:0:0:
192,192,58531,1,0,0:0:0:0:
448,192,58531,1,0,0:0:0:0:
320,192,58603,1,0,0:0:0:0:
64,192,58675,1,0,0:0:0:0:
192,192,58746,1,0,0:0:0:0:
448,192,58818,1,0,0:0:0:0:
64,192,58890,1,0,0:0:0:0:
320,192,58961,1,0,0:0:0:0:
192,192,59033,1,0,0:0:0:0:
320,192,59105,1,0,0:0:0:0:
448,192,59105,1,0,0:0:0:0:
64,192,59176,1,0,0:0:0:0:
192,192,59248,1,0,0:0:0:0:
448,192,59320,1,0,0:0:0:0:
64,192,59392,1,0,0:0:0:0:
320,192,59464,1,0,0:0:0:0:
192,192,59535,1,0,0:0:0:0:
448,192,59607,1,0,0:0:0:0:
320,192,59679,1,0,0:0:0:0:
192,192,59679,1,0,0:0:0:0:
64,192,59751,1,0,0:0:0:0:
448,192,59823,1,0,0:0:0:0:
192,192,59895,1,0,0:0:0:0:
320,192,59966,1,0,0:0:0:0:
64,192,60038,1,0,0:0:0:0:
320,192,60110,1,0,0:0:0:0:
64,192,60182,1,0,0:0:0:0:
192,192,60254,1,0,0:0:0:0:
448,192,60254,1,0,0:0:0:0:
320,192,60325,1,0,0:0:0:0:
64,192,60396,1,0,0:0:0:0:
192,192,60468,1,0,0:0:0:0:
448,192,60540,1,0,0:0:0:0:
64,192,60612,1,0,0:0:0:0:
320,192,60684,1,0,0:0:0:0:
192,192,60755,1,0,0:0:0:0:
320,192,60827,1,0,0:0:0:0:
448,192,60827,1,0,0:0:0:0:
64,192,60899,1,0,0:0:0:0:
192,192,60971,1,0,0:0:0:0:
448,192,61043,1,0,0:0:0:0:
64,192,61115,1,0,0:0:0:0:
320,192,61186,1,0,0:0:0:0:
192,192,61258,1,0,0:0:0:0:
448,192,61330,1,0,0:0:0:0:
320,192,61402,1,0,0:0:0:0:
64,192,61402,1,0,0:0:0:0:
192,192,61474,1,0,0:0:0:0:
448,192,61545,1,0,0:0:0:0:
64,192,61617,1,0,0:0:0:0:
192,192,61688,1,0,0:0:0:0:
320,192,61760,1,0,0:0:0:0:
64,192,61832,1,0,0:0:0:0:
448,192,61904,1,0,0:0:0:0:
320,192,61975,1,0,0:0:0:0:
64,192,61975,1,0,0:0:0:0:
192,192,62047,1,0,0:0:0:0:
448,192,62119,1,0,0:0:0:0:
320,192,62191,1,0,0:0:0:0:
192,192,62263,1,0,0:0:0:0:
320,192,62335,1,0,0:0:0:0:
192,192,62406,1,0,0:0:0:0:
448,192,62478,1,0,0:0:0:0:
320,192,62550,1,0,0:0:0:0:
64,192,62550,1,0,0:0:0:0:
192,192,62622,1,0,0:0:0:0:
448,192,62694,1,0,0:0:0:0:
64,192,62765,1,0,0:0:0:0:
448,192,62837,1,0,0:0:0:0:
320,192,62909,1,0,0:0:0:0:
192,192,62981,1,0,0:0:0:0:
320,192,63052,1,0,0:0:0:0:
192,192,63124,1,0,0:0:0:0:
64,192,63124,1,0,0:0:0:0:
448,192,63195,1,0,0:0:0:0:
320,192,63267,1,0,0:0:0:0:
64,192,63339,1,0,0:0:0:0:
192,192,63411,1,0,0:0:0:0:
448,192,63483,1,0,0:0:0:0:
192,192,63555,1,0,0:0:0:0:
320,192,63626,1,0,0:0:0:0:
64,192,63698,1,0,0:0:0:0:
448,192,63698,1,0,0:0:0:0:
192,192,63770,1,0,0:0:0:0:
320,192,63842,1,0,0:0:0:0:
192,192,63914,1,0,0:0:0:0:
448,192,63985,1,0,0:0:0:0:
320,192,64057,1,0,0:0:0:0:
64,192,64129,1,0,0:0:0:0:
448,192,64201,1,0,0:0:0:0:
320,192,64273,1,0,0:0:0:0:
64,192,64273,1,0,0:0:0:0:
192,192,64345,1,0,0:0:0:0:
448,192,64415,1,0,0:0:0:0:
64,192,64487,1,0,0:0:0:0:
192,192,64559,1,0,0:0:0:0:
320,192,64631,1,0,0:0:0:0:
64,192,64703,1,0,0:0:0:0:
192,192,64775,1,0,0:0:0:0:
320,192,64846,1,0,0:0:0:0:
448,192,64846,1,0,0:0:0:0:
192,192,64918,1,0,0:0:0:0:
448,192,64990,1,0,0:0:0:0:
320,192,65062,1,0,0:0:0:0:
64,192,65134,1,0,0:0:0:0:
448,192,65205,1,0,0:0:0:0:
320,192,65277,1,0,0:0:0:0:
192,192,65349,1,0,0:0:0:0:
448,192,65421,1,0,0:0:0:0:
64,192,65421,1,0,0:0:0:0:
192,192,65493,1,0,0:0:0:0:
320,192,65565,1,0,0:0:0:0:
192,192,65636,1,0,0:0:0:0:
448,192,65708,1,0,0:0:0:0:
320,192,65779,1,0,0:0:0:0:
64,192,65851,1,0,0:0:0:0:
448,192,65923,1,0,0:0:0:0:
320,192,65995,1,0,0:0:0:0:
64,192,65995,1,0,0:0:0:0:
192,192,66066,1,0,0:0:0:0:
448,192,66138,1,0,0:0:0:0:
64,192,66210,1,0,0:0:0:0:
320,192,66282,1,0,0:0:0:0:
448,192,66282,1,0,0:0:0:0:
192,192,66354,1,0,0:0:0:0:
64,192,66354,1,0,0:0:0:0:
320,192,66425,1,0,0:0:0:0:
448,192,66425,1,0,0:0:0:0:
192,192,66497,1,0,0:0:0:0:
64,192,66497,1,0,0:0:0:0:
320,192,66569,1,0,0:0:0:0:
64,192,66641,1,0,0:0:0:0:
320,192,66713,1,0,0:0:0:0:
64,192,66785,1,0,0:0:0:0:
192,192,66856,1,0,0:0:0:0:
320,192,66856,1,0,0:0:0:0:
448,192,66856,1,0,0:0:0:0:
64,192,67000,1,0,0:0:0:0:
448,192,67000,1,0,0:0:0:0:
64,192,67143,1,0,0:0:0:0:
192,192,67143,1,0,0:0:0:0:
448,192,67286,1,0,0:0:0:0:
320,192,67286,1,0,0:0:0:0:
448,192,67430,1,0,0:0:0:0:
64,192,67574,1,0,0:0:0:0:
64,192,67717,1,0,0:0:0:0:
448,192,67717,1,0,0:0:0:0:
192,192,67861,1,0,0:0:0:0:
320,192,67861,1,0,0:0:0:0:
192,192,68005,1,0,0:0:0:0:
448,192,68148,1,0,0:0:0:0:
320,192,68148,1,0,0:0:0:0:
192,192,68292,1,0,0:0:0:0:
448,192,68292,1,0,0:0:0:0:
64,192,68435,1,0,0:0:0:0:
192,192,68506,1,0,0:0:0:0:
320,192,68578,1,0,0:0:0:0:
448,192,68578,1,0,0:0:0:0:
64,192,68722,1,0,0:0:0:0:
320,192,68865,1,0,0:0:0:0:
448,192,68865,1,0,0:0:0:0:
192,192,69009,1,0,0:0:0:0:
64,192,69153,1,0,0:0:0:0:
448,192,69153,1,0,0:0:0:0:
448,192,69296,1,0,0:0:0:0:
320,192,69440,1,0,0:0:0:0:
192,192,69440,1,0,0:0:0:0:
448,192,69584,1,0,0:0:0:0:
64,192,69584,1,0,0:0:0:0:
448,192,69727,1,0,0:0:0:0:
320,192,69727,1,0,0:0:0:0:
192,192,69870,1,0,0:0:0:0:
448,192,70014,1,0,0:0:0:0:
64,192,70014,1,0,0:0:0:0:
64,192,70157,1,0,0:0:0:0:
320,192,70301,1,0,0:0:0:0:
192,192,70445,1,0,0:0:0:0:
320,192,70445,1,0,0:0:0:0:
192,192,70588,1,0,0:0:0:0:
448,192,70588,1,0,0:0:0:0:
64,192,70732,1,0,0:0:0:0:
192,192,70804,1,0,0:0:0:0:
320,192,70875,1,0,0:0:0:0:
448,192,70875,1,0,0:0:0:0:
64,192,71019,1,0,0:0:0:0:
320,192,71163,1,0,0:0:0:0:
448,192,71163,1,0,0:0:0:0:
192,192,71305,1,0,0:0:0:0:
64,192,71449,1,0,0:0:0:0:
448,192,71449,1,0,0:0:0:0:
64,192,71593,1,0,0:0:0:0:
192,192,71736,1,0,0:0:0:0:
448,192,71736,1,0,0:0:0:0:
192,192,71880,1,0,0:0:0:0:
320,192,72024,1,0,0:0:0:0:
448,192,72024,1,0,0:0:0:0:
320,192,72167,1,0,0:0:0:0:
64,192,72311,1,0,0:0:0:0:
448,192,72311,1,0,0:0:0:0:
448,192,72455,1,0,0:0:0:0:
64,192,72597,1,0,0:0:0:0:
192,192,72597,1,0,0:0:0:0:
192,192,72741,1,0,0:0:0:0:
448,192,72885,1,0,0:0:0:0:
320,192,72885,1,0,0:0:0:0:
64,192,73028,1,0,0:0:0:0:
192,192,73100,1,0,0:0:0:0:
320,192,73172,1,0,0:0:0:0:
448,192,73172,1,0,0:0:0:0:
64,192,73315,1,0,0:0:0:0:
320,192,73459,1,0,0:0:0:0:
448,192,73459,1,0,0:0:0:0:
192,192,73603,1,0,0:0:0:0:
64,192,73746,1,0,0:0:0:0:
448,192,73746,1,0,0:0:0:0:
448,192,73890,1,0,0:0:0:0:
64,192,74033,1,0,0:0:0:0:
320,192,74033,1,0,0:0:0:0:
320,192,74176,1,0,0:0:0:0:
192,192,74320,1,0,0:0:0:0:
64,192,74464,1,0,0:0:0:0:
448,192,74464,1,0,0:0:0:0:
64,192,74607,1,0,0:0:0:0:
448,192,74607,1,0,0:0:0:0:
320,192,74715,1,0,0:0:0:0:
192,192,74786,1,0,0:0:0:0:
320,192,74858,1,0,0:0:0:0:
448,192,74895,1,0,0:0:0:0:
64,192,74895,1,0,0:0:0:0:
192,192,75038,1,0,0:0:0:0:
448,192,75182,1,0,0:0:0:0:
64,192,75325,1,0,0:0:0:0:
192,192,75396,1,0,0:0:0:0:
448,192,75468,1,0,0:0:0:0:
320,192,75468,1,0,0:0:0:0:
64,192,75540,1,0,0:0:0:0:
320,192,75612,1,0,0:0:0:0:
192,192,75684,1,0,0:0:0:0:
64,192,75755,1,0,0:0:0:0:
448,192,75899,1,0,0:0:0:0:
320,192,75971,1,0,0:0:0:0:
192,192,76043,1,0,0:0:0:0:
64,192,76043,1,0,0:0:0:0:
448,192,76043,1,0,0:0:0:0:
320,192,76115,1,0,0:0:0:0:
64,192,76186,1,0,0:0:0:0:
192,192,76258,1,0,0:0:0:0:
320,192,76330,1,0,0:0:0:0:
448,192,76330,1,0,0:0:0:0:
192,192,76402,1,0,0:0:0:0:
448,192,76474,1,0,0:0:0:0:
64,192,76545,1,0,0:0:0:0:
320,192,76617,1,0,0:0:0:0:
192,192,76688,1,0,0:0:0:0:
320,192,76760,1,0,0:0:0:0:
192,192,76832,1,0,0:0:0:0:
64,192,76904,1,0,0:0:0:0:
448,192,76904,1,0,0:0:0:0:
320,192,76975,1,0,0:0:0:0:
192,192,77047,1,0,0:0:0:0:
448,192,77119,1,0,0:0:0:0:
64,192,77191,1,0,0:0:0:0:
448,192,77263,1,0,0:0:0:0:
64,192,77335,1,0,0:0:0:0:
192,192,77406,1,0,0:0:0:0:
320,192,77478,1,0,0:0:0:0:
448,192,77478,1,0,0:0:0:0:
192,192,77550,1,0,0:0:0:0:
320,192,77622,1,0,0:0:0:0:
64,192,77694,1,0,0:0:0:0:
448,192,77765,1,0,0:0:0:0:
320,192,77837,1,0,0:0:0:0:
192,192,77909,1,0,0:0:0:0:
448,192,77981,1,0,0:0:0:0:
320,192,78052,1,0,0:0:0:0:
64,192,78052,1,0,0:0:0:0:
192,192,78124,1,0,0:0:0:0:
448,192,78195,1,0,0:0:0:0:
320,192,78267,1,0,0:0:0:0:
192,192,78339,1,0,0:0:0:0:
64,192,78339,1,0,0:0:0:0:
320,192,78411,1,0,0:0:0:0:
64,192,78483,1,0,0:0:0:0:
192,192,78555,1,0,0:0:0:0:
320,192,78626,1,0,0:0:0:0:
448,192,78626,1,0,0:0:0:0:
192,192,78698,1,0,0:0:0:0:
448,192,78770,1,0,0:0:0:0:
64,192,78842,1,0,0:0:0:0:
320,192,78914,1,0,0:0:0:0:
192,192,78985,1,0,0:0:0:0:
448,192,79057,1,0,0:0:0:0:
320,192,79129,1,0,0:0:0:0:
192,192,79201,1,0,0:0:0:0:
64,192,79201,1,0,0:0:0:0:
448,192,79273,1,0,0:0:0:0:
64,192,79345,1,0,0:0:0:0:
192,192,79415,1,0,0:0:0:0:
320,192,79487,1,0,0:0:0:0:
192,192,79559,1,0,0:0:0:0:
320,192,79631,1,0,0:0:0:0:
64,192,79703,1,0,0:0:0:0:
192,192,79775,1,0,0:0:0:0:
448,192,79775,1,0,0:0:0:0:
320,192,79846,1,0,0:0:0:0:
64,192,79918,1,0,0:0:0:0:
448,192,79990,1,0,0:0:0:0:
320,192,80062,1,0,0:0:0:0:
192,192,80134,1,0,0:0:0:0:
448,192,80205,1,0,0:0:0:0:
320,192,80277,1,0,0:0:0:0:
192,192,80349,1,0,0:0:0:0:
64,192,80349,1,0,0:0:0:0:
320,192,80421,1,0,0:0:0:0:
64,192,80493,1,0,0:0:0:0:
448,192,80565,1,0,0:0:0:0:
192,192,80636,1,0,0:0:0:0:
320,192,80636,1,0,0:0:0:0:
64,192,80708,1,0,0:0:0:0:
448,192,80779,1,0,0:0:0:0:
192,192,80851,1,0,0:0:0:0:
320,192,80923,1,0,0:0:0:0:
448,192,80923,1,0,0:0:0:0:
64,192,80995,1,0,0:0:0:0:
320,192,81066,1,0,0:0:0:0:
64,192,81138,1,0,0:0:0:0:
192,192,81210,1,0,0:0:0:0:
448,192,81282,1,0,0:0:0:0:
64,192,81354,1,0,0:0:0:0:
320,192,81425,1,0,0:0:0:0:
192,192,81497,1,0,0:0:0:0:
64,192,81497,1,0,0:0:0:0:
448,192,81569,1,0,0:0:0:0:
320,192,81641,1,0,0:0:0:0:
64,192,81713,1,0,0:0:0:0:
192,192,81785,1,0,0:0:0:0:
320,192,81856,1,0,0:0:0:0:
192,192,81928,1,0,0:0:0:0:
448,192,82000,1,0,0:0:0:0:
320,192,82072,1,0,0:0:0:0:
64,192,82072,1,0,0:0:0:0:
192,192,82143,1,0,0:0:0:0:
448,192,82215,1,0,0:0:0:0:
320,192,82286,1,0,0:0:0:0:
192,192,82358,1,0,0:0:0:0:
448,192,82430,1,0,0:0:0:0:
64,192,82502,1,0,0:0:0:0:
192,192,82574,1,0,0:0:0:0:
320,192,82645,1,0,0:0:0:0:
448,192,82645,1,0,0:0:0:0:
192,192,82717,1,0,0:0:0:0:
448,192,82789,1,0,0:0:0:0:
320,192,82861,1,0,0:0:0:0:
192,192,82933,1,0,0:0:0:0:
64,192,82933,1,0,0:0:0:0:
448,192,83005,1,0,0:0:0:0:
64,192,83076,1,0,0:0:0:0:
192,192,83148,1,0,0:0:0:0:
320,192,83220,1,0,0:0:0:0:
448,192,83220,1,0,0:0:0:0:
64,192,83292,1,0,0:0:0:0:
448,192,83364,1,0,0:0:0:0:
320,192,83435,1,0,0:0:0:0:
192,192,83506,1,0,0:0:0:0:
320,192,83578,1,0,0:0:0:0:
64,192,83650,1,0,0:0:0:0:
192,192,83722,1,0,0:0:0:0:
320,192,83794,1,0,0:0:0:0:
448,192,83794,1,0,0:0:0:0:
192,192,83865,1,0,0:0:0:0:
448,192,83937,1,0,0:0:0:0:
320,192,84009,1,0,0:0:0:0:
64,192,84081,1,0,0:0:0:0:
448,192,84153,1,0,0:0:0:0:
64,192,84225,1,0,0:0:0:0:
320,192,84296,1,0,0:0:0:0:
192,192,84368,1,0,0:0:0:0:
64,192,84368,1,0,0:0:0:0:
448,192,84440,1,0,0:0:0:0:
320,192,84512,1,0,0:0:0:0:
64,192,84584,1,0,0:0:0:0:
448,192,84655,1,0,0:0:0:0:
320,192,84655,1,0,0:0:0:0:
192,192,84727,1,0,0:0:0:0:
320,192,84799,1,0,0:0:0:0:
448,192,84799,1,0,0:0:0:0:
192,192,84870,1,0,0:0:0:0:
64,192,84942,1,0,0:0:0:0:
448,192,85014,1,0,0:0:0:0:
320,192,85085,1,0,0:0:0:0:
192,192,85122,1,0,0:0:0:0:
64,192,85157,1,0,0:0:0:0:
320,192,85229,1,0,0:0:0:0:
448,192,85229,1,0,0:0:0:0:
64,192,85301,1,0,0:0:0:0:
448,192,85373,1,0,0:0:0:0:
192,192,85445,1,0,0:0:0:0:
320,192,85516,1,0,0:0:0:0:
64,192,85516,1,0,0:0:0:0:
448,192,85588,1,0,0:0:0:0:
192,192,85660,1,0,0:0:0:0:
320,192,85732,1,0,0:0:0:0:
64,192,85804,1,0,0:0:0:0:
448,192,85875,1,0,0:0:0:0:
320,192,85947,1,0,0:0:0:0:
192,192,86019,1,0,0:0:0:0:
64,192,86091,1,0,0:0:0:0:
448,192,86091,1,0,0:0:0:0:
192,192,86163,1,0,0:0:0:0:
320,192,86234,1,0,0:0:0:0:
64,192,86305,1,0,0:0:0:0:
448,192,86377,1,0,0:0:0:0:
64,192,86449,1,0,0:0:0:0:
320,192,86521,1,0,0:0:0:0:
192,192,86593,1,0,0:0:0:0:
64,192,86665,1,0,0:0:0:0:
448,192,86665,1,0,0:0:0:0:
192,192,86736,1,0,0:0:0:0:
448,192,86808,1,0,0:0:0:0:
320,192,86880,1,0,0:0:0:0:
64,192,86952,1,0,0:0:0:0:
448,192,87024,1,0,0:0:0:0:
192,192,87095,1,0,0:0:0:0:
320,192,87167,1,0,0:0:0:0:
192,192,87239,1,0,0:0:0:0:
64,192,87239,1,0,0:0:0:0:
448,192,87311,1,0,0:0:0:0:
64,192,87383,1,0,0:0:0:0:
192,192,87455,1,0,0:0:0:0:
448,192,87526,1,0,0:0:0:0:
320,192,87526,1,0,0:0:0:0:
64,192,87597,1,0,0:0:0:0:
320,192,87669,1,0,0:0:0:0:
192,192,87741,1,0,0:0:0:0:
448,192,87813,1,0,0:0:0:0:
64,192,87813,1,0,0:0:0:0:
192,192,87885,1,0,0:0:0:0:
320,192,87956,1,0,0:0:0:0:
64,192,88028,1,0,0:0:0:0:
192,192,88100,1,0,0:0:0:0:
448,192,88172,1,0,0:0:0:0:
64,192,88244,1,0,0:0:0:0:
448,192,88315,1,0,0:0:0:0:
320,192,88387,1,0,0:0:0:0:
64,192,88387,1,0,0:0:0:0:
192,192,88459,1,0,0:0:0:0:
448,192,88531,1,0,0:0:0:0:
320,192,88603,1,0,0:0:0:0:
64,192,88675,1,0,0:0:0:0:
448,192,88746,1,0,0:0:0:0:
192,192,88818,1,0,0:0:0:0:
320,192,88890,1,0,0:0:0:0:
64,192,88961,1,0,0:0:0:0:
448,192,88961,1,0,0:0:0:0:
320,192,89033,1,0,0:0:0:0:
192,192,89105,1,0,0:0:0:0:
320,192,89176,1,0,0:0:0:0:
64,192,89248,1,0,0:0:0:0:
192,192,89320,1,0,0:0:0:0:
448,192,89392,1,0,0:0:0:0:
64,192,89464,1,0,0:0:0:0:
192,192,89535,1,0,0:0:0:0:
448,192,89535,1,0,0:0:0:0:
320,192,89607,1,0,0:0:0:0:
64,192,89679,1,0,0:0:0:0:
192,192,89751,1,0,0:0:0:0:
320,192,89823,1,0,0:0:0:0:
448,192,89823,1,0,0:0:0:0:
192,192,89895,1,0,0:0:0:0:
448,192,89966,1,0,0:0:0:0:
320,192,90038,1,0,0:0:0:0:
192,192,90110,1,0,0:0:0:0:
64,192,90110,1,0,0:0:0:0:
320,192,90182,1,0,0:0:0:0:
64,192,90254,1,0,0:0:0:0:
448,192,90325,1,0,0:0:0:0:
192,192,90396,1,0,0:0:0:0:
320,192,90468,1,0,0:0:0:0:
192,192,90540,1,0,0:0:0:0:
448,192,90612,1,0,0:0:0:0:
320,192,90684,1,0,0:0:0:0:
64,192,90684,1,0,0:0:0:0:
192,192,90755,1,0,0:0:0:0:
448,192,90827,1,0,0:0:0:0:
64,192,90899,1,0,0:0:0:0:
192,192,90971,1,0,0:0:0:0:
320,192,91043,1,0,0:0:0:0:
64,192,91115,1,0,0:0:0:0:
448,192,91186,1,0,0:0:0:0:
320,192,91258,1,0,0:0:0:0:
64,192,91258,1,0,0:0:0:0:
192,192,91330,1,0,0:0:0:0:
448,192,91402,1,0,0:0:0:0:
192,192,91474,1,0,0:0:0:0:
320,192,91545,1,0,0:0:0:0:
64,192,91617,1,0,0:0:0:0:
192,192,91688,1,0,0:0:0:0:
448,192,91760,1,0,0:0:0:0:
320,192,91832,1,0,0:0:0:0:
192,192,91832,1,0,0:0:0:0:
64,192,91904,1,0,0:0:0:0:
448,192,91975,1,0,0:0:0:0:
320,192,92047,1,0,0:0:0:0:
192,192,92119,1,0,0:0:0:0:
64,192,92119,1,0,0:0:0:0:
448,192,92191,1,0,0:0:0:0:
192,192,92263,1,0,0:0:0:0:
320,192,92335,1,0,0:0:0:0:
64,192,92406,1,0,0:0:0:0:
448,192,92406,1,0,0:0:0:0:
192,192,92478,1,0,0:0:0:0:
320,192,92550,1,0,0:0:0:0:
192,192,92622,1,0,0:0:0:0:
448,192,92694,1,0,0:0:0:0:
64,192,92765,1,0,0:0:0:0:
320,192,92837,1,0,0:0:0:0:
192,192,92909,1,0,0:0:0:0:
320,192,92981,1,0,0:0:0:0:
448,192,92981,1,0,0:0:0:0:
64,192,93052,1,0,0:0:0:0:
192,192,93124,1,0,0:0:0:0:
448,192,93195,1,0,0:0:0:0:
64,192,93267,1,0,0:0:0:0:
320,192,93339,1,0,0:0:0:0:
64,192,93411,1,0,0:0:0:0:
192,192,93483,1,0,0:0:0:0:
320,192,93555,1,0,0:0:0:0:
448,192,93555,1,0,0:0:0:0:
64,192,93626,1,0,0:0:0:0:
448,192,93698,1,0,0:0:0:0:
320,192,93770,1,0,0:0:0:0:
192,192,93842,1,0,0:0:0:0:
64,192,93842,1,0,0:0:0:0:
320,192,93914,1,0,0:0:0:0:
448,192,93914,1,0,0:0:0:0:
192,192,93985,1,0,0:0:0:0:
64,192,93985,1,0,0:0:0:0:
320,192,94057,1,0,0:0:0:0:
448,192,94057,1,0,0:0:0:0:
64,192,94129,1,0,0:0:0:0:
192,192,94201,1,0,0:0:0:0:
448,192,94273,1,0,0:0:0:0:
192,192,94345,1,0,0:0:0:0:
448,192,94415,128,0,94559:0:0:0:0:
64,192,94415,128,0,95565:0:0:0:0:
320,192,94415,128,0,94559:0:0:0:0:
192,192,95565,128,0,95708:0:0:0:0:
448,192,95565,128,0,95708:0:0:0:0:
320,192,95565,128,0,96138:0:0:0:0:
192,192,96138,128,0,96713:0:0:0:0:
448,192,96713,128,0,96856:0:0:0:0:
320,192,96713,128,0,96856:0:0:0:0:
64,192,96713,128,0,97286:0:0:0:0:
448,192,97286,128,0,97861:0:0:0:0:
64,192,97861,128,0,98005:0:0:0:0:
320,192,97861,128,0,98005:0:0:0:0:
192,192,97861,128,0,98435:0:0:0:0:
320,192,98435,128,0,99009:0:0:0:0:
64,192,99009,128,0,99153:0:0:0:0:
192,192,99009,128,0,99153:0:0:0:0:
448,192,99009,128,0,99584:0:0:0:0:
192,192,100157,128,0,100660:0:0:0:0:
320,192,100157,128,0,100732:0:0:0:0:
448,192,100157,128,0,100660:0:0:0:0:
64,192,100732,128,0,101234:0:0:0:0:
192,192,100732,128,0,101234:0:0:0:0:
448,192,100732,128,0,101305:0:0:0:0:
64,192,101305,128,0,101449:0:0:0:0:
192,192,101305,128,0,101449:0:0:0:0:
320,192,101305,128,0,101880:0:0:0:0:
64,192,102455,128,0,103028:0:0:0:0:
320,192,102455,128,0,102956:0:0:0:0:
448,192,102455,128,0,102956:0:0:0:0:
192,192,103028,1,0,0:0:0:0:
448,192,103028,1,0,0:0:0:0:
320,192,103028,1,0,0:0:0:0:
64,192,103172,1,0,0:0:0:0:
320,192,103172,1,0,0:0:0:0:
192,192,103315,1,0,0:0:0:0:
64,192,103315,1,0,0:0:0:0:
320,192,103387,1,0,0:0:0:0:
448,192,103387,1,0,0:0:0:0:
192,192,103459,1,0,0:0:0:0:
64,192,103459,1,0,0:0:0:0:
320,192,103531,1,0,0:0:0:0:
448,192,103531,1,0,0:0:0:0:
192,192,103603,1,0,0:0:0:0:
320,192,103675,1,0,0:0:0:0:
64,192,103746,1,0,0:0:0:0:
192,192,103818,1,0,0:0:0:0:
448,192,103890,1,0,0:0:0:0:
320,192,103890,1,0,0:0:0:0:
192,192,103961,1,0,0:0:0:0:
448,192,104033,1,0,0:0:0:0:
64,192,104105,1,0,0:0:0:0:
320,192,104176,1,0,0:0:0:0:
192,192,104248,1,0,0:0:0:0:
448,192,104320,1,0,0:0:0:0:
64,192,104392,1,0,0:0:0:0:
192,192,104464,1,0,0:0:0:0:
448,192,104464,1,0,0:0:0:0:
320,192,104535,1,0,0:0:0:0:
64,192,104607,1,0,0:0:0:0:
192,192,104679,1,0,0:0:0:0:
320,192,104751,1,0,0:0:0:0:
192,192,104823,1,0,0:0:0:0:
448,192,104895,1,0,0:0:0:0:
64,192,104966,1,0,0:0:0:0:
192,192,105038,1,0,0:0:0:0:
448,192,105038,1,0,0:0:0:0:
320,192,105110,1,0,0:0:0:0:
64,192,105182,1,0,0:0:0:0:
192,192,105254,1,0,0:0:0:0:
448,192,105325,1,0,0:0:0:0:
320,192,105396,1,0,0:0:0:0:
192,192,105468,1,0,0:0:0:0:
64,192,105540,1,0,0:0:0:0:
192,192,105612,1,0,0:0:0:0:
448,192,105612,1,0,0:0:0:0:
320,192,105684,1,0,0:0:0:0:
192,192,105755,1,0,0:0:0:0:
64,192,105827,1,0,0:0:0:0:
320,192,105899,1,0,0:0:0:0:
448,192,105899,1,0,0:0:0:0:
192,192,105971,1,0,0:0:0:0:
448,192,106043,1,0,0:0:0:0:
64,192,106115,1,0,0:0:0:0:
192,192,106186,1,0,0:0:0:0:
320,192,106186,1,0,0:0:0:0:
64,192,106258,1,0,0:0:0:0:
448,192,106330,1,0,0:0:0:0:
192,192,106402,1,0,0:0:0:0:
320,192,106474,1,0,0:0:0:0:
64,192,106545,1,0,0:0:0:0:
320,192,106617,1,0,0:0:0:0:
192,192,106688,1,0,0:0:0:0:
64,192,106760,1,0,0:0:0:0:
448,192,106760,1,0,0:0:0:0:
320,192,106832,1,0,0:0:0:0:
192,192,106904,1,0,0:0:0:0:
320,192,106975,1,0,0:0:0:0:
64,192,107047,1,0,0:0:0:0:
192,192,107119,1,0,0:0:0:0:
448,192,107191,1,0,0:0:0:0:
64,192,107263,1,0,0:0:0:0:
192,192,107335,1,0,0:0:0:0:
448,192,107335,1,0,0:0:0:0:
320,192,107406,1,0,0:0:0:0:
64,192,107478,1,0,0:0:0:0:
448,192,107550,1,0,0:0:0:0:
64,192,107622,128,0,107909:0:0:0:0:
192,192,107622,128,0,107837:0:0:0:0:
320,192,107622,128,0,107837:0:0:0:0:
448,192,107909,128,0,108124:0:0:0:0:
320,192,107909,128,0,108124:0:0:0:0:
192,192,107909,128,0,108195:0:0:0:0:
448,192,108195,1,0,0:0:0:0:
320,192,108195,1,0,0:0:0:0:
64,192,108195,1,0,0:0:0:0:
192,192,108267,1,0,0:0:0:0:
320,192,108339,1,0,0:0:0:0:
64,192,108411,1,0,0:0:0:0:
192,192,108483,1,0,0:0:0:0:
448,192,108483,1,0,0:0:0:0:
320,192,108555,1,0,0:0:0:0:
64,192,108626,1,0,0:0:0:0:
448,192,108698,1,0,0:0:0:0:
320,192,108770,1,0,0:0:0:0:
192,192,108842,1,0,0:0:0:0:
320,192,108914,1,0,0:0:0:0:
64,192,108985,1,0,0:0:0:0:
192,192,109057,1,0,0:0:0:0:
448,192,109057,1,0,0:0:0:0:
320,192,109129,1,0,0:0:0:0:
64,192,109201,1,0,0:0:0:0:
448,192,109273,1,0,0:0:0:0:
192,192,109345,1,0,0:0:0:0:
320,192,109415,1,0,0:0:0:0:
192,192,109487,1,0,0:0:0:0:
448,192,109559,1,0,0:0:0:0:
320,192,109631,1,0,0:0:0:0:
64,192,109631,1,0,0:0:0:0:
192,192,109703,1,0,0:0:0:0:
448,192,109775,1,0,0:0:0:0:
64,192,109846,1,0,0:0:0:0:
320,192,109918,1,0,0:0:0:0:
192,192,109918,1,0,0:0:0:0:
64,192,109990,1,0,0:0:0:0:
448,192,109990,1,0,0:0:0:0:
320,192,110062,1,0,0:0:0:0:
192,192,110062,1,0,0:0:0:0:
64,192,110134,1,0,0:0:0:0:
448,192,110134,1,0,0:0:0:0:
320,192,110205,1,0,0:0:0:0:
192,192,110277,1,0,0:0:0:0:
64,192,110349,1,0,0:0:0:0:
192,192,110421,1,0,0:0:0:0:
64,192,110493,1,0,0:0:0:0:
320,192,110493,1,0,0:0:0:0:
448,192,110493,1,0,0:0:0:0:
192,192,110636,1,0,0:0:0:0:
192,192,110779,1,0,0:0:0:0:
320,192,110779,1,0,0:0:0:0:
64,192,110923,1,0,0:0:0:0:
448,192,110923,1,0,0:0:0:0:
320,192,111066,1,0,0:0:0:0:
192,192,111066,1,0,0:0:0:0:
320,192,111210,1,0,0:0:0:0:
64,192,111354,1,0,0:0:0:0:
192,192,111354,1,0,0:0:0:0:
64,192,111497,1,0,0:0:0:0:
448,192,111497,1,0,0:0:0:0:
192,192,111641,1,0,0:0:0:0:
320,192,111641,1,0,0:0:0:0:
64,192,111785,1,0,0:0:0:0:
64,192,111928,1,0,0:0:0:0:
448,192,111928,1,0,0:0:0:0:
448,192,112072,1,0,0:0:0:0:
192,192,112072,1,0,0:0:0:0:
320,192,112215,1,0,0:0:0:0:
64,192,112215,1,0,0:0:0:0:
320,192,112358,1,0,0:0:0:0:
192,192,112502,1,0,0:0:0:0:
64,192,112502,1,0,0:0:0:0:
64,192,112645,1,0,0:0:0:0:
448,192,112645,1,0,0:0:0:0:
448,192,112789,1,0,0:0:0:0:
192,192,112789,128,0,113364:0:0:0:0:
448,192,113364,128,0,113937:0:0:0:0:
320,192,113937,1,0,0:0:0:0:
192,192,113937,1,0,0:0:0:0:
64,192,113937,128,0,114512:0:0:0:0:
192,192,114512,1,0,0:0:0:0:
448,192,114512,1,0,0:0:0:0:
320,192,114655,1,0,0:0:0:0:
192,192,114655,1,0,0:0:0:0:
64,192,114799,1,0,0:0:0:0:
192,192,114870,1,0,0:0:0:0:
320,192,114942,1,0,0:0:0:0:
448,192,114942,1,0,0:0:0:0:
192,192,115014,1,0,0:0:0:0:
64,192,115014,1,0,0:0:0:0:
320,192,115085,1,0,0:0:0:0:
64,192,115157,1,0,0:0:0:0:
448,192,115229,1,0,0:0:0:0:
192,192,115301,1,0,0:0:0:0:
320,192,115373,1,0,0:0:0:0:
448,192,115373,1,0,0:0:0:0:
64,192,115445,1,0,0:0:0:0:
320,192,115516,1,0,0:0:0:0:
192,192,115588,1,0,0:0:0:0:
448,192,115660,1,0,0:0:0:0:
64,192,115732,1,0,0:0:0:0:
448,192,115804,1,0,0:0:0:0:
320,192,115875,1,0,0:0:0:0:
192,192,115947,1,0,0:0:0:0:
64,192,115947,1,0,0:0:0:0:
320,192,116019,1,0,0:0:0:0:
192,192,116091,1,0,0:0:0:0:
448,192,116163,1,0,0:0:0:0:
64,192,116234,1,0,0:0:0:0:
192,192,116305,1,0,0:0:0:0:
320,192,116377,1,0,0:0:0:0:
64,192,116449,1,0,0:0:0:0:
192,192,116521,1,0,0:0:0:0:
448,192,116521,1,0,0:0:0:0:
320,192,116593,1,0,0:0:0:0:
64,192,116665,1,0,0:0:0:0:
320,192,116736,1,0,0:0:0:0:
192,192,116808,1,0,0:0:0:0:
448,192,116880,1,0,0:0:0:0:
320,192,116952,1,0,0:0:0:0:
64,192,117024,1,0,0:0:0:0:
192,192,117095,1,0,0:0:0:0:
448,192,117095,1,0,0:0:0:0:
320,192,117167,1,0,0:0:0:0:
64,192,117239,1,0,0:0:0:0:
192,192,117311,1,0,0:0:0:0:
320,192,117383,1,0,0:0:0:0:
64,192,117455,1,0,0:0:0:0:
448,192,117526,1,0,0:0:0:0:
192,192,117597,1,0,0:0:0:0:
320,192,117669,1,0,0:0:0:0:
448,192,117669,1,0,0:0:0:0:
64,192,117741,1,0,0:0:0:0:
192,192,117813,1,0,0:0:0:0:
320,192,117885,1,0,0:0:0:0:
64,192,117956,1,0,0:0:0:0:
320,192,118028,1,0,0:0:0:0:
192,192,118100,1,0,0:0:0:0:
448,192,118172,1,0,0:0:0:0:
64,192,118244,1,0,0:0:0:0:
192,192,118244,1,0,0:0:0:0:
320,192,118315,1,0,0:0:0:0:
64,192,118387,1,0,0:0:0:0:
192,192,118459,1,0,0:0:0:0:
448,192,118531,1,0,0:0:0:0:
64,192,118603,1,0,0:0:0:0:
320,192,118675,1,0,0:0:0:0:
192,192,118746,1,0,0:0:0:0:
320,192,118818,1,0,0:0:0:0:
448,192,118818,1,0,0:0:0:0:
64,192,118890,1,0,0:0:0:0:
192,192,118961,1,0,0:0:0:0:
448,192,119033,1,0,0:0:0:0:
64,192,119105,1,0,0:0:0:0:
320,192,119176,1,0,0:0:0:0:
64,192,119248,1,0,0:0:0:0:
448,192,119320,1,0,0:0:0:0:
320,192,119392,1,0,0:0:0:0:
192,192,119392,1,0,0:0:0:0:
64,192,119464,1,0,0:0:0:0:
448,192,119535,1,0,0:0:0:0:
320,192,119607,1,0,0:0:0:0:
192,192,119679,1,0,0:0:0:0:
448,192,119751,1,0,0:0:0:0:
64,192,119823,1,0,0:0:0:0:
192,192,119895,1,0,0:0:0:0:
320,192,119966,1,0,0:0:0:0:
448,192,119966,1,0,0:0:0:0:
192,192,120038,1,0,0:0:0:0:
320,192,120110,1,0,0:0:0:0:
64,192,120182,1,0,0:0:0:0:
448,192,120254,1,0,0:0:0:0:
192,192,120325,1,0,0:0:0:0:
320,192,120396,1,0,0:0:0:0:
64,192,120468,1,0,0:0:0:0:
192,192,120540,1,0,0:0:0:0:
320,192,120540,1,0,0:0:0:0:
448,192,120612,1,0,0:0:0:0:
64,192,120684,1,0,0:0:0:0:
320,192,120755,1,0,0:0:0:0:
192,192,120827,1,0,0:0:0:0:
448,192,120899,1,0,0:0:0:0:
192,192,120971,1,0,0:0:0:0:
320,192,121043,1,0,0:0:0:0:
64,192,121115,1,0,0:0:0:0:
448,192,121115,1,0,0:0:0:0:
192,192,121186,1,0,0:0:0:0:
320,192,121258,1,0,0:0:0:0:
192,192,121330,1,0,0:0:0:0:
448,192,121402,1,0,0:0:0:0:
64,192,121474,1,0,0:0:0:0:
448,192,121545,1,0,0:0:0:0:
320,192,121617,1,0,0:0:0:0:
192,192,121688,1,0,0:0:0:0:
64,192,121688,1,0,0:0:0:0:
448,192,121760,1,0,0:0:0:0:
64,192,121832,1,0,0:0:0:0:
192,192,121904,1,0,0:0:0:0:
320,192,121975,1,0,0:0:0:0:
320,192,122119,1,0,0:0:0:0:
192,192,122263,1,0,0:0:0:0:
64,192,122263,1,0,0:0:0:0:
448,192,122406,1,0,0:0:0:0:
448,192,122550,1,0,0:0:0:0:
64,192,122694,1,0,0:0:0:0:
192,192,122837,1,0,0:0:0:0:
448,192,122837,1,0,0:0:0:0:
320,192,122981,1,0,0:0:0:0:
192,192,123052,1,0,0:0:0:0:
64,192,123124,1,0,0:0:0:0:
320,192,123267,1,0,0:0:0:0:
448,192,123267,1,0,0:0:0:0:
320,192,123555,1,0,0:0:0:0:
448,192,123555,1,0,0:0:0:0:
320,192,123842,1,0,0:0:0:0:
448,192,123842,1,0,0:0:0:0:
320,192,124129,1,0,0:0:0:0:
448,192,124129,1,0,0:0:0:0:
64,192,124273,1,0,0:0:0:0:
448,192,124273,1,0,0:0:0:0:
192,192,124345,1,0,0:0:0:0:
320,192,124415,1,0,0:0:0:0:
64,192,124487,1,0,0:0:0:0:
192,192,124559,1,0,0:0:0:0:
320,192,124559,1,0,0:0:0:0:
448,192,124631,1,0,0:0:0:0:
64,192,124703,1,0,0:0:0:0:
320,192,124775,1,0,0:0:0:0:
192,192,124846,1,0,0:0:0:0:
448,192,124918,1,0,0:0:0:0:
64,192,124990,1,0,0:0:0:0:
192,192,125062,1,0,0:0:0:0:
320,192,125134,1,0,0:0:0:0:
448,192,125134,1,0,0:0:0:0:
192,192,125205,1,0,0:0:0:0:
320,192,125277,1,0,0:0:0:0:
64,192,125349,1,0,0:0:0:0:
448,192,125421,1,0,0:0:0:0:
64,192,125493,1,0,0:0:0:0:
320,192,125565,1,0,0:0:0:0:
192,192,125636,1,0,0:0:0:0:
64,192,125708,1,0,0:0:0:0:
448,192,125708,1,0,0:0:0:0:
320,192,125779,1,0,0:0:0:0:
192,192,125851,1,0,0:0:0:0:
448,192,125923,1,0,0:0:0:0:
64,192,125995,1,0,0:0:0:0:
320,192,126066,1,0,0:0:0:0:
64,192,126138,1,0,0:0:0:0:
192,192,126210,1,0,0:0:0:0:
320,192,126282,1,0,0:0:0:0:
448,192,126282,1,0,0:0:0:0:
64,192,126354,1,0,0:0:0:0:
448,192,126425,1,0,0:0:0:0:
64,192,126497,1,0,0:0:0:0:
320,192,126569,1,0,0:0:0:0:
192,192,126641,1,0,0:0:0:0:
320,192,126713,1,0,0:0:0:0:
64,192,126785,1,0,0:0:0:0:
192,192,126856,1,0,0:0:0:0:
448,192,126856,1,0,0:0:0:0:
320,192,126928,1,0,0:0:0:0:
64,192,127000,1,0,0:0:0:0:
192,192,127072,1,0,0:0:0:0:
448,192,127143,1,0,0:0:0:0:
192,192,127215,1,0,0:0:0:0:
320,192,127286,1,0,0:0:0:0:
64,192,127358,1,0,0:0:0:0:
192,192,127430,1,0,0:0:0:0:
448,192,127430,1,0,0:0:0:0:
320,192,127502,1,0,0:0:0:0:
64,192,127574,1,0,0:0:0:0:
320,192,127645,1,0,0:0:0:0:
192,192,127717,1,0,0:0:0:0:
448,192,127789,1,0,0:0:0:0:
320,192,127861,1,0,0:0:0:0:
64,192,127933,1,0,0:0:0:0:
192,192,128005,1,0,0:0:0:0:
320,192,128005,1,0,0:0:0:0:
448,192,128076,1,0,0:0:0:0:
64,192,128148,1,0,0:0:0:0:
448,192,128220,1,0,0:0:0:0:
64,192,128292,1,0,0:0:0:0:
192,192,128364,1,0,0:0:0:0:
320,192,128435,1,0,0:0:0:0:
64,192,128506,1,0,0:0:0:0:
192,192,128578,1,0,0:0:0:0:
448,192,128578,1,0,0:0:0:0:
320,192,128650,1,0,0:0:0:0:
64,192,128722,1,0,0:0:0:0:
448,192,128794,1,0,0:0:0:0:
320,192,128865,1,0,0:0:0:0:
192,192,128937,1,0,0:0:0:0:
320,192,129009,1,0,0:0:0:0:
192,192,129081,1,0,0:0:0:0:
64,192,129153,1,0,0:0:0:0:
448,192,129153,1,0,0:0:0:0:
320,192,129225,1,0,0:0:0:0:
192,192,129296,1,0,0:0:0:0:
448,192,129368,1,0,0:0:0:0:
64,192,129440,1,0,0:0:0:0:
192,192,129512,1,0,0:0:0:0:
320,192,129584,1,0,0:0:0:0:
64,192,129655,1,0,0:0:0:0:
192,192,129727,1,0,0:0:0:0:
320,192,129727,1,0,0:0:0:0:
448,192,129799,1,0,0:0:0:0:
64,192,129870,1,0,0:0:0:0:
448,192,129942,1,0,0:0:0:0:
192,192,130014,1,0,0:0:0:0:
320,192,130085,1,0,0:0:0:0:
64,192,130157,1,0,0:0:0:0:
192,192,130229,1,0,0:0:0:0:
320,192,130301,1,0,0:0:0:0:
448,192,130301,1,0,0:0:0:0:
192,192,130373,1,0,0:0:0:0:
320,192,130445,1,0,0:0:0:0:
64,192,130516,1,0,0:0:0:0:
448,192,130588,1,0,0:0:0:0:
320,192,130660,1,0,0:0:0:0:
64,192,130732,1,0,0:0:0:0:
320,192,130804,1,0,0:0:0:0:
192,192,130875,1,0,0:0:0:0:
64,192,130875,1,0,0:0:0:0:
448,192,130947,1,0,0:0:0:0:
320,192,131019,1,0,0:0:0:0:
64,192,131091,1,0,0:0:0:0:
448,192,131163,1,0,0:0:0:0:
64,192,131234,1,0,0:0:0:0:
192,192,131305,1,0,0:0:0:0:
320,192,131377,1,0,0:0:0:0:
64,192,131449,1,0,0:0:0:0:
448,192,131449,1,0,0:0:0:0:
320,192,131521,1,0,0:0:0:0:
192,192,131593,1,0,0:0:0:0:
320,192,131665,1,0,0:0:0:0:
64,192,131736,1,0,0:0:0:0:
192,192,131808,1,0,0:0:0:0:
448,192,131880,1,0,0:0:0:0:
320,192,131952,1,0,0:0:0:0:
192,192,132024,1,0,0:0:0:0:
64,192,132024,1,0,0:0:0:0:
448,192,132095,1,0,0:0:0:0:
64,192,132167,1,0,0:0:0:0:
192,192,132239,1,0,0:0:0:0:
320,192,132311,1,0,0:0:0:0:
192,192,132383,1,0,0:0:0:0:
448,192,132455,1,0,0:0:0:0:
64,192,132526,1,0,0:0:0:0:
192,192,132597,1,0,0:0:0:0:
448,192,132597,1,0,0:0:0:0:
320,192,132669,1,0,0:0:0:0:
64,192,132741,1,0,0:0:0:0:
448,192,132813,1,0,0:0:0:0:
192,192,132885,1,0,0:0:0:0:
320,192,132956,1,0,0:0:0:0:
64,192,133100,1,0,0:0:0:0:
192,192,133172,1,0,0:0:0:0:
64,192,133244,1,0,0:0:0:0:
192,192,133315,1,0,0:0:0:0:
320,192,133387,1,0,0:0:0:0:
64,192,133459,1,0,0:0:0:0:
192,192,133459,1,0,0:0:0:0:
448,192,133459,1,0,0:0:0:0:
320,192,133603,1,0,0:0:0:0:
320,192,133746,1,0,0:0:0:0:
192,192,133746,1,0,0:0:0:0:
64,192,133890,1,0,0:0:0:0:
64,192,134033,1,0,0:0:0:0:
448,192,134033,1,0,0:0:0:0:
192,192,134176,1,0,0:0:0:0:
320,192,134320,1,0,0:0:0:0:
448,192,134320,1,0,0:0:0:0:
320,192,134464,1,0,0:0:0:0:
64,192,134607,1,0,0:0:0:0:
448,192,134607,1,0,0:0:0:0:
320,192,134751,1,0,0:0:0:0:
192,192,134895,1,0,0:0:0:0:
320,192,134895,1,0,0:0:0:0:
192,192,135038,1,0,0:0:0:0:
64,192,135110,1,0,0:0:0:0:
320,192,135182,1,0,0:0:0:0:
448,192,135182,1,0,0:0:0:0:
192,192,135325,1,0,0:0:0:0:
320,192,135468,1,0,0:0:0:0:
448,192,135468,1,0,0:0:0:0:
64,192,135612,1,0,0:0:0:0:
192,192,135755,1,0,0:0:0:0:
320,192,135755,1,0,0:0:0:0:
320,192,135899,1,0,0:0:0:0:
64,192,136043,1,0,0:0:0:0:
448,192,136043,1,0,0:0:0:0:
192,192,136186,1,0,0:0:0:0:
192,192,136330,1,0,0:0:0:0:
448,192,136330,1,0,0:0:0:0:
320,192,136474,1,0,0:0:0:0:
192,192,136617,1,0,0:0:0:0:
64,192,136617,1,0,0:0:0:0:
64,192,136760,1,0,0:0:0:0:
192,192,136904,1,0,0:0:0:0:
448,192,136904,1,0,0:0:0:0:
320,192,137047,1,0,0:0:0:0:
320,192,137191,1,0,0:0:0:0:
192,192,137191,1,0,0:0:0:0:
64,192,137335,1,0,0:0:0:0:
192,192,137406,1,0,0:0:0:0:
320,192,137478,1,0,0:0:0:0:
448,192,137478,1,0,0:0:0:0:
64,192,137622,1,0,0:0:0:0:
320,192,137765,1,0,0:0:0:0:
448,192,137765,1,0,0:0:0:0:
192,192,137909,1,0,0:0:0:0:
64,192,138052,1,0,0:0:0:0:
448,192,138052,1,0,0:0:0:0:
448,192,138195,1,0,0:0:0:0:
320,192,138339,1,0,0:0:0:0:
64,192,138339,1,0,0:0:0:0:
192,192,138483,1,0,0:0:0:0:
192,192,138626,1,0,0:0:0:0:
320,192,138626,1,0,0:0:0:0:
64,192,138770,1,0,0:0:0:0:
192,192,138914,1,0,0:0:0:0:
448,192,138914,1,0,0:0:0:0:
448,192,139057,1,0,0:0:0:0:
320,192,139201,1,0,0:0:0:0:
64,192,139201,1,0,0:0:0:0:
192,192,139345,1,0,0:0:0:0:
192,192,139487,1,0,0:0:0:0:
320,192,139487,1,0,0:0:0:0:
64,192,139631,1,0,0:0:0:0:
192,192,139703,1,0,0:0:0:0:
320,192,139775,1,0,0:0:0:0:
448,192,139775,1,0,0:0:0:0:
64,192,139918,1,0,0:0:0:0:
320,192,140062,1,0,0:0:0:0:
448,192,140062,1,0,0:0:0:0:
192,192,140205,1,0,0:0:0:0:
64,192,140349,1,0,0:0:0:0:
448,192,140349,1,0,0:0:0:0:
320,192,140493,1,0,0:0:0:0:
320,192,140636,1,0,0:0:0:0:
192,192,140636,1,0,0:0:0:0:
64,192,140779,1,0,0:0:0:0:
64,192,140923,1,0,0:0:0:0:
320,192,141066,1,0,0:0:0:0:
448,192,141066,1,0,0:0:0:0:
320,192,141210,1,0,0:0:0:0:
448,192,141210,1,0,0:0:0:0:
192,192,141354,1,0,0:0:0:0:
448,192,141402,1,0,0:0:0:0:
320,192,141449,1,0,0:0:0:0:
192,192,141497,1,0,0:0:0:0:
64,192,141497,1,0,0:0:0:0:
320,192,141641,1,0,0:0:0:0:
64,192,141785,1,0,0:0:0:0:
192,192,141928,1,0,0:0:0:0:
320,192,142072,1,0,0:0:0:0:
448,192,142072,1,0,0:0:0:0:
64,192,142143,1,0,0:0:0:0:
320,192,142215,1,0,0:0:0:0:
192,192,142286,1,0,0:0:0:0:
64,192,142358,1,0,0:0:0:0:
192,192,142430,1,0,0:0:0:0:
448,192,142502,1,0,0:0:0:0:
320,192,142574,1,0,0:0:0:0:
192,192,142645,1,0,0:0:0:0:
64,192,142645,1,0,0:0:0:0:
448,192,142717,1,0,0:0:0:0:
64,192,142789,1,0,0:0:0:0:
192,192,142861,1,0,0:0:0:0:
448,192,142933,1,0,0:0:0:0:
320,192,142933,1,0,0:0:0:0:
192,192,143005,1,0,0:0:0:0:
320,192,143076,1,0,0:0:0:0:
64,192,143148,1,0,0:0:0:0:
448,192,143220,1,0,0:0:0:0:
320,192,143292,1,0,0:0:0:0:
192,192,143364,1,0,0:0:0:0:
448,192,143435,1,0,0:0:0:0:
320,192,143506,1,0,0:0:0:0:
64,192,143506,1,0,0:0:0:0:
192,192,143578,1,0,0:0:0:0:
448,192,143650,1,0,0:0:0:0:
64,192,143722,1,0,0:0:0:0:
192,192,143794,1,0,0:0:0:0:
320,192,143865,1,0,0:0:0:0:
192,192,143937,1,0,0:0:0:0:
448,192,144009,1,0,0:0:0:0:
320,192,144081,1,0,0:0:0:0:
192,192,144081,1,0,0:0:0:0:
64,192,144153,1,0,0:0:0:0:
448,192,144225,1,0,0:0:0:0:
64,192,144296,1,0,0:0:0:0:
320,192,144368,1,0,0:0:0:0:
192,192,144440,1,0,0:0:0:0:
448,192,144512,1,0,0:0:0:0:
64,192,144584,1,0,0:0:0:0:
192,192,144655,1,0,0:0:0:0:
448,192,144655,1,0,0:0:0:0:
320,192,144727,1,0,0:0:0:0:
64,192,144799,1,0,0:0:0:0:
192,192,144870,1,0,0:0:0:0:
320,192,144942,1,0,0:0:0:0:
448,192,144942,1,0,0:0:0:0:
192,192,145014,1,0,0:0:0:0:
320,192,145085,1,0,0:0:0:0:
64,192,145157,1,0,0:0:0:0:
448,192,145229,1,0,0:0:0:0:
192,192,145229,1,0,0:0:0:0:
320,192,145301,1,0,0:0:0:0:
64,192,145373,1,0,0:0:0:0:
320,192,145445,1,0,0:0:0:0:
192,192,145516,1,0,0:0:0:0:
448,192,145588,1,0,0:0:0:0:
64,192,145660,1,0,0:0:0:0:
320,192,145732,1,0,0:0:0:0:
192,192,145804,1,0,0:0:0:0:
64,192,145804,1,0,0:0:0:0:
448,192,145875,1,0,0:0:0:0:
192,192,145947,1,0,0:0:0:0:
320,192,146019,1,0,0:0:0:0:
64,192,146091,1,0,0:0:0:0:
192,192,146163,1,0,0:0:0:0:
448,192,146234,1,0,0:0:0:0:
64,192,146305,1,0,0:0:0:0:
320,192,146377,1,0,0:0:0:0:
192,192,146377,1,0,0:0:0:0:
448,192,146449,1,0,0:0:0:0:
64,192,146521,1,0,0:0:0:0:
448,192,146593,1,0,0:0:0:0:
320,192,146665,1,0,0:0:0:0:
192,192,146736,1,0,0:0:0:0:
448,192,146808,1,0,0:0:0:0:
64,192,146880,1,0,0:0:0:0:
192,192,146952,1,0,0:0:0:0:
320,192,146952,1,0,0:0:0:0:
448,192,147024,1,0,0:0:0:0:
192,192,147095,1,0,0:0:0:0:
320,192,147167,1,0,0:0:0:0:
448,192,147239,1,0,0:0:0:0:
64,192,147239,1,0,0:0:0:0:
320,192,147311,1,0,0:0:0:0:
192,192,147383,1,0,0:0:0:0:
320,192,147455,1,0,0:0:0:0:
64,192,147526,1,0,0:0:0:0:
192,192,147526,1,0,0:0:0:0:
448,192,147597,1,0,0:0:0:0:
64,192,147669,1,0,0:0:0:0:
320,192,147741,1,0,0:0:0:0:
192,192,147813,1,0,0:0:0:0:
448,192,147885,1,0,0:0:0:0:
64,192,147956,1,0,0:0:0:0:
320,192,148028,1,0,0:0:0:0:
192,192,148100,1,0,0:0:0:0:
64,192,148100,1,0,0:0:0:0:
448,192,148172,1,0,0:0:0:0:
320,192,148244,1,0,0:0:0:0:
192,192,148315,1,0,0:0:0:0:
448,192,148387,1,0,0:0:0:0:
64,192,148459,1,0,0:0:0:0:
320,192,148531,1,0,0:0:0:0:
64,192,148603,1,0,0:0:0:0:
192,192,148675,1,0,0:0:0:0:
320,192,148675,1,0,0:0:0:0:
448,192,148746,1,0,0:0:0:0:
64,192,148818,1,0,0:0:0:0:
320,192,148890,1,0,0:0:0:0:
192,192,148961,1,0,0:0:0:0:
448,192,149033,1,0,0:0:0:0:
64,192,149105,1,0,0:0:0:0:
320,192,149176,1,0,0:0:0:0:
448,192,149248,1,0,0:0:0:0:
64,192,149248,1,0,0:0:0:0:
192,192,149320,1,0,0:0:0:0:
320,192,149392,1,0,0:0:0:0:
192,192,149464,1,0,0:0:0:0:
448,192,149535,1,0,0:0:0:0:
320,192,149535,1,0,0:0:0:0:
64,192,149607,1,0,0:0:0:0:
192,192,149679,1,0,0:0:0:0:
448,192,149751,1,0,0:0:0:0:
320,192,149823,1,0,0:0:0:0:
192,192,149823,1,0,0:0:0:0:
64,192,149895,1,0,0:0:0:0:
448,192,149966,1,0,0:0:0:0:
192,192,150038,1,0,0:0:0:0:
320,192,150110,1,0,0:0:0:0:
64,192,150182,1,0,0:0:0:0:
448,192,150254,1,0,0:0:0:0:
64,192,150325,1,0,0:0:0:0:
192,192,150396,1,0,0:0:0:0:
448,192,150396,1,0,0:0:0:0:
320,192,150468,1,0,0:0:0:0:
192,192,150540,1,0,0:0:0:0:
448,192,150612,1,0,0:0:0:0:
320,192,150684,1,0,0:0:0:0:
64,192,150755,1,0,0:0:0:0:
448,192,150827,1,0,0:0:0:0:
64,192,150899,1,0,0:0:0:0:
192,192,150971,1,0,0:0:0:0:
448,192,150971,1,0,0:0:0:0:
320,192,151043,1,0,0:0:0:0:
64,192,151115,1,0,0:0:0:0:
320,192,151186,1,0,0:0:0:0:
64,192,151258,1,0,0:0:0:0:
448,192,151258,1,0,0:0:0:0:
192,192,151330,1,0,0:0:0:0:
320,192,151402,1,0,0:0:0:0:
448,192,151402,1,0,0:0:0:0:
64,192,151474,1,0,0:0:0:0:
192,192,151545,1,0,0:0:0:0:
64,192,151617,1,0,0:0:0:0:
448,192,151688,1,0,0:0:0:0:
320,192,151760,1,0,0:0:0:0:
192,192,151832,1,0,0:0:0:0:
64,192,151832,1,0,0:0:0:0:
320,192,151904,1,0,0:0:0:0:
64,192,151975,1,0,0:0:0:0:
448,192,152047,1,0,0:0:0:0:
320,192,152119,1,0,0:0:0:0:
192,192,152119,1,0,0:0:0:0:
64,192,152191,1,0,0:0:0:0:
448,192,152263,1,0,0:0:0:0:
192,192,152335,1,0,0:0:0:0:
320,192,152406,1,0,0:0:0:0:
64,192,152478,1,0,0:0:0:0:
448,192,152550,1,0,0:0:0:0:
192,192,152622,1,0,0:0:0:0:
320,192,152694,1,0,0:0:0:0:
448,192,152694,1,0,0:0:0:0:
64,192,152765,1,0,0:0:0:0:
192,192,152837,1,0,0:0:0:0:
320,192,152909,1,0,0:0:0:0:
192,192,152981,1,0,0:0:0:0:
448,192,153052,1,0,0:0:0:0:
320,192,153124,1,0,0:0:0:0:
64,192,153195,1,0,0:0:0:0:
192,192,153267,1,0,0:0:0:0:
448,192,153267,1,0,0:0:0:0:
320,192,153339,1,0,0:0:0:0:
192,192,153411,1,0,0:0:0:0:
320,192,153483,1,0,0:0:0:0:
64,192,153555,1,0,0:0:0:0:
448,192,153626,1,0,0:0:0:0:
64,192,153698,1,0,0:0:0:0:
192,192,153770,1,0,0:0:0:0:
320,192,153842,1,0,0:0:0:0:
448,192,153842,1,0,0:0:0:0:
64,192,153914,1,0,0:0:0:0:
320,192,153985,1,0,0:0:0:0:
192,192,154057,1,0,0:0:0:0:
448,192,154129,1,0,0:0:0:0:
64,192,154129,1,0,0:0:0:0:
320,192,154201,1,0,0:0:0:0:
64,192,154273,1,0,0:0:0:0:
192,192,154345,1,0,0:0:0:0:
448,192,154415,1,0,0:0:0:0:
320,192,154415,1,0,0:0:0:0:
192,192,154487,1,0,0:0:0:0:
448,192,154559,1,0,0:0:0:0:
64,192,154631,1,0,0:0:0:0:
320,192,154703,1,0,0:0:0:0:
192,192,154775,1,0,0:0:0:0:
448,192,154846,1,0,0:0:0:0:
192,192,154918,1,0,0:0:0:0:
320,192,154990,1,0,0:0:0:0:
448,192,154990,1,0,0:0:0:0:
64,192,155062,1,0,0:0:0:0:
192,192,155134,1,0,0:0:0:0:
448,192,155205,1,0,0:0:0:0:
64,192,155277,1,0,0:0:0:0:
320,192,155349,1,0,0:0:0:0:
64,192,155421,1,0,0:0:0:0:
192,192,155493,1,0,0:0:0:0:
320,192,155565,1,0,0:0:0:0:
448,192,155565,1,0,0:0:0:0:
192,192,155636,1,0,0:0:0:0:
320,192,155708,1,0,0:0:0:0:
64,192,155779,1,0,0:0:0:0:
448,192,155851,1,0,0:0:0:0:
192,192,155923,1,0,0:0:0:0:
320,192,155995,1,0,0:0:0:0:
192,192,156066,1,0,0:0:0:0:
64,192,156138,1,0,0:0:0:0:
448,192,156138,1,0,0:0:0:0:
320,192,156210,1,0,0:0:0:0:
192,192,156282,1,0,0:0:0:0:
320,192,156354,1,0,0:0:0:0:
192,192,156425,1,0,0:0:0:0:
64,192,156425,1,0,0:0:0:0:
448,192,156497,1,0,0:0:0:0:
64,192,156569,1,0,0:0:0:0:
320,192,156641,1,0,0:0:0:0:
192,192,156713,1,0,0:0:0:0:
64,192,156713,1,0,0:0:0:0:
448,192,156785,1,0,0:0:0:0:
192,192,156856,1,0,0:0:0:0:
320,192,156928,1,0,0:0:0:0:
64,192,157000,1,0,0:0:0:0:
448,192,157072,1,0,0:0:0:0:
192,192,157143,1,0,0:0:0:0:
320,192,157215,1,0,0:0:0:0:
192,192,157286,1,0,0:0:0:0:
64,192,157286,1,0,0:0:0:0:
448,192,157358,1,0,0:0:0:0:
64,192,157430,1,0,0:0:0:0:
320,192,157502,1,0,0:0:0:0:
192,192,157574,1,0,0:0:0:0:
448,192,157645,1,0,0:0:0:0:
64,192,157717,1,0,0:0:0:0:
448,192,157789,1,0,0:0:0:0:
192,192,157861,1,0,0:0:0:0:
64,192,157861,1,0,0:0:0:0:
320,192,157933,1,0,0:0:0:0:
192,192,158005,1,0,0:0:0:0:
448,192,158076,1,0,0:0:0:0:
64,192,158148,1,0,0:0:0:0:
192,192,158220,1,0,0:0:0:0:
320,192,158292,1,0,0:0:0:0:
64,192,158364,1,0,0:0:0:0:
192,192,158435,1,0,0:0:0:0:
320,192,158435,1,0,0:0:0:0:
448,192,158506,1,0,0:0:0:0:
192,192,158578,1,0,0:0:0:0:
448,192,158650,1,0,0:0:0:0:
320,192,158722,1,0,0:0:0:0:
64,192,158722,1,0,0:0:0:0:
192,192,158794,1,0,0:0:0:0:
448,192,158865,1,0,0:0:0:0:
320,192,158937,1,0,0:0:0:0:
64,192,159009,1,0,0:0:0:0:
192,192,159009,1,0,0:0:0:0:
448,192,159081,1,0,0:0:0:0:
192,192,159153,1,0,0:0:0:0:
320,192,159225,1,0,0:0:0:0:
64,192,159296,1,0,0:0:0:0:
448,192,159368,1,0,0:0:0:0:
192,192,159440,1,0,0:0:0:0:
320,192,159512,1,0,0:0:0:0:
192,192,159584,1,0,0:0:0:0:
64,192,159584,1,0,0:0:0:0:
448,192,159655,1,0,0:0:0:0:
64,192,159727,1,0,0:0:0:0:
448,192,159799,1,0,0:0:0:0:
320,192,159870,1,0,0:0:0:0:
192,192,159942,1,0,0:0:0:0:
320,192,160014,1,0,0:0:0:0:
192,192,160085,1,0,0:0:0:0:
64,192,160157,1,0,0:0:0:0:
448,192,160157,1,0,0:0:0:0:
192,192,160229,1,0,0:0:0:0:
320,192,160301,1,0,0:0:0:0:
64,192,160373,1,0,0:0:0:0:
448,192,160445,1,0,0:0:0:0:
320,192,160445,1,0,0:0:0:0:
192,192,160516,1,0,0:0:0:0:
64,192,160516,1,0,0:0:0:0:
448,192,160588,1,0,0:0:0:0:
320,192,160588,1,0,0:0:0:0:
192,192,160660,1,0,0:0:0:0:
64,192,160660,1,0,0:0:0:0:
320,192,160732,1,0,0:0:0:0:
192,192,160804,1,0,0:0:0:0:
64,192,160875,1,0,0:0:0:0:
320,192,160947,1,0,0:0:0:0:
64,192,161019,128,0,161163:0:0:0:0:
192,192,161019,128,0,161163:0:0:0:0:
448,192,161019,128,0,162167:0:0:0:0:
320,192,162167,128,0,162311:0:0:0:0:
64,192,162167,128,0,162311:0:0:0:0:
192,192,162167,128,0,162741:0:0:0:0:
448,192,162741,128,0,163315:0:0:0:0:
64,192,163315,128,0,163459:0:0:0:0:
192,192,163315,128,0,163459:0:0:0:0:
320,192,163315,128,0,163890:0:0:0:0:
64,192,163890,128,0,164464:0:0:0:0:
192,192,164464,128,0,164607:0:0:0:0:
320,192,164464,128,0,164607:0:0:0:0:
448,192,164464,128,0,165038:0:0:0:0:
64,192,165038,128,0,165612:0:0:0:0:
192,192,165612,128,0,165755:0:0:0:0:
448,192,165612,128,0,165755:0:0:0:0:
320,192,165612,128,0,166186:0:0:0:0:
64,192,166760,128,0,167263:0:0:0:0:
192,192,166760,128,0,167263:0:0:0:0:
320,192,166760,128,0,167335:0:0:0:0:
64,192,167335,128,0,167909:0:0:0:0:
448,192,167335,128,0,167837:0:0:0:0:
192,192,167335,128,0,167837:0:0:0:0:
192,192,167909,128,0,168052:0:0:0:0:
320,192,167909,128,0,168052:0:0:0:0:
448,192,167909,128,0,168483:0:0:0:0:
64,192,169057,128,0,169559:0:0:0:0:
192,192,169057,128,0,169559:0:0:0:0:
448,192,169057,128,0,169631:0:0:0:0:
64,192,169631,1,0,0:0:0:0:
192,192,169631,1,0,0:0:0:0:
320,192,169631,1,0,0:0:0:0:
320,192,169775,1,0,0:0:0:0:
64,192,169775,1,0,0:0:0:0:
320,192,169918,1,0,0:0:0:0:
448,192,169918,1,0,0:0:0:0:
192,192,169990,1,0,0:0:0:0:
64,192,169990,1,0,0:0:0:0:
320,192,170062,1,0,0:0:0:0:
448,192,170062,1,0,0:0:0:0:
192,192,170134,1,0,0:0:0:0:
64,192,170134,1,0,0:0:0:0:
320,192,170205,1,0,0:0:0:0:
192,192,170277,1,0,0:0:0:0:
448,192,170349,1,0,0:0:0:0:
64,192,170421,1,0,0:0:0:0:
192,192,170493,1,0,0:0:0:0:
448,192,170493,1,0,0:0:0:0:
320,192,170565,1,0,0:0:0:0:
64,192,170636,1,0,0:0:0:0:
192,192,170708,1,0,0:0:0:0:
448,192,170779,1,0,0:0:0:0:
64,192,170851,1,0,0:0:0:0:
320,192,170923,1,0,0:0:0:0:
192,192,170995,1,0,0:0:0:0:
320,192,171066,1,0,0:0:0:0:
448,192,171066,1,0,0:0:0:0:
64,192,171138,1,0,0:0:0:0:
448,192,171210,1,0,0:0:0:0:
64,192,171282,1,0,0:0:0:0:
192,192,171354,1,0,0:0:0:0:
320,192,171425,1,0,0:0:0:0:
192,192,171497,1,0,0:0:0:0:
320,192,171569,1,0,0:0:0:0:
64,192,171641,1,0,0:0:0:0:
448,192,171641,1,0,0:0:0:0:
192,192,171713,1,0,0:0:0:0:
320,192,171785,1,0,0:0:0:0:
64,192,171856,1,0,0:0:0:0:
448,192,171928,1,0,0:0:0:0:
320,192,172000,1,0,0:0:0:0:
192,192,172072,1,0,0:0:0:0:
64,192,172143,1,0,0:0:0:0:
192,192,172215,1,0,0:0:0:0:
448,192,172215,1,0,0:0:0:0:
320,192,172286,1,0,0:0:0:0:
192,192,172358,1,0,0:0:0:0:
64,192,172430,1,0,0:0:0:0:
320,192,172502,1,0,0:0:0:0:
192,192,172574,1,0,0:0:0:0:
448,192,172645,1,0,0:0:0:0:
192,192,172717,1,0,0:0:0:0:
64,192,172789,1,0,0:0:0:0:
448,192,172789,1,0,0:0:0:0:
320,192,172861,1,0,0:0:0:0:
192,192,172933,1,0,0:0:0:0:
320,192,173005,1,0,0:0:0:0:
64,192,173076,1,0,0:0:0:0:
192,192,173148,1,0,0:0:0:0:
320,192,173220,1,0,0:0:0:0:
192,192,173292,1,0,0:0:0:0:
320,192,173364,1,0,0:0:0:0:
448,192,173364,1,0,0:0:0:0:
64,192,173435,1,0,0:0:0:0:
192,192,173506,1,0,0:0:0:0:
448,192,173578,1,0,0:0:0:0:
192,192,173650,1,0,0:0:0:0:
320,192,173722,1,0,0:0:0:0:
64,192,173794,1,0,0:0:0:0:
448,192,173865,1,0,0:0:0:0:
320,192,173937,1,0,0:0:0:0:
192,192,173937,1,0,0:0:0:0:
64,192,174009,1,0,0:0:0:0:
320,192,174081,1,0,0:0:0:0:
64,192,174153,1,0,0:0:0:0:
192,192,174225,128,0,174440:0:0:0:0:
320,192,174225,128,0,174440:0:0:0:0:
448,192,174225,128,0,174512:0:0:0:0:
64,192,174512,128,0,174799:0:0:0:0:
192,192,174512,128,0,174727:0:0:0:0:
320,192,174512,128,0,174727:0:0:0:0:
192,192,174799,1,0,0:0:0:0:
448,192,174799,1,0,0:0:0:0:
320,192,174799,1,0,0:0:0:0:
64,192,174870,1,0,0:0:0:0:
448,192,174942,1,0,0:0:0:0:
192,192,175014,1,0,0:0:0:0:
320,192,175085,1,0,0:0:0:0:
64,192,175085,1,0,0:0:0:0:
448,192,175157,1,0,0:0:0:0:
192,192,175229,1,0,0:0:0:0:
320,192,175301,1,0,0:0:0:0:
64,192,175373,1,0,0:0:0:0:
448,192,175445,1,0,0:0:0:0:
192,192,175516,1,0,0:0:0:0:
320,192,175588,1,0,0:0:0:0:
192,192,175660,1,0,0:0:0:0:
64,192,175660,1,0,0:0:0:0:
448,192,175732,1,0,0:0:0:0:
64,192,175804,1,0,0:0:0:0:
320,192,175875,1,0,0:0:0:0:
192,192,175947,1,0,0:0:0:0:
448,192,176019,1,0,0:0:0:0:
64,192,176091,1,0,0:0:0:0:
320,192,176163,1,0,0:0:0:0:
192,192,176234,1,0,0:0:0:0:
64,192,176234,1,0,0:0:0:0:
320,192,176305,1,0,0:0:0:0:
192,192,176377,1,0,0:0:0:0:
448,192,176449,1,0,0:0:0:0:
64,192,176521,1,0,0:0:0:0:
192,192,176521,1,0,0:0:0:0:
320,192,176593,1,0,0:0:0:0:
448,192,176593,1,0,0:0:0:0:
192,192,176665,1,0,0:0:0:0:
64,192,176665,1,0,0:0:0:0:
320,192,176736,1,0,0:0:0:0:
448,192,176736,1,0,0:0:0:0:
64,192,176808,1,0,0:0:0:0:
192,192,176880,1,0,0:0:0:0:
320,192,176952,1,0,0:0:0:0:
192,192,177024,1,0,0:0:0:0:
320,192,177095,1,0,0:0:0:0:
448,192,177095,1,0,0:0:0:0:
64,192,177095,1,0,0:0:0:0:
192,192,177286,1,0,0:0:0:0:
64,192,177286,1,0,0:0:0:0:
64,192,177383,1,0,0:0:0:0:
448,192,177383,1,0,0:0:0:0:
320,192,177383,1,0,0:0:0:0:
192,192,177526,1,0,0:0:0:0:
320,192,177526,1,0,0:0:0:0:
64,192,177669,1,0,0:0:0:0:
192,192,177813,1,0,0:0:0:0:
448,192,177813,1,0,0:0:0:0:
320,192,177956,1,0,0:0:0:0:
192,192,177956,1,0,0:0:0:0:
64,192,177956,1,0,0:0:0:0:
64,192,178100,1,0,0:0:0:0:
448,192,178100,1,0,0:0:0:0:
192,192,178244,1,0,0:0:0:0:
320,192,178244,1,0,0:0:0:0:
448,192,178244,1,0,0:0:0:0:
64,192,178387,5,0,0:0:0:0:
192,192,178531,1,0,0:0:0:0:
448,192,178531,1,0,0:0:0:0:
320,192,178675,1,0,0:0:0:0:
192,192,178675,1,0,0:0:0:0:
64,192,178675,1,0,0:0:0:0:
448,192,178818,1,0,0:0:0:0:
64,192,178961,1,0,0:0:0:0:
192,192,178961,1,0,0:0:0:0:
64,192,179105,1,0,0:0:0:0:
320,192,179105,1,0,0:0:0:0:
448,192,179105,1,0,0:0:0:0:
192,192,179248,1,0,0:0:0:0:
320,192,179248,1,0,0:0:0:0:
448,192,179392,5,0,0:0:0:0:
64,192,179392,1,0,0:0:0:0:
192,192,179464,1,0,0:0:0:0:
320,192,179535,1,0,0:0:0:0:
192,192,179607,1,0,0:0:0:0:
448,192,179679,1,0,0:0:0:0:
64,192,179751,1,0,0:0:0:0:
320,192,179823,1,0,0:0:0:0:
64,192,179895,1,0,0:0:0:0:
448,192,179966,1,0,0:0:0:0:
192,192,180038,1,0,0:0:0:0:
320,192,180110,1,0,0:0:0:0:
192,192,180182,1,0,0:0:0:0:
448,192,180254,1,0,0:0:0:0:
64,192,180325,1,0,0:0:0:0:
320,192,180396,1,0,0:0:0:0:
64,192,180468,1,0,0:0:0:0:
192,192,180540,1,0,0:0:0:0:
448,192,180540,1,0,0:0:0:0:
320,192,180612,1,0,0:0:0:0:
64,192,180684,1,0,0:0:0:0:
320,192,180755,1,0,0:0:0:0:
192,192,180827,1,0,0:0:0:0:
448,192,180899,1,0,0:0:0:0:
64,192,180971,1,0,0:0:0:0:
448,192,181043,1,0,0:0:0:0:
64,192,181115,1,0,0:0:0:0:
192,192,181163,1,0,0:0:0:0:
320,192,181210,1,0,0:0:0:0:
448,192,181258,1,0,0:0:0:0:
192,192,181305,1,0,0:0:0:0:
320,192,181354,1,0,0:0:0:0:
64,192,181402,1,0,0:0:0:0:
192,192,181449,1,0,0:0:0:0:
320,192,181497,1,0,0:0:0:0:
448,192,181545,1,0,0:0:0:0:
192,192,181593,1,0,0:0:0:0:
320,192,181641,1,0,0:0:0:0:
64,192,181688,1,0,0:0:0:0:
448,192,181688,1,0,0:0:0:0:
192,192,181760,1,0,0:0:0:0:
320,192,181832,1,0,0:0:0:0:
192,192,181904,1,0,0:0:0:0:
448,192,181975,1,0,0:0:0:0:
64,192,182047,1,0,0:0:0:0:
320,192,182119,1,0,0:0:0:0:
64,192,182191,1,0,0:0:0:0:
448,192,182263,1,0,0:0:0:0:
192,192,182335,1,0,0:0:0:0:
320,192,182406,1,0,0:0:0:0:
192,192,182478,1,0,0:0:0:0:
448,192,182550,1,0,0:0:0:0:
64,192,182622,1,0,0:0:0:0:
320,192,182694,1,0,0:0:0:0:
64,192,182765,1,0,0:0:0:0:
448,192,182837,1,0,0:0:0:0:
320,192,182837,1,0,0:0:0:0:
64,192,182909,1,0,0:0:0:0:
448,192,182981,1,0,0:0:0:0:
192,192,183052,1,0,0:0:0:0:
320,192,183124,1,0,0:0:0:0:
64,192,183195,1,0,0:0:0:0:
320,192,183267,1,0,0:0:0:0:
192,192,183339,1,0,0:0:0:0:
64,192,183411,1,0,0:0:0:0:
192,192,183459,1,0,0:0:0:0:
320,192,183506,1,0,0:0:0:0:
448,192,183555,1,0,0:0:0:0:
192,192,183603,1,0,0:0:0:0:
320,192,183650,1,0,0:0:0:0:
64,192,183698,1,0,0:0:0:0:
192,192,183746,1,0,0:0:0:0:
320,192,183794,1,0,0:0:0:0:
448,192,183842,1,0,0:0:0:0:
192,192,183890,1,0,0:0:0:0:
320,192,183937,1,0,0:0:0:0:
64,192,183985,1,0,0:0:0:0:
448,192,183985,1,0,0:0:0:0:
192,192,184057,1,0,0:0:0:0:
320,192,184129,1,0,0:0:0:0:
192,192,184201,1,0,0:0:0:0:
448,192,184273,1,0,0:0:0:0:
64,192,184345,1,0,0:0:0:0:
320,192,184415,1,0,0:0:0:0:
64,192,184487,1,0,0:0:0:0:
448,192,184559,1,0,0:0:0:0:
192,192,184631,1,0,0:0:0:0:
320,192,184703,1,0,0:0:0:0:
192,192,184775,1,0,0:0:0:0:
448,192,184846,1,0,0:0:0:0:
64,192,184918,1,0,0:0:0:0:
320,192,184990,1,0,0:0:0:0:
64,192,185062,1,0,0:0:0:0:
448,192,185134,1,0,0:0:0:0:
192,192,185134,1,0,0:0:0:0:
320,192,185205,1,0,0:0:0:0:
64,192,185277,1,0,0:0:0:0:
320,192,185349,1,0,0:0:0:0:
192,192,185421,1,0,0:0:0:0:
448,192,185493,1,0,0:0:0:0:
64,192,185565,1,0,0:0:0:0:
448,192,185636,1,0,0:0:0:0:
64,192,185708,1,0,0:0:0:0:
192,192,185755,1,0,0:0:0:0:
320,192,185804,1,0,0:0:0:0:
448,192,185851,1,0,0:0:0:0:
192,192,185899,1,0,0:0:0:0:
320,192,185947,1,0,0:0:0:0:
64,192,185995,1,0,0:0:0:0:
192,192,186043,1,0,0:0:0:0:
320,192,186091,1,0,0:0:0:0:
448,192,186138,1,0,0:0:0:0:
192,192,186186,1,0,0:0:0:0:
320,192,186234,1,0,0:0:0:0:
64,192,186282,1,0,0:0:0:0:
448,192,186282,1,0,0:0:0:0:
192,192,186354,1,0,0:0:0:0:
320,192,186425,1,0,0:0:0:0:
192,192,186497,1,0,0:0:0:0:
448,192,186569,1,0,0:0:0:0:
64,192,186641,1,0,0:0:0:0:
320,192,186713,1,0,0:0:0:0:
64,192,186785,1,0,0:0:0:0:
448,192,186856,1,0,0:0:0:0:
192,192,186928,1,0,0:0:0:0:
320,192,187000,1,0,0:0:0:0:
192,192,187072,1,0,0:0:0:0:
448,192,187143,1,0,0:0:0:0:
64,192,187215,1,0,0:0:0:0:
320,192,187286,1,0,0:0:0:0:
64,192,187358,1,0,0:0:0:0:
192,192,187430,1,0,0:0:0:0:
448,192,187430,1,0,0:0:0:0:
320,192,187502,1,0,0:0:0:0:
64,192,187574,1,0,0:0:0:0:
192,192,187574,1,0,0:0:0:0:
320,192,187645,1,0,0:0:0:0:
448,192,187645,1,0,0:0:0:0:
192,192,187717,1,0,0:0:0:0:
64,192,187717,1,0,0:0:0:0:
320,192,187789,1,0,0:0:0:0:
448,192,187789,1,0,0:0:0:0:
64,192,187861,1,0,0:0:0:0:
192,192,187933,1,0,0:0:0:0:
320,192,188005,1,0,0:0:0:0:
448,192,188005,1,0,0:0:0:0:
64,192,188076,1,0,0:0:0:0:
320,192,188148,1,0,0:0:0:0:
192,192,188220,1,0,0:0:0:0:
448,192,188292,1,0,0:0:0:0:
320,192,188364,1,0,0:0:0:0:
192,192,188435,1,0,0:0:0:0:
64,192,188506,1,0,0:0:0:0:
192,192,188578,1,0,0:0:0:0:
320,192,188578,1,0,0:0:0:0:
448,192,188650,1,0,0:0:0:0:
64,192,188722,1,0,0:0:0:0:
448,192,188794,1,0,0:0:0:0:
64,192,188865,1,0,0:0:0:0:
320,192,188865,1,0,0:0:0:0:
192,192,188937,1,0,0:0:0:0:
448,192,189009,1,0,0:0:0:0:
192,192,189081,1,0,0:0:0:0:
320,192,189153,1,0,0:0:0:0:
64,192,189225,1,0,0:0:0:0:
448,192,189296,1,0,0:0:0:0:
64,192,189368,1,0,0:0:0:0:
320,192,189440,1,0,0:0:0:0:
192,192,189440,1,0,0:0:0:0:
448,192,189512,1,0,0:0:0:0:
64,192,189584,1,0,0:0:0:0:
448,192,189655,1,0,0:0:0:0:
192,192,189727,1,0,0:0:0:0:
320,192,189799,1,0,0:0:0:0:
64,192,189870,1,0,0:0:0:0:
320,192,189942,1,0,0:0:0:0:
64,192,190014,1,0,0:0:0:0:
448,192,190014,1,0,0:0:0:0:
192,192,190085,1,0,0:0:0:0:
320,192,190157,1,0,0:0:0:0:
192,192,190229,1,0,0:0:0:0:
448,192,190301,1,0,0:0:0:0:
320,192,190349,1,0,0:0:0:0:
192,192,190396,1,0,0:0:0:0:
64,192,190445,1,0,0:0:0:0:
320,192,190493,1,0,0:0:0:0:
192,192,190540,1,0,0:0:0:0:
448,192,190588,1,0,0:0:0:0:
320,192,190636,1,0,0:0:0:0:
192,192,190684,1,0,0:0:0:0:
64,192,190732,1,0,0:0:0:0:
320,192,190779,1,0,0:0:0:0:
192,192,190827,1,0,0:0:0:0:
64,192,190875,1,0,0:0:0:0:
448,192,190875,1,0,0:0:0:0:
320,192,190947,1,0,0:0:0:0:
192,192,191019,1,0,0:0:0:0:
320,192,191091,1,0,0:0:0:0:
448,192,191163,1,0,0:0:0:0:
192,192,191163,1,0,0:0:0:0:
64,192,191234,1,0,0:0:0:0:
320,192,191305,1,0,0:0:0:0:
64,192,191377,1,0,0:0:0:0:
448,192,191449,1,0,0:0:0:0:
192,192,191521,1,0,0:0:0:0:
320,192,191593,1,0,0:0:0:0:
192,192,191665,1,0,0:0:0:0:
64,192,191736,1,0,0:0:0:0:
320,192,191736,1,0,0:0:0:0:
448,192,191808,1,0,0:0:0:0:
192,192,191880,1,0,0:0:0:0:
448,192,191952,1,0,0:0:0:0:
64,192,192024,1,0,0:0:0:0:
320,192,192095,1,0,0:0:0:0:
192,192,192167,1,0,0:0:0:0:
320,192,192239,1,0,0:0:0:0:
448,192,192311,1,0,0:0:0:0:
64,192,192311,1,0,0:0:0:0:
192,192,192383,1,0,0:0:0:0:
320,192,192455,1,0,0:0:0:0:
192,192,192526,1,0,0:0:0:0:
448,192,192597,1,0,0:0:0:0:
320,192,192645,1,0,0:0:0:0:
192,192,192694,1,0,0:0:0:0:
64,192,192741,1,0,0:0:0:0:
320,192,192789,1,0,0:0:0:0:
192,192,192837,1,0,0:0:0:0:
448,192,192885,1,0,0:0:0:0:
320,192,192933,1,0,0:0:0:0:
192,192,192981,1,0,0:0:0:0:
64,192,193028,1,0,0:0:0:0:
320,192,193076,1,0,0:0:0:0:
192,192,193124,1,0,0:0:0:0:
448,192,193172,1,0,0:0:0:0:
64,192,193172,1,0,0:0:0:0:
320,192,193244,1,0,0:0:0:0:
192,192,193315,1,0,0:0:0:0:
320,192,193387,1,0,0:0:0:0:
192,192,193459,1,0,0:0:0:0:
448,192,193459,1,0,0:0:0:0:
64,192,193531,1,0,0:0:0:0:
320,192,193603,1,0,0:0:0:0:
64,192,193675,1,0,0:0:0:0:
448,192,193746,1,0,0:0:0:0:
192,192,193818,1,0,0:0:0:0:
320,192,193890,1,0,0:0:0:0:
192,192,193961,1,0,0:0:0:0:
64,192,194033,1,0,0:0:0:0:
320,192,194033,1,0,0:0:0:0:
448,192,194105,1,0,0:0:0:0:
64,192,194176,1,0,0:0:0:0:
448,192,194248,1,0,0:0:0:0:
192,192,194320,1,0,0:0:0:0:
320,192,194392,1,0,0:0:0:0:
64,192,194464,1,0,0:0:0:0:
320,192,194535,1,0,0:0:0:0:
192,192,194607,1,0,0:0:0:0:
448,192,194607,1,0,0:0:0:0:
64,192,194679,1,0,0:0:0:0:
320,192,194751,1,0,0:0:0:0:
64,192,194823,1,0,0:0:0:0:
320,192,194895,1,0,0:0:0:0:
448,192,194895,1,0,0:0:0:0:
192,192,194966,1,0,0:0:0:0:
64,192,194966,1,0,0:0:0:0:
320,192,195038,1,0,0:0:0:0:
448,192,195038,1,0,0:0:0:0:
192,192,195110,1,0,0:0:0:0:
64,192,195110,1,0,0:0:0:0:
320,192,195182,1,0,0:0:0:0:
192,192,195254,1,0,0:0:0:0:
64,192,195325,1,0,0:0:0:0:
448,192,195361,1,0,0:0:0:0:
320,192,195396,1,0,0:0:0:0:
192,192,195468,1,0,0:0:0:0:
448,192,195540,1,0,0:0:0:0:
64,192,195612,1,0,0:0:0:0:
448,192,195684,1,0,0:0:0:0:
192,192,195755,1,0,0:0:0:0:
320,192,195755,1,0,0:0:0:0:
64,192,195827,1,0,0:0:0:0:
448,192,195899,1,0,0:0:0:0:
320,192,195899,1,0,0:0:0:0:
64,192,195971,1,0,0:0:0:0:
192,192,196043,1,0,0:0:0:0:
448,192,196043,1,0,0:0:0:0:
320,192,196115,1,0,0:0:0:0:
192,192,196186,1,0,0:0:0:0:
64,192,196186,1,0,0:0:0:0:
320,192,196258,1,0,0:0:0:0:
64,192,196330,1,0,0:0:0:0:
448,192,196330,1,0,0:0:0:0:
192,192,196402,1,0,0:0:0:0:
320,192,196474,1,0,0:0:0:0:
448,192,196474,1,0,0:0:0:0:
192,192,196545,1,0,0:0:0:0:
64,192,196617,1,0,0:0:0:0:
320,192,196617,1,0,0:0:0:0:
448,192,196688,1,0,0:0:0:0:
192,192,196760,1,0,0:0:0:0:
64,192,196760,1,0,0:0:0:0:
448,192,196832,1,0,0:0:0:0:
320,192,196832,1,0,0:0:0:0:
192,192,196904,1,0,0:0:0:0:
64,192,196904,1,0,0:0:0:0:
320,192,196975,1,0,0:0:0:0:
448,192,196975,1,0,0:0:0:0:
64,192,197047,1,0,0:0:0:0:
192,192,197119,1,0,0:0:0:0:
448,192,197191,1,0,0:0:0:0:
64,192,197191,1,0,0:0:0:0:
192,192,197239,1,0,0:0:0:0:
320,192,197286,1,0,0:0:0:0:
448,192,197335,1,0,0:0:0:0:
192,192,197383,1,0,0:0:0:0:
320,192,197430,1,0,0:0:0:0:
64,192,197478,1,0,0:0:0:0:
192,192,197526,1,0,0:0:0:0:
320,192,197574,1,0,0:0:0:0:
448,192,197622,1,0,0:0:0:0:
192,192,197669,1,0,0:0:0:0:
320,192,197717,1,0,0:0:0:0:
448,192,197765,1,0,0:0:0:0:
64,192,197765,1,0,0:0:0:0:
192,192,197837,1,0,0:0:0:0:
320,192,197909,1,0,0:0:0:0:
192,192,197981,1,0,0:0:0:0:
448,192,198052,1,0,0:0:0:0:
64,192,198052,1,0,0:0:0:0:
320,192,198124,1,0,0:0:0:0:
192,192,198195,1,0,0:0:0:0:
320,192,198267,1,0,0:0:0:0:
64,192,198339,1,0,0:0:0:0:
448,192,198411,1,0,0:0:0:0:
192,192,198483,1,0,0:0:0:0:
448,192,198555,1,0,0:0:0:0:
192,192,198626,1,0,0:0:0:0:
320,192,198626,1,0,0:0:0:0:
64,192,198698,1,0,0:0:0:0:
448,192,198770,1,0,0:0:0:0:
64,192,198842,1,0,0:0:0:0:
320,192,198914,1,0,0:0:0:0:
192,192,198985,1,0,0:0:0:0:
448,192,199057,1,0,0:0:0:0:
192,192,199129,1,0,0:0:0:0:
320,192,199201,1,0,0:0:0:0:
64,192,199201,1,0,0:0:0:0:
448,192,199273,1,0,0:0:0:0:
192,192,199345,1,0,0:0:0:0:
448,192,199415,1,0,0:0:0:0:
64,192,199487,1,0,0:0:0:0:
192,192,199535,1,0,0:0:0:0:
320,192,199584,1,0,0:0:0:0:
448,192,199631,1,0,0:0:0:0:
192,192,199679,1,0,0:0:0:0:
320,192,199727,1,0,0:0:0:0:
64,192,199775,1,0,0:0:0:0:
192,192,199823,1,0,0:0:0:0:
320,192,199870,1,0,0:0:0:0:
448,192,199918,1,0,0:0:0:0:
192,192,199966,1,0,0:0:0:0:
320,192,200014,1,0,0:0:0:0:
64,192,200062,1,0,0:0:0:0:
448,192,200062,1,0,0:0:0:0:
192,192,200134,1,0,0:0:0:0:
320,192,200205,1,0,0:0:0:0:
192,192,200277,1,0,0:0:0:0:
64,192,200349,1,0,0:0:0:0:
320,192,200349,1,0,0:0:0:0:
448,192,200421,1,0,0:0:0:0:
64,192,200493,1,0,0:0:0:0:
448,192,200565,1,0,0:0:0:0:
192,192,200636,1,0,0:0:0:0:
320,192,200708,1,0,0:0:0:0:
64,192,200779,1,0,0:0:0:0:
320,192,200851,1,0,0:0:0:0:
192,192,200923,1,0,0:0:0:0:
448,192,200923,1,0,0:0:0:0:
64,192,200995,1,0,0:0:0:0:
320,192,201066,1,0,0:0:0:0:
64,192,201138,1,0,0:0:0:0:
448,192,201210,1,0,0:0:0:0:
192,192,201282,1,0,0:0:0:0:
320,192,201354,1,0,0:0:0:0:
192,192,201425,1,0,0:0:0:0:
64,192,201497,1,0,0:0:0:0:
320,192,201497,1,0,0:0:0:0:
448,192,201569,1,0,0:0:0:0:
192,192,201641,1,0,0:0:0:0:
448,192,201713,1,0,0:0:0:0:
64,192,201785,1,0,0:0:0:0:
192,192,201832,1,0,0:0:0:0:
320,192,201880,1,0,0:0:0:0:
448,192,201928,1,0,0:0:0:0:
192,192,201975,1,0,0:0:0:0:
320,192,202024,1,0,0:0:0:0:
64,192,202072,1,0,0:0:0:0:
192,192,202119,1,0,0:0:0:0:
320,192,202167,1,0,0:0:0:0:
448,192,202215,1,0,0:0:0:0:
192,192,202263,1,0,0:0:0:0:
320,192,202311,1,0,0:0:0:0:
64,192,202358,1,0,0:0:0:0:
448,192,202358,1,0,0:0:0:0:
192,192,202430,1,0,0:0:0:0:
320,192,202502,1,0,0:0:0:0:
192,192,202574,1,0,0:0:0:0:
64,192,202645,1,0,0:0:0:0:
320,192,202645,1,0,0:0:0:0:
448,192,202717,1,0,0:0:0:0:
64,192,202789,1,0,0:0:0:0:
448,192,202861,1,0,0:0:0:0:
192,192,202933,1,0,0:0:0:0:
320,192,203005,1,0,0:0:0:0:
64,192,203076,1,0,0:0:0:0:
320,192,203148,1,0,0:0:0:0:
192,192,203220,1,0,0:0:0:0:
448,192,203220,1,0,0:0:0:0:
64,192,203292,1,0,0:0:0:0:
320,192,203364,1,0,0:0:0:0:
64,192,203435,1,0,0:0:0:0:
448,192,203506,1,0,0:0:0:0:
192,192,203578,1,0,0:0:0:0:
320,192,203650,1,0,0:0:0:0:
192,192,203722,1,0,0:0:0:0:
320,192,203794,1,0,0:0:0:0:
64,192,203794,1,0,0:0:0:0:
448,192,203865,1,0,0:0:0:0:
64,192,203937,1,0,0:0:0:0:
448,192,204009,1,0,0:0:0:0:
192,192,204081,1,0,0:0:0:0:
320,192,204081,1,0,0:0:0:0:
64,192,204153,1,0,0:0:0:0:
448,192,204153,1,0,0:0:0:0:
320,192,204225,1,0,0:0:0:0:
192,192,204225,1,0,0:0:0:0:
64,192,204296,1,0,0:0:0:0:
448,192,204296,1,0,0:0:0:0:
320,192,204368,1,0,0:0:0:0:
192,192,204440,1,0,0:0:0:0:
64,192,204584,1,0,0:0:0:0:
192,192,204655,1,0,0:0:0:0:
320,192,204655,1,0,0:0:0:0:
448,192,204727,1,0,0:0:0:0:
192,192,204799,1,0,0:0:0:0:
64,192,204799,1,0,0:0:0:0:
448,192,204870,1,0,0:0:0:0:
320,192,204942,1,0,0:0:0:0:
192,192,204942,1,0,0:0:0:0:
64,192,205014,1,0,0:0:0:0:
192,192,205085,1,0,0:0:0:0:
448,192,205085,1,0,0:0:0:0:
64,192,205157,1,0,0:0:0:0:
320,192,205229,1,0,0:0:0:0:
192,192,205229,1,0,0:0:0:0:
448,192,205301,1,0,0:0:0:0:
64,192,205373,1,0,0:0:0:0:
320,192,205373,1,0,0:0:0:0:
448,192,205445,1,0,0:0:0:0:
192,192,205516,1,0,0:0:0:0:
320,192,205516,1,0,0:0:0:0:
64,192,205588,1,0,0:0:0:0:
192,192,205660,1,0,0:0:0:0:
448,192,205660,1,0,0:0:0:0:
64,192,205732,1,0,0:0:0:0:
320,192,205804,1,0,0:0:0:0:
192,192,205804,1,0,0:0:0:0:
448,192,205875,1,0,0:0:0:0:
320,192,205947,1,0,0:0:0:0:
64,192,205947,1,0,0:0:0:0:
448,192,206019,1,0,0:0:0:0:
192,192,206091,1,0,0:0:0:0:
64,192,206091,1,0,0:0:0:0:
320,192,206163,1,0,0:0:0:0:
192,192,206234,1,0,0:0:0:0:
64,192,206234,1,0,0:0:0:0:
320,192,206305,1,0,0:0:0:0:
64,192,206377,1,0,0:0:0:0:
192,192,206425,1,0,0:0:0:0:
320,192,206474,1,0,0:0:0:0:
448,192,206521,1,0,0:0:0:0:
192,192,206569,1,0,0:0:0:0:
320,192,206617,1,0,0:0:0:0:
64,192,206665,1,0,0:0:0:0:
192,192,206713,1,0,0:0:0:0:
320,192,206760,1,0,0:0:0:0:
448,192,206808,1,0,0:0:0:0:
192,192,206856,1,0,0:0:0:0:
320,192,206904,1,0,0:0:0:0:
448,192,206952,1,0,0:0:0:0:
64,192,206952,128,0,207526:0:0:0:0:
320,192,207526,128,0,208100:0:0:0:0:
64,192,208100,1,0,0:0:0:0:
448,192,208100,1,0,0:0:0:0:
192,192,208100,128,0,208675:0:0:0:0:
320,192,208675,128,0,209248:0:0:0:0:
448,192,209248,1,0,0:0:0:0:
192,192,209248,1,0,0:0:0:0:
64,192,209248,128,0,210110:0:0:0:0:
448,192,209823,1,0,0:0:0:0:
320,192,210110,128,0,210396:0:0:0:0:
448,192,210396,1,0,0:0:0:0:
64,192,210396,128,0,210971:0:0:0:0:
448,192,210684,1,0,0:0:0:0:
192,192,210755,1,0,0:0:0:0:
448,192,210827,1,0,0:0:0:0:
192,192,210899,1,0,0:0:0:0:
448,192,210971,1,0,0:0:0:0:
320,192,210971,128,0,211545:0:0:0:0:
448,192,211545,1,0,0:0:0:0:
64,192,211545,1,0,0:0:0:0:
192,192,211545,128,0,212406:0:0:0:0:
320,192,212119,1,0,0:0:0:0:
448,192,212406,128,0,212694:0:0:0:0:
64,192,212478,1,0,0:0:0:0:
320,192,212550,1,0,0:0:0:0:
64,192,212622,1,0,0:0:0:0:
192,192,212694,1,0,0:0:0:0:
320,192,212694,128,0,213842:0:0:0:0:
448,192,212981,1,0,0:0:0:0:
192,192,213124,1,0,0:0:0:0:
64,192,213124,1,0,0:0:0:0:
192,192,213267,1,0,0:0:0:0:
64,192,213267,1,0,0:0:0:0:
64,192,213555,1,0,0:0:0:0:
64,192,213842,1,0,0:0:0:0:
448,192,213842,1,0,0:0:0:0:
192,192,213842,128,0,214703:0:0:0:0:
448,192,214129,1,0,0:0:0:0:
320,192,214415,1,0,0:0:0:0:
448,192,214415,1,0,0:0:0:0:
448,192,214703,128,0,214990:0:0:0:0:
64,192,214846,1,0,0:0:0:0:
320,192,214846,1,0,0:0:0:0:
64,192,214990,1,0,0:0:0:0:
192,192,214990,128,0,215565:0:0:0:0:
64,192,215277,1,0,0:0:0:0:
448,192,215421,1,0,0:0:0:0:
320,192,215421,1,0,0:0:0:0:
64,192,215565,1,0,0:0:0:0:
320,192,215565,1,0,0:0:0:0:
448,192,215565,128,0,216138:0:0:0:0:
192,192,216138,1,0,0:0:0:0:
320,192,216138,1,0,0:0:0:0:
64,192,216138,128,0,217000:0:0:0:0:
320,192,216713,1,0,0:0:0:0:
320,192,216856,1,0,0:0:0:0:
448,192,217000,128,0,217286:0:0:0:0:
192,192,217072,1,0,0:0:0:0:
320,192,217143,1,0,0:0:0:0:
192,192,217215,1,0,0:0:0:0:
320,192,217286,1,0,0:0:0:0:
64,192,217286,128,0,218435:0:0:0:0:
192,192,217430,1,0,0:0:0:0:
192,192,217574,1,0,0:0:0:0:
320,192,217717,1,0,0:0:0:0:
448,192,217717,1,0,0:0:0:0:
192,192,217861,1,0,0:0:0:0:
448,192,217861,1,0,0:0:0:0:
320,192,218148,1,0,0:0:0:0:
192,192,218148,1,0,0:0:0:0:
192,192,218435,1,0,0:0:0:0:
320,192,218435,1,0,0:0:0:0:
448,192,218435,128,0,219296:0:0:0:0:
64,192,219009,1,0,0:0:0:0:
320,192,219009,1,0,0:0:0:0:
64,192,219296,128,0,219584:0:0:0:0:
320,192,219584,128,0,220157:0:0:0:0:
192,192,219584,1,0,0:0:0:0:
64,192,220014,1,0,0:0:0:0:
192,192,220014,1,0,0:0:0:0:
64,192,220157,1,0,0:0:0:0:
192,192,220157,128,0,220732:0:0:0:0:
64,192,220732,1,0,0:0:0:0:
320,192,220732,1,0,0:0:0:0:
448,192,220732,128,0,221593:0:0:0:0:
192,192,221019,1,0,0:0:0:0:
192,192,221305,1,0,0:0:0:0:
320,192,221305,1,0,0:0:0:0:
64,192,221593,128,0,221880:0:0:0:0:
320,192,221880,128,0,223028:0:0:0:0:
192,192,221880,1,0,0:0:0:0:
64,192,222311,1,0,0:0:0:0:
192,192,222311,1,0,0:0:0:0:
64,192,222455,1,0,0:0:0:0:
192,192,222455,1,0,0:0:0:0:
64,192,222741,1,0,0:0:0:0:
64,192,223028,1,0,0:0:0:0:
448,192,223028,1,0,0:0:0:0:
192,192,223028,128,0,223890:0:0:0:0:
320,192,223603,1,0,0:0:0:0:
448,192,223603,1,0,0:0:0:0:
448,192,223890,128,0,224176:0:0:0:0:
64,192,224033,1,0,0:0:0:0:
320,192,224033,1,0,0:0:0:0:
320,192,224176,1,0,0:0:0:0:
64,192,224176,128,0,224751:0:0:0:0:
192,192,224607,1,0,0:0:0:0:
320,192,224607,1,0,0:0:0:0:
192,192,224751,1,0,0:0:0:0:
320,192,224751,1,0,0:0:0:0:
448,192,224751,128,0,225254:0:0:0:0:
64,192,225325,1,0,0:0:0:0:
192,192,225325,1,0,0:0:0:0:
448,192,225325,128,0,226186:0:0:0:0:
320,192,225612,1,0,0:0:0:0:
320,192,225899,1,0,0:0:0:0:
192,192,225899,1,0,0:0:0:0:
64,192,226186,128,0,226474:0:0:0:0:
192,192,226330,1,0,0:0:0:0:
320,192,226330,1,0,0:0:0:0:
192,192,226474,1,0,0:0:0:0:
448,192,226474,1,0,0:0:0:0:
320,192,226617,1,0,0:0:0:0:
448,192,226617,1,0,0:0:0:0:
192,192,226688,1,0,0:0:0:0:
64,192,226688,1,0,0:0:0:0:
448,192,226760,1,0,0:0:0:0:
320,192,226760,1,0,0:0:0:0:
64,192,226832,1,0,0:0:0:0:
192,192,226832,1,0,0:0:0:0:
320,192,226904,1,0,0:0:0:0:
64,192,226975,1,0,0:0:0:0:
320,192,227047,1,0,0:0:0:0:
64,192,227119,1,0,0:0:0:0:
192,192,227191,1,0,0:0:0:0:
320,192,227263,1,0,0:0:0:0:
448,192,227335,1,0,0:0:0:0:
192,192,227406,1,0,0:0:0:0:
448,192,227478,1,0,0:0:0:0:
192,192,227550,1,0,0:0:0:0:
448,192,227622,1,0,0:0:0:0:
64,192,227622,1,0,0:0:0:0:
320,192,227694,1,0,0:0:0:0:
192,192,227765,1,0,0:0:0:0:
320,192,227837,1,0,0:0:0:0:
192,192,227909,1,0,0:0:0:0:
64,192,227909,1,0,0:0:0:0:
448,192,227981,1,0,0:0:0:0:
320,192,228052,1,0,0:0:0:0:
64,192,228124,1,0,0:0:0:0:
192,192,228195,1,0,0:0:0:0:
320,192,228267,1,0,0:0:0:0:
192,192,228339,1,0,0:0:0:0:
448,192,228411,1,0,0:0:0:0:
320,192,228483,1,0,0:0:0:0:
64,192,228483,1,0,0:0:0:0:
192,192,228555,1,0,0:0:0:0:
320,192,228626,1,0,0:0:0:0:
192,192,228698,1,0,0:0:0:0:
64,192,228770,1,0,0:0:0:0:
448,192,228842,1,0,0:0:0:0:
64,192,228914,1,0,0:0:0:0:
192,192,228985,1,0,0:0:0:0:
448,192,229057,1,0,0:0:0:0:
320,192,229057,1,0,0:0:0:0:
192,192,229129,1,0,0:0:0:0:
320,192,229201,1,0,0:0:0:0:
64,192,229273,1,0,0:0:0:0:
448,192,229345,1,0,0:0:0:0:
64,192,229415,1,0,0:0:0:0:
320,192,229487,1,0,0:0:0:0:
192,192,229559,1,0,0:0:0:0:
64,192,229631,1,0,0:0:0:0:
448,192,229631,1,0,0:0:0:0:
320,192,229703,1,0,0:0:0:0:
64,192,229775,1,0,0:0:0:0:
192,192,229846,1,0,0:0:0:0:
320,192,229918,1,0,0:0:0:0:
448,192,229918,1,0,0:0:0:0:
64,192,229990,1,0,0:0:0:0:
192,192,230062,1,0,0:0:0:0:
448,192,230134,1,0,0:0:0:0:
64,192,230205,1,0,0:0:0:0:
320,192,230205,1,0,0:0:0:0:
192,192,230277,1,0,0:0:0:0:
448,192,230349,1,0,0:0:0:0:
192,192,230421,1,0,0:0:0:0:
448,192,230493,1,0,0:0:0:0:
320,192,230565,1,0,0:0:0:0:
64,192,230636,1,0,0:0:0:0:
448,192,230708,1,0,0:0:0:0:
320,192,230779,1,0,0:0:0:0:
64,192,230779,1,0,0:0:0:0:
192,192,230851,1,0,0:0:0:0:
448,192,230923,1,0,0:0:0:0:
64,192,230995,1,0,0:0:0:0:
192,192,231066,1,0,0:0:0:0:
320,192,231138,1,0,0:0:0:0:
192,192,231210,1,0,0:0:0:0:
320,192,231282,1,0,0:0:0:0:
64,192,231354,1,0,0:0:0:0:
448,192,231354,1,0,0:0:0:0:
192,192,231425,1,0,0:0:0:0:
320,192,231497,1,0,0:0:0:0:
64,192,231569,1,0,0:0:0:0:
448,192,231641,1,0,0:0:0:0:
320,192,231713,1,0,0:0:0:0:
192,192,231785,1,0,0:0:0:0:
448,192,231856,1,0,0:0:0:0:
320,192,231928,1,0,0:0:0:0:
64,192,231928,1,0,0:0:0:0:
192,192,232000,1,0,0:0:0:0:
320,192,232072,1,0,0:0:0:0:
192,192,232143,1,0,0:0:0:0:
64,192,232215,1,0,0:0:0:0:
448,192,232215,1,0,0:0:0:0:
320,192,232286,1,0,0:0:0:0:
192,192,232358,1,0,0:0:0:0:
448,192,232430,1,0,0:0:0:0:
64,192,232502,1,0,0:0:0:0:
320,192,232502,1,0,0:0:0:0:
192,192,232574,1,0,0:0:0:0:
448,192,232645,1,0,0:0:0:0:
64,192,232717,1,0,0:0:0:0:
192,192,232789,1,0,0:0:0:0:
448,192,232861,1,0,0:0:0:0:
192,192,232933,1,0,0:0:0:0:
448,192,233005,1,0,0:0:0:0:
320,192,233076,1,0,0:0:0:0:
64,192,233076,1,0,0:0:0:0:
192,192,233148,1,0,0:0:0:0:
448,192,233220,1,0,0:0:0:0:
192,192,233292,1,0,0:0:0:0:
448,192,233364,1,0,0:0:0:0:
320,192,233435,1,0,0:0:0:0:
64,192,233506,1,0,0:0:0:0:
448,192,233578,1,0,0:0:0:0:
320,192,233650,1,0,0:0:0:0:
64,192,233650,1,0,0:0:0:0:
192,192,233722,1,0,0:0:0:0:
320,192,233794,1,0,0:0:0:0:
64,192,233865,1,0,0:0:0:0:
448,192,233937,1,0,0:0:0:0:
192,192,234009,1,0,0:0:0:0:
448,192,234081,1,0,0:0:0:0:
192,192,234153,1,0,0:0:0:0:
64,192,234225,1,0,0:0:0:0:
320,192,234225,1,0,0:0:0:0:
448,192,234296,1,0,0:0:0:0:
192,192,234368,1,0,0:0:0:0:
320,192,234440,1,0,0:0:0:0:
192,192,234512,1,0,0:0:0:0:
64,192,234512,1,0,0:0:0:0:
448,192,234584,1,0,0:0:0:0:
320,192,234655,1,0,0:0:0:0:
64,192,234727,1,0,0:0:0:0:
448,192,234799,1,0,0:0:0:0:
192,192,234799,1,0,0:0:0:0:
320,192,234870,1,0,0:0:0:0:
64,192,234942,1,0,0:0:0:0:
192,192,235014,1,0,0:0:0:0:
320,192,235085,1,0,0:0:0:0:
192,192,235157,1,0,0:0:0:0:
320,192,235229,1,0,0:0:0:0:
64,192,235301,1,0,0:0:0:0:
192,192,235373,1,0,0:0:0:0:
448,192,235373,1,0,0:0:0:0:
320,192,235445,1,0,0:0:0:0:
64,192,235516,1,0,0:0:0:0:
320,192,235588,1,0,0:0:0:0:
64,192,235660,1,0,0:0:0:0:
448,192,235732,1,0,0:0:0:0:
320,192,235804,1,0,0:0:0:0:
192,192,235875,1,0,0:0:0:0:
64,192,235947,1,0,0:0:0:0:
448,192,235947,1,0,0:0:0:0:
192,192,236019,1,0,0:0:0:0:
448,192,236091,1,0,0:0:0:0:
320,192,236163,1,0,0:0:0:0:
64,192,236234,1,0,0:0:0:0:
192,192,236305,1,0,0:0:0:0:
64,192,236377,1,0,0:0:0:0:
192,192,236449,1,0,0:0:0:0:
448,192,236521,1,0,0:0:0:0:
64,192,236593,1,0,0:0:0:0:
448,192,236665,1,0,0:0:0:0:
64,192,236736,1,0,0:0:0:0:
192,192,236808,1,0,0:0:0:0:
320,192,236808,1,0,0:0:0:0:
448,192,236880,1,0,0:0:0:0:
64,192,236952,1,0,0:0:0:0:
320,192,237024,1,0,0:0:0:0:
192,192,237095,1,0,0:0:0:0:
64,192,237095,1,0,0:0:0:0:
448,192,237167,1,0,0:0:0:0:
192,192,237239,1,0,0:0:0:0:
320,192,237311,1,0,0:0:0:0:
64,192,237383,1,0,0:0:0:0:
192,192,237455,1,0,0:0:0:0:
448,192,237526,1,0,0:0:0:0:
64,192,237597,1,0,0:0:0:0:
320,192,237669,1,0,0:0:0:0:
192,192,237669,1,0,0:0:0:0:
448,192,237741,1,0,0:0:0:0:
64,192,237813,1,0,0:0:0:0:
448,192,237885,1,0,0:0:0:0:
192,192,237956,1,0,0:0:0:0:
320,192,238028,1,0,0:0:0:0:
64,192,238100,1,0,0:0:0:0:
448,192,238172,1,0,0:0:0:0:
64,192,238244,1,0,0:0:0:0:
192,192,238244,1,0,0:0:0:0:
320,192,238315,1,0,0:0:0:0:
192,192,238387,1,0,0:0:0:0:
320,192,238459,1,0,0:0:0:0:
64,192,238531,1,0,0:0:0:0:
448,192,238603,1,0,0:0:0:0:
192,192,238675,1,0,0:0:0:0:
448,192,238746,1,0,0:0:0:0:
64,192,238818,1,0,0:0:0:0:
320,192,238818,1,0,0:0:0:0:
192,192,238890,1,0,0:0:0:0:
320,192,238961,1,0,0:0:0:0:
192,192,239033,1,0,0:0:0:0:
448,192,239105,1,0,0:0:0:0:
320,192,239105,1,0,0:0:0:0:
64,192,239176,1,0,0:0:0:0:
192,192,239248,1,0,0:0:0:0:
448,192,239320,1,0,0:0:0:0:
64,192,239392,1,0,0:0:0:0:
320,192,239392,1,0,0:0:0:0:
192,192,239464,1,0,0:0:0:0:
448,192,239535,1,0,0:0:0:0:
192,192,239607,1,0,0:0:0:0:
448,192,239679,1,0,0:0:0:0:
320,192,239751,1,0,0:0:0:0:
64,192,239823,1,0,0:0:0:0:
448,192,239895,1,0,0:0:0:0:
64,192,239966,1,0,0:0:0:0:
320,192,239966,1,0,0:0:0:0:
192,192,240038,1,0,0:0:0:0:
448,192,240110,1,0,0:0:0:0:
64,192,240182,1,0,0:0:0:0:
192,192,240254,1,0,0:0:0:0:
448,192,240325,1,0,0:0:0:0:
64,192,240396,1,0,0:0:0:0:
320,192,240468,1,0,0:0:0:0:
192,192,240540,1,0,0:0:0:0:
64,192,240540,1,0,0:0:0:0:
320,192,240612,1,0,0:0:0:0:
192,192,240684,1,0,0:0:0:0:
448,192,240755,1,0,0:0:0:0:
64,192,240827,1,0,0:0:0:0:
320,192,240899,1,0,0:0:0:0:
64,192,240971,1,0,0:0:0:0:
192,192,241043,1,0,0:0:0:0:
320,192,241115,1,0,0:0:0:0:
448,192,241115,1,0,0:0:0:0:
64,192,241186,1,0,0:0:0:0:
192,192,241258,1,0,0:0:0:0:
64,192,241330,1,0,0:0:0:0:
320,192,241402,1,0,0:0:0:0:
448,192,241402,1,0,0:0:0:0:
192,192,241474,1,0,0:0:0:0:
448,192,241545,1,0,0:0:0:0:
64,192,241617,1,0,0:0:0:0:
192,192,241688,1,0,0:0:0:0:
320,192,241688,1,0,0:0:0:0:
448,192,241760,1,0,0:0:0:0:
64,192,241832,1,0,0:0:0:0:
320,192,241904,1,0,0:0:0:0:
192,192,241975,1,0,0:0:0:0:
320,192,242047,1,0,0:0:0:0:
64,192,242119,1,0,0:0:0:0:
192,192,242191,1,0,0:0:0:0:
320,192,242263,1,0,0:0:0:0:
448,192,242263,1,0,0:0:0:0:
64,192,242335,1,0,0:0:0:0:
448,192,242406,1,0,0:0:0:0:
64,192,242478,1,0,0:0:0:0:
320,192,242550,1,0,0:0:0:0:
192,192,242622,1,0,0:0:0:0:
320,192,242694,1,0,0:0:0:0:
192,192,242765,1,0,0:0:0:0:
64,192,242837,1,0,0:0:0:0:
448,192,242837,1,0,0:0:0:0:
320,192,242909,1,0,0:0:0:0:
192,192,242981,1,0,0:0:0:0:
448,192,243052,1,0,0:0:0:0:
64,192,243124,1,0,0:0:0:0:
192,192,243195,1,0,0:0:0:0:
320,192,243267,1,0,0:0:0:0:
192,192,243339,1,0,0:0:0:0:
320,192,243411,1,0,0:0:0:0:
448,192,243411,1,0,0:0:0:0:
64,192,243483,1,0,0:0:0:0:
448,192,243555,1,0,0:0:0:0:
320,192,243626,1,0,0:0:0:0:
192,192,243698,1,0,0:0:0:0:
64,192,243698,1,0,0:0:0:0:
320,192,243770,1,0,0:0:0:0:
64,192,243842,1,0,0:0:0:0:
192,192,243914,1,0,0:0:0:0:
320,192,243985,1,0,0:0:0:0:
448,192,243985,1,0,0:0:0:0:
64,192,244057,1,0,0:0:0:0:
192,192,244129,1,0,0:0:0:0:
320,192,244201,1,0,0:0:0:0:
64,192,244273,1,0,0:0:0:0:
320,192,244345,1,0,0:0:0:0:
192,192,244415,1,0,0:0:0:0:
448,192,244487,1,0,0:0:0:0:
320,192,244559,1,0,0:0:0:0:
64,192,244559,1,0,0:0:0:0:
192,192,244631,1,0,0:0:0:0:
448,192,244703,1,0,0:0:0:0:
192,192,244775,1,0,0:0:0:0:
448,192,244846,1,0,0:0:0:0:
320,192,244918,1,0,0:0:0:0:
64,192,244990,1,0,0:0:0:0:
192,192,245062,1,0,0:0:0:0:
320,192,245134,1,0,0:0:0:0:
448,192,245134,1,0,0:0:0:0:
192,192,245205,1,0,0:0:0:0:
448,192,245277,1,0,0:0:0:0:
320,192,245349,1,0,0:0:0:0:
192,192,245421,1,0,0:0:0:0:
64,192,245421,1,0,0:0:0:0:
320,192,245493,1,0,0:0:0:0:
448,192,245493,1,0,0:0:0:0:
192,192,245565,1,0,0:0:0:0:
64,192,245565,1,0,0:0:0:0:
320,192,245636,1,0,0:0:0:0:
448,192,245636,1,0,0:0:0:0:
64,192,245708,1,0,0:0:0:0:
192,192,245779,1,0,0:0:0:0:
448,192,245851,1,0,0:0:0:0:
64,192,245923,1,0,0:0:0:0:
320,192,245995,1,0,0:0:0:0:
448,192,245995,1,0,0:0:0:0:
192,192,245995,1,0,0:0:0:0:
64,192,246138,1,0,0:0:0:0:
320,192,246138,1,0,0:0:0:0:
192,192,246282,1,0,0:0:0:0:
64,192,246282,1,0,0:0:0:0:
448,192,246282,1,0,0:0:0:0:
320,192,246425,1,0,0:0:0:0:
192,192,246425,1,0,0:0:0:0:
64,192,246569,1,0,0:0:0:0:
320,192,246569,1,0,0:0:0:0:
192,192,246713,1,0,0:0:0:0:
448,192,246713,1,0,0:0:0:0:
320,192,246856,1,0,0:0:0:0:
192,192,246856,1,0,0:0:0:0:
64,192,246856,1,0,0:0:0:0:
64,192,247000,1,0,0:0:0:0:
448,192,247000,1,0,0:0:0:0:
192,192,247143,1,0,0:0:0:0:
320,192,247143,1,0,0:0:0:0:
448,192,247143,1,0,0:0:0:0:
320,192,247286,1,0,0:0:0:0:
64,192,247286,1,0,0:0:0:0:
192,192,247430,1,0,0:0:0:0:
64,192,247430,1,0,0:0:0:0:
448,192,247430,1,0,0:0:0:0:
320,192,247574,1,0,0:0:0:0:
192,192,247574,1,0,0:0:0:0:
64,192,247717,1,0,0:0:0:0:
320,192,247717,1,0,0:0:0:0:
192,192,247861,1,0,0:0:0:0:
64,192,247861,1,0,0:0:0:0:
192,192,248005,1,0,0:0:0:0:
320,192,248005,1,0,0:0:0:0:
448,192,248005,1,0,0:0:0:0:
64,192,248148,1,0,0:0:0:0:
448,192,248148,1,0,0:0:0:0:
320,192,248292,1,0,0:0:0:0:
64,192,248292,1,0,0:0:0:0:
192,192,248435,1,0,0:0:0:0:
320,192,248435,1,0,0:0:0:0:
192,192,248578,1,0,0:0:0:0:
64,192,248578,1,0,0:0:0:0:
448,192,248578,1,0,0:0:0:0:
320,192,248722,1,0,0:0:0:0:
64,192,248722,1,0,0:0:0:0:
320,192,248865,1,0,0:0:0:0:
448,192,248865,1,0,0:0:0:0:
192,192,249009,1,0,0:0:0:0:
64,192,249009,1,0,0:0:0:0:
448,192,249009,1,0,0:0:0:0:
64,192,249153,1,0,0:0:0:0:
192,192,249153,1,0,0:0:0:0:
320,192,249225,1,0,0:0:0:0:
448,192,249225,1,0,0:0:0:0:
192,192,249296,1,0,0:0:0:0:
320,192,249368,1,0,0:0:0:0:
64,192,249440,1,0,0:0:0:0:
192,192,249440,1,0,0:0:0:0:
448,192,249512,1,0,0:0:0:0:
320,192,249584,1,0,0:0:0:0:
192,192,249655,1,0,0:0:0:0:
448,192,249727,1,0,0:0:0:0:
64,192,249799,1,0,0:0:0:0:
320,192,249870,1,0,0:0:0:0:
448,192,249870,1,0,0:0:0:0:
192,192,249942,1,0,0:0:0:0:
64,192,249942,1,0,0:0:0:0:
320,192,250014,1,0,0:0:0:0:
448,192,250014,1,0,0:0:0:0:
192,192,250085,1,0,0:0:0:0:
64,192,250085,1,0,0:0:0:0:
320,192,250157,1,0,0:0:0:0:
192,192,250229,1,0,0:0:0:0:
64,192,250301,1,0,0:0:0:0:
448,192,250373,1,0,0:0:0:0:
192,192,250445,1,0,0:0:0:0:
320,192,250516,1,0,0:0:0:0:
192,192,250588,1,0,0:0:0:0:
64,192,250588,1,0,0:0:0:0:
448,192,250660,1,0,0:0:0:0:
320,192,250732,1,0,0:0:0:0:
192,192,250804,1,0,0:0:0:0:
320,192,250875,1,0,0:0:0:0:
192,192,250947,1,0,0:0:0:0:
448,192,251019,1,0,0:0:0:0:
64,192,251091,1,0,0:0:0:0:
320,192,251163,1,0,0:0:0:0:
64,192,251234,1,0,0:0:0:0:
320,192,251305,1,0,0:0:0:0:
192,192,251377,1,0,0:0:0:0:
64,192,251449,1,0,0:0:0:0:
448,192,251449,1,0,0:0:0:0:
320,192,251521,1,0,0:0:0:0:
192,192,251593,1,0,0:0:0:0:
320,192,251665,1,0,0:0:0:0:
64,192,251736,1,0,0:0:0:0:
448,192,251808,1,0,0:0:0:0:
64,192,251880,1,0,0:0:0:0:
448,192,251952,1,0,0:0:0:0:
320,192,252024,1,0,0:0:0:0:
64,192,252024,1,0,0:0:0:0:
192,192,252095,1,0,0:0:0:0:
448,192,252167,1,0,0:0:0:0:
320,192,252239,1,0,0:0:0:0:
192,192,252311,1,0,0:0:0:0:
448,192,252383,1,0,0:0:0:0:
64,192,252455,1,0,0:0:0:0:
320,192,252526,1,0,0:0:0:0:
192,192,252597,1,0,0:0:0:0:
64,192,252597,1,0,0:0:0:0:
448,192,252669,1,0,0:0:0:0:
320,192,252741,1,0,0:0:0:0:
64,192,252813,1,0,0:0:0:0:
320,192,252885,1,0,0:0:0:0:
64,192,252956,1,0,0:0:0:0:
448,192,253028,1,0,0:0:0:0:
192,192,253100,1,0,0:0:0:0:
320,192,253172,1,0,0:0:0:0:
448,192,253172,1,0,0:0:0:0:
64,192,253244,1,0,0:0:0:0:
192,192,253315,1,0,0:0:0:0:
448,192,253387,1,0,0:0:0:0:
64,192,253459,1,0,0:0:0:0:
320,192,253531,1,0,0:0:0:0:
192,192,253603,1,0,0:0:0:0:
448,192,253675,1,0,0:0:0:0:
320,192,253746,1,0,0:0:0:0:
192,192,253746,1,0,0:0:0:0:
64,192,253818,1,0,0:0:0:0:
448,192,253890,1,0,0:0:0:0:
64,192,253961,1,0,0:0:0:0:
320,192,254033,1,0,0:0:0:0:
192,192,254105,1,0,0:0:0:0:
320,192,254176,1,0,0:0:0:0:
64,192,254248,1,0,0:0:0:0:
192,192,254320,1,0,0:0:0:0:
448,192,254320,1,0,0:0:0:0:
320,192,254392,1,0,0:0:0:0:
64,192,254464,1,0,0:0:0:0:
192,192,254535,1,0,0:0:0:0:
448,192,254607,1,0,0:0:0:0:
64,192,254679,1,0,0:0:0:0:
448,192,254751,1,0,0:0:0:0:
320,192,254823,1,0,0:0:0:0:
192,192,254895,1,0,0:0:0:0:
64,192,254895,1,0,0:0:0:0:
448,192,254966,1,0,0:0:0:0:
320,192,255038,1,0,0:0:0:0:
64,192,255110,1,0,0:0:0:0:
320,192,255182,1,0,0:0:0:0:
192,192,255182,1,0,0:0:0:0:
448,192,255254,1,0,0:0:0:0:
64,192,255325,1,0,0:0:0:0:
320,192,255396,1,0,0:0:0:0:
192,192,255468,1,0,0:0:0:0:
64,192,255468,1,0,0:0:0:0:
448,192,255540,1,0,0:0:0:0:
320,192,255612,1,0,0:0:0:0:
192,192,255684,1,0,0:0:0:0:
320,192,255755,1,0,0:0:0:0:
192,192,255827,1,0,0:0:0:0:
448,192,255899,1,0,0:0:0:0:
64,192,255971,1,0,0:0:0:0:
192,192,256043,1,0,0:0:0:0:
448,192,256043,1,0,0:0:0:0:
320,192,256115,1,0,0:0:0:0:
64,192,256186,1,0,0:0:0:0:
192,192,256258,1,0,0:0:0:0:
448,192,256330,1,0,0:0:0:0:
192,192,256402,1,0,0:0:0:0:
320,192,256474,1,0,0:0:0:0:
64,192,256545,1,0,0:0:0:0:
192,192,256617,1,0,0:0:0:0:
448,192,256617,1,0,0:0:0:0:
320,192,256688,1,0,0:0:0:0:
192,192,256760,1,0,0:0:0:0:
320,192,256832,1,0,0:0:0:0:
64,192,256904,1,0,0:0:0:0:
448,192,256975,1,0,0:0:0:0:
192,192,257047,1,0,0:0:0:0:
320,192,257119,1,0,0:0:0:0:
192,192,257191,1,0,0:0:0:0:
64,192,257191,1,0,0:0:0:0:
448,192,257263,1,0,0:0:0:0:
320,192,257335,1,0,0:0:0:0:
64,192,257406,1,0,0:0:0:0:
192,192,257478,1,0,0:0:0:0:
448,192,257478,1,0,0:0:0:0:
320,192,257550,1,0,0:0:0:0:
192,192,257622,1,0,0:0:0:0:
320,192,257694,1,0,0:0:0:0:
64,192,257765,1,0,0:0:0:0:
448,192,257765,1,0,0:0:0:0:
192,192,257837,1,0,0:0:0:0:
320,192,257909,1,0,0:0:0:0:
64,192,257981,1,0,0:0:0:0:
448,192,258052,1,0,0:0:0:0:
192,192,258124,1,0,0:0:0:0:
448,192,258195,1,0,0:0:0:0:
320,192,258267,1,0,0:0:0:0:
192,192,258339,1,0,0:0:0:0:
64,192,258339,1,0,0:0:0:0:
448,192,258411,1,0,0:0:0:0:
64,192,258483,1,0,0:0:0:0:
192,192,258555,1,0,0:0:0:0:
448,192,258626,1,0,0:0:0:0:
64,192,258698,1,0,0:0:0:0:
320,192,258770,1,0,0:0:0:0:
64,192,258842,1,0,0:0:0:0:
192,192,258914,1,0,0:0:0:0:
448,192,258914,1,0,0:0:0:0:
320,192,258985,1,0,0:0:0:0:
192,192,259057,1,0,0:0:0:0:
320,192,259129,1,0,0:0:0:0:
64,192,259201,1,0,0:0:0:0:
192,192,259273,1,0,0:0:0:0:
448,192,259345,1,0,0:0:0:0:
192,192,259415,1,0,0:0:0:0:
448,192,259487,1,0,0:0:0:0:
320,192,259559,1,0,0:0:0:0:
192,192,259631,1,0,0:0:0:0:
320,192,259703,1,0,0:0:0:0:
192,192,259775,1,0,0:0:0:0:
64,192,259775,1,0,0:0:0:0:
448,192,259846,1,0,0:0:0:0:
320,192,259918,1,0,0:0:0:0:
64,192,259990,1,0,0:0:0:0:
192,192,260062,1,0,0:0:0:0:
448,192,260062,1,0,0:0:0:0:
320,192,260134,1,0,0:0:0:0:
192,192,260205,1,0,0:0:0:0:
320,192,260277,1,0,0:0:0:0:
64,192,260349,1,0,0:0:0:0:
448,192,260421,1,0,0:0:0:0:
320,192,260493,1,0,0:0:0:0:
192,192,260565,1,0,0:0:0:0:
64,192,260636,1,0,0:0:0:0:
448,192,260636,1,0,0:0:0:0:
192,192,260708,1,0,0:0:0:0:
320,192,260779,1,0,0:0:0:0:
64,192,260851,1,0,0:0:0:0:
448,192,260923,1,0,0:0:0:0:
64,192,260995,1,0,0:0:0:0:
448,192,261066,1,0,0:0:0:0:
320,192,261138,1,0,0:0:0:0:
192,192,261210,1,0,0:0:0:0:
64,192,261210,1,0,0:0:0:0:
320,192,261282,1,0,0:0:0:0:
192,192,261354,1,0,0:0:0:0:
448,192,261425,1,0,0:0:0:0:
64,192,261497,1,0,0:0:0:0:
320,192,261569,1,0,0:0:0:0:
192,192,261641,1,0,0:0:0:0:
320,192,261713,1,0,0:0:0:0:
192,192,261785,1,0,0:0:0:0:
64,192,261785,1,0,0:0:0:0:
448,192,261856,1,0,0:0:0:0:
320,192,261928,1,0,0:0:0:0:
64,192,262000,1,0,0:0:0:0:
320,192,262072,1,0,0:0:0:0:
192,192,262072,1,0,0:0:0:0:
448,192,262143,1,0,0:0:0:0:
64,192,262215,1,0,0:0:0:0:
448,192,262286,1,0,0:0:0:0:
192,192,262358,1,0,0:0:0:0:
64,192,262358,1,0,0:0:0:0:
320,192,262430,1,0,0:0:0:0:
192,192,262502,1,0,0:0:0:0:
448,192,262574,1,0,0:0:0:0:
64,192,262645,1,0,0:0:0:0:
320,192,262717,1,0,0:0:0:0:
64,192,262789,1,0,0:0:0:0:
320,192,262861,1,0,0:0:0:0:
192,192,262933,1,0,0:0:0:0:
448,192,262933,1,0,0:0:0:0:
64,192,263005,1,0,0:0:0:0:
320,192,263076,1,0,0:0:0:0:
192,192,263148,1,0,0:0:0:0:
448,192,263220,1,0,0:0:0:0:
64,192,263292,1,0,0:0:0:0:
448,192,263364,1,0,0:0:0:0:
320,192,263435,1,0,0:0:0:0:
192,192,263506,1,0,0:0:0:0:
64,192,263506,1,0,0:0:0:0:
320,192,263578,1,0,0:0:0:0:
192,192,263650,1,0,0:0:0:0:
448,192,263722,1,0,0:0:0:0:
64,192,263794,1,0,0:0:0:0:
320,192,263865,1,0,0:0:0:0:
192,192,263937,1,0,0:0:0:0:
448,192,264009,1,0,0:0:0:0:
64,192,264081,1,0,0:0:0:0:
320,192,264081,1,0,0:0:0:0:
192,192,264153,1,0,0:0:0:0:
320,192,264225,1,0,0:0:0:0:
192,192,264296,1,0,0:0:0:0:
64,192,264368,1,0,0:0:0:0:
448,192,264368,1,0,0:0:0:0:
320,192,264440,1,0,0:0:0:0:
192,192,264512,1,0,0:0:0:0:
448,192,264584,1,0,0:0:0:0:
64,192,264655,1,0,0:0:0:0:
192,192,264655,1,0,0:0:0:0:
320,192,264727,1,0,0:0:0:0:
64,192,264799,1,0,0:0:0:0:
320,192,264870,1,0,0:0:0:0:
192,192,264942,1,0,0:0:0:0:
448,192,265014,1,0,0:0:0:0:
320,192,265085,1,0,0:0:0:0:
64,192,265157,1,0,0:0:0:0:
192,192,265229,1,0,0:0:0:0:
320,192,265229,1,0,0:0:0:0:
448,192,265301,1,0,0:0:0:0:
64,192,265373,1,0,0:0:0:0:
320,192,265445,1,0,0:0:0:0:
192,192,265516,1,0,0:0:0:0:
320,192,265588,1,0,0:0:0:0:
192,192,265660,1,0,0:0:0:0:
448,192,265732,1,0,0:0:0:0:
320,192,265804,1,0,0:0:0:0:
64,192,265804,1,0,0:0:0:0:
192,192,265875,1,0,0:0:0:0:
448,192,265947,1,0,0:0:0:0:
64,192,266019,1,0,0:0:0:0:
320,192,266091,1,0,0:0:0:0:
64,192,266163,1,0,0:0:0:0:
192,192,266234,1,0,0:0:0:0:
320,192,266305,1,0,0:0:0:0:
192,192,266377,1,0,0:0:0:0:
64,192,266377,1,0,0:0:0:0:
448,192,266449,1,0,0:0:0:0:
64,192,266521,1,0,0:0:0:0:
192,192,266593,1,0,0:0:0:0:
320,192,266665,1,0,0:0:0:0:
448,192,266665,1,0,0:0:0:0:
64,192,266736,1,0,0:0:0:0:
320,192,266808,1,0,0:0:0:0:
64,192,266880,1,0,0:0:0:0:
192,192,266952,1,0,0:0:0:0:
448,192,266952,1,0,0:0:0:0:
320,192,267024,1,0,0:0:0:0:
64,192,267095,1,0,0:0:0:0:
448,192,267167,1,0,0:0:0:0:
64,192,267239,1,0,0:0:0:0:
320,192,267311,1,0,0:0:0:0:
192,192,267383,1,0,0:0:0:0:
320,192,267455,1,0,0:0:0:0:
192,192,267526,1,0,0:0:0:0:
64,192,267526,1,0,0:0:0:0:
448,192,267597,1,0,0:0:0:0:
64,192,267669,1,0,0:0:0:0:
192,192,267741,1,0,0:0:0:0:
320,192,267813,1,0,0:0:0:0:
64,192,267885,1,0,0:0:0:0:
448,192,267956,1,0,0:0:0:0:
64,192,268028,1,0,0:0:0:0:
192,192,268100,1,0,0:0:0:0:
448,192,268100,1,0,0:0:0:0:
320,192,268172,1,0,0:0:0:0:
64,192,268244,1,0,0:0:0:0:
192,192,268315,1,0,0:0:0:0:
448,192,268387,1,0,0:0:0:0:
320,192,268459,1,0,0:0:0:0:
192,192,268531,1,0,0:0:0:0:
64,192,268603,1,0,0:0:0:0:
448,192,268675,1,0,0:0:0:0:
320,192,268746,1,0,0:0:0:0:
192,192,268818,1,0,0:0:0:0:
64,192,268890,1,0,0:0:0:0:
320,192,268961,1,0,0:0:0:0:
448,192,268961,1,0,0:0:0:0:
192,192,269033,1,0,0:0:0:0:
448,192,269105,1,0,0:0:0:0:
64,192,269176,1,0,0:0:0:0:
192,192,269248,1,0,0:0:0:0:
320,192,269248,1,0,0:0:0:0:
448,192,269320,1,0,0:0:0:0:
64,192,269392,1,0,0:0:0:0:
320,192,269464,1,0,0:0:0:0:
64,192,269535,1,0,0:0:0:0:
320,192,269607,1,0,0:0:0:0:
192,192,269679,1,0,0:0:0:0:
448,192,269751,1,0,0:0:0:0:
320,192,269823,1,0,0:0:0:0:
64,192,269823,1,0,0:0:0:0:
192,192,269895,1,0,0:0:0:0:
448,192,269966,1,0,0:0:0:0:
192,192,270038,1,0,0:0:0:0:
64,192,270110,1,0,0:0:0:0:
448,192,270182,1,0,0:0:0:0:
320,192,270254,1,0,0:0:0:0:
192,192,270325,1,0,0:0:0:0:
64,192,270396,1,0,0:0:0:0:
448,192,270396,1,0,0:0:0:0:
320,192,270468,1,0,0:0:0:0:
192,192,270540,1,0,0:0:0:0:
320,192,270612,1,0,0:0:0:0:
64,192,270684,1,0,0:0:0:0:
448,192,270755,1,0,0:0:0:0:
64,192,270827,1,0,0:0:0:0:
448,192,270899,1,0,0:0:0:0:
320,192,270971,1,0,0:0:0:0:
64,192,270971,1,0,0:0:0:0:
192,192,271043,1,0,0:0:0:0:
320,192,271115,1,0,0:0:0:0:
64,192,271186,1,0,0:0:0:0:
192,192,271258,1,0,0:0:0:0:
448,192,271258,1,0,0:0:0:0:
320,192,271330,1,0,0:0:0:0:
64,192,271402,1,0,0:0:0:0:
448,192,271474,1,0,0:0:0:0:
320,192,271545,1,0,0:0:0:0:
64,192,271545,1,0,0:0:0:0:
192,192,271617,1,0,0:0:0:0:
448,192,271688,1,0,0:0:0:0:
64,192,271760,1,0,0:0:0:0:
192,192,271832,1,0,0:0:0:0:
448,192,271904,1,0,0:0:0:0:
192,192,271975,1,0,0:0:0:0:
320,192,272047,1,0,0:0:0:0:
64,192,272119,1,0,0:0:0:0:
448,192,272119,1,0,0:0:0:0:
192,192,272191,1,0,0:0:0:0:
320,192,272263,1,0,0:0:0:0:
192,192,272335,1,0,0:0:0:0:
320,192,272406,1,0,0:0:0:0:
448,192,272406,1,0,0:0:0:0:
64,192,272478,1,0,0:0:0:0:
192,192,272550,1,0,0:0:0:0:
448,192,272622,1,0,0:0:0:0:
320,192,272694,1,0,0:0:0:0:
64,192,272694,1,0,0:0:0:0:
192,192,272765,1,0,0:0:0:0:
448,192,272837,1,0,0:0:0:0:
64,192,272909,1,0,0:0:0:0:
192,192,272981,1,0,0:0:0:0:
320,192,273052,1,0,0:0:0:0:
64,192,273124,1,0,0:0:0:0:
448,192,273195,1,0,0:0:0:0:
320,192,273267,1,0,0:0:0:0:
64,192,273267,1,0,0:0:0:0:
192,192,273339,1,0,0:0:0:0:
448,192,273411,1,0,0:0:0:0:
192,192,273483,1,0,0:0:0:0:
320,192,273555,1,0,0:0:0:0:
448,192,273555,1,0,0:0:0:0:
64,192,273626,1,0,0:0:0:0:
192,192,273698,1,0,0:0:0:0:
448,192,273770,1,0,0:0:0:0:
320,192,273842,1,0,0:0:0:0:
64,192,273842,1,0,0:0:0:0:
192,192,273914,1,0,0:0:0:0:
320,192,273985,1,0,0:0:0:0:
192,192,274057,1,0,0:0:0:0:
448,192,274129,1,0,0:0:0:0:
64,192,274201,1,0,0:0:0:0:
320,192,274273,1,0,0:0:0:0:
192,192,274345,1,0,0:0:0:0:
64,192,274415,1,0,0:0:0:0:
448,192,274415,1,0,0:0:0:0:
320,192,274487,1,0,0:0:0:0:
64,192,274559,1,0,0:0:0:0:
320,192,274631,1,0,0:0:0:0:
192,192,274703,1,0,0:0:0:0:
448,192,274775,1,0,0:0:0:0:
64,192,274846,1,0,0:0:0:0:
192,192,274918,1,0,0:0:0:0:
320,192,274990,1,0,0:0:0:0:
448,192,274990,1,0,0:0:0:0:
192,192,275062,1,0,0:0:0:0:
320,192,275134,1,0,0:0:0:0:
64,192,275205,1,0,0:0:0:0:
448,192,275277,1,0,0:0:0:0:
320,192,275349,1,0,0:0:0:0:
64,192,275421,1,0,0:0:0:0:
320,192,275493,1,0,0:0:0:0:
192,192,275565,1,0,0:0:0:0:
64,192,275565,1,0,0:0:0:0:
448,192,275636,1,0,0:0:0:0:
192,192,275708,1,0,0:0:0:0:
320,192,275779,1,0,0:0:0:0:
64,192,275851,1,0,0:0:0:0:
192,192,275851,1,0,0:0:0:0:
448,192,275923,1,0,0:0:0:0:
64,192,275995,1,0,0:0:0:0:
448,192,276066,1,0,0:0:0:0:
320,192,276138,1,0,0:0:0:0:
192,192,276138,1,0,0:0:0:0:
64,192,276210,1,0,0:0:0:0:
448,192,276282,1,0,0:0:0:0:
64,192,276354,1,0,0:0:0:0:
192,192,276425,1,0,0:0:0:0:
448,192,276497,1,0,0:0:0:0:
320,192,276569,1,0,0:0:0:0:
192,192,276641,1,0,0:0:0:0:
64,192,276713,1,0,0:0:0:0:
448,192,276713,1,0,0:0:0:0:
320,192,276785,1,0,0:0:0:0:
64,192,276856,1,0,0:0:0:0:
192,192,276928,1,0,0:0:0:0:
320,192,277000,1,0,0:0:0:0:
64,192,277072,1,0,0:0:0:0:
320,192,277143,1,0,0:0:0:0:
448,192,277143,1,0,0:0:0:0:
64,192,277215,1,0,0:0:0:0:
192,192,277286,1,0,0:0:0:0:
320,192,277358,1,0,0:0:0:0:
64,192,277430,1,0,0:0:0:0:
192,192,277502,1,0,0:0:0:0:
320,192,277574,1,0,0:0:0:0:
448,192,277574,1,0,0:0:0:0:
192,192,277645,1,0,0:0:0:0:
64,192,277717,1,0,0:0:0:0:
448,192,277861,1,0,0:0:0:0:
320,192,277933,1,0,0:0:0:0:
192,192,278005,1,0,0:0:0:0:
320,192,278076,1,0,0:0:0:0:
64,192,278148,1,0,0:0:0:0:
192,192,278148,1,0,0:0:0:0:
448,192,278220,1,0,0:0:0:0:
64,192,278292,1,0,0:0:0:0:
448,192,278364,1,0,0:0:0:0:
320,192,278435,1,0,0:0:0:0:
192,192,278435,1,0,0:0:0:0:
64,192,278506,1,0,0:0:0:0:
320,192,278578,1,0,0:0:0:0:
64,192,278650,1,0,0:0:0:0:
448,192,278722,1,0,0:0:0:0:
192,192,278794,1,0,0:0:0:0:
320,192,278865,1,0,0:0:0:0:
192,192,278937,1,0,0:0:0:0:
64,192,279009,1,0,0:0:0:0:
448,192,279009,1,0,0:0:0:0:
320,192,279081,1,0,0:0:0:0:
192,192,279153,1,0,0:0:0:0:
320,192,279225,1,0,0:0:0:0:
64,192,279296,1,0,0:0:0:0:
448,192,279368,1,0,0:0:0:0:
192,192,279440,1,0,0:0:0:0:
448,192,279512,1,0,0:0:0:0:
320,192,279584,1,0,0:0:0:0:
64,192,279584,1,0,0:0:0:0:
192,192,279655,1,0,0:0:0:0:
448,192,279727,1,0,0:0:0:0:
192,192,279799,1,0,0:0:0:0:
448,192,279870,1,0,0:0:0:0:
320,192,279918,1,0,0:0:0:0:
192,192,279966,1,0,0:0:0:0:
64,192,280014,1,0,0:0:0:0:
320,192,280062,1,0,0:0:0:0:
192,192,280110,1,0,0:0:0:0:
448,192,280157,1,0,0:0:0:0:
320,192,280205,1,0,0:0:0:0:
192,192,280254,1,0,0:0:0:0:
64,192,280301,1,0,0:0:0:0:
320,192,280349,1,0,0:0:0:0:
192,192,280396,1,0,0:0:0:0:
64,192,280445,1,0,0:0:0:0:
448,192,280445,1,0,0:0:0:0:
320,192,280516,1,0,0:0:0:0:
192,192,280588,1,0,0:0:0:0:
320,192,280660,1,0,0:0:0:0:
448,192,280732,1,0,0:0:0:0:
192,192,280732,1,0,0:0:0:0:
64,192,280804,1,0,0:0:0:0:
320,192,280875,1,0,0:0:0:0:
64,192,280947,1,0,0:0:0:0:
448,192,281019,1,0,0:0:0:0:
192,192,281091,1,0,0:0:0:0:
320,192,281163,1,0,0:0:0:0:
192,192,281234,1,0,0:0:0:0:
320,192,281305,1,0,0:0:0:0:
64,192,281305,1,0,0:0:0:0:
448,192,281377,1,0,0:0:0:0:
192,192,281449,1,0,0:0:0:0:
448,192,281521,1,0,0:0:0:0:
64,192,281593,1,0,0:0:0:0:
320,192,281665,1,0,0:0:0:0:
192,192,281736,1,0,0:0:0:0:
320,192,281808,1,0,0:0:0:0:
448,192,281880,1,0,0:0:0:0:
192,192,281880,1,0,0:0:0:0:
64,192,281952,1,0,0:0:0:0:
320,192,282024,1,0,0:0:0:0:
64,192,282095,1,0,0:0:0:0:
448,192,282167,1,0,0:0:0:0:
320,192,282215,1,0,0:0:0:0:
192,192,282263,1,0,0:0:0:0:
64,192,282311,1,0,0:0:0:0:
320,192,282358,1,0,0:0:0:0:
192,192,282406,1,0,0:0:0:0:
448,192,282455,1,0,0:0:0:0:
320,192,282502,1,0,0:0:0:0:
192,192,282550,1,0,0:0:0:0:
64,192,282597,1,0,0:0:0:0:
320,192,282645,1,0,0:0:0:0:
192,192,282694,1,0,0:0:0:0:
64,192,282741,1,0,0:0:0:0:
448,192,282741,1,0,0:0:0:0:
320,192,282813,1,0,0:0:0:0:
64,192,282885,1,0,0:0:0:0:
320,192,282956,1,0,0:0:0:0:
192,192,283028,1,0,0:0:0:0:
448,192,283028,1,0,0:0:0:0:
64,192,283100,1,0,0:0:0:0:
320,192,283172,1,0,0:0:0:0:
64,192,283244,1,0,0:0:0:0:
448,192,283315,1,0,0:0:0:0:
192,192,283387,1,0,0:0:0:0:
320,192,283459,1,0,0:0:0:0:
192,192,283531,1,0,0:0:0:0:
64,192,283603,1,0,0:0:0:0:
320,192,283603,1,0,0:0:0:0:
448,192,283675,1,0,0:0:0:0:
192,192,283746,1,0,0:0:0:0:
448,192,283818,1,0,0:0:0:0:
64,192,283890,1,0,0:0:0:0:
320,192,283961,1,0,0:0:0:0:
192,192,284033,1,0,0:0:0:0:
320,192,284105,1,0,0:0:0:0:
192,192,284176,1,0,0:0:0:0:
448,192,284176,1,0,0:0:0:0:
64,192,284248,1,0,0:0:0:0:
320,192,284320,1,0,0:0:0:0:
64,192,284392,1,0,0:0:0:0:
448,192,284464,1,0,0:0:0:0:
320,192,284464,1,0,0:0:0:0:
192,192,284535,1,0,0:0:0:0:
64,192,284535,1,0,0:0:0:0:
320,192,284607,1,0,0:0:0:0:
448,192,284607,1,0,0:0:0:0:
192,192,284679,1,0,0:0:0:0:
64,192,284679,1,0,0:0:0:0:
320,192,284751,1,0,0:0:0:0:
192,192,284823,1,0,0:0:0:0:
64,192,284895,1,0,0:0:0:0:
320,192,284966,1,0,0:0:0:0:
192,192,285038,1,0,0:0:0:0:
448,192,285038,1,0,0:0:0:0:
64,192,285110,1,0,0:0:0:0:
320,192,285182,1,0,0:0:0:0:
448,192,285182,1,0,0:0:0:0:
64,192,285254,1,0,0:0:0:0:
192,192,285325,1,0,0:0:0:0:
448,192,285325,1,0,0:0:0:0:
320,192,285396,1,0,0:0:0:0:
192,192,285468,1,0,0:0:0:0:
64,192,285468,1,0,0:0:0:0:
320,192,285540,1,0,0:0:0:0:
64,192,285612,1,0,0:0:0:0:
448,192,285684,1,0,0:0:0:0:
192,192,285755,1,0,0:0:0:0:
320,192,285755,1,0,0:0:0:0:
448,192,285827,1,0,0:0:0:0:
320,192,285899,1,0,0:0:0:0:
64,192,285899,1,0,0:0:0:0:
192,192,285971,1,0,0:0:0:0:
320,192,286043,1,0,0:0:0:0:
448,192,286043,1,0,0:0:0:0:
192,192,286115,1,0,0:0:0:0:
64,192,286186,1,0,0:0:0:0:
320,192,286186,1,0,0:0:0:0:
448,192,286258,1,0,0:0:0:0:
192,192,286330,1,0,0:0:0:0:
64,192,286330,1,0,0:0:0:0:
448,192,286402,1,0,0:0:0:0:
320,192,286402,1,0,0:0:0:0:
192,192,286474,1,0,0:0:0:0:
64,192,286474,1,0,0:0:0:0:
320,192,286545,1,0,0:0:0:0:
448,192,286545,1,0,0:0:0:0:
64,192,286617,1,0,0:0:0:0:
192,192,286688,1,0,0:0:0:0:
320,192,286760,1,0,0:0:0:0:
448,192,286760,1,0,0:0:0:0:
192,192,286832,1,0,0:0:0:0:
64,192,286904,1,0,0:0:0:0:
448,192,286904,1,0,0:0:0:0:
320,192,286975,1,0,0:0:0:0:
192,192,287047,1,0,0:0:0:0:
64,192,287047,1,0,0:0:0:0:
320,192,287119,1,0,0:0:0:0:
64,192,287191,1,0,0:0:0:0:
192,192,287263,1,0,0:0:0:0:
320,192,287335,1,0,0:0:0:0:
448,192,287335,1,0,0:0:0:0:
64,192,287406,1,0,0:0:0:0:
320,192,287478,1,0,0:0:0:0:
64,192,287550,1,0,0:0:0:0:
448,192,287622,1,0,0:0:0:0:
192,192,287622,1,0,0:0:0:0:
320,192,287694,1,0,0:0:0:0:
64,192,287765,1,0,0:0:0:0:
320,192,287837,1,0,0:0:0:0:
192,192,287909,1,0,0:0:0:0:
448,192,287981,1,0,0:0:0:0:
64,192,288052,1,0,0:0:0:0:
448,192,288124,1,0,0:0:0:0:
192,192,288195,1,0,0:0:0:0:
320,192,288195,1,0,0:0:0:0:
64,192,288267,1,0,0:0:0:0:
448,192,288339,1,0,0:0:0:0:
64,192,288411,1,0,0:0:0:0:
320,192,288483,1,0,0:0:0:0:
192,192,288555,1,0,0:0:0:0:
448,192,288626,1,0,0:0:0:0:
192,192,288698,1,0,0:0:0:0:
320,192,288770,1,0,0:0:0:0:
64,192,288770,1,0,0:0:0:0:
448,192,288842,1,0,0:0:0:0:
192,192,288914,1,0,0:0:0:0:
448,192,288985,1,0,0:0:0:0:
64,192,289057,1,0,0:0:0:0:
192,192,289105,1,0,0:0:0:0:
320,192,289153,1,0,0:0:0:0:
448,192,289201,1,0,0:0:0:0:
192,192,289248,1,0,0:0:0:0:
320,192,289296,1,0,0:0:0:0:
64,192,289345,1,0,0:0:0:0:
192,192,289392,1,0,0:0:0:0:
320,192,289440,1,0,0:0:0:0:
448,192,289487,1,0,0:0:0:0:
192,192,289535,1,0,0:0:0:0:
320,192,289584,1,0,0:0:0:0:
64,192,289631,1,0,0:0:0:0:
448,192,289631,1,0,0:0:0:0:
192,192,289703,1,0,0:0:0:0:
320,192,289775,1,0,0:0:0:0:
192,192,289846,1,0,0:0:0:0:
448,192,289918,1,0,0:0:0:0:
64,192,289918,1,0,0:0:0:0:
320,192,289990,1,0,0:0:0:0:
64,192,290062,1,0,0:0:0:0:
320,192,290134,1,0,0:0:0:0:
192,192,290205,1,0,0:0:0:0:
448,192,290277,1,0,0:0:0:0:
64,192,290349,1,0,0:0:0:0:
448,192,290421,1,0,0:0:0:0:
64,192,290493,1,0,0:0:0:0:
320,192,290493,1,0,0:0:0:0:
192,192,290565,1,0,0:0:0:0:
448,192,290636,1,0,0:0:0:0:
192,192,290708,1,0,0:0:0:0:
320,192,290779,1,0,0:0:0:0:
64,192,290851,1,0,0:0:0:0:
448,192,290923,1,0,0:0:0:0:
64,192,290995,1,0,0:0:0:0:
192,192,291066,1,0,0:0:0:0:
320,192,291066,1,0,0:0:0:0:
448,192,291138,1,0,0:0:0:0:
64,192,291210,1,0,0:0:0:0:
448,192,291282,1,0,0:0:0:0:
192,192,291354,1,0,0:0:0:0:
64,192,291354,1,0,0:0:0:0:
320,192,291425,1,0,0:0:0:0:
192,192,291497,1,0,0:0:0:0:
448,192,291569,1,0,0:0:0:0:
64,192,291641,1,0,0:0:0:0:
192,192,291713,1,0,0:0:0:0:
320,192,291785,1,0,0:0:0:0:
64,192,291856,1,0,0:0:0:0:
192,192,291928,1,0,0:0:0:0:
448,192,291928,1,0,0:0:0:0:
320,192,292000,1,0,0:0:0:0:
64,192,292072,1,0,0:0:0:0:
320,192,292143,1,0,0:0:0:0:
64,192,292215,1,0,0:0:0:0:
448,192,292215,1,0,0:0:0:0:
192,192,292286,1,0,0:0:0:0:
320,192,292358,1,0,0:0:0:0:
192,192,292430,1,0,0:0:0:0:
64,192,292502,1,0,0:0:0:0:
320,192,292502,1,0,0:0:0:0:
448,192,292574,1,0,0:0:0:0:
192,192,292645,1,0,0:0:0:0:
448,192,292717,1,0,0:0:0:0:
320,192,292789,1,0,0:0:0:0:
64,192,292789,1,0,0:0:0:0:
192,192,292861,1,0,0:0:0:0:
320,192,292933,1,0,0:0:0:0:
192,192,293005,1,0,0:0:0:0:
64,192,293076,1,0,0:0:0:0:
448,192,293076,1,0,0:0:0:0:
320,192,293148,1,0,0:0:0:0:
64,192,293220,1,0,0:0:0:0:
320,192,293292,1,0,0:0:0:0:
192,192,293364,1,0,0:0:0:0:
448,192,293364,1,0,0:0:0:0:
64,192,293435,1,0,0:0:0:0:
320,192,293506,1,0,0:0:0:0:
64,192,293578,1,0,0:0:0:0:
320,192,293650,1,0,0:0:0:0:
448,192,293650,1,0,0:0:0:0:
192,192,293722,1,0,0:0:0:0:
64,192,293722,1,0,0:0:0:0:
320,192,293794,1,0,0:0:0:0:
448,192,293794,1,0,0:0:0:0:
192,192,293865,1,0,0:0:0:0:
64,192,293865,1,0,0:0:0:0:
320,192,293937,1,0,0:0:0:0:
192,192,294009,1,0,0:0:0:0:
64,192,294081,1,0,0:0:0:0:
320,192,294153,1,0,0:0:0:0:
192,192,294225,1,0,0:0:0:0:
64,192,294225,1,0,0:0:0:0:
448,192,294225,1,0,0:0:0:0:
320,192,294368,1,0,0:0:0:0:
192,192,294368,1,0,0:0:0:0:
64,192,294512,1,0,0:0:0:0:
320,192,294512,1,0,0:0:0:0:
192,192,294655,1,0,0:0:0:0:
320,192,294655,1,0,0:0:0:0:
448,192,294655,1,0,0:0:0:0:
192,192,294799,1,0,0:0:0:0:
64,192,294799,1,0,0:0:0:0:
448,192,294942,1,0,0:0:0:0:
64,192,294942,1,0,0:0:0:0:
192,192,295085,1,0,0:0:0:0:
320,192,295229,1,0,0:0:0:0:
448,192,295229,1,0,0:0:0:0:
192,192,295373,1,0,0:0:0:0:
64,192,295373,1,0,0:0:0:0:
448,192,295373,1,0,0:0:0:0:
320,192,295516,1,0,0:0:0:0:
64,192,295516,1,0,0:0:0:0:
192,192,295660,1,0,0:0:0:0:
320,192,295660,1,0,0:0:0:0:
64,192,295804,1,0,0:0:0:0:
192,192,295804,1,0,0:0:0:0:
448,192,295804,1,0,0:0:0:0:
320,192,295947,1,0,0:0:0:0:
64,192,295947,1,0,0:0:0:0:
192,192,296091,1,0,0:0:0:0:
320,192,296091,1,0,0:0:0:0:
64,192,296234,1,0,0:0:0:0:
448,192,296234,1,0,0:0:0:0:
192,192,296305,1,0,0:0:0:0:
320,192,296377,1,0,0:0:0:0:
192,192,296449,1,0,0:0:0:0:
64,192,296521,1,0,0:0:0:0:
320,192,296521,1,0,0:0:0:0:
448,192,296521,1,0,0:0:0:0:
