osu file format v14

[General]
AudioFilename: audio.mp3
AudioLeadIn: 0
PreviewTime: 109348
Countdown: 0
SampleSet: Soft
StackLeniency: 0.7
Mode: 0
LetterboxInBreaks: 0
WidescreenStoryboard: 1

[Editor]
Bookmarks: 12515,34015,181681
DistanceSpacing: 0.9
BeatDivisor: 4
GridSize: 16
TimelineZoom: 2.2

[Metadata]
Title:Emerald Sword
TitleUnicode:Emerald Sword
Artist:Rhapsody of Fire
ArtistUnicode:Rhapsody of Fire
Creator:SawySavvy
Version:ForTheQueen
Source:
Tags:Legendary Years Symphonic Power Metal Giacomo Voli Fire
BeatmapID:1512484
BeatmapSetID:664577

[Difficulty]
HPDrainRate:6
CircleSize:4
OverallDifficulty:8
ApproachRate:9.3
SliderMultiplier:2.3
SliderTickRate:1

[Events]
//Background and Video events
0,0,"Emerald sword.jpg",0,0
//Break Periods
2,131881,141794
//Storyboard Layer 0 (Background)
//Storyboard Layer 1 (Fail)
//Storyboard Layer 2 (Pass)
//Storyboard Layer 3 (Foreground)
//Storyboard Sound Samples

[TimingPoints]
2016,333.333333333333,4,2,1,70,1,0
2017,-133.333333333333,4,2,1,70,0,0
12515,-100,4,2,1,70,0,0
23245,-133.333333333333,4,2,1,70,0,0
31932,-100,4,2,1,70,0,0
32265,-133.333333333333,4,2,1,70,0,0
33995,-133.333333333333,4,2,1,70,0,0
44495,-133.333333333333,4,2,1,70,0,0
77015,333.333333333333,4,2,1,70,1,0
77015,-133.333333333333,4,2,1,70,0,0
87579,-133.333333333333,4,2,1,70,0,0
109598,-133.333333333333,4,2,1,70,0,1
131681,-133.333333333333,4,2,1,70,0,0
142264,-100,4,2,1,70,0,0
179681,-133.333333333333,4,2,1,70,0,0
214264,-133.333333333333,4,2,1,70,0,1
235681,-100,4,2,1,70,0,1
254932,-200,4,2,1,70,0,1
256348,-100,4,2,1,70,0,0

[HitObjects]
256,192,2015,5,0,0:0:0:0:
256,192,4682,5,0,0:0:0:0:
256,192,7015,5,0,0:0:0:0:
336,240,7349,1,0,0:0:0:0:
256,192,10015,5,0,0:0:0:0:
272,208,12015,5,0,0:0:0:0:
272,208,12099,1,0,0:0:0:0:
272,208,12182,1,0,0:0:0:0:
272,208,12265,1,0,0:0:0:0:
272,208,12349,2,0,P|336:240|384:256,1,86.2500032901765
384,256,12682,5,0,0:0:0:0:
176,160,13015,1,0,0:0:0:0:
384,256,13349,1,0,0:0:0:0:
160,224,13682,1,0,0:0:0:0:
384,256,14015,5,0,0:0:0:0:
160,288,14349,1,0,0:0:0:0:
399,269,14682,1,0,0:0:0:0:
399,269,14765,1,0,0:0:0:0:
399,269,14849,1,0,0:0:0:0:
399,269,14932,1,0,0:0:0:0:
399,269,15015,2,0,P|335:301|255:301,1,115
252,304,15349,5,0,0:0:0:0:
428,160,15682,1,0,0:0:0:0:
252,304,16015,1,0,0:0:0:0:
380,112,16349,1,0,0:0:0:0:
252,304,16682,5,0,0:0:0:0:
316,80,17015,1,0,0:0:0:0:
252,304,17349,1,0,0:0:0:0:
252,304,17515,1,0,0:0:0:0:
252,80,17682,1,0,0:0:0:0:
87,240,18015,5,0,0:0:0:0:
310,183,18349,1,0,0:0:0:0:
158,356,18682,1,0,0:0:0:0:
210,132,19015,1,0,0:0:0:0:
300,344,19349,5,0,0:0:0:0:
136,182,19682,1,0,0:0:0:0:
357,242,20015,1,0,0:0:0:0:
357,242,20099,1,0,0:0:0:0:
357,242,20182,1,0,0:0:0:0:
357,242,20265,1,0,0:0:0:0:
357,242,20349,2,0,P|401:201|416:128,1,115
412,108,20682,5,0,0:0:0:0:
265,284,21015,1,0,0:0:0:0:
324,61,21349,1,0,0:0:0:0:
418,270,21682,1,0,0:0:0:0:
193,221,22015,5,0,0:0:0:0:
402,124,22349,1,0,0:0:0:0:
250,42,22682,1,0,0:0:0:0:
250,42,22765,1,0,0:0:0:0:
250,42,22849,1,0,0:0:0:0:
250,42,22932,1,0,0:0:0:0:
250,42,23015,1,0,0:0:0:0:
250,42,23099,1,0,0:0:0:0:
250,42,23182,1,0,0:0:0:0:
250,42,23265,1,0,0:0:0:0:
270,62,23349,6,0,L|321:117,1,43.1250016450883
425,175,23515,2,0,L|361:159,1,43.1250016450883
237,192,23682,2,0,L|305:212,1,43.1250016450883
417,316,23849,2,0,L|353:300,1,43.1250016450883
254,283,24015,2,0,B|209:263|209:263|127:266|127:266|79:239,1,172.500006580353
73,234,24682,5,0,0:0:0:0:
73,234,24765,1,0,0:0:0:0:
73,234,24849,1,0,0:0:0:0:
73,234,24932,1,0,0:0:0:0:
105,266,25015,1,0,0:0:0:0:
137,282,25099,1,0,0:0:0:0:
169,282,25182,1,0,0:0:0:0:
201,266,25265,1,0,0:0:0:0:
236,242,25349,2,0,L|276:218,1,43.1250016450883
342,111,25515,2,0,L|294:143,1,43.1250016450883
177,156,25682,2,0,L|225:124,1,43.1250016450883
278,19,25849,2,0,L|226:54,1,43.1250016450883
105,73,26015,6,0,L|144:96,1,43.1250016450883
272,105,26182,2,0,L|211:142,1,43.1250016450883
114,177,26349,2,0,L|170:208,1,43.1250016450883
272,219,26515,2,0,L|211:256,1,43.1250016450883
111,282,26682,2,0,B|175:302|175:302|205:347|205:347|266:361,1,172.500006580353
112,282,27349,6,0,L|67:300,3,43.1250016450883
151,191,27682,2,0,L|196:174,3,43.1250016450883
101,83,28015,2,0,P|137:24|177:13,1,86.2500032901765
336,16,28349,2,0,L|360:52,1,43.1250016450883
424,50,28515,2,0,L|448:86,1,43.1250016450883
424,247,28682,6,0,P|405:291|355:322,1,86.2500032901765
128,336,29015,2,0,L|112:256,1,43.1250016450883
62,287,29182,2,0,L|46:207,1,43.1250016450883
56,87,29349,2,0,P|97:41|155:13,1,86.2500032901765
320,32,29682,1,0,0:0:0:0:
192,80,29849,2,0,L|160:112,1,43.1250016450883
272,80,30015,6,0,L|310:44,1,43.1250016450883
256,160,30182,2,0,L|224:192,1,43.1250016450883
336,160,30349,6,0,L|374:124,1,43.1250016450883
320,240,30515,2,0,L|288:269,1,43.1250016450883
400,240,30682,2,0,P|466:187|495:107,1,172.500006580353
288,80,31182,2,0,L|240:128,1,43.1250016450883
317,53,31349,6,0,L|350:12,3,43.1250016450883
240,128,31682,2,0,L|272:160,3,43.1250016450883
208,96,32015,2,0,L|160:48,1,57.5
80,96,32182,2,0,L|128:144,1,57.5
208,192,32349,2,0,L|160:224,1,43.1250016450883
64,288,32515,2,0,L|112:320,1,43.1250016450883
176,352,32682,6,0,L|224:384,3,43.1250016450883
208,288,33015,2,0,L|238:257,3,43.1250016450883
128,288,33349,2,0,P|83:275|56:240,1,86.2500032901765
160,112,33682,2,0,P|205:125|231:159,1,86.2500032901765
128,288,34015,6,0,P|83:275|56:240,1,86.2500032901765
160,112,34349,1,0,0:0:0:0:
272,240,34515,2,0,P|258:284|222:311,2,86.2500032901765
160,112,35015,1,0,0:0:0:0:
160,112,35099,1,0,0:0:0:0:
160,112,35182,1,0,0:0:0:0:
58,245,35349,6,0,P|86:277|128:288,1,86.2500032901765
272,240,35682,1,0,0:0:0:0:
236,138,35849,2,0,P|201:113|158:111,2,86.2500032901765
272,240,36349,1,0,0:0:0:0:
272,240,36432,1,0,0:0:0:0:
272,240,36515,1,0,0:0:0:0:
238,352,36682,6,0,P|297:360|331:338,1,86.2500032901765
390,240,37015,1,0,0:0:0:0:
363,113,37182,2,0,P|321:70|281:66,2,86.2500032901765
397,246,37682,1,0,0:0:0:0:
397,246,37765,1,0,0:0:0:0:
397,246,37849,1,0,0:0:0:0:
175,275,38015,6,0,P|126:233|111:119,1,172.500006580353
272,48,38515,1,0,0:0:0:0:
197,203,38682,1,0,0:0:0:0:
354,130,38849,1,0,0:0:0:0:
184,101,39015,1,0,0:0:0:0:
314,214,39182,1,0,0:0:0:0:
272,48,39349,6,0,P|218:33|162:41,2,86.2500032901765
384,185,39849,1,0,0:0:0:0:
211,231,40015,1,0,0:0:0:0:
272,48,40182,1,0,0:0:0:0:
384,185,40349,2,0,P|360:237|315:262,1,86.2500032901765
211,231,40682,5,0,0:0:0:0:
272,48,40849,1,0,0:0:0:0:
385,185,41015,1,0,0:0:0:0:
211,231,41182,2,0,P|166:195|152:145,2,86.2500032901765
290,142,41682,1,0,0:0:0:0:
290,142,41765,1,0,0:0:0:0:
290,142,41849,1,0,0:0:0:0:
384,59,42015,6,0,P|424:99|432:150,1,86.2500032901765
319,257,42349,1,0,0:0:0:0:
211,231,42515,2,0,P|166:195|152:145,2,86.2500032901765
319,257,43015,1,0,0:0:0:0:
319,257,43099,1,0,0:0:0:0:
319,257,43182,1,0,0:0:0:0:
319,257,43265,1,0,0:0:0:0:
319,257,43349,6,0,P|308:311|190:353,1,172.500006580353
236,277,43849,1,0,0:0:0:0:
64,263,44015,1,0,0:0:0:0:
214,177,44182,1,0,0:0:0:0:
122,323,44349,1,0,0:0:0:0:
119,151,44515,1,0,0:0:0:0:
209,358,44682,6,0,P|289:334|319:257,1,172.500006580353
119,151,45349,2,0,P|90:200|95:251,1,86.2500032901765
188,237,45682,2,0,P|202:292|242:324,1,86.2500032901765
297,248,46015,6,0,P|346:276|397:271,2,86.2500032901765
160,144,46515,2,0,P|143:104|148:62,1,86.2500032901765
368,32,46849,1,0,0:0:0:0:
368,32,46932,1,0,0:0:0:0:
368,32,47015,2,0,P|384:71|379:113,1,86.2500032901765
297,248,47349,6,0,P|262:272|220:276,1,86.2500032901765
64,200,47682,1,0,0:0:0:0:
219,276,47849,2,0,P|262:272|297:248,1,86.2500032901765
378,113,48182,1,0,0:0:0:0:
229,25,48349,2,0,P|186:29|151:53,1,86.2500032901765
64,200,48682,6,0,P|66:242|88:278,1,86.2500032901765
259,254,49015,1,0,0:0:0:0:
129,139,49182,1,0,0:0:0:0:
135,311,49349,1,0,0:0:0:0:
233,170,49515,1,0,0:0:0:0:
71,231,49682,1,0,0:0:0:0:
220,317,49849,1,0,0:0:0:0:
220,317,50015,6,0,P|260:346|303:342,2,86.2500032901765
233,170,50515,1,0,0:0:0:0:
233,170,50682,2,0,P|273:141|316:145,2,86.2500032901765
129,139,51182,1,0,0:0:0:0:
129,139,51349,6,0,P|100:188|105:239,1,86.2500032901765
198,225,51682,2,0,P|212:280|252:312,1,86.2500032901765
307,236,52015,6,0,P|356:264|407:259,2,86.2500032901765
321,145,52515,1,0,0:0:0:0:
321,145,52682,2,0,P|296:93|251:69,1,86.2500032901765
210,153,53015,2,0,P|156:133|107:149,1,86.2500032901765
140,238,53348,6,0,P|89:262|65:308,2,86.2500032901765
240,304,53849,1,0,0:0:0:0:
256,192,54015,12,0,55015,0:0:0:0:
256,128,55182,5,0,0:0:0:0:
256,128,55265,1,0,0:0:0:0:
256,128,55349,6,0,L|80:160,1,172.500006580353
32,272,55849,1,0,0:0:0:0:
32,272,55932,1,0,0:0:0:0:
32,272,56015,2,0,L|128:256,1,86.2500032901765
256,320,56349,2,0,L|160:336,1,86.2500032901765
32,272,56682,2,0,L|128:256,2,86.2500032901765
211,235,57349,1,0,0:0:0:0:
225,249,57682,5,0,0:0:0:0:
225,249,57765,1,0,0:0:0:0:
225,249,57849,1,0,0:0:0:0:
225,249,57932,1,0,0:0:0:0:
225,249,58015,6,0,L|321:297,1,86.2500032901765
469,239,58349,2,0,L|417:213,2,57.500002193451
418,135,58682,2,0,L|482:167,2,57.500002193451
483,91,59015,2,0,L|421:60,2,57.500002193451
377,42,59349,5,0,0:0:0:0:
172,42,59765,1,0,0:0:0:0:
172,42,59932,1,0,0:0:0:0:
80,192,60349,2,0,L|144:272,1,86.2500032901765
304,240,60682,6,0,L|240:160,1,86.2500032901765
128,48,61015,1,0,0:0:0:0:
128,48,61182,1,0,0:0:0:0:
80,192,61349,2,0,L|144:272,1,86.2500032901765
272,368,61682,1,0,0:0:0:0:
272,368,61849,1,0,0:0:0:0:
304,240,62015,6,0,L|240:160,2,86.2500032901765
464,336,63015,2,0,L|480:224,1,86.2500032901765
400,96,63349,6,0,L|384:208,1,86.2500032901765
336,352,63682,2,0,L|304:272,2,57.500002193451
240,288,64015,2,0,L|272:368,2,57.500002193451
144,352,64349,2,0,L|112:272,2,57.500002193451
16,288,64682,6,0,L|48:128,1,115.000004386902
112,96,65015,2,0,L|144:176,2,57.500002193451
208,160,65348,2,0,L|176:80,2,57.500002193451
304,96,65682,2,0,L|336:176,2,57.500002193451
416,192,66015,6,0,L|256:256,1,172.500006580353
255,256,66849,1,0,0:0:0:0:
255,256,67015,1,0,0:0:0:0:
255,256,67182,1,0,0:0:0:0:
255,256,67349,6,0,B|276:192|276:192|239:128|239:128|255:80,2,172.500006580353
176,352,68182,1,0,0:0:0:0:
176,352,68349,2,0,L|128:304,1,43.1250016450883
96,256,68515,1,0,0:0:0:0:
160,96,68682,6,0,P|196:60|246:53,1,86.2500032901765
240,160,69015,2,0,P|290:160|330:191,1,86.2500032901765
272,272,69349,1,0,0:0:0:0:
272,272,69515,1,0,0:0:0:0:
423,354,69682,1,0,0:0:0:0:
423,354,69849,1,0,0:0:0:0:
251,356,70015,6,0,P|200:355|123:258,1,172.500006580353
124,270,70682,1,0,0:0:0:0:
124,270,70766,1,0,0:0:0:0:
124,270,70849,1,0,0:0:0:0:
124,270,70932,1,0,0:0:0:0:
124,270,71015,2,0,P|144:224|184:194,1,86.2500032901765
341,200,71349,6,0,P|372:230|388:270,1,86.2500032901765
388,270,71682,1,0,0:0:0:0:
388,270,71765,1,0,0:0:0:0:
388,270,71849,1,0,0:0:0:0:
388,270,71932,1,0,0:0:0:0:
388,270,72015,2,0,L|347:310,1,43.1250016450883
293,352,72182,2,0,L|254:306,1,43.1250016450883
211,256,72349,2,0,L|170:296,1,43.1250016450883
118,339,72515,2,0,L|79:293,1,43.1250016450883
38,241,72682,5,0,0:0:0:0:
273,13,73015,1,0,0:0:0:0:
273,13,73182,1,0,0:0:0:0:
411,101,73349,1,0,0:0:0:0:
411,101,73515,1,0,0:0:0:0:
360,257,73682,2,0,L|318:285,1,43.1250016450883
249,316,73849,2,0,L|212:269,1,43.1250016450883
174,216,74015,6,0,L|220:187,1,43.1250016450883
281,151,74182,2,0,L|249:104,1,43.1250016450883
210,47,74349,2,0,L|154:86,1,43.1250016450883
103,112,74515,2,0,L|141:170,1,43.1250016450883
174,216,74682,2,0,L|125:251,1,43.1250016450883
66,281,74849,2,0,L|103:333,1,43.1250016450883
148,374,75015,2,0,L|199:330,1,43.1250016450883
241,289,75182,2,0,L|293:344,1,43.1250016450883
332,374,75349,6,0,L|466:258,1,172.500006580353
462,261,76015,1,0,0:0:0:0:
462,261,76099,1,0,0:0:0:0:
462,261,76182,1,0,0:0:0:0:
462,261,76265,1,0,0:0:0:0:
462,261,76349,2,0,L|397:169,1,86.2500032901765
160,96,77015,6,0,P|125:120|115:161,1,86.2500032901765
240,272,77348,1,0,0:0:0:0:
112,160,77515,2,0,P|69:163|40:193,1,86.2500032901765
96,352,77848,1,0,0:0:0:0:
240,272,78015,2,0,P|247:230|225:194,1,86.2500032901765
112,160,78348,6,0,P|77:184|67:225,1,86.2500032901765
96,352,78681,1,0,0:0:0:0:
240,272,78848,2,0,L|295:205,1,86.2500032901765
320,176,79181,1,0,0:0:0:0:
320,176,79265,1,0,0:0:0:0:
320,176,79348,2,0,L|368:272,1,86.2500032901765
240,272,79681,6,0,P|197:275|163:251,1,86.2500032901765
224,80,80015,1,0,0:0:0:0:
320,176,80181,2,0,P|348:207|349:249,2,86.2500032901765
224,80,80681,2,0,P|190:54|147:57,1,86.2500032901765
112,160,81015,6,0,P|121:201|156:225,1,86.2500032901765
320,176,81348,1,0,0:0:0:0:
192,304,81515,1,0,0:0:0:0:
224,144,81681,1,0,0:0:0:0:
304,304,81848,1,0,0:0:0:0:
156,225,82015,1,0,0:0:0:0:
352,240,82181,1,0,0:0:0:0:
352,240,82348,6,0,P|400:256|432:304,1,86.2500032901765
272,368,82681,1,0,0:0:0:0:
128,288,82848,2,0,P|93:250|89:193,1,86.2500032901765
176,64,83181,1,0,0:0:0:0:
176,64,83265,1,0,0:0:0:0:
176,64,83348,2,0,P|206:93|217:135,1,86.2500032901765
128,288,83681,6,0,P|93:250|89:193,2,86.2500032901765
288,336,84181,6,0,P|297:293|286:252,2,86.2500032901765
432,336,84681,1,0,0:0:0:0:
432,336,84764,1,0,0:0:0:0:
432,336,84848,1,0,0:0:0:0:
432,336,84931,1,0,0:0:0:0:
432,336,85014,6,0,P|420:294|390:264,1,86.2500032901765
240,224,85348,1,0,0:0:0:0:
464,240,85514,2,0,P|452:198|422:168,1,86.2500032901765
272,128,85848,1,0,0:0:0:0:
496,144,86014,2,0,P|484:102|454:72,1,86.2500032901765
288,48,86348,6,0,P|245:55|212:82,2,86.2500032901765
441,70,86848,1,0,0:0:0:0:
441,70,87014,1,0,0:0:0:0:
333,182,87181,1,0,0:0:0:0:
486,156,87348,1,0,0:0:0:0:
342,98,87514,1,0,0:0:0:0:
440,218,87681,6,0,P|464:267|464:308,1,86.2500032901765
318,346,88014,1,0,0:0:0:0:
318,346,88098,1,0,0:0:0:0:
318,346,88181,1,0,0:0:0:0:
190,257,88348,2,0,P|165:207|165:166,1,86.2500032901765
267,62,88681,1,0,0:0:0:0:
374,174,88848,1,0,0:0:0:0:
374,174,88931,1,0,0:0:0:0:
374,174,89014,6,0,P|399:224|399:265,1,86.2500032901765
318,346,89348,1,0,0:0:0:0:
190,257,89514,2,0,P|147:220|131:183,1,86.2500032901765
139,37,89848,1,0,0:0:0:0:
139,37,89931,1,0,0:0:0:0:
139,37,90014,2,0,P|181:73|197:110,1,86.2500032901765
267,62,90348,6,0,P|262:117|241:152,1,86.2500032901765
190,257,90681,1,0,0:0:0:0:
64,240,90848,2,0,P|36:207|23:166,2,86.2500032901765
144,320,91348,2,0,P|180:342|222:349,1,86.2500032901765
336,336,91681,6,0,P|377:326|412:301,1,86.2500032901765
400,128,92014,1,0,0:0:0:0:
288,272,92181,1,0,0:0:0:0:
448,192,92348,1,0,0:0:0:0:
272,160,92514,1,0,0:0:0:0:
400,288,92681,1,0,0:0:0:0:
336,128,92848,1,0,0:0:0:0:
336,128,93014,6,0,P|304:80|240:64,2,86.2500032901765
288,272,93514,1,0,0:0:0:0:
288,272,93681,6,0,P|266:308|229:330,2,86.2500032901765
272,160,94181,1,0,0:0:0:0:
272,160,94264,1,0,0:0:0:0:
272,160,94348,6,0,P|239:132|197:123,1,86.2500032901765
32,160,94681,1,0,0:0:0:0:
144,288,94848,1,0,0:0:0:0:
144,288,95014,6,0,P|176:315|218:324,2,86.2500032901765
128,80,95681,6,0,P|169:88|202:116,1,86.2500032901765
256,64,96014,6,0,P|279:99|283:142,1,86.2500032901765
368,144,96348,6,0,P|359:185|331:218,2,86.2500032901765
256,64,96848,1,0,0:0:0:0:
112,160,97014,6,0,P|110:202|129:240,1,86.2500032901765
256,352,97348,1,0,0:0:0:0:
368,224,97514,1,0,0:0:0:0:
368,224,97598,1,0,0:0:0:0:
368,224,97681,1,0,0:0:0:0:
384,192,97764,1,0,0:0:0:0:
400,160,97848,1,0,0:0:0:0:
400,128,97931,1,0,0:0:0:0:
384,96,98014,1,0,0:0:0:0:
352,64,98098,1,0,0:0:0:0:
320,48,98181,1,0,0:0:0:0:
272,48,98264,1,0,0:0:0:0:
224,64,98348,6,0,L|128:144,1,86.2500032901765
64,272,98681,1,0,0:0:0:0:
64,272,98848,1,0,0:0:0:0:
240,304,99014,2,0,L|306:248,1,86.2500032901765
384,96,99348,1,0,0:0:0:0:
384,96,99514,1,0,0:0:0:0:
224,64,99681,6,0,L|128:144,2,86.2500032901765
384,96,100348,2,0,L|416:208,1,86.2500032901765
416,208,100681,1,0,0:0:0:0:
256,352,101014,6,0,L|160:304,1,86.2500032901765
128,256,101348,2,0,L|73:274,2,57.500002193451
115,181,101682,2,0,L|169:162,2,57.500002193451
96,96,102015,2,0,L|41:114,2,57.500002193451
176,64,102348,6,0,L|352:32,1,172.500006580353
464,32,102848,1,0,0:0:0:0:
464,32,103014,1,0,0:0:0:0:
400,288,103348,2,0,L|320:320,1,86.2500032901765
432,208,103681,6,0,L|320:256,1,86.2500032901765
192,304,104014,1,0,0:0:0:0:
192,304,104181,1,0,0:0:0:0:
64,192,104348,2,0,L|144:128,1,86.2500032901765
256,32,104681,1,0,0:0:0:0:
256,32,104848,1,0,0:0:0:0:
400,128,105014,6,0,L|288:176,2,86.2500032901765
400,128,106014,2,0,L|288:176,1,86.2500032901765
160,224,106348,5,0,0:0:0:0:
240,112,106681,2,0,L|295:94,2,57.500002193451
160,224,107015,2,0,L|106:243,2,57.500002193451
288,288,107348,2,0,L|343:270,2,57.500002193451
80,336,107681,6,0,L|32:160,1,172.500006580353
112,32,108181,1,0,0:0:0:0:
112,32,108348,1,0,0:0:0:0:
112,32,109014,5,0,0:0:0:0:
256,192,109681,1,0,0:0:0:0:
336,112,110014,1,0,0:0:0:0:
432,208,110348,1,0,0:0:0:0:
427,250,110431,1,0,0:0:0:0:
410,289,110514,1,0,0:0:0:0:
381,321,110597,1,0,0:0:0:0:
344,343,110681,1,0,0:0:0:0:
302,352,110764,1,0,0:0:0:0:
259,347,110847,1,0,0:0:0:0:
220,329,110931,1,0,0:0:0:0:
192,304,111014,2,0,L|197:238,1,43.1250016450883
264,154,111181,2,0,L|313:148,2,43.1250016450883
111,82,111431,2,0,L|142:45,2,43.1250016450883
80,112,111681,5,0,0:0:0:0:
56,148,111764,1,0,0:0:0:0:
47,190,111847,1,0,0:0:0:0:
53,232,111930,1,0,0:0:0:0:
73,270,112014,1,0,0:0:0:0:
105,298,112097,1,0,0:0:0:0:
145,314,112180,1,0,0:0:0:0:
188,315,112264,1,0,0:0:0:0:
226,305,112348,2,0,L|222:253,2,43.1250016450883
296,324,112598,2,0,L|347:338,2,43.1250016450883
269,206,112848,2,0,L|331:190,1,43.1250016450883
350,225,113014,5,0,0:0:0:0:
339,266,113097,1,0,0:0:0:0:
316,303,113180,1,0,0:0:0:0:
283,330,113263,1,0,0:0:0:0:
244,347,113347,1,0,0:0:0:0:
201,351,113430,1,0,0:0:0:0:
159,342,113513,1,0,0:0:0:0:
122,320,113597,1,0,0:0:0:0:
93,289,113680,1,0,0:0:0:0:
75,250,113763,1,0,0:0:0:0:
69,207,113847,1,0,0:0:0:0:
77,165,113930,1,0,0:0:0:0:
97,127,114013,1,0,0:0:0:0:
128,97,114097,1,0,0:0:0:0:
166,77,114180,1,0,0:0:0:0:
209,71,114263,1,0,0:0:0:0:
251,68,114348,6,0,L|315:68,4,43.1250016450883
416,144,115014,1,0,0:0:0:0:
240,208,115348,1,0,0:0:0:0:
416,272,115681,5,0,0:0:0:0:
453,251,115764,1,0,0:0:0:0:
481,218,115847,1,0,0:0:0:0:
494,177,115930,1,0,0:0:0:0:
492,135,116014,1,0,0:0:0:0:
475,96,116097,1,0,0:0:0:0:
444,65,116180,1,0,0:0:0:0:
405,49,116264,1,0,0:0:0:0:
370,48,116348,2,0,L|341:103,1,43.1250016450883
326,122,116514,1,0,0:0:0:0:
304,159,116597,1,0,0:0:0:0:
282,185,116681,1,0,0:0:0:0:
243,183,116764,1,0,0:0:0:0:
200,157,116847,1,0,0:0:0:0:
159,143,116930,1,0,0:0:0:0:
123,149,117014,2,0,L|75:189,1,43.1250016450883
64,208,117180,1,0,0:0:0:0:
60,251,117263,1,0,0:0:0:0:
74,291,117347,1,0,0:0:0:0:
104,322,117430,1,0,0:0:0:0:
144,336,117513,1,0,0:0:0:0:
187,332,117597,1,0,0:0:0:0:
221,323,117681,2,0,L|252:282,1,43.1250016450883
268,250,117847,1,0,0:0:0:0:
291,214,117930,1,0,0:0:0:0:
318,195,118014,1,0,0:0:0:0:
355,216,118097,1,0,0:0:0:0:
392,237,118180,1,0,0:0:0:0:
430,259,118263,1,0,0:0:0:0:
466,274,118348,6,0,L|481:222,1,43.1250016450883
456,191,118514,1,0,0:0:0:0:
431,155,118597,1,0,0:0:0:0:
400,126,118681,1,0,0:0:0:0:
364,102,118764,1,0,0:0:0:0:
325,83,118847,1,0,0:0:0:0:
284,69,118931,1,0,0:0:0:0:
243,59,119014,1,0,0:0:0:0:
200,51,119097,1,0,0:0:0:0:
157,47,119181,1,0,0:0:0:0:
114,45,119264,1,0,0:0:0:0:
70,47,119348,1,0,0:0:0:0:
57,250,119681,6,0,L|103:290,1,43.1250016450883
163,324,119848,2,0,L|216:263,1,43.1250016450883
247,226,120014,2,0,L|300:268,1,43.1250016450883
355,297,120181,2,0,L|411:236,1,43.1250016450883
448,192,120348,1,0,0:0:0:0:
247,226,120681,1,0,0:0:0:0:
64,192,121014,5,0,0:0:0:0:
66,149,121097,1,0,0:0:0:0:
93,117,121180,1,0,0:0:0:0:
134,107,121263,1,0,0:0:0:0:
172,125,121347,1,0,0:0:0:0:
193,162,121430,1,0,0:0:0:0:
186,204,121513,1,0,0:0:0:0:
155,233,121597,1,0,0:0:0:0:
132,265,121681,2,0,L|132:319,2,43.1250016450883
160,340,121930,1,0,0:0:0:0:
198,335,122014,1,0,0:0:0:0:
220,303,122097,1,0,0:0:0:0:
238,265,122180,1,0,0:0:0:0:
280,268,122263,1,0,0:0:0:0:
313,279,122348,2,0,L|358:261,2,43.1250016450883
397,240,122597,1,0,0:0:0:0:
414,205,122681,1,0,0:0:0:0:
413,166,122764,1,0,0:0:0:0:
392,133,122847,1,0,0:0:0:0:
357,115,122931,1,0,0:0:0:0:
318,117,123014,1,0,0:0:0:0:
446,35,123348,1,0,0:0:0:0:
241,149,123681,5,0,0:0:0:0:
204,169,123764,1,0,0:0:0:0:
162,163,123847,1,0,0:0:0:0:
133,133,123930,1,0,0:0:0:0:
128,90,124014,1,0,0:0:0:0:
151,55,124097,1,0,0:0:0:0:
191,40,124180,1,0,0:0:0:0:
231,53,124264,1,0,0:0:0:0:
256,64,124348,1,0,0:0:0:0:
288,50,124431,1,0,0:0:0:0:
329,37,124514,1,0,0:0:0:0:
370,25,124597,1,0,0:0:0:0:
405,26,124681,2,0,L|419:93,1,43.1250016450883
419,110,124847,1,0,0:0:0:0:
427,153,124930,1,0,0:0:0:0:
421,191,125014,6,0,L|358:194,1,43.1250016450883
341,186,125180,1,0,0:0:0:0:
307,161,125263,1,0,0:0:0:0:
270,183,125347,1,0,0:0:0:0:
233,205,125430,1,0,0:0:0:0:
198,199,125513,1,0,0:0:0:0:
165,171,125597,1,0,0:0:0:0:
136,152,125681,2,0,L|91:179,2,43.1250016450883
60,207,125930,1,0,0:0:0:0:
52,245,126014,1,0,0:0:0:0:
71,278,126097,1,0,0:0:0:0:
101,301,126180,1,0,0:0:0:0:
133,321,126263,1,0,0:0:0:0:
170,334,126348,5,0,0:0:0:0:
207,343,126431,1,0,0:0:0:0:
245,341,126514,1,0,0:0:0:0:
280,325,126597,1,0,0:0:0:0:
307,297,126681,1,0,0:0:0:0:
327,263,126764,1,0,0:0:0:0:
333,224,126847,1,0,0:0:0:0:
324,185,126931,1,0,0:0:0:0:
300,154,127014,1,0,0:0:0:0:
266,174,127097,1,0,0:0:0:0:
227,169,127180,1,0,0:0:0:0:
193,150,127263,1,0,0:0:0:0:
174,114,127348,1,0,0:0:0:0:
198,83,127431,1,0,0:0:0:0:
236,79,127514,1,0,0:0:0:0:
271,95,127597,1,0,0:0:0:0:
288,130,127681,5,0,0:0:0:0:
290,168,127764,1,0,0:0:0:0:
283,206,127847,1,0,0:0:0:0:
265,240,127930,1,0,0:0:0:0:
236,267,128014,1,0,0:0:0:0:
202,286,128097,1,0,0:0:0:0:
165,297,128180,1,0,0:0:0:0:
125,297,128264,1,0,0:0:0:0:
108,261,128348,1,0,0:0:0:0:
93,224,128431,1,0,0:0:0:0:
78,188,128514,1,0,0:0:0:0:
64,151,128597,1,0,0:0:0:0:
56,112,128681,1,0,0:0:0:0:
89,92,128764,1,0,0:0:0:0:
122,73,128847,1,0,0:0:0:0:
156,55,128930,1,0,0:0:0:0:
193,42,129014,5,0,0:0:0:0:
231,46,129097,1,0,0:0:0:0:
253,77,129180,1,0,0:0:0:0:
267,113,129263,1,0,0:0:0:0:
303,98,129347,1,0,0:0:0:0:
333,73,129430,1,0,0:0:0:0:
359,44,129513,1,0,0:0:0:0:
388,18,129597,1,0,0:0:0:0:
408,50,129680,1,0,0:0:0:0:
419,86,129763,1,0,0:0:0:0:
435,121,129847,1,0,0:0:0:0:
451,156,129930,1,0,0:0:0:0:
461,193,130013,1,0,0:0:0:0:
348,297,130348,5,0,0:0:0:0:
348,297,130431,1,0,0:0:0:0:
348,297,130514,1,0,0:0:0:0:
348,297,130598,1,0,0:0:0:0:
348,297,130681,1,0,0:0:0:0:
352,331,130764,1,0,0:0:0:0:
325,365,130848,1,0,0:0:0:0:
282,366,130931,1,0,0:0:0:0:
240,356,131014,1,0,0:0:0:0:
200,338,131098,1,0,0:0:0:0:
171,305,131181,1,0,0:0:0:0:
158,263,131264,1,0,0:0:0:0:
171,221,131348,1,0,0:0:0:0:
204,182,131431,1,0,0:0:0:0:
252,164,131514,1,0,0:0:0:0:
303,157,131598,1,0,0:0:0:0:
354,156,131681,5,0,0:0:0:0:
160,176,142348,6,0,L|224:272,1,115
288,176,142681,2,0,L|352:272,1,115
128,48,143014,2,0,L|45:129,1,115
153,173,143347,2,0,L|70:254,1,115
314,301,143681,6,0,L|396:219,1,115
288,176,144014,2,0,L|370:94,1,115
73,73,144348,2,0,L|38:183,1,115
153,173,144681,2,0,L|118:283,1,115
439,311,145014,6,0,L|467:226,2,57.5
352,192,145348,2,0,L|369:137,2,57.5
314,301,145681,2,0,P|234:317|122:221,1,230
160,176,146348,6,0,L|224:272,1,115
288,176,146681,2,0,L|352:272,1,115
128,48,147014,2,0,L|54:115,1,57.5
63,197,147181,2,0,L|67:297,1,57.5
136,343,147348,2,0,L|215:404,2,57.5
65,254,147681,6,0,L|63:197,2,57.5
136,343,148014,2,0,L|215:404,2,57.5
144,192,148348,2,0,L|141:134,2,57.5
214,280,148681,2,0,L|293:341,2,57.5
224,128,149014,6,0,L|221:70,2,57.5
294,216,149348,2,0,L|373:277,2,57.5
320,80,149681,1,0,0:0:0:0:
320,80,149848,1,0,0:0:0:0:
384,160,150014,2,0,L|480:224,1,115
368,352,150348,5,0,0:0:0:0:
368,352,150431,1,0,0:0:0:0:
368,352,150514,1,0,0:0:0:0:
176,288,150681,1,0,0:0:0:0:
176,288,150848,1,0,0:0:0:0:
294,216,151014,2,0,P|358:184|422:152,1,115
479,223,151348,2,0,P|415:255|351:287,1,115
176,288,151681,5,0,0:0:0:0:
176,288,151764,1,0,0:0:0:0:
176,288,151848,1,0,0:0:0:0:
176,288,151931,1,0,0:0:0:0:
153,270,152014,1,0,0:0:0:0:
121,229,152097,1,0,0:0:0:0:
106,179,152180,1,0,0:0:0:0:
109,128,152264,1,0,0:0:0:0:
130,81,152347,1,0,0:0:0:0:
166,44,152430,1,0,0:0:0:0:
212,22,152514,1,0,0:0:0:0:
264,18,152597,1,0,0:0:0:0:
313,31,152680,1,0,0:0:0:0:
355,61,152764,1,0,0:0:0:0:
383,104,152847,1,0,0:0:0:0:
395,154,152930,1,0,0:0:0:0:
389,205,153014,1,0,0:0:0:0:
