osu file format v14

[General]
AudioFilename: audio.mp3
AudioLeadIn: 0
PreviewTime: 109348
Countdown: 0
SampleSet: Soft
StackLeniency: 0.7
Mode: 0
LetterboxInBreaks: 0
WidescreenStoryboard: 0

[Editor]
Bookmarks: 12515,34015,142599,181681
DistanceSpacing: 1.8
BeatDivisor: 4
GridSize: 16
TimelineZoom: 2.2

[Metadata]
Title:Emerald Sword
TitleUnicode:Emerald Sword
Artist:Rhapsody of Fire
ArtistUnicode:Rhapsody of Fire
Creator:SawySavvy
Version:For the King
Source:
Tags:Legendary Years Symphonic Power Metal Giacomo Voli Fire
BeatmapID:1406537
BeatmapSetID:664577

[Difficulty]
HPDrainRate:6
CircleSize:4
OverallDifficulty:8
ApproachRate:9
SliderMultiplier:2.3
SliderTickRate:1

[Events]
//Background and Video events
0,0,"Emerald sword.jpg",0,0
//Break Periods
2,131882,141748
//Storyboard Layer 0 (Background)
//Storyboard Layer 1 (Fail)
//Storyboard Layer 2 (Pass)
//Storyboard Layer 3 (Foreground)
//Storyboard Sound Samples

[TimingPoints]
2016,333.333333333333,4,2,1,70,1,0
2017,-133.333333333333,4,2,1,70,0,0
12515,-100,4,2,1,70,0,0
23245,-133.333333333333,4,2,1,70,0,0
31932,-100,4,2,1,70,0,0
32265,-133.333333333333,4,2,1,70,0,0
33995,-133.333333333333,4,2,1,70,0,0
44495,-133.333333333333,4,2,1,70,0,0
77015,333.333333333333,4,2,1,70,1,0
77015,-133.333333333333,4,2,1,70,0,0
87579,-133.333333333333,4,2,1,70,0,0
109598,-133.333333333333,4,2,1,70,0,1
131681,-133.333333333333,4,2,1,70,0,0
142264,-100,4,2,1,70,0,0
179681,-133.333333333333,4,2,1,70,0,0
214264,-133.333333333333,4,2,1,70,0,1
235681,-100,4,2,1,70,0,1
254932,-200,4,2,1,70,0,1
256348,-100,4,2,1,70,0,0

[HitObjects]
160,160,2015,5,6,0:0:0:0:
160,160,2182,1,2,0:2:0:0:
240,336,2349,1,2,0:2:0:0:
128,256,2515,1,2,0:2:0:0:
304,176,2682,1,2,0:2:0:0:
128,256,2849,2,0,L|12:207,1,86.2500032901765,2|0,0:0|0:0,0:0:0:0:
65,124,3182,5,2,0:0:0:0:
61,319,3349,1,2,0:0:0:0:
65,124,3515,2,0,L|102:240,1,86.2500032901765,2|0,0:0|0:0,0:0:0:0:
32,48,3849,5,2,0:0:0:0:
112,256,4015,1,2,0:0:0:0:
144,288,4099,1,0,0:0:0:0:
192,304,4182,1,0,0:0:0:0:
240,304,4265,1,0,0:0:0:0:
288,288,4349,2,0,P|335:276|373:234,1,86.2500032901765,2|0,0:0|0:0,0:0:0:0:
432,128,4682,5,6,0:0:0:0:
432,128,4849,1,2,0:0:0:0:
240,64,5016,1,2,0:0:0:0:
400,64,5182,1,2,0:0:0:0:
208,160,5349,1,2,0:0:0:0:
400,64,5516,2,0,L|285:113,1,86.2500032901765,2|0,0:0|0:0,0:0:0:0:
304,32,5849,5,2,0:0:0:0:
224,240,6016,1,2,0:0:0:0:
304,32,6182,2,0,L|272:112,1,86.2500032901765,2|0,0:0|0:0,0:0:0:0:
224,240,6516,5,2,0:0:0:0:
128,144,6682,1,0,0:0:0:0:
128,144,6849,1,0,0:0:0:0:
320,144,7015,1,6,0:0:0:0:
128,144,7349,5,6,0:0:0:0:
256,64,7516,1,2,0:0:0:0:
128,208,7683,1,2,0:0:0:0:
320,64,7849,1,2,0:0:0:0:
128,272,8016,1,2,0:0:0:0:
384,64,8183,2,0,L|337:168,1,86.2500032901765,2|0,0:0|0:0,0:0:0:0:
256,336,8515,5,2,0:0:0:0:
48,320,8683,1,2,0:0:0:0:
256,336,8849,2,0,L|352:304,1,86.2500032901765,2|0,0:0|0:0,0:0:0:0:
336,64,9183,5,2,0:0:0:0:
144,48,9349,1,2,0:0:0:0:
113,72,9433,1,0,0:0:0:0:
86,99,9516,1,0,0:0:0:0:
63,130,9599,1,0,0:0:0:0:
53,167,9683,2,0,L|65:294,1,86.2500032901765,2|0,0:0|0:0,0:0:0:0:
80,368,10015,5,6,0:0:0:0:
144,160,10182,1,2,0:0:0:0:
144,368,10349,1,2,0:0:0:0:
208,144,10515,1,2,0:0:0:0:
208,368,10682,1,2,0:0:0:0:
272,128,10849,2,0,L|288:224,1,86.2500032901765,2|0,0:0|0:0,0:0:0:0:
304,352,11182,1,2,0:0:0:0:
368,176,11349,5,2,0:0:0:0:
400,352,11515,2,0,L|416:256,1,86.2500032901765,2|0,0:0|0:0,0:0:0:0:
432,112,11849,5,2,0:0:0:0:
208,96,12015,1,2,0:0:0:0:
160,112,12099,1,0,0:0:0:0:
128,144,12182,1,0,0:0:0:0:
112,192,12265,1,0,0:0:0:0:
112,240,12348,1,10,0:0:0:0:
432,80,12682,5,14,0:0:0:0:
432,80,12849,1,0,0:0:0:0:
224,80,13015,1,10,0:0:0:0:
224,80,13182,1,0,0:0:0:0:
224,272,13349,1,10,0:0:0:0:
224,272,13515,1,0,0:0:0:0:
432,272,13682,1,10,0:0:0:0:
432,272,13849,1,0,0:0:0:0:
435,83,14015,5,10,0:0:0:0:
257,166,14182,1,0,0:0:0:0:
425,272,14349,1,10,0:0:0:0:
230,273,14515,1,0,0:0:0:0:
234,77,14682,5,10,0:0:0:0:
206,47,14765,1,0,0:0:0:0:
174,21,14849,1,0,0:0:0:0:
137,4,14932,1,0,0:0:0:0:
96,2,15015,1,10,0:0:0:0:
112,304,15349,5,14,0:0:0:0:
112,304,15515,1,0,0:0:0:0:
304,308,15682,1,10,0:0:0:0:
304,308,15849,1,0,0:0:0:0:
308,111,16015,1,10,0:0:0:0:
308,111,16182,1,0,0:0:0:0:
112,114,16349,1,10,0:0:0:0:
112,114,16515,1,0,0:0:0:0:
32,224,16682,6,0,L|64:336,1,115,10|0,0:0|0:0,0:0:0:0:
240,336,17015,2,0,L|272:208,1,115,10|0,0:0|0:0,0:0:0:0:
160,48,17349,1,10,0:0:0:0:
160,48,17515,1,0,0:0:0:0:
160,240,17682,1,10,0:0:0:0:
48,336,18015,6,0,L|192:320,1,115,14|0,0:0|0:0,0:0:0:0:
333,235,18349,2,0,L|208:224,1,115,10|0,0:0|0:0,0:0:0:0:
48,128,18682,2,0,L|176:112,1,115,10|0,0:0|0:0,0:0:0:0:
336,32,19015,2,0,L|176:16,1,115,10|0,0:0|0:0,0:0:0:0:
48,16,19349,5,10,0:0:0:0:
48,16,19515,1,0,0:0:0:0:
197,132,19682,1,10,0:0:0:0:
197,132,19849,1,0,0:0:0:0:
20,214,20015,5,10,0:0:0:0:
28,253,20099,1,0,0:0:0:0:
45,289,20182,1,0,0:0:0:0:
80,320,20265,1,0,0:0:0:0:
112,336,20349,1,10,0:0:0:0:
50,166,20682,5,14,0:0:0:0:
50,166,20849,1,0,0:0:0:0:
244,170,21015,1,10,0:0:0:0:
244,170,21182,1,0,0:0:0:0:
247,364,21349,1,10,0:0:0:0:
247,364,21515,1,0,0:0:0:0:
45,367,21682,1,10,0:0:0:0:
45,367,21849,1,0,0:0:0:0:
46,169,22015,6,0,L|181:169,1,115,10|0,0:0|0:0,0:0:0:0:
241,172,22349,2,0,L|241:299,1,115,10|0,0:0|0:0,0:0:0:0:
384,320,22682,2,0,L|416:272,1,57.5
336,240,22849,2,0,L|384:176,1,57.5
448,112,23015,2,0,L|384:48,3,57.5,10|0|0|0,0:0|0:0|0:0|0:0,0:0:0:0:
320,28,23349,6,0,P|265:60|207:73,1,86.2500032901765,6|0,0:0|0:0,0:0:0:0:
112,128,23682,1,0,0:0:0:0:
112,128,23849,1,0,0:0:0:0:
240,192,24015,2,0,P|303:198|346:189,1,86.2500032901765,2|2,0:0|0:0,0:0:0:0:
112,240,24349,1,8,0:0:0:0:
112,240,24682,6,0,L|145:295,1,43.1250016450883,2|0,0:0|0:0,0:0:0:0:
190,230,24849,2,0,L|215:163,1,43.1250016450883,2|0,0:0|0:0,0:0:0:0:
274,240,25015,6,0,L|307:295,1,43.1250016450883,2|0,0:0|0:0,0:0:0:0:
349,222,25182,2,0,L|374:155,1,43.1250016450883,2|0,0:0|0:0,0:0:0:0:
425,251,25349,1,2,0:0:0:0:
270,167,25515,1,2,0:0:0:0:
435,115,25682,1,0,0:0:0:0:
270,62,25849,1,2,0:0:0:0:
211,23,26015,6,0,P|203:89|240:125,1,86.2500032901765,2|0,0:0|0:0,0:0:0:0:
290,233,26349,1,2,0:0:0:0:
290,233,26515,1,2,0:0:0:0:
408,154,26682,2,0,P|392:114|326:84,1,86.2500032901765,2|0,0:0|0:0,0:0:0:0:
207,89,27015,1,8,0:0:0:0:
320,176,27182,2,0,L|384:224,1,43.1250016450883,2|0,0:0|0:0,0:0:0:0:
432,256,27349,6,0,L|368:304,1,43.1250016450883,2|0,0:0|0:0,0:0:0:0:
336,320,27515,2,0,L|288:272,1,43.1250016450883,2|0,0:0|0:0,0:0:0:0:
256,240,27682,2,0,L|208:288,1,43.1250016450883,2|0,0:0|0:0,0:0:0:0:
160,304,27849,2,0,L|112:240,1,43.1250016450883,2|0,0:0|0:0,0:0:0:0:
64,176,28015,2,0,P|48:112|112:48,1,129.375004935265,2|0,0:0|0:0,0:0:0:0:
256,48,28349,6,0,L|256:112,1,43.1250016450883,2|0,0:0|0:0,0:0:0:0:
352,48,28515,2,0,L|352:112,1,43.1250016450883,2|0,0:0|0:0,0:0:0:0:
352,208,28682,2,0,P|336:240|286:280,1,86.2500032901765,2|0,0:0|0:0,0:0:0:0:
160,288,29015,6,0,P|128:272|104:237,1,43.1250016450883,2|0,0:0|0:0,0:0:0:0:
85,145,29182,2,0,P|104:114|134:91,1,43.1250016450883,2|0,0:0|0:0,0:0:0:0:
224,48,29349,2,0,P|283:91|302:134,1,86.2500032901765,2|0,0:0|0:0,0:0:0:0:
128,16,29682,1,8,0:0:0:0:
16,160,29849,6,0,L|48:224,1,43.1250016450883,2|0,0:0|0:0,0:0:0:0:
112,144,30015,6,0,L|147:73,1,43.1250016450883,2|0,0:0|0:0,0:0:0:0:
208,160,30182,2,0,L|240:224,1,43.1250016450883,2|0,0:0|0:0,0:0:0:0:
304,144,30349,2,0,L|336:96,1,43.1250016450883,2|0,0:0|0:0,0:0:0:0:
384,32,30515,2,0,L|316:10,1,43.1250016450883,2|0,0:0|0:0,0:0:0:0:
176,64,30682,2,0,P|230:77|262:77,1,86.2500032901765,2|0,0:0|0:0,0:0:0:0:
84,56,31015,1,8,0:0:0:0:
48,192,31182,6,0,L|96:240,1,43.1250016450883,2|0,0:0|0:0,0:0:0:0:
115,254,31349,1,2,0:0:0:0:
149,272,31432,1,2,0:0:0:0:
187,276,31515,1,2,0:0:0:0:
225,271,31599,1,2,0:0:0:0:
261,259,31682,1,2,0:0:0:0:
292,236,31765,1,2,0:0:0:0:
319,208,31849,1,2,0:0:0:0:
344,163,31932,1,2,0:0:0:0:
344,122,32015,6,0,P|296:82|224:74,1,115,10|0,0:0|0:0,0:0:0:0:
157,116,32349,6,0,P|205:156|265:152,1,86.2500032901765,10|0,0:0|0:0,0:0:0:0:
454,166,32682,5,2,0:0:0:0:
459,204,32765,1,2,0:0:0:0:
449,242,32849,1,2,0:0:0:0:
422,269,32932,1,2,0:0:0:0:
386,254,33015,1,2,0:0:0:0:
358,281,33099,1,2,0:0:0:0:
334,311,33182,1,2,0:0:0:0:
301,331,33265,1,2,0:0:0:0:
261,330,33349,6,0,P|225:259|225:215,1,86.2500032901765,10|0,0:0|0:0,0:0:0:0:
249,97,33682,2,0,P|279:140|289:195,1,86.2500032901765,10|0,0:0|0:0,0:0:0:0:
261,330,34015,6,0,L|149:321,1,86.2500032901765,6|0,0:0|0:0,0:0:0:0:
153,176,34349,1,8,0:0:0:0:
282,107,34515,2,0,P|346:152|365:181,1,86.2500032901765,2|0,0:0|0:0,0:0:0:0:
256,272,34849,1,0,0:0:0:0:
100,225,35015,2,0,P|81:184|95:137,1,86.2500032901765,10|0,0:0|0:0,0:0:0:0:
157,31,35349,6,0,P|208:16|254:32,1,86.2500032901765,2|0,0:0|0:0,0:0:0:0:
368,96,35682,1,8,0:0:0:0:
355,241,35849,2,0,P|324:305|211:346,1,172.500006580353,2|0,0:0|0:0,0:0:0:0:
228,277,36349,6,0,P|268:260|289:212,1,86.2500032901765,10|0,0:0|0:0,0:0:0:0:
220,206,36682,2,0,L|152:130,1,86.2500032901765,2|0,0:0|0:0,0:0:0:0:
44,51,37015,1,8,0:0:0:0:
50,197,37182,2,0,P|67:259|88:289,1,86.2500032901765,2|0,0:0|0:0,0:0:0:0:
204,352,37515,1,0,0:0:0:0:
237,209,37682,2,0,P|221:138|186:104,1,86.2500032901765,10|0,0:0|0:0,0:0:0:0:
107,26,38015,2,0,P|170:20|223:38,1,86.2500032901765,2|0,0:0|0:0,0:0:0:0:
288,96,38349,5,10,0:0:0:0:
80,144,38515,1,2,0:0:0:0:
336,240,38682,1,2,0:0:0:0:
64,240,38849,1,2,0:0:0:0:
288,176,39015,1,10,0:0:0:0:
144,288,39182,1,2,0:0:0:0:
176,352,39349,6,0,P|112:352|80:320,1,86.2500032901765,6|0,0:0|0:0,0:0:0:0:
32,208,39682,1,8,0:0:0:0:
96,64,39849,2,0,P|144:32|208:48,1,86.2500032901765,2|0,0:0|0:0,0:0:0:0:
304,96,40182,1,0,0:0:0:0:
261,230,40349,2,0,P|210:253|143:249,1,86.2500032901765,10|0,0:0|0:0,0:0:0:0:
53,181,40682,6,0,P|48:128|60:73,1,86.2500032901765,2|0,0:0|0:0,0:0:0:0:
178,17,41015,1,8,0:0:0:0:
307,91,41182,2,0,P|314:141|307:193,1,86.2500032901765,2|0,0:0|0:0,0:0:0:0:
144,192,41515,1,0,0:0:0:0:
48,308,41682,2,0,P|81:348|131:354,1,86.2500032901765,10|0,0:0|0:0,0:0:0:0:
259,356,42015,6,0,P|317:343|343:312,1,86.2500032901765,2|0,0:0|0:0,0:0:0:0:
384,176,42349,1,8,0:0:0:0:
285,65,42515,2,0,P|218:40|169:53,1,86.2500032901765,2|0,0:0|0:0,0:0:0:0:
86,132,42849,1,0,0:0:0:0:
213,202,43015,2,0,P|263:243|278:295,1,86.2500032901765,10|0,0:0|0:0,0:0:0:0:
150,346,43349,6,0,P|95:313|49:181,1,172.500006580353,2|10,0:0|0:0,0:0:0:0:
129,84,43849,1,2,0:0:0:0:
277,170,44015,2,0,L|308:124,1,43.1250016450883,10|0,0:0|0:0,0:0:0:0:
338,70,44182,2,0,L|396:79,1,43.1250016450883,10|0,0:0|0:0,0:0:0:0:
451,100,44349,2,0,L|424:166,1,43.1250016450883,10|0,0:0|0:0,0:0:0:0:
422,211,44515,2,0,L|348:227,1,43.1250016450883,10|0,0:0|0:0,0:0:0:0:
295,236,44682,6,0,P|231:238|129:183,1,172.500006580353,6|8,0:0|0:0,0:0:0:0:
192,48,45349,5,2,0:0:0:0:
48,96,45515,1,2,0:0:0:0:
240,160,45682,1,8,0:0:0:0:
32,224,45849,1,0,0:0:0:0:
280,279,46015,2,0,P|347:255|377:211,1,86.2500032901765,2|0,0:0|0:0,0:0:0:0:
414,115,46349,1,8,0:0:0:0:
307,14,46515,2,0,P|248:7|190:11,1,86.2500032901765,2|0,0:0|0:0,0:0:0:0:
80,96,46849,1,0,0:0:0:0:
104,236,47015,6,0,P|135:290|172:307,1,86.2500032901765,10|0,0:0|0:0,0:0:0:0:
302,305,47349,2,0,P|335:278|352:239,1,86.2500032901765,2|0,0:0|0:0,0:0:0:0:
353,92,47682,1,8,0:0:0:0:
192,32,47849,2,0,B|156:96|236:144|224:224,1,172.500006580353,2|0,0:0|0:0,0:0:0:0:
162,337,48349,1,8,0:0:0:0:
40,241,48515,1,2,0:0:0:0:
38,88,48682,6,0,P|91:44|205:35,1,172.500006580353,2|8,0:0|0:0,0:0:0:0:
341,71,49182,1,0,0:0:0:0:
374,223,49349,6,0,L|404:279,1,43.1250016450883,10|0,0:0|0:0,0:0:0:0:
443,314,49515,2,0,L|383:346,1,43.1250016450883,10|0,0:0|0:0,0:0:0:0:
344,376,49682,2,0,L|323:335,1,43.1250016450883,10|0,0:0|0:0,0:0:0:0:
307,266,49849,2,0,L|255:293,1,43.1250016450883,10|0,0:0|0:0,0:0:0:0:
171,325,50015,6,0,P|124:321|71:186,1,172.500006580353,6|8,0:0|0:0,0:0:0:0:
187,181,50515,1,0,0:0:0:0:
59,149,50682,2,0,P|89:71|169:47,1,172.500006580353,2|8,0:0|0:0,0:0:0:0:
445,61,51349,6,0,L|456:180,1,86.2500032901765,2|0,0:0|0:0,0:0:0:0:
312,61,51682,2,0,L|305:163,1,86.2500032901765,10|0,0:0|0:0,0:0:0:0:
369,279,52015,2,0,B|352:224|352:224|380:168|380:168|380:95,1,172.500006580353,2|8,0:0|0:0,0:0:0:0:
85,46,52682,6,0,P|55:123|64:162,1,86.2500032901765,2|0,0:0|0:0,0:0:0:0:
54,271,53015,2,0,P|120:319|160:321,1,86.2500032901765,10|0,0:0|0:0,0:0:0:0:
269,324,53349,2,0,P|333:272|345:234,1,86.2500032901765,2|0,0:0|0:0,0:0:0:0:
336,124,53682,2,0,P|302:48|268:27,1,86.2500032901765,10|0,0:0|0:0,0:0:0:0:
155,32,54015,2,0,P|72:58|31:129,1,172.500006580353,2|8,0:0|0:0,0:0:0:0:
44,264,54515,6,0,L|114:240,1,43.1250016450883,2|2,0:0|0:0,0:0:0:0:
122,239,54682,1,8,0:0:0:0:
158,227,54765,1,8,0:3:0:0:
195,214,54849,1,8,0:0:0:0:
228,195,54932,1,8,0:3:0:0:
256,168,55015,1,8,0:0:0:0:
279,136,55099,1,8,0:3:0:0:
291,99,55182,1,8,0:0:0:0:
307,64,55265,1,8,0:3:0:0:
325,29,55349,6,0,P|387:41|428:137,1,172.500006580353,14|8,0:0|0:0,0:0:0:0:
252,24,55849,1,0,0:0:0:0:
252,24,56015,6,0,L|176:96,1,86.2500032901765,2|0,0:0|0:0,0:0:0:0:
354,100,56349,2,0,L|290:164,1,86.2500032901765,10|2,0:0|0:0,0:0:0:0:
450,175,56682,2,0,L|307:316,1,172.500006580353,2|0,0:0|0:0,0:0:0:0:
155,244,57182,1,2,0:0:0:0:
75,119,57349,2,0,P|127:47|209:16,1,172.500006580353,10|0,0:0|0:0,0:0:0:0:
352,48,57849,1,2,0:0:0:0:
406,175,58015,6,4,P|384:274|347:306,1,115.000004386902,6|2,0:0|0:0,0:0:0:0:
339,309,58349,6,0,L|279:328,2,57.500002193451,8|0|8,0:3|0:0|0:3,0:0:0:0:
267,251,58682,2,0,L|207:270,2,57.500002193451,8|0|8,0:0|0:0|0:3,0:0:0:0:
194,194,59015,2,0,L|134:213,2,57.500002193451,8|0|8,0:3|0:0|0:3,0:0:0:0:
60,82,59349,6,4,P|171:32|284:35,1,215.625008225441,0|10,0:0|0:0,0:0:0:0:
398,61,59932,1,2,0:0:0:0:
95,209,60349,5,2,0:0:0:0:
95,209,60515,1,2,0:0:0:0:
95,209,60682,2,0,P|109:255|223:303,1,172.500006580353,2|8,0:0|0:0,0:0:0:0:
343,235,61182,1,0,0:0:0:0:
266,109,61349,2,0,L|172:56,1,86.2500032901765,10|0,0:0|0:0,0:0:0:0:
337,65,61682,2,0,L|236:10,1,86.2500032901765,10|10,0:0|0:0,0:0:0:0:
115,15,62015,2,0,P|36:37|-8:111,1,172.500006580353,2|0,0:0|0:0,0:0:0:0:
284,342,62682,5,8,0:0:0:0:
284,342,62849,1,8,0:0:0:0:
284,342,63015,2,0,L|284:220,1,86.2500032901765,2|0,0:0|0:0,0:0:0:0:
399,339,63349,6,0,L|397:180,1,115.000004386902,4|0,0:0|0:0,0:0:0:0:
387,179,63682,2,0,L|307:140,2,57.500002193451,12|0|12,0:3|0:0|0:3,0:0:0:0:
330,79,64015,2,0,L|250:40,2,57.500002193451,12|0|12,0:3|0:0|0:3,0:0:0:0:
215,98,64349,2,0,L|135:59,2,57.500002193451,12|0|12,0:3|0:0|0:3,0:0:0:0:
54,36,64682,6,0,P|39:95|44:168,1,115.000004386902,4|0,0:0|0:0,0:0:0:0:
52,194,64988,2,0,L|114:289,2,57.500002193451,12|0|12,0:3|0:0|0:3,0:0:0:0:
164,223,65321,2,0,L|226:318,2,57.500002193451,12|0|12,0:3|0:0|0:3,0:0:0:0:
278,234,65654,2,0,L|340:329,2,57.500002193451,8|0|12,0:3|0:0|0:3,0:0:0:0:
448,258,66015,6,0,P|451:177|400:80,1,172.500006580353,0|2,0:0|0:0,0:0:0:0:
172,176,66849,5,2,0:0:0:0:
323,148,67015,1,8,0:0:0:0:
119,117,67182,1,2,0:0:0:0:
390,88,67349,2,0,P|404:165|256:371,1,345.000013160706,2|2,0:0|0:0,0:0:0:0:
123,254,68182,1,2,0:0:0:0:
267,159,68349,6,0,L|210:90,1,86.2500032901765,2|0,0:0|0:0,0:0:0:0:
41,119,68682,2,0,L|97:198,1,86.2500032901765,2|0,0:0|0:0,0:0:0:0:
190,330,69015,2,0,L|293:263,1,86.2500032901765,2|0,0:0|0:0,0:0:0:0:
320,192,69349,2,0,L|342:152,1,43.1250016450883,2|0,0:0|0:0,0:0:0:0:
352,64,69515,2,0,L|288:80,1,43.1250016450883,2|0,0:0|0:0,0:0:0:0:
224,80,69682,2,0,L|176:32,1,43.1250016450883,2|0,0:0|0:0,0:0:0:0:
128,0,69849,2,0,L|90:32,1,43.1250016450883,2|0,0:0|0:0,0:0:0:0:
32,96,70015,6,0,P|19:172|64:256,1,172.500006580353,6|0,0:0|0:0,0:0:0:0:
400,365,70682,1,10,0:0:0:0:
423,334,70765,1,2,0:0:0:0:
437,297,70849,1,2,0:0:0:0:
441,258,70932,1,2,0:0:0:0:
434,219,71015,1,2,0:0:0:0:
271,108,71182,1,2,0:0:0:0:
369,250,71349,6,0,P|366:299|323:334,1,86.2500032901765,2|0,0:0|0:0,0:0:0:0:
171,336,71682,1,0,0:0:0:0:
132,331,71765,1,0,0:0:0:0:
97,312,71849,1,0,0:0:0:0:
69,284,71932,1,0,0:0:0:0:
59,246,72015,2,0,L|82:168,1,43.1250016450883,2|0,0:0|0:0,0:0:0:0:
99,136,72182,2,0,L|148:181,1,43.1250016450883,2|0,0:0|0:0,0:0:0:0:
191,207,72349,2,0,L|249:149,1,43.1250016450883,2|0,0:0|0:0,0:0:0:0:
188,111,72515,2,0,L|134:66,1,43.1250016450883,2|0,0:0|0:0,0:0:0:0:
97,36,72682,6,0,P|44:69|16:174,1,172.500006580353,6|10,0:0|0:0,0:0:0:0:
168,242,73182,1,8,0:0:0:0:
269,101,73349,1,8,0:0:0:0:
336,272,73515,1,8,0:0:0:0:
144,144,73682,1,8,0:0:0:0:
400,208,73849,1,8,0:0:0:0:
256,320,74015,6,0,P|192:352|160:336,1,86.2500032901765,2|0,0:0|0:0,0:0:0:0:
64,224,74349,2,0,P|35:176|44:130,1,86.2500032901765,2|0,0:0|0:0,0:0:0:0:
116,24,74682,1,8,0:0:0:0:
224,208,74849,1,8,0:0:0:0:
314,38,75015,1,8,0:0:0:0:
102,166,75182,1,8,0:0:0:0:
314,38,75349,6,0,P|383:91|421:202,1,172.500006580353
368,328,75849,2,0,L|263:328,1,86.2500032901765,2|0,0:0|0:0,0:0:0:0:
232,328,76099,1,2,0:0:0:0:
192,328,76182,1,2,0:0:0:0:
152,328,76265,1,2,0:0:0:0:
112,328,76349,1,2,0:0:0:0:
45,39,77015,6,0,L|45:137,1,86.2500032901765,14|0,0:0|0:0,0:0:0:0:
192,48,77349,1,8,0:0:0:0:
336,128,77515,2,0,L|336:28,1,86.2500032901765
480,96,77849,1,0,0:0:0:0:
480,224,78015,6,0,P|454:278|411:288,1,86.2500032901765,10|0,0:0|0:0,0:0:0:0:
288,336,78349,2,0,P|224:349|180:326,1,86.2500032901765,2|0,0:0|0:0,0:0:0:0:
48,208,78681,1,0,0:0:0:0:
48,208,78848,1,0,0:0:0:0:
128,48,79015,2,0,L|179:137,1,86.2500032901765,2|0,0:0|0:0,0:0:0:0:
272,20,79349,5,8,0:0:0:0:
368,128,79515,1,0,0:0:0:0:
248,223,79682,2,0,L|171:278,1,86.2500032901765,2|0,0:0|0:0,0:0:0:0:
118,138,80015,1,8,0:0:0:0:
65,275,80182,2,0,P|77:331|108:362,1,86.2500032901765,2|0,0:0|0:0,0:0:0:0:
205,251,80515,1,0,0:0:0:0:
311,348,80682,2,0,P|373:361|395:354,1,86.2500032901765,10|0,0:0|0:0,0:0:0:0:
424,211,81015,2,0,P|434:151|350:65,1,172.500006580353,2|8,0:0|0:0,0:0:0:0:
224,48,81515,1,0,0:0:0:0:
88,113,81682,6,0,L|52:164,1,43.1250016450883,10|0,0:0|0:0,0:0:0:0:
132,173,81848,2,0,L|159:247,1,43.1250016450883,10|0,0:0|0:0,0:0:0:0:
211,179,82015,2,0,L|264:204,1,43.1250016450883,10|0,0:0|0:0,0:0:0:0:
271,126,82182,2,0,L|318:90,1,43.1250016450883,10|0,0:0|0:0,0:0:0:0:
251,48,82349,6,0,B|196:41|196:41|153:44,1,86.2500032901765,6|0,0:0|0:0,0:0:0:0:
47,133,82682,1,8,0:0:0:0:
192,133,82849,2,0,L|259:208,1,86.2500032901765,2|0,0:0|0:0,0:0:0:0:
47,133,83182,1,0,0:0:0:0:
145,20,83349,2,0,P|189:14|254:27,1,86.2500032901765,10|0,0:0|0:0,0:0:0:0:
364,74,83682,6,0,P|403:102|426:154,1,86.2500032901765,2|0,0:0|0:0,0:0:0:0:
401,280,84015,1,8,0:0:0:0:
270,345,84181,2,0,P|234:307|210:264,1,86.2500032901765,2|0,0:0|0:0,0:0:0:0:
144,150,84514,1,0,0:0:0:0:
277,86,84682,1,8,0:0:0:0:
145,21,84848,1,0,0:0:0:0:
35,117,85014,6,0,P|35:190|58:227,1,86.2500032901765,2|0,0:0|0:0,0:0:0:0:
164,104,85349,1,8,0:0:0:0:
269,177,85515,2,0,P|280:241|262:273,1,86.2500032901765,2|0,0:0|0:0,0:0:0:0:
125,244,85849,1,0,0:0:0:0:
11,350,86015,2,0,P|68:369|109:370,1,86.2500032901765,10|0,0:0|0:0,0:0:0:0:
250,370,86348,2,0,P|336:336|400:256,1,172.500006580353,2|8,0:0|0:0,0:0:0:0:
467,197,86848,1,0,0:0:0:0:
425,103,87014,6,0,L|393:48,1,43.1250016450883,10|0,0:0|0:0,0:0:0:0:
348,113,87181,2,0,L|304:137,1,43.1250016450883,10|0,0:0|0:0,0:0:0:0:
295,60,87348,2,0,L|268:12,1,43.1250016450883,2|0,0:0|0:0,0:0:0:0:
221,72,87514,2,0,L|178:96,1,43.1250016450883,10|0,0:0|0:0,0:0:0:0:
92,130,87682,6,0,P|56:186|100:308,1,172.500006580353,6|8,0:0|0:0,0:0:0:0:
170,219,88182,1,2,0:0:0:0:
170,219,88348,2,0,P|193:151|185:119,1,86.2500032901765,2|0,0:0|0:0,0:0:0:0:
100,17,88682,1,8,0:0:0:0:
18,131,88849,1,0,0:0:0:0:
98,248,89015,2,0,P|148:295|194:303,1,86.2500032901765,2|0,0:0|0:0,0:0:0:0:
289,253,89348,2,0,P|239:206|193:198,1,86.2500032901765,10|0,0:0|0:0,0:0:0:0:
18,131,89682,1,0,0:0:0:0:
100,17,89849,1,0,0:0:0:0:
304,47,90015,6,0,L|382:131,1,86.2500032901765,10|0,0:0|0:0,0:0:0:0:
370,256,90348,2,0,L|292:340,1,86.2500032901765,2|0,0:0|0:0,0:0:0:0:
164,338,90682,1,8,0:0:0:0:
41,256,90848,2,0,L|42:154,1,86.2500032901765,2|0,0:0|0:0,0:0:0:0:
157,79,91182,1,0,0:0:0:0:
271,170,91349,2,0,L|271:280,1,86.2500032901765,10|0,0:0|0:0,0:0:0:0:
151,341,91682,6,0,L|153:159,1,172.500006580353,2|8,0:0|0:0,0:0:0:0:
215,35,92182,1,0,0:0:0:0:
271,170,92349,2,0,L|297:233,1,43.1250016450883,10|0,0:0|0:0,0:0:0:0:
271,170,92514,2,0,L|297:233,1,43.1250016450883,10|0,0:0|0:0,0:0:0:0:
400,112,92681,2,0,L|426:175,1,43.1250016450883,10|0,0:0|0:0,0:0:0:0:
400,112,92848,2,0,L|426:175,1,43.1250016450883,10|0,0:0|0:0,0:0:0:0:
496,192,93014,6,0,L|471:300,1,86.2500032901765,6|0,0:0|0:0,0:0:0:0:
336,352,93349,1,0,0:0:0:0:
256,256,93515,1,0,0:0:0:0:
148,328,93682,2,0,P|90:280|76:182,1,172.500006580353,0|10,0:0|0:0,0:0:0:0:
178,36,94348,6,0,L|178:143,1,86.2500032901765,2|0,0:0|0:0,0:0:0:0:
245,197,94681,2,0,L|245:110,1,86.2500032901765,10|0,0:0|0:0,0:0:0:0:
324,39,95014,2,0,B|315:90|315:90|340:158|340:158|325:217,1,172.500006580353,2|0,0:0|0:0,0:0:0:0:
249,171,95515,1,0,0:0:0:0:
178,122,95682,6,0,L|258:58,1,86.2500032901765,2|0,0:0|0:0,0:0:0:0:
393,89,96015,1,8,0:0:0:0:
393,89,96181,1,0,0:0:0:0:
400,240,96348,2,0,L|320:320,1,86.2500032901765,2|0,0:0|0:0,0:0:0:0:
185,247,96681,2,0,L|256:192,1,86.2500032901765,2|8,0:0|0:0,0:0:0:0:
48,48,97015,6,0,B|32:112|32:112|48:176|48:176|32:240,1,172.500006580353,2|8,0:0|0:0,0:0:0:0:
19,340,97515,2,0,L|96:337,1,43.1250016450883,10|2,0:0|0:0,0:0:0:0:
101,337,97682,1,8,0:3:0:0:
148,335,97765,1,8,0:0:0:0:
191,332,97849,1,8,0:3:0:0:
233,327,97932,1,8,0:0:0:0:
274,314,98015,1,8,0:3:0:0:
304,282,98099,1,8,0:0:0:0:
331,249,98182,1,8,0:3:0:0:
347,209,98265,1,8,0:0:0:0:
346,165,98349,6,0,P|320:104|221:41,1,172.500006580353,6|0,0:0|0:0,0:0:0:0:
80,96,98848,1,0,0:0:0:0:
80,224,99014,6,0,P|106:285|205:348,1,172.500006580353,6|0,0:0|0:0,0:0:0:0:
320,240,99514,1,2,0:0:0:0:
210,122,99682,2,0,P|163:57|167:34,1,86.2500032901765,10|0,0:0|0:0,0:0:0:0:
302,10,100015,2,0,P|352:27|377:67,1,86.2500032901765,2|0,0:0|0:0,0:0:0:0:
414,193,100349,2,0,P|377:305|292:330,1,172.500006580353,2|0,0:0|0:0,0:0:0:0:
186,325,100849,1,2,0:0:0:0:
77,227,101015,6,0,P|89:134|118:94,1,129.375004935265,14|0,0:0|0:0,0:0:0:0:
136,79,101348,2,0,L|227:54,2,57.500002193451,8|0|0,0:3|0:0|0:0,0:0:0:0:
248,104,101681,2,0,L|339:79,2,57.500002193451,8|0|0,0:3|0:0|0:0,0:0:0:0:
361,129,102015,2,0,P|401:209|343:310,1,172.500006580353,2|2,0:0|0:0,0:0:0:0:
188,189,102848,5,2,0:0:0:0:
84,305,103015,1,2,0:0:0:0:
48,42,103349,6,0,P|106:29|171:26,1,86.2500032901765,2|0,0:0|0:0,0:0:0:0:
279,31,103682,2,0,P|380:98|410:171,1,172.500006580353,2|8,0:0|0:0,0:0:0:0:
363,282,104182,1,0,0:0:0:0:
224,330,104349,2,0,P|160:327|128:301,1,86.2500032901765,2|0,0:0|0:0,0:0:0:0:
36,235,104682,2,0,P|0:185|10:130,1,86.2500032901765,10|0,0:0|0:0,0:0:0:0:
136,109,105015,2,0,P|172:159|146:272,1,172.500006580353,2|0,0:0|0:0,0:0:0:0:
394,74,105682,1,0,0:0:0:0:
101,83,106015,1,2,0:0:0:0:
394,76,106349,6,0,L|395:210,1,115.000004386902,4|0,0:0|0:0,0:0:0:0:
389,236,106681,2,0,L|332:302,2,57.500002193451,8|0|0,0:3|0:0|0:0,0:0:0:0:
274,236,107014,2,0,L|217:302,2,57.500002193451,8|0|0,0:3|0:0|0:0,0:0:0:0:
158,236,107348,2,0,L|101:302,2,57.500002193451,8|0|0,0:3|0:0|0:0,0:0:0:0:
43,236,107681,2,0,P|26:155|68:81,1,172.500006580353,2|0,0:0|0:0,0:0:0:0:
232,23,108181,5,2,0:0:0:0:
232,23,108348,1,0,0:0:0:0:
232,23,109014,1,2,0:0:0:0:
193,83,109681,5,6,0:0:0:0:
330,18,110014,1,6,0:0:0:0:
404,138,110349,1,6,0:0:0:0:
399,177,110431,1,0,0:0:0:0:
386,215,110515,1,2,0:0:0:0:
372,253,110598,1,0,0:0:0:0:
353,288,110681,1,8,0:0:0:0:
323,315,110764,1,0,0:0:0:0:
290,338,110849,1,2,0:0:0:0:
253,354,110931,1,0,0:0:0:0:
213,358,111014,5,2,0:0:0:0:
185,327,111098,1,0,0:0:0:0:
166,291,111182,1,2,0:0:0:0:
142,258,111264,1,0,0:0:0:0:
121,223,111349,1,8,0:0:0:0:
103,186,111432,1,0,0:0:0:0:
88,148,111515,1,2,0:0:0:0:
75,109,111599,1,0,0:0:0:0:
74,69,111681,5,2,0:0:0:0:
108,48,111765,1,0,0:0:0:0:
146,36,111849,1,2,0:0:0:0:
184,26,111932,1,0,0:0:0:0:
224,23,112015,1,8,0:0:0:0:
263,32,112099,1,0,0:0:0:0:
295,55,112182,1,2,0:0:0:0:
319,86,112265,1,0,0:0:0:0:
330,124,112348,6,0,L|308:161,3,43.1250016450883,2|0|0|0,0:0|0:0|0:0|0:0,0:0:0:0:
128,198,112681,2,0,P|68:144|53:71,1,129.375004935265,10|0,0:0|0:0,0:0:0:0:
64,56,113015,5,0,0:0:0:0:
87,22,113099,1,0,0:0:0:0:
125,10,113182,1,2,0:0:0:0:
164,17,113265,1,0,0:0:0:0:
201,31,113349,1,8,0:0:0:0:
239,42,113432,1,0,0:0:0:0:
278,34,113515,1,2,0:0:0:0:
317,25,113599,1,0,0:0:0:0:
356,23,113681,5,0,0:0:0:0:
401,29,113764,1,0,0:0:0:0:
437,46,113849,1,2,0:0:0:0:
465,73,113932,1,0,0:0:0:0:
486,106,114014,1,8,0:0:0:0:
500,143,114098,1,0,0:0:0:0:
508,182,114181,1,2,0:0:0:0:
495,220,114264,1,0,0:0:0:0:
473,254,114348,2,0,P|400:304|304:320,1,172.500006580353
185,265,115014,5,6,0:0:0:0:
296,353,115348,1,6,0:0:0:0:
315,221,115682,1,14,0:0:0:0:
297,185,115765,1,0,0:0:0:0:
274,152,115848,1,2,0:0:0:0:
243,125,115931,1,0,0:0:0:0:
207,105,116015,1,8,0:0:0:0:
168,90,116099,1,0,0:0:0:0:
128,81,116182,1,2,0:0:0:0:
89,71,116265,1,0,0:0:0:0:
43,65,116348,5,2,0:0:0:0:
40,111,116432,1,0,0:0:0:0:
44,156,116515,1,2,0:0:0:0:
58,199,116599,1,0,0:0:0:0:
80,238,116682,1,8,0:0:0:0:
116,265,116765,1,0,0:0:0:0:
156,286,116849,1,2,0:0:0:0:
200,298,116932,1,0,0:0:0:0:
245,301,117015,5,2,0:0:0:0:
264,259,117098,1,0,0:0:0:0:
277,215,117181,1,2,0:0:0:0:
293,172,117264,1,0,0:0:0:0:
308,127,117349,1,8,0:0:0:0:
333,88,117432,1,0,0:0:0:0:
367,57,117515,1,2,0:0:0:0:
409,39,117599,1,0,0:0:0:0:
454,42,117681,6,0,L|474:112,3,43.1250016450883,2|0|0|0,0:0|0:0|0:0|0:0,0:0:0:0:
294,231,118015,2,0,P|232:265|157:288,1,129.375004935265,10|0,0:0|0:0,0:0:0:0:
135,295,118349,5,0,0:0:0:0:
95,299,118432,1,0,0:0:0:0:
56,287,118515,1,2,0:0:0:0:
33,253,118598,1,0,0:0:0:0:
25,213,118682,1,8,0:0:0:0:
25,172,118765,1,0,0:0:0:0:
29,131,118849,1,2,0:0:0:0:
42,93,118932,1,0,0:0:0:0:
68,62,119015,5,0,0:0:0:0:
102,41,119099,1,0,0:0:0:0:
141,34,119182,1,2,0:0:0:0:
181,34,119265,1,0,0:0:0:0:
219,46,119349,1,8,0:0:0:0:
253,66,119432,1,0,0:0:0:0:
283,92,119515,1,2,0:0:0:0:
312,120,119599,1,0,0:0:0:0:
337,150,119681,6,0,L|379:200,1,43.1250016450883,2|0,0:0|0:0,0:0:0:0:
414,243,119849,2,0,L|356:296,1,43.1250016450883,2|0,0:0|0:0,0:0:0:0:
320,312,120014,2,0,L|276:265,1,43.1250016450883,10|0,0:0|0:0,0:0:0:0:
236,224,120182,2,0,L|193:174,1,43.1250016450883,2|0,0:0|0:0,0:0:0:0:
143,127,120348,5,6,0:0:0:0:
16,208,120681,1,6,0:0:0:0:
146,275,121015,2,0,P|197:300|245:310,1,86.2500032901765,14|0,0:0|0:0,0:0:0:0:
410,315,121349,1,6,0:0:0:0:
399,153,121514,2,0,P|371:95|322:69,1,86.2500032901765,2|0,0:0|0:0,0:0:0:0:
186,18,121849,1,2,0:0:0:0:
416,32,122014,2,0,L|464:16,2,43.1250016450883
455,165,122349,5,0,0:0:0:0:
447,204,122432,1,0,0:0:0:0:
435,242,122515,1,2,0:0:0:0:
411,275,122599,1,0,0:0:0:0:
383,304,122682,1,8,0:0:0:0:
346,320,122765,1,0,0:0:0:0:
307,323,122849,1,2,0:0:0:0:
267,315,122932,1,0,0:0:0:0:
230,298,123015,5,0,0:0:0:0:
194,278,123099,1,0,0:0:0:0:
161,255,123182,1,2,0:0:0:0:
130,228,123265,1,0,0:0:0:0:
117,189,123349,2,0,P|133:130|168:87,1,86.2500032901765,10|0,0:0|0:0,0:0:0:0:
230,30,123681,5,2,0:0:0:0:
64,80,123849,1,2,0:0:0:0:
224,144,124014,1,10,0:0:0:0:
16,192,124181,1,2,0:0:0:0:
228,264,124349,2,8,P|267:286|293:286,1,43.1250016450883,2|0,0:0|0:0,0:0:0:0:
364,290,124515,2,0,P|403:277|420:253,1,43.1250016450883,2|0,0:0|0:0,0:0:0:0:
465,191,124681,2,0,P|493:124|479:76,1,86.2500032901765,10|0,0:0|0:0,0:0:0:0:
310,48,125014,6,0,P|261:94|230:143,1,86.2500032901765,2|0,0:0|0:0,0:0:0:0:
129,269,125348,1,10,0:0:0:0:
259,380,125514,1,2,0:0:0:0:
345,252,125682,1,0,0:0:0:0:
348,212,125765,1,0,0:0:0:0:
342,171,125849,1,2,0:0:0:0:
326,134,125932,1,0,0:0:0:0:
297,105,126015,5,8,0:0:0:0:
260,86,126099,1,0,0:0:0:0:
220,89,126182,1,2,0:0:0:0:
186,110,126265,1,0,0:0:0:0:
165,144,126349,6,0,P|154:209|206:291,1,129.375004935265,2|2,0:0|0:0,0:0:0:0:
283,322,126681,1,8,0:0:0:0:
320,306,126765,1,0,0:0:0:0:
353,283,126848,1,2,0:0:0:0:
380,253,126932,1,0,0:0:0:0:
400,218,127015,5,0,0:0:0:0:
411,179,127098,1,0,0:0:0:0:
410,138,127181,1,2,0:0:0:0:
403,98,127264,1,0,0:0:0:0:
379,64,127348,1,8,0:0:0:0:
346,40,127431,1,0,0:0:0:0:
307,28,127515,1,2,0:0:0:0:
266,25,127599,1,0,0:0:0:0:
226,29,127682,6,0,P|172:77|135:162,1,129.375004935265,2|2,0:0|0:0,0:0:0:0:
119,247,128015,1,10,0:0:0:0:
125,287,128099,1,0,0:0:0:0:
150,317,128182,1,2,0:0:0:0:
187,331,128265,1,0,0:0:0:0:
227,334,128349,5,0,0:0:0:0:
264,320,128432,1,0,0:0:0:0:
295,295,128515,1,2,0:0:0:0:
319,262,128599,1,0,0:0:0:0:
320,221,128682,1,8,0:0:0:0:
308,182,128765,1,0,0:0:0:0:
285,148,128849,1,2,0:0:0:0:
249,128,128932,1,0,0:0:0:0:
210,117,129015,6,0,P|118:143|51:205,3,172.500006580353,2|8|0|10,0:0|0:0|0:0|0:0,0:0:0:0:
246,114,130348,5,12,0:0:0:0:
290,108,130432,1,0,0:0:0:0:
330,108,130515,1,2,0:0:0:0:
370,111,130599,1,0,0:0:0:0:
409,116,130682,1,0,0:0:0:0:
446,129,130765,1,0,0:0:0:0:
476,155,130848,1,2,0:0:0:0:
502,185,130932,1,0,0:0:0:0:
496,224,131015,5,12,0:0:0:0:
467,253,131099,1,0,0:0:0:0:
431,271,131182,1,2,0:0:0:0:
392,283,131265,1,0,0:0:0:0:
351,288,131349,1,0,0:0:0:0:
310,288,131432,1,0,0:0:0:0:
270,284,131515,1,2,0:0:0:0:
230,276,131599,1,0,0:0:0:0:
195,258,131682,5,12,0:0:0:0:
259,187,142348,6,0,L|260:303,1,115,2|0,0:0|0:0,0:0:0:0:
376,186,142682,2,0,L|378:316,1,115,2|0,0:0|0:0,0:0:0:0:
375,126,143015,6,0,L|242:128,1,115,2|0,0:0|0:0,0:0:0:0:
385,14,143349,2,0,L|245:15,1,115,2|0,0:0|0:0,0:0:0:0:
177,96,143682,6,0,L|91:182,1,115,2|0,0:0|0:0,0:0:0:0:
263,163,144015,2,0,L|179:248,1,115,2|0,0:0|0:0,0:0:0:0:
336,161,144349,6,0,L|428:60,1,115,2|0,0:0|0:0,0:0:0:0:
246,90,144682,2,0,L|329:4,1,115,2|0,0:0|0:0,0:0:0:0:
159,38,145015,6,0,L|95:80,2,57.5,2|0|2,0:0|0:0|0:0,0:0:0:0:
208,208,145349,2,0,L|280:159,2,57.5,2|0|2,0:0|0:0|0:0,0:0:0:0:
40,200,145682,6,0,P|26:249|47:312,1,115,2|0,0:0|0:0,0:0:0:0:
158,358,146015,2,0,P|172:309|154:246,1,115,2|0,0:0|0:0,0:0:0:0:
147,128,146349,2,0,P|197:92|351:132,1,230,2|8,0:0|0:0,0:0:0:0:
146,345,147015,6,0,L|199:278,1,57.5,10|0,0:0|0:0,0:0:0:0:
232,239,147182,2,0,L|295:293,1,57.5,10|0,0:0|0:0,0:0:0:0:
336,320,147349,2,0,P|400:304|437:242,1,115,10|0,0:0|0:0,0:0:0:0:
448,160,147682,5,8,0:0:0:0:
448,160,147849,1,2,0:0:0:0:
288,48,148015,1,8,0:0:0:0:
288,48,148182,1,2,0:0:0:0:
288,240,148349,5,8,0:0:0:0:
288,240,148515,1,2,0:0:0:0:
128,96,148682,1,8,0:0:0:0:
37,133,149015,5,8,0:0:0:0:
37,133,149182,1,2,0:0:0:0:
144,304,149349,1,8,0:0:0:0:
144,304,149515,1,2,0:0:0:0:
144,112,149682,5,8,0:0:0:0:
144,112,149849,1,2,0:0:0:0:
256,272,150015,1,8,0:0:0:0:
368,208,150349,6,0,L|368:147,2,57.5,8|0|2,0:0|0:0|0:0,0:0:0:0:
175,208,150682,2,0,L|175:265,2,57.5,8|0|2,0:0|0:0|0:0,0:0:0:0:
80,64,151015,5,8,0:0:0:0:
80,64,151182,1,2,0:0:0:0:
80,256,151349,1,8,0:0:0:0:
256,197,151682,6,0,P|315:131|317:89,1,115,8|2,0:0|0:0,0:0:0:0:
227,17,152015,2,0,L|110:28,1,115,8|2,0:0|0:0,0:0:0:0:
66,151,152349,2,0,L|82:240,1,57.5,8|0,0:0|0:0,0:0:0:0:
149,259,152515,2,0,L|162:338,1,57.5,8|0,0:0|0:0,0:0:0:0:
237,321,152682,2,0,L|279:245,1,57.5,8|0,0:0|0:0,0:0:0:0:
334,238,152849,2,0,L|369:172,1,57.5,8|0,0:0|0:0,0:0:0:0:
407,132,153015,6,0,P|375:68|316:39,2,115,2|2|8,0:0|0:0|0:0,0:0:0:0:
257,191,153515,1,0,0:0:0:0:
131,112,153682,2,0,P|162:54|212:39,1,115,2|0,0:0|0:0,0:0:0:0:
32,44,154015,1,8,0:0:0:0:
325,65,154349,6,0,L|317:182,1,115,2|0,0:0|0:0,0:0:0:0:
447,82,154682,2,0,L|438:199,1,115,10|0,0:0|0:0,0:0:0:0:
408,311,155014,2,0,P|351:341|203:279,1,230,2|8,0:0|0:0,0:0:0:0:
56,100,155682,6,0,L|103:214,1,115,2|0,0:0|0:0,0:0:0:0:
164,53,156015,2,0,L|219:181,1,115,10|0,0:0|0:0,0:0:0:0:
165,277,156349,2,0,P|227:336|351:286,1,230,2|8,0:0|0:0,0:0:0:0:
257,229,157015,6,0,L|307:171,1,57.5,2|0,0:0|0:0,0:0:0:0:
224,144,157182,2,0,L|205:86,1,57.5,2|0,0:0|0:0,0:0:0:0:
144,160,157349,2,0,L|65:205,1,57.5,10|0,0:0|0:0,0:0:0:0:
160,240,157515,2,0,L|133:318,1,57.5,2|0,0:0|0:0,0:0:0:0:
224,288,157682,2,0,L|280:313,1,57.5,2|0,0:0|0:0,0:0:0:0:
272,224,157848,2,0,L|330:173,1,57.5,2|0,0:0|0:0,0:0:0:0:
240,144,158015,2,0,L|243:73,1,57.5,10|0,0:0|0:0,0:0:0:0:
160,128,158182,2,0,L|103:77,1,57.5,2|0,0:0|0:0,0:0:0:0:
96,176,158348,6,0,L|-2:261,2,115,2|0|8,0:0|0:0|0:0,0:0:0:0:
192,96,158849,1,0,0:0:0:0:
192,96,159015,2,0,P|232:51|234:-4,1,115,2|0,0:0|0:0,0:0:0:0:
96,16,159349,1,8,0:0:0:0:
64,288,159682,2,0,L|181:256,1,115,2|0,0:0|0:0,0:0:0:0:
48,160,160015,2,0,L|167:131,1,115,10|0,0:0|0:0,0:0:0:0:
256,64,160349,2,0,L|306:30,2,57.5,2|2|2,0:0|0:0|0:0,0:0:0:0:
96,64,160682,1,8,0:0:0:0:
96,64,160849,1,0,0:0:0:0:
95,223,161015,6,0,P|155:274|208:282,1,115,2|0,0:0|0:0,0:0:0:0:
368,304,161349,2,0,L|415:262,1,57.5,10|0,0:0|0:0,0:0:0:0:
329,200,161515,2,0,L|282:244,1,57.5,2|0,0:0|0:0,0:0:0:0:
262,258,161682,1,2,0:0:0:0:
241,280,161765,1,2,0:0:0:0:
217,298,161849,1,2,0:0:0:0:
190,313,161931,1,2,0:0:0:0:
164,329,162015,2,0,P|108:339|54:307,1,86.2500032901765,10|0,0:0|0:0,0:0:0:0:
31,190,162349,6,0,L|21:131,14,57.5,2|0|0|0|0|0|2|0|8|0|0|0|8|0|2,0:0|0:0|0:0|0:0|0:0|0:0|0:0|0:0|0:0|0:0|0:0|0:0|0:0|0:0|0:0,0:0:0:0:
87,325,163681,6,0,P|157:351|200:341,2,115,2|0|8,0:0|0:0|0:0,0:0:0:0:
162,199,164182,1,0,0:0:0:0:
162,199,164349,2,0,P|194:143|233:104,1,115,2|0,0:0|0:0,0:0:0:0:
353,42,164682,1,8,0:0:0:0:
351,358,165015,2,0,L|234:351,1,115,2|0,0:0|0:0,0:0:0:0:
338,228,165349,2,0,L|208:219,1,115,10|0,0:0|0:0,0:0:0:0:
142,324,165681,2,0,P|101:311|71:146,1,230,2|8,0:0|0:0,0:0:0:0:
315,62,166348,6,0,L|222:136,1,115,2|2,0:0|0:0,0:0:0:0:
371,193,166682,2,0,L|273:272,1,115,10|0,0:0|0:0,0:0:0:0:
173,176,167014,2,0,P|144:236|228:363,1,230,2|8,0:0|0:0,0:0:0:0:
240,240,167682,6,0,L|326:240,1,57.5,2|0,0:0|0:0,0:0:0:0:
272,160,167849,2,0,L|338:110,1,57.5,2|0,0:0|0:0,0:0:0:0:
240,80,168015,2,0,L|240:22,1,57.5,10|0,0:0|0:0,0:0:0:0:
160,64,168182,2,0,L|119:21,1,57.5,2|0,0:0|0:0,0:0:0:0:
112,128,168349,2,0,L|50:127,1,57.5,2|0,0:0|0:0,0:0:0:0:
128,208,168515,2,0,L|76:244,1,57.5,2|0,0:0|0:0,0:0:0:0:
192,256,168682,2,0,L|191:332,1,57.5,10|0,0:0|0:0,0:0:0:0:
272,240,168849,2,0,L|322:293,1,57.5,2|0,0:0|0:0,0:0:0:0:
320,176,169015,6,0,L|461:181,2,115,2|0|8,0:0|0:0|0:0,0:0:0:0:
160,160,169515,1,2,0:0:0:0:
160,160,169682,2,0,P|109:128|83:67,1,115,2|0,0:0|0:0,0:0:0:0:
48,0,170015,1,8,0:0:0:0:
316,85,170349,2,0,L|328:206,1,115,2|0,0:0|0:0,0:0:0:0:
195,86,170682,2,0,L|181:205,1,115,10|0,0:0|0:0,0:0:0:0:
255,303,171015,2,0,L|256:363,2,57.5,0|0|2,0:0|0:0|0:0,0:0:0:0:
257,155,171349,1,8,0:0:0:0:
257,155,171515,1,0,0:0:0:0:
157,47,171681,6,0,P|115:72|85:140,1,115,2|0,0:0|0:0,0:0:0:0:
50,296,172015,2,0,L|88:344,1,57.5,10|0,0:0|0:0,0:0:0:0:
176,287,172182,2,0,L|136:226,1,57.5,2|0,0:0|0:0,0:0:0:0:
128,211,172349,1,10,0:0:0:0:
113,184,172432,1,2,0:0:0:0:
103,155,172515,1,2,0:0:0:0:
105,124,172599,1,2,0:0:0:0:
118,96,172682,2,0,P|159:54|213:40,1,115,2|0,0:0|0:0,0:0:0:0:
336,99,173015,6,0,L|391:138,14,57.5,10|2|2|2|2|0|0|0|2|2|2|2|2|0|2,0:0|0:0|0:0|0:0|0:0|0:0|0:0|0:0|0:0|0:0|0:0|0:0|0:0|0:0|0:0,0:0:0:0:
245,202,174348,5,4,0:0:0:0:
346,332,174682,5,0,0:0:0:0:
404,197,174849,1,0,0:0:0:0:
317,79,175015,1,4,0:0:0:0:
121,70,175349,5,0,0:0:0:0:
56,201,175515,1,0,0:0:0:0:
130,319,175681,2,0,L|191:364,1,57.5,6|0,0:0|0:0,0:0:0:0:
208,272,175849,2,0,L|244:216,1,57.5,2|0,0:0|0:0,0:0:0:0:
160,176,176015,2,0,L|87:139,1,57.5,2|0,0:0|0:0,0:0:0:0:
64,240,176181,2,0,L|26:310,1,57.5,2|0,0:0|0:0,0:0:0:0:
43,169,176349,6,0,P|15:114|18:55,1,115,2|0,0:0|0:0,0:0:0:0:
162,8,176682,2,0,P|207:43|237:119,1,115,2|0,0:0|0:0,0:0:0:0:
243,227,177015,5,4,0:0:0:0:
50,163,177349,5,0,0:0:0:0:
246,230,177515,1,0,0:0:0:0:
24,236,177682,1,4,0:0:0:0:
224,336,178015,6,0,L|291:387,1,57.5,2|0,0:0|0:0,0:0:0:0:
304,288,178182,2,0,L|375:274,1,57.5,2|0,0:0|0:0,0:0:0:0:
320,208,178349,2,0,L|355:144,1,57.5,2|0,0:0|0:0,0:0:0:0:
256,160,178515,2,0,L|238:90,1,57.5,2|0,0:0|0:0,0:0:0:0:
176,176,178682,2,0,L|120:158,1,57.5,2|0,0:0|0:0,0:0:0:0:
144,256,178849,2,0,L|87:292,1,57.5,2|0,0:0|0:0,0:0:0:0:
224,288,179014,2,0,P|167:349|31:334,1,230,6|0,0:0|0:0,0:0:0:0:
256,192,179681,12,0,181514,0:0:0:0:
260,185,181682,6,0,L|260:89,1,86.2500032901765,6|0,0:0|0:0,0:0:0:0:
111,97,182015,2,0,L|111:203,1,86.2500032901765,10|0,0:0|0:0,0:0:0:0:
186,310,182349,1,0,0:0:0:0:
187,166,182515,1,0,0:0:0:0:
129,34,182682,2,0,P|204:21|240:32,1,86.2500032901765,10|0,0:0|0:0,0:0:0:0:
349,72,183015,2,0,P|388:135|386:171,1,86.2500032901765,2|0,0:0|0:0,0:0:0:0:
369,291,183349,1,8,0:0:0:0:
230,336,183515,2,0,P|179:340|55:183,1,258.75000987053,2|8,0:0|0:0,0:0:0:0:
122,184,184348,6,0,P|149:254|245:255,1,172.500006580353,2|8,0:0|0:0,0:0:0:0:
195,201,184849,2,0,L|239:127,1,86.2500032901765,2|0,0:0|0:0,0:0:0:0:
328,12,185182,2,0,L|365:107,1,86.2500032901765,2|8,0:0|0:0,0:0:0:0:
352,256,185515,1,0,0:0:0:0:
224,338,185682,2,0,P|161:358|117:329,1,86.2500032901765,2|0,0:0|0:0,0:0:0:0:
32,256,186014,5,10,0:0:0:0:
112,112,186181,1,2,0:0:0:0:
192,256,186348,1,2,0:0:0:0:
0,176,186514,1,2,0:0:0:0:
224,176,186682,1,10,0:0:0:0:
16,320,186848,1,2,0:0:0:0:
254,355,187015,6,0,P|316:348|340:310,1,86.2500032901765,6|0,0:0|0:0,0:0:0:0:
386,196,187349,1,8,0:0:0:0:
295,75,187515,2,0,P|244:62|194:76,1,86.2500032901765,2|0,0:0|0:0,0:0:0:0:
112,176,187849,1,0,0:0:0:0:
105,33,188015,2,0,P|150:13|214:0,1,86.2500032901765,10|0,0:0|0:0,0:0:0:0:
330,31,188349,6,0,P|387:76|401:123,1,86.2500032901765,2|0,0:0|0:0,0:0:0:0:
336,224,188682,1,8,0:0:0:0:
222,138,188849,2,0,P|184:110|136:101,1,86.2500032901765,2|0,0:0|0:0,0:0:0:0:
0,86,189182,1,0,0:0:0:0:
55,221,189349,1,10,0:0:0:0:
55,221,189515,1,2,0:0:0:0:
55,221,189682,2,0,L|153:294,1,86.2500032901765,2|0,0:0|0:0,0:0:0:0:
296,207,190015,1,10,0:0:0:0:
296,207,190182,2,0,L|195:135,1,86.2500032901765,2|0,0:0|0:0,0:0:0:0:
0,64,190515,5,0,0:0:0:0:
113,167,190682,2,0,L|214:240,1,86.2500032901765,10|0,0:0|0:0,0:0:0:0:
304,299,191015,2,0,P|378:250|380:139,1,172.500006580353,2|8,0:0|0:0,0:0:0:0:
284,72,191515,5,0,0:0:0:0:
138,48,191682,2,0,L|120:103,1,43.1250016450883,10|0,0:0|0:0,0:0:0:0:
197,88,191848,2,0,L|179:143,1,43.1250016450883,10|0,0:0|0:0,0:0:0:0:
256,128,192014,2,0,L|238:183,1,43.1250016450883,10|0,0:0|0:0,0:0:0:0:
316,168,192181,2,0,L|298:223,1,43.1250016450883,10|0,0:0|0:0,0:0:0:0:
275,288,192348,6,0,P|224:324|177:321,1,86.2500032901765,6|0,0:0|0:0,0:0:0:0:
64,224,192682,1,8,0:0:0:0:
224,176,192849,1,0,0:0:0:0:
80,80,193015,2,0,P|144:73|196:95,1,86.2500032901765,2|0,0:0|0:0,0:0:0:0:
336,128,193349,1,10,0:0:0:0:
336,128,193515,1,2,0:0:0:0:
336,128,193681,2,0,P|344:191|313:242,1,86.2500032901765,2|0,0:0|0:0,0:0:0:0:
176,256,194014,1,0,0:0:0:0:
176,256,194181,2,0,P|168:192|199:142,1,86.2500032901765,2|0,0:0|0:0,0:0:0:0:
240,16,194515,1,0,0:0:0:0:
246,16,194682,6,0,P|186:19|132:51,1,86.2500032901765,10|0,0:0|0:0,0:0:0:0:
48,160,195014,2,0,P|51:220|83:273,1,86.2500032901765,10|0,0:0|0:0,0:0:0:0:
208,336,195348,1,0,0:0:0:0:
208,336,195515,2,0,L|192:240,1,86.2500032901765,2|0,0:0|0:0,0:0:0:0:
137,124,195849,1,0,0:0:0:0:
241,21,196014,2,0,P|292:54|322:86,1,86.2500032901765,10|0,0:0|0:0,0:0:0:0:
387,197,196349,6,0,P|365:301|285:342,1,172.500006580353,2|8,0:0|0:0,0:0:0:0:
167,335,196849,1,0,0:0:0:0:
77,220,197015,2,0,L|60:153,1,43.1250016450883,10|0,0:0|0:0,0:0:0:0:
137,192,197181,2,0,L|120:125,1,43.1250016450883,10|0,0:0|0:0,0:0:0:0:
199,164,197348,2,0,L|181:92,1,43.1250016450883,10|0,0:0|0:0,0:0:0:0:
261,136,197514,2,0,L|244:69,1,43.1250016450883,10|0,0:0|0:0,0:0:0:0:
324,103,197682,6,0,B|305:49|305:49|270:26,1,86.2500032901765,6|0,0:0|0:0,0:0:0:0:
130,40,198015,1,8,0:0:0:0:
130,40,198182,1,0,0:0:0:0:
217,157,198349,2,0,P|269:223|282:319,1,172.500006580353,2|8,0:0|0:0,0:0:0:0:
130,40,199015,5,0,0:0:0:0:
244,195,199182,1,0,0:0:0:0:
80,198,199349,1,8,0:0:0:0:
206,105,199515,1,0,0:0:0:0:
48,134,199682,2,0,P|9:187|67:267,1,172.500006580353,2|8,0:0|0:0,0:0:0:0:
325,333,200349,6,0,L|367:242,1,86.2500032901765,2|0,0:0|0:0,0:0:0:0:
245,164,200682,2,0,L|198:258,1,86.2500032901765,10|0,0:0|0:0,0:0:0:0:
64,211,201015,2,0,L|64:123,1,86.2500032901765,2|0,0:0|0:0,0:0:0:0:
26,7,201349,2,0,L|142:10,1,86.2500032901765,10|0,0:0|0:0,0:0:0:0:
251,57,201682,6,0,P|243:146|180:201,1,172.500006580353,2|0,0:0|0:0,0:0:0:0:
90,312,202181,2,0,L|143:331,1,43.1250016450883,10|2,0:0|0:0,0:0:0:0:
168,334,202348,1,10,0:3:0:0:
198,325,202432,1,10,0:0:0:0:
226,314,202515,1,8,0:3:0:0:
254,302,202599,1,10,0:0:0:0:
280,287,202681,1,8,0:3:0:0:
305,271,202765,1,10,0:0:0:0:
330,253,202849,1,8,0:3:0:0:
351,232,202932,1,10,0:0:0:0:
365,205,203015,6,0,L|407:31,1,172.500006580353,14|8,0:0|0:0,0:0:0:0:
256,22,203515,1,8,0:0:0:0:
121,81,203682,6,0,P|76:140|68:179,1,86.2500032901765,10|0,0:0|0:0,0:0:0:0:
218,133,204015,2,0,P|173:192|165:231,1,86.2500032901765,10|8,0:0|0:0,0:0:0:0:
317,210,204349,2,0,P|272:269|283:366,1,172.500006580353,2|0,0:0|0:0,0:0:0:0:
393,308,204849,1,0,0:0:0:0:
369,163,205015,2,0,P|315:102|211:78,1,172.500006580353,2|0,0:0|0:0,0:0:0:0:
247,202,205515,1,0,0:0:0:0:
117,268,205682,6,0,P|64:194|62:156,1,115.000004386902,6|0,0:0|0:0,0:0:0:0:
66,127,206014,2,0,L|127:75,2,57.500002193451,8|0|8,0:3|0:0|0:3,0:0:0:0:
181,129,206348,2,0,L|242:77,2,57.500002193451,8|0|8,0:3|0:0|0:3,0:0:0:0:
295,129,206681,2,0,L|356:77,2,57.500002193451,8|0|8,3:0|0:0|0:3,0:0:0:0:
417,67,207014,2,0,P|432:169|311:254,1,258.75000987053,2|10,0:0|0:0,0:0:0:0:
171,264,207681,1,10,0:0:0:0:
399,301,208015,5,0,0:0:0:0:
399,301,208182,1,0,0:0:0:0:
399,301,208349,2,0,P|400:229|345:103,1,172.500006580353,2|8,0:0|0:0,0:0:0:0:
242,58,208849,1,8,0:0:0:0:
109,118,209015,2,0,L|50:226,1,86.2500032901765,2|0,0:0|0:0,0:0:0:0:
192,115,209349,2,0,L|135:223,1,86.2500032901765,10|8,0:0|0:0,0:0:0:0:
40,296,209682,2,0,P|73:336|197:355,1,172.500006580353,2|0,0:0|0:0,0:0:0:0:
311,92,210349,5,0,0:0:0:0:
311,92,210515,1,0,0:0:0:0:
311,92,210681,2,0,P|358:170|355:201,1,86.2500032901765,2|0,0:0|0:0,0:0:0:0:
326,309,211015,2,0,P|256:336|158:319,1,172.500006580353,2|0,0:0|0:0,0:0:0:0:
51,48,211681,6,0,P|121:21|219:38,1,172.500006580353,2|0,0:0|0:0,0:0:0:0:
352,112,212182,1,0,0:0:0:0:
392,261,212349,2,0,P|348:313|227:312,1,172.500006580353,2|0,0:0|0:0,0:0:0:0:
143,220,212849,1,2,0:0:0:0:
143,220,213015,1,2,0:0:0:0:
143,220,213682,1,2,0:0:0:0:
332,139,214348,5,4,0:0:0:0:
287,15,214681,1,4,0:0:0:0:
162,75,215014,1,12,0:0:0:0:
138,107,215097,1,0,0:0:0:0:
116,140,215181,1,2,0:0:0:0:
95,175,215264,1,0,0:0:0:0:
76,210,215347,1,8,0:0:0:0:
65,248,215430,1,0,0:0:0:0:
57,287,215514,1,2,0:0:0:0:
57,327,215598,1,0,0:0:0:0:
75,362,215680,5,0,0:0:0:0:
115,358,215764,1,0,0:0:0:0:
152,344,215847,1,2,0:0:0:0:
185,321,215930,1,0,0:0:0:0:
219,300,216014,1,8,0:0:0:0:
248,272,216097,1,0,0:0:0:0:
271,239,216180,1,2,0:0:0:0:
295,206,216264,1,0,0:0:0:0:
313,170,216348,5,0,0:0:0:0:
285,141,216430,1,0,0:0:0:0:
255,114,216514,1,2,0:0:0:0:
221,89,216599,1,0,0:0:0:0:
185,69,216681,1,8,0:0:0:0:
147,53,216764,1,0,0:0:0:0:
109,38,216848,1,2,0:0:0:0:
70,25,216931,1,0,0:0:0:0:
29,25,217014,6,0,L|32:96,3,43.1250016450883
160,176,217348,2,0,L|313:185,1,129.375004935265,8|0,0:0|0:0,0:0:0:0:
368,192,217681,5,0,0:0:0:0:
403,212,217764,1,0,0:0:0:0:
429,241,217848,1,2,0:0:0:0:
438,279,217931,1,0,0:0:0:0:
429,316,218014,1,8,0:0:0:0:
404,347,218098,1,0,0:0:0:0:
365,358,218181,1,2,0:0:0:0:
324,352,218264,1,0,0:0:0:0:
284,334,218348,5,0,0:0:0:0:
250,306,218431,1,0,0:0:0:0:
216,279,218514,1,2,0:0:0:0:
172,274,218598,1,0,0:0:0:0:
132,289,218681,1,8,0:0:0:0:
91,304,218764,1,0,0:0:0:0:
49,316,218848,1,2,0:0:0:0:
14,290,218931,1,0,0:0:0:0:
10,247,219014,2,0,L|30:172,4,43.1250016450883,0|0|2|0|8,0:0|0:0|0:0|0:0|0:0,0:0:0:0:
147,212,219681,5,4,0:0:0:0:
85,335,220014,1,4,0:0:0:0:
35,210,220348,1,12,0:0:0:0:
52,174,220432,1,0,0:0:0:0:
73,139,220515,1,2,0:0:0:0:
100,109,220598,1,0,0:0:0:0:
133,86,220682,1,8,0:0:0:0:
170,69,220764,1,0,0:0:0:0:
209,62,220848,1,2,0:0:0:0:
249,63,220931,1,0,0:0:0:0:
285,80,221014,5,0,0:0:0:0:
278,119,221098,1,0,0:0:0:0:
254,151,221181,1,2,0:0:0:0:
226,180,221264,1,0,0:0:0:0:
198,209,221348,1,8,0:0:0:0:
172,239,221431,1,0,0:0:0:0:
148,272,221514,1,2,0:0:0:0:
137,310,221598,1,0,0:0:0:0:
134,350,221681,5,0,0:0:0:0:
172,359,221764,1,0,0:0:0:0:
211,355,221848,1,2,0:0:0:0:
246,336,221931,1,0,0:0:0:0:
277,309,222014,1,8,0:0:0:0:
303,279,222098,1,0,0:0:0:0:
324,244,222181,1,2,0:0:0:0:
344,209,222264,1,0,0:0:0:0:
363,169,222348,6,0,L|389:117,3,43.1250016450883
322,84,222681,2,0,L|248:220,1,129.375004935265,8|0,0:0|0:0,0:0:0:0:
237,234,223014,1,0,0:0:0:0:
209,262,223098,1,0,0:0:0:0:
170,273,223181,1,2,0:0:0:0:
130,269,223264,1,0,0:0:0:0:
94,249,223348,1,8,0:0:0:0:
68,218,223431,1,0,0:0:0:0:
53,180,223514,5,2,0:0:0:0:
49,140,223598,1,0,0:0:0:0:
55,100,223681,1,0,0:0:0:0:
74,64,223764,1,0,0:0:0:0:
103,36,223848,1,2,0:0:0:0:
140,23,223931,1,0,0:0:0:0:
180,24,224014,1,8,0:0:0:0:
216,40,224098,1,0,0:0:0:0:
246,66,224181,1,2,0:0:0:0:
277,94,224264,1,0,0:0:0:0:
307,124,224348,6,0,L|358:175,1,43.1250016450883,2|0,0:0|0:0,0:0:0:0:
252,166,224514,2,0,L|187:211,1,43.1250016450883,2|0,0:0|0:0,0:0:0:0:
298,219,224681,6,0,L|349:270,1,43.1250016450883,2|0,0:0|0:0,0:0:0:0:
243,265,224848,2,0,L|178:310,1,43.1250016450883,2|0,0:0|0:0,0:0:0:0:
153,222,225014,5,4,0:0:0:0:
37,210,225348,1,4,0:0:0:0:
56,318,225681,2,0,P|106:354|163:349,1,86.2500032901765,6|0,0:0|0:0,0:0:0:0:
326,307,226014,1,8,0:0:0:0:
379,142,226181,2,0,P|374:93|316:71,1,86.2500032901765,2|0,0:0|0:0,0:0:0:0:
178,33,226514,1,0,0:0:0:0:
349,9,226681,6,0,P|419:47|438:127,1,129.375004935265,10|2,0:0|0:0,0:0:0:0:
446,161,227014,1,0,0:0:0:0:
445,202,227098,1,0,0:0:0:0:
430,239,227181,1,2,0:0:0:0:
409,273,227264,1,0,0:0:0:0:
378,298,227348,1,8,0:0:0:0:
341,314,227431,1,0,0:0:0:0:
300,318,227514,1,2,0:0:0:0:
260,308,227598,1,0,0:0:0:0:
222,294,227681,5,0,0:0:0:0:
187,273,227764,1,0,0:0:0:0:
153,251,227848,1,2,0:0:0:0:
122,222,227931,1,0,0:0:0:0:
112,183,228014,6,0,P|138:117|183:92,1,86.2500032901765,10|2,0:0|0:0,0:0:0:0:
238,32,228349,1,0,0:0:0:0:
74,80,228514,1,2,0:0:0:0:
241,147,228681,1,0,0:0:0:0:
27,190,228846,1,2,0:0:0:0:
238,269,229014,2,0,P|275:296|308:304,1,43.1250016450883,2|0,0:0|0:0,0:0:0:0:
365,313,229181,2,0,P|405:299|433:272,1,43.1250016450883,2|0,0:0|0:0,0:0:0:0:
456,228,229348,2,0,P|475:189|462:113,1,86.2500032901765,10|2,0:0|0:0,0:0:0:0:
298,63,229681,6,0,P|234:84|195:114,1,86.2500032901765,2|2,0:0|0:0,0:0:0:0:
63,170,230014,1,8,0:0:0:0:
163,317,230181,1,0,0:0:0:0:
338,262,230349,1,0,0:0:0:0:
340,223,230432,1,0,0:0:0:0:
335,182,230514,1,2,0:0:0:0:
321,144,230599,1,0,0:0:0:0:
296,112,230682,5,8,0:0:0:0:
263,88,230764,1,0,0:0:0:0:
222,87,230849,1,2,0:0:0:0:
186,105,230931,1,0,0:0:0:0:
166,140,231014,6,0,P|155:205|208:272,1,129.375004935265,2|2,0:0|0:0,0:0:0:0:
283,322,231349,1,8,0:0:0:0:
320,306,231432,1,0,0:0:0:0:
353,283,231514,1,2,0:0:0:0:
380,253,231599,1,0,0:0:0:0:
400,218,231682,5,0,0:0:0:0:
411,179,231765,1,0,0:0:0:0:
410,138,231848,1,2,0:0:0:0:
403,98,231931,1,0,0:0:0:0:
379,64,232015,1,8,0:0:0:0:
346,40,232098,1,0,0:0:0:0:
307,28,232182,1,2,0:0:0:0:
266,25,232264,1,0,0:0:0:0:
227,33,232349,6,0,P|173:81|128:160,1,129.375004935265,2|2,0:0|0:0,0:0:0:0:
119,247,232682,1,8,0:0:0:0:
125,287,232764,1,0,0:0:0:0:
150,317,232849,1,2,0:0:0:0:
187,331,232932,1,0,0:0:0:0:
227,334,233014,5,0,0:0:0:0:
264,320,233099,1,0,0:0:0:0:
295,295,233182,1,2,0:0:0:0:
319,262,233264,1,0,0:0:0:0:
320,221,233349,1,8,0:0:0:0:
308,182,233432,1,0,0:0:0:0:
285,148,233514,1,2,0:0:0:0:
249,128,233599,1,0,0:0:0:0:
210,117,233681,6,0,P|118:143|56:207,4,172.500006580353,2|8|0|8|2,0:0|0:0|0:0|0:0|0:0,0:0:0:0:
267,168,235681,5,4,0:0:0:0:
266,329,236015,1,4,0:0:0:0:
105,326,236348,1,4,0:0:0:0:
87,289,236431,1,0,0:0:0:0:
69,253,236514,1,2,0:0:0:0:
55,214,236598,1,0,0:0:0:0:
47,174,236681,1,8,0:0:0:0:
37,135,236764,1,0,0:0:0:0:
30,94,236848,1,2,0:0:0:0:
29,53,236931,1,0,0:0:0:0:
41,15,237014,5,0,0:0:0:0:
81,10,237098,1,0,0:0:0:0:
121,7,237181,1,2,0:0:0:0:
160,10,237264,1,0,0:0:0:0:
200,14,237348,1,8,0:0:0:0:
239,20,237431,1,0,0:0:0:0:
278,27,237514,1,2,0:0:0:0:
317,36,237598,1,0,0:0:0:0:
332,73,237681,5,0,0:0:0:0:
344,111,237764,1,0,0:0:0:0:
355,150,237848,1,2,0:0:0:0:
367,187,237931,1,0,0:0:0:0:
374,226,238014,1,8,0:0:0:0:
370,266,238098,1,0,0:0:0:0:
364,305,238181,1,2,0:0:0:0:
352,343,238264,1,0,0:0:0:0:
318,365,238348,6,0,L|224:266,1,115,0|2,0:0|0:0,0:0:0:0:
167,243,238681,2,0,L|98:366,1,115,8|2,0:0|0:0,0:0:0:0:
2,362,239015,2,0,B|78:222|98:187|126:160|134:190|134:190|161:138|170:80|190:32|194:94|194:94|244:10|244:10|275:47|275:88|275:88|302:113|309:165|309:165|337:193|349:219|349:259|349:259|360:324|445:354,1,920,2|2,0:0|0:0,0:0:0:0:
435,262,241015,5,4,0:0:0:0:
397,91,241348,1,4,0:0:0:0:
248,37,241681,1,4,0:0:0:0:
208,27,241764,1,0,0:0:0:0:
166,30,241848,1,2,0:0:0:0:
127,42,241931,1,0,0:0:0:0:
93,65,242014,1,8,0:0:0:0:
67,96,242098,1,0,0:0:0:0:
54,134,242181,1,2,0:0:0:0:
63,173,242264,1,0,0:0:0:0:
79,209,242348,5,0,0:0:0:0:
118,205,242431,1,0,0:0:0:0:
156,195,242514,1,2,0:0:0:0:
195,183,242598,1,0,0:0:0:0:
234,176,242681,1,8,0:0:0:0:
274,175,242764,1,0,0:0:0:0:
314,177,242848,1,2,0:0:0:0:
352,188,242931,1,0,0:0:0:0:
384,210,243014,5,0,0:0:0:0:
394,249,243098,1,0,0:0:0:0:
394,289,243181,1,2,0:0:0:0:
389,328,243264,1,0,0:0:0:0:
375,366,243348,1,8,0:0:0:0:
338,381,243431,1,0,0:0:0:0:
298,372,243514,1,2,0:0:0:0:
266,346,243598,1,0,0:0:0:0:
234,320,243681,6,0,L|144:245,1,115,2|2,0:0|0:0,0:0:0:0:
199,186,244014,2,0,L|298:269,1,115,10|2,0:0|0:0,0:0:0:0:
432,176,244349,2,0,B|341:53|245:159|245:159|149:45|50:178,2,460,2|2|2,0:0|0:0|0:0,0:0:0:0:
72,340,246348,5,4,0:0:0:0:
255,337,246682,1,4,0:0:0:0:
250,176,247014,1,4,0:0:0:0:
220,147,247098,1,0,0:0:0:0:
191,119,247181,1,2,0:0:0:0:
168,85,247264,1,0,0:0:0:0:
161,44,247348,1,8,0:0:0:0:
185,12,247431,1,0,0:0:0:0:
227,0,247514,1,2,0:0:0:0:
267,0,247598,1,0,0:0:0:0:
306,4,247681,5,0,0:0:0:0:
319,41,247764,1,0,0:0:0:0:
331,79,247848,1,2,0:0:0:0:
340,117,247931,1,0,0:0:0:0:
352,154,248014,5,8,0:0:0:0:
361,193,248098,1,0,0:0:0:0:
369,232,248181,1,2,0:0:0:0:
371,272,248264,1,0,0:0:0:0:
372,312,248348,5,2,0:0:0:0:
337,332,248431,1,0,0:0:0:0:
297,329,248514,1,2,0:0:0:0:
258,316,248598,1,0,0:0:0:0:
222,297,248681,1,8,0:0:0:0:
188,274,248764,1,0,0:0:0:0:
159,244,248848,1,2,0:0:0:0:
137,210,248931,1,0,0:0:0:0:
135,169,249014,5,0,0:0:0:0:
147,130,249098,1,0,0:0:0:0:
163,93,249181,1,2,0:0:0:0:
179,56,249264,1,0,0:0:0:0:
191,17,249348,5,10,0:0:0:0:
152,5,249431,1,0,0:0:0:0:
112,0,249514,1,2,0:0:0:0:
71,5,249598,1,0,0:0:0:0:
31,13,249681,5,0,0:0:0:0:
27,52,249764,1,0,0:0:0:0:
24,92,249848,1,2,0:0:0:0:
22,132,249931,1,0,0:0:0:0:
25,171,250014,1,8,0:0:0:0:
36,210,250098,1,0,0:0:0:0:
52,246,250181,1,2,0:0:0:0:
73,280,250264,1,0,0:0:0:0:
99,311,250348,5,2,0:0:0:0:
136,298,250431,1,0,0:0:0:0:
172,280,250514,1,2,0:0:0:0:
207,260,250598,1,0,0:0:0:0:
242,240,250681,1,8,0:0:0:0:
278,223,250764,1,0,0:0:0:0:
309,197,250848,1,2,0:0:0:0:
336,167,250931,1,0,0:0:0:0:
360,135,251014,5,2,0:0:0:0:
327,111,251098,1,0,0:0:0:0:
289,95,251181,1,2,0:0:0:0:
250,83,251264,1,0,0:0:0:0:
210,73,251348,1,8,0:0:0:0:
170,64,251431,1,0,0:0:0:0:
130,58,251514,1,2,0:0:0:0:
89,59,251598,1,0,0:0:0:0:
50,68,251681,5,8,0:0:0:0:
56,107,251764,1,2,0:0:0:0:
70,144,251848,1,10,0:0:0:0:
91,177,251931,1,2,0:0:0:0:
114,209,252014,1,8,0:0:0:0:
143,236,252098,1,2,0:0:0:0:
176,257,252181,1,10,0:0:0:0:
212,274,252264,1,2,0:0:0:0:
251,282,252348,2,0,P|372:233|395:137,1,230,12|2,0:0|0:0,0:0:0:0:
78,41,253015,5,12,0:0:0:0:
78,191,253348,1,12,0:0:0:0:
239,193,253681,2,0,L|484:192,1,230,12|2,0:0|0:0,0:0:0:0:
239,193,254348,5,12,0:0:0:0:
241,18,254682,1,12,0:0:0:0:
404,12,255015,2,0,B|404:83|404:83|455:108|455:108|360:108|360:108|404:136|404:136|403:343,1,460,12|4,0:0|0:0,0:0:0:0:
