osu file format v14

[General]
AudioFilename: audio.mp3
AudioLeadIn: 0
PreviewTime: 108798
Countdown: 1
SampleSet: Normal
StackLeniency: 0.7
Mode: 0
LetterboxInBreaks: 0
WidescreenStoryboard: 0

[Editor]
DistanceSpacing: 1.1
BeatDivisor: 4
GridSize: 4
TimelineZoom: 1.6

[Metadata]
Title:Emerald Sword
TitleUnicode:Emerald Sword
Artist:Rhapsody of Fire
ArtistUnicode:Rhapsody of Fire
Creator:Nahkapete
Version:Extra
Source:
Tags:power metal metal rock stream deathstream rsi spacedstream spaced
BeatmapID:1805022
BeatmapSetID:819477

[Difficulty]
HPDrainRate:5.5
CircleSize:4
OverallDifficulty:9
ApproachRate:9.4
SliderMultiplier:1.4
SliderTickRate:1

[Events]
//Background and Video events
0,0,"emelrall sword.jpg",0,0
//Break Periods
//Storyboard Layer 0 (Background)
//Storyboard Layer 1 (Fail)
//Storyboard Layer 2 (Pass)
//Storyboard Layer 3 (Foreground)
//Storyboard Sound Samples

[TimingPoints]
1299,333.333333333333,4,1,0,100,1,0
22632,-100,4,2,0,100,0,0
33298,-100,4,1,0,80,0,0
53298,-66.6666666666667,4,1,0,80,0,0
53965,-100,4,1,0,80,0,0
54632,-66.6666666666667,4,3,0,80,0,0
57298,-66.6666666666667,4,3,0,80,0,0
57521,-66.6666666666667,4,3,0,60,0,0
58632,-66.6666666666667,4,3,0,80,0,0
65298,-100,4,2,0,80,0,0
76298,-100,4,1,0,80,0,0
96298,-66.6666666666667,4,1,0,80,0,0
96965,-66.6666666666667,4,3,0,80,0,0
97298,-66.6666666666667,4,1,0,80,0,0
97632,-66.6666666666667,4,3,0,80,0,0
105632,-66.6666666666667,4,1,0,80,0,0
109632,-80,4,1,0,80,0,1
130965,-100,4,2,0,80,0,0
133632,-125,4,2,0,80,0,0
136298,-100,4,2,0,80,0,0
138965,-125,4,2,0,80,0,0
141632,-100,4,1,0,80,0,0
152298,-66.6666666666667,4,1,0,80,0,0
152965,-66.6666666666667,4,3,0,80,0,0
153298,-66.6666666666667,4,1,0,80,0,0
153632,-66.6666666666667,4,3,0,80,0,0
153798,-66.6666666666667,4,1,0,80,0,0
154298,-66.6666666666667,4,3,0,80,0,0
154632,-66.6666666666667,4,1,0,80,0,0
154965,-66.6666666666667,4,3,0,80,0,0
155132,-66.6666666666667,4,1,0,80,0,0
155632,-66.6666666666667,4,3,0,80,0,0
155965,-66.6666666666667,4,1,0,80,0,0
156298,-66.6666666666667,4,3,0,80,0,0
156465,-66.6666666666667,4,1,0,80,0,0
156965,-66.6666666666667,4,3,0,80,0,0
157298,-66.6666666666667,4,1,0,80,0,0
158298,-66.6666666666667,4,3,0,80,0,0
158632,-66.6666666666667,4,1,0,80,0,0
158965,-66.6666666666667,4,3,0,80,0,0
159132,-66.6666666666667,4,1,0,80,0,0
162298,-66.6666666666667,4,1,0,55,0,0
162965,-66.6666666666667,4,1,0,80,0,0
180965,-100,4,1,0,80,0,0
202298,-66.6666666666667,4,2,0,80,0,0
214298,-80,4,1,0,80,0,1
251632,-80,4,1,0,80,0,0

[HitObjects]
114,125,1299,5,12,0:3:0:0:
398,184,1632,1,0,0:0:0:0:
417,293,1798,1,0,0:0:0:0:
304,245,1965,1,0,0:0:0:0:
405,177,2132,2,0,P|436:219|408:301,1,140
228,281,2632,5,0,0:0:0:0:
93,142,2798,2,0,P|62:184|64:229,1,70
195,284,3132,1,0,0:0:0:0:
195,284,3215,1,0,0:0:0:0:
195,284,3298,1,0,0:0:0:0:
195,284,3382,1,0,0:0:0:0:
195,284,3465,2,0,L|206:339,2,35
393,94,3965,5,12,0:3:0:0:
114,184,4298,1,0,0:0:0:0:
95,293,4464,1,0,0:0:0:0:
208,245,4631,1,0,0:0:0:0:
107,177,4798,2,0,P|76:219|104:301,1,140
279,299,5298,5,0,0:0:0:0:
414,160,5464,2,0,P|445:202|422:291,1,140
270,327,5965,1,0,0:0:0:0:
170,246,6132,1,0,0:0:0:0:
152,38,6299,5,12,0:3:0:0:
401,163,6632,1,12,0:3:0:0:
110,221,6965,1,0,0:0:0:0:
208,312,7132,1,0,0:0:0:0:
66,344,7298,1,0,0:0:0:0:
116,218,7465,2,0,B|155:219|155:219|188:154|231:141,1,140
320,234,7965,1,0,0:0:0:0:
216,323,8132,1,0,0:0:0:0:
182,132,8465,5,0,0:0:0:0:
196,130,8548,1,0,0:0:0:0:
211,131,8631,1,0,0:0:0:0:
224,135,8715,1,0,0:0:0:0:
238,143,8798,2,0,P|266:172|318:184,1,70
135,323,9298,5,12,0:3:0:0:
325,158,9632,1,0,0:0:0:0:
410,91,9798,1,0,0:0:0:0:
425,198,9965,1,0,0:0:0:0:
319,152,10132,2,0,B|313:127|313:127|271:98,1,70
125,231,10465,5,0,0:0:0:0:
32,173,10631,1,0,0:0:0:0:
128,123,10798,1,0,0:0:0:0:
125,231,10965,1,0,0:0:0:0:
206,309,11132,1,0,0:0:0:0:
324,88,11298,5,12,0:3:0:0:
350,121,11381,1,0,0:0:0:0:
343,163,11464,1,0,0:0:0:0:
308,187,11548,1,0,0:0:0:0:
269,172,11632,2,12,P|219:158|173:175,1,70,12|0,0:3|0:3,0:3:0:0:
97,239,11965,5,12,0:3:0:0:
91,285,12048,1,0,0:0:0:0:
113,327,12131,1,0,0:0:0:0:
155,348,12215,1,0,0:0:0:0:
186,332,12298,1,12,0:3:0:0:
210,299,12381,1,0,0:0:0:0:
246,278,12464,1,0,0:0:0:0:
286,275,12548,1,0,0:0:0:0:
327,287,12632,2,0,L|366:308,1,35,12|0,0:3|0:3,0:0:0:0:
399,211,12798,2,0,L|360:190,3,35,2|0|12|0,0:0|0:0|0:3|0:0,0:0:0:0:
218,242,13132,6,0,L|179:263,1,35,2|0,0:0|0:0,0:0:0:0:
146,166,13298,2,0,L|185:145,1,35,12|0,0:3|0:0,0:0:0:0:
215,57,13465,2,0,L|254:78,3,35,2|0|12|0,0:0|0:0|0:3|0:0,0:0:0:0:
335,200,13798,2,0,L|304:216,1,35,2|0,0:0|0:0,0:0:0:0:
136,264,13965,5,12,0:3:0:0:
89,258,14048,1,0,0:0:0:0:
57,224,14131,1,0,0:0:0:0:
54,177,14215,1,0,0:0:0:0:
79,137,14298,2,0,L|120:101,3,35,14|0|0|0,0:3|0:0|0:0|0:0,0:0:0:0:
202,59,14632,5,12,0:3:0:0:
243,38,14715,1,0,0:0:0:0:
290,46,14798,1,0,0:0:0:0:
323,79,14882,1,0,0:0:0:0:
317,113,14965,1,12,0:3:0:0:
293,147,15048,1,0,0:0:0:0:
285,188,15131,1,0,0:0:0:0:
294,226,15215,1,0,0:0:0:0:
318,262,15299,2,0,L|350:292,1,35,12|0,0:3|0:3,0:0:0:0:
269,354,15465,2,0,L|236:323,3,35,2|0|12|0,0:0|0:0|0:3|0:0,0:0:0:0:
241,171,15799,6,0,L|248:127,1,35,2|0,0:0|0:0,0:0:0:0:
147,127,15965,2,0,L|139:170,1,35,12|0,0:3|0:0,0:0:0:0:
65,226,16132,2,0,L|97:256,3,35,2|0|12|0,0:0|0:0|0:3|0:0,0:0:0:0:
238,297,16465,2,0,L|243:262,1,35
237,88,16632,5,12,0:3:0:0:
217,44,16715,1,0,0:0:0:0:
175,24,16798,1,0,0:0:0:0:
129,36,16882,1,0,0:0:0:0:
99,72,16965,2,0,L|77:122,3,35,14|0|0|0,0:3|0:0|0:0|0:0,0:0:0:0:
93,265,17298,5,12,0:3:0:0:
134,241,17381,1,0,0:0:0:0:
180,246,17464,1,0,0:0:0:0:
215,278,17547,1,0,0:0:0:0:
226,325,17632,1,12,0:3:0:0:
266,327,17715,1,0,0:0:0:0:
301,305,17798,1,0,0:0:0:0:
317,268,17881,1,0,0:0:0:0:
326,228,17965,2,0,L|330:185,1,35,12|0,0:3|0:0,0:0:0:0:
239,129,18132,2,0,L|235:172,3,35,2|0|12|0,0:0|0:0|0:3|0:0,0:0:0:0:
72,284,18465,6,0,L|76:241,1,35,2|0,0:0|0:0,0:0:0:0:
135,176,18632,2,0,L|165:215,1,35,12|0,0:3|0:0,0:0:0:0:
265,217,18798,2,0,L|235:178,3,35,2|0|12|0,0:0|0:0|0:3|0:0,0:0:0:0:
355,60,19132,6,0,L|351:103,1,35,2|0,0:0|0:0,0:0:0:0:
241,110,19298,1,12,0:3:0:0:
196,127,19381,1,0,0:0:0:0:
149,124,19464,1,0,0:0:0:0:
107,101,19547,1,0,0:0:0:0:
86,58,19632,2,0,L|31:48,3,35,14|0|0|0,0:3|0:0|0:0|0:0,0:0:0:0:
90,184,19965,5,12,0:3:0:0:
65,224,20048,1,0,0:0:0:0:
75,270,20131,1,0,0:0:0:0:
113,297,20214,1,0,0:0:0:0:
160,287,20298,1,12,0:3:0:0:
189,259,20381,1,0,0:0:0:0:
229,250,20464,1,0,0:0:0:0:
268,264,20547,1,0,0:0:0:0:
293,299,20632,5,12,0:3:0:0:
335,319,20715,1,0,0:0:0:0:
380,308,20798,1,0,0:0:0:0:
409,270,20881,1,0,0:0:0:0:
406,223,20965,1,12,0:3:0:0:
375,189,21048,1,0,0:0:0:0:
330,176,21132,1,0,0:0:0:0:
288,197,21215,1,0,0:0:0:0:
267,239,21298,5,12,0:3:0:0:
239,279,21381,1,0,0:0:0:0:
191,291,21464,1,0,0:0:0:0:
147,268,21547,1,0,0:0:0:0:
131,220,21632,1,12,0:3:0:0:
138,179,21715,1,0,0:0:0:0:
165,149,21798,1,0,0:0:0:0:
203,136,21881,1,0,0:0:0:0:
244,146,21965,2,12,P|285:159|325:143,1,70,12|0,0:3|0:3,0:3:0:0:
443,59,22298,1,12,0:3:0:0:
176,194,22632,5,2,0:0:0:0:
176,194,22715,1,0,0:0:0:0:
176,194,22798,1,0,0:0:0:0:
380,86,22965,1,12,0:3:0:0:
426,286,23132,1,0,0:0:0:0:
159,191,23298,1,0,0:0:0:0:
246,308,23465,1,0,0:0:0:0:
388,160,23632,2,0,B|370:140|370:140|326:130|312:112,1,70,12|0,0:3|0:0,0:0:0:0:
140,137,23965,5,2,0:0:0:0:
125,182,24048,1,0,0:0:0:0:
134,229,24131,1,0,0:0:0:0:
163,266,24214,1,0,0:0:0:0:
206,286,24298,2,0,P|255:290|285:318,1,70,12|0,0:3|0:0,0:0:0:0:
439,179,24632,1,0,0:0:0:0:
266,253,24798,1,0,0:0:0:0:
455,216,24965,1,12,0:3:0:0:
281,290,25132,1,0,0:0:0:0:
429,157,25298,5,2,0:0:0:0:
402,117,25381,1,0,0:0:0:0:
359,96,25464,1,0,0:0:0:0:
312,95,25547,1,0,0:0:0:0:
270,117,25631,2,0,P|236:153|196:159,1,70,12|0,0:3|0:0,0:0:0:0:
52,167,25965,5,0,0:0:0:0:
224,29,26132,1,0,0:0:0:0:
299,235,26298,2,0,B|266:256|266:256|259:300,1,70,12|0,0:3|0:0,0:0:0:0:
70,259,26632,5,2,0:0:0:0:
92,214,26715,1,0,0:0:0:0:
137,194,26798,1,0,0:0:0:0:
170,156,26882,1,0,0:0:0:0:
185,108,26965,2,0,B|209:64|235:55,1,70,12|0,0:3|0:0,0:0:0:0:
338,214,27298,2,0,L|384:287,1,70,4|0,0:0|0:0,0:0:0:0:
161,133,27632,2,0,L|115:60,1,70,4|2,0:0|0:0,0:0:0:0:
196,235,27965,5,2,0:0:0:0:
223,275,28048,1,0,0:0:0:0:
266,296,28131,1,0,0:0:0:0:
313,297,28214,1,0,0:0:0:0:
355,275,28298,2,0,P|389:239|429:233,1,70,12|0,0:3|0:0,0:0:0:0:
423,82,28632,1,0,0:3:0:0:
215,171,28798,1,0,0:0:0:0:
401,312,28965,2,0,B|426:283|426:283|467:287,1,70,12|0,0:3|0:0,0:0:0:0:
439,132,29298,5,2,0:0:0:0:
412,92,29381,1,0,0:0:0:0:
369,71,29464,1,0,0:0:0:0:
322,70,29547,1,0,0:0:0:0:
280,92,29631,2,0,P|246:128|206:134,1,70,12|0,0:3|0:0,0:0:0:0:
84,219,29965,2,0,P|86:262|58:310,1,70,4|0,0:0|0:0,0:0:0:0:
192,196,30298,2,0,P|190:153|218:105,1,70,4|0,0:0|0:0,0:0:0:0:
342,84,30632,5,2,0:0:0:0:
370,124,30715,1,0,0:0:0:0:
366,174,30798,1,0,0:0:0:0:
385,220,30882,1,0,0:0:0:0:
421,256,30965,2,0,B|448:297|444:325,1,70,12|0,0:3|0:0,0:0:0:0:
176,302,31298,5,2,0:0:0:0:
316,105,31465,1,0,0:0:0:0:
234,283,31632,5,12,0:3:0:0:
94,86,31799,1,0,0:0:0:0:
280,267,31965,1,2,0:0:0:0:
295,219,32048,1,0,0:0:0:0:
297,168,32131,1,0,0:0:0:0:
286,119,32214,1,0,0:0:0:0:
263,75,32298,2,0,P|231:46|183:41,1,70,12|0,0:3|0:0,0:0:0:0:
84,217,32632,6,0,P|113:259|151:260,1,70,4|0,0:0|0:0,0:0:0:0:
154,183,32965,2,0,P|125:141|87:140,1,70,4|0,0:0|0:0,0:0:0:0:
166,323,33298,5,4,0:0:0:0:
208,336,33381,1,0,0:0:0:0:
251,321,33464,1,0,0:0:0:0:
275,284,33548,1,0,0:0:0:0:
273,238,33632,1,8,0:3:0:0:
240,206,33715,1,0,0:0:0:0:
233,162,33798,1,0,0:0:0:0:
253,121,33882,1,0,0:0:0:0:
298,113,33965,1,4,0:0:0:0:
328,145,34048,1,0,0:0:0:0:
330,190,34131,1,0,0:0:0:0:
303,226,34215,1,0,0:0:0:0:
258,229,34298,1,8,0:3:0:0:
212,230,34381,1,0,0:0:0:0:
173,253,34464,1,0,0:0:0:0:
149,292,34548,1,0,0:0:0:0:
152,338,34632,6,0,L|208:351,3,35,4|0|0|0,0:0|0:0|0:0|0:0,0:0:0:0:
277,283,34965,2,0,L|221:296,3,35,8|0|0|0,0:3|0:0|0:0|0:0,0:0:0:0:
158,220,35298,2,0,L|212:239,3,35,4|0|0|0,0:0|0:0|0:0|0:0,0:0:0:0:
273,153,35632,2,0,L|219:172,3,35,8|0|0|0,0:3|0:0|0:0|0:0,0:0:0:0:
107,215,35965,5,6,0:0:0:0:
96,263,36048,1,0,0:0:0:0:
113,309,36131,1,0,0:0:0:0:
153,338,36215,1,0,0:0:0:0:
204,335,36298,1,8,0:3:0:0:
240,301,36381,1,0,0:0:0:0:
288,287,36464,1,0,0:0:0:0:
337,295,36548,1,0,0:0:0:0:
376,329,36632,1,4,0:0:0:0:
417,345,36715,1,0,0:0:0:0:
459,330,36798,1,0,0:0:0:0:
479,289,36882,1,0,0:0:0:0:
472,245,36965,1,8,0:3:0:0:
438,208,37048,1,0,0:0:0:0:
424,160,37131,1,0,0:0:0:0:
433,110,37215,1,0,0:0:0:0:
464,71,37298,6,0,L|484:34,3,35,4|0|0|0,0:0|0:0|0:0|0:0,0:0:0:0:
339,97,37632,2,0,L|319:60,1,35,8|0,0:3|0:0,0:0:0:0:
262,138,37798,2,0,L|282:175,1,35,2|0,0:0|0:0,0:0:0:0:
237,268,37965,2,0,L|217:231,1,35,4|0,0:0|0:0,0:0:0:0:
118,204,38132,2,0,L|138:241,1,35,2|0,0:0|0:0,0:0:0:0:
96,331,38298,2,0,L|76:294,1,35,8|0,0:3|0:0,0:0:0:0:
175,310,38465,2,0,L|195:347,1,35,2|0,0:0|0:0,0:0:0:0:
333,335,38632,5,4,0:0:0:0:
370,309,38715,1,0,0:0:0:0:
390,268,38798,1,0,0:0:0:0:
386,223,38882,1,0,0:0:0:0:
363,185,38965,1,8,0:3:0:0:
338,147,39048,1,0,0:0:0:0:
344,102,39131,1,0,0:0:0:0:
376,71,39215,1,0,0:0:0:0:
421,68,39298,1,4,0:0:0:0:
457,95,39381,1,0,0:0:0:0:
469,138,39465,1,0,0:0:0:0:
450,180,39548,1,0,0:0:0:0:
406,194,39632,2,0,P|384:197|363:188,3,35,8|0|0|0,0:3|0:0|0:0|0:0,0:0:0:0:
295,107,39965,5,4,0:0:0:0:
250,99,40048,1,0,0:0:0:0:
207,115,40131,1,0,0:0:0:0:
179,151,40215,1,0,0:0:0:0:
170,196,40298,1,8,0:3:0:0:
163,239,40381,1,0,0:0:0:0:
128,268,40464,1,0,0:0:0:0:
83,269,40548,1,0,0:0:0:0:
48,240,40631,1,4,0:0:0:0:
40,196,40714,1,0,0:0:0:0:
61,156,40798,1,0,0:0:0:0:
103,140,40881,1,0,0:0:0:0:
145,160,40965,2,0,P|163:172|172:193,3,35,8|0|0|0,0:3|0:0|0:0|0:0,0:0:0:0:
232,274,41298,5,4,0:0:0:0:
277,282,41381,1,0,0:0:0:0:
320,266,41464,1,0,0:0:0:0:
348,230,41548,1,0,0:0:0:0:
357,185,41631,1,8,0:3:0:0:
364,142,41714,1,0,0:0:0:0:
399,113,41797,1,0,0:0:0:0:
444,112,41881,1,0,0:0:0:0:
479,141,41964,1,4,0:0:0:0:
487,185,42047,1,0,0:0:0:0:
466,225,42131,1,0,0:0:0:0:
424,241,42214,1,0,0:0:0:0:
384,217,42298,5,8,0:3:0:0:
354,183,42381,1,0,0:0:0:0:
309,179,42464,1,0,0:0:0:0:
275,207,42548,1,0,0:0:0:0:
276,253,42632,1,4,0:0:0:0:
301,295,42715,1,0,0:0:0:0:
348,308,42798,1,0,0:0:0:0:
391,285,42882,1,0,0:0:0:0:
407,238,42965,1,8,0:3:0:0:
385,194,43048,1,0,0:0:0:0:
343,169,43132,1,0,0:0:0:0:
331,121,43215,1,0,0:0:0:0:
340,72,43298,6,0,P|363:39|414:41,1,70,4|0,0:0|0:0,0:0:0:0:
413,72,43548,2,0,P|390:105|339:103,1,70,2|0,0:0|0:0,0:0:0:0:
246,102,43798,1,2,0:0:0:0:
101,208,43965,5,4,0:0:0:0:
116,255,44048,1,0,0:0:0:0:
156,284,44131,1,0,0:0:0:0:
205,286,44215,1,0,0:0:0:0:
248,261,44298,1,8,0:3:0:0:
267,215,44381,1,0,0:0:0:0:
309,188,44464,1,0,0:0:0:0:
358,191,44548,1,0,0:0:0:0:
395,226,44632,1,4,0:0:0:0:
405,269,44715,1,0,0:0:0:0:
389,312,44798,1,0,0:0:0:0:
353,339,44882,1,0,0:0:0:0:
308,341,44965,1,8,0:3:0:0:
269,319,45048,1,0,0:0:0:0:
249,278,45132,1,0,0:0:0:0:
254,233,45215,1,0,0:0:0:0:
274,193,45298,6,0,L|298:166,3,35,4|0|0|0,0:0|0:0|0:0|0:0,0:0:0:0:
373,83,45632,2,0,L|349:110,3,35,8|0|0|0,0:3|0:0|0:0|0:0,0:0:0:0:
240,82,45965,2,0,L|266:106,3,35,4|0|0|0,0:0|0:0|0:0|0:0,0:0:0:0:
384,206,46298,2,0,L|357:182,3,35,8|0|0|0,0:3|0:0|0:0|0:0,0:0:0:0:
248,90,46632,5,6,0:0:0:0:
202,71,46715,1,0,0:0:0:0:
153,81,46798,1,0,0:0:0:0:
120,117,46882,1,0,0:0:0:0:
115,167,46965,1,8,0:3:0:0:
135,208,47048,1,0,0:0:0:0:
178,226,47131,1,0,0:0:0:0:
222,210,47215,1,0,0:0:0:0:
244,170,47298,1,4,0:0:0:0:
271,128,47381,1,0,0:0:0:0:
318,115,47464,1,0,0:0:0:0:
363,135,47548,1,0,0:0:0:0:
383,181,47632,1,8,0:3:0:0:
430,193,47715,1,0,0:0:0:0:
472,168,47798,1,0,0:0:0:0:
484,120,47882,1,0,0:0:0:0:
473,73,47965,6,0,L|448:36,3,35,4|0|0|0,0:0|0:0|0:0|0:0,0:0:0:0:
379,138,48298,2,0,L|404:175,1,35,8|0,0:3|0:0,0:0:0:0:
288,136,48465,2,0,L|263:99,1,35,2|0,0:0|0:0,0:0:0:0:
214,195,48632,2,0,L|239:232,1,35,4|0,0:0|0:0,0:0:0:0:
126,224,48798,2,0,L|101:187,1,35,2|0,0:0|0:0,0:0:0:0:
212,240,48965,2,0,L|237:277,1,35,8|0,0:3|0:0,0:0:0:0:
278,177,49132,2,0,L|253:140,1,35,2|0,0:0|0:0,0:0:0:0:
440,130,49298,5,4,0:0:0:0:
451,173,49381,1,0,0:0:0:0:
441,217,49464,1,0,0:0:0:0:
410,251,49548,1,0,0:0:0:0:
366,262,49632,1,8,0:3:0:0:
327,238,49715,1,0,0:0:0:0:
282,231,49798,1,0,0:0:0:0:
237,242,49882,1,0,0:0:0:0:
217,283,49965,1,4,0:0:0:0:
230,326,50048,1,0,0:0:0:0:
266,352,50131,1,0,0:0:0:0:
311,352,50215,1,0,0:0:0:0:
347,323,50298,2,0,L|372:294,3,35,8|0|0|0,0:3|0:0|0:0|0:0,0:0:0:0:
421,162,50632,5,4,0:0:0:0:
428,117,50715,1,0,0:0:0:0:
412,74,50798,1,0,0:0:0:0:
377,46,50882,1,0,0:0:0:0:
333,37,50965,1,8,0:3:0:0:
291,56,51048,1,0,0:0:0:0:
246,59,51131,1,0,0:0:0:0:
200,49,51215,1,0,0:0:0:0:
156,60,51298,2,0,L|111:80,3,35,4|0|0|0,0:0|0:0|0:0|0:0,0:0:0:0:
161,164,51632,2,0,L|206:144,3,35,8|0|0|0,0:3|0:0|0:0|0:0,0:0:0:0:
348,127,51965,5,4,0:0:0:0:
383,152,52048,1,0,0:0:0:0:
383,196,52131,1,0,0:0:0:0:
346,221,52215,1,0,0:0:0:0:
309,200,52298,1,8,0:3:0:0:
265,191,52381,1,0,0:0:0:0:
231,219,52464,1,0,0:0:0:0:
231,263,52548,1,0,0:0:0:0:
267,289,52632,1,4,0:0:0:0:
310,279,52715,1,0,0:0:0:0:
330,239,52798,1,0,0:0:0:0:
313,198,52882,1,0,0:0:0:0:
274,180,52965,1,8,0:3:0:0:
252,141,53048,1,0,0:0:0:0:
270,101,53131,1,0,0:0:0:0:
313,91,53215,1,0,0:0:0:0:
350,117,53298,6,0,B|383:181|428:192|428:192|445:137|487:109,1,210.000008010865,4|8,0:0|0:3,0:0:0:0:
284,249,53965,2,0,L|288:325,1,70,8|8,0:3|0:3,0:3:0:0:
155,148,54298,2,8,L|151:72,1,70,8|8,0:3|0:3,0:3:0:0:
266,272,54632,2,0,B|312:231|312:231|264:135|295:50,1,210.000008010865,4|0,0:2|0:0,0:0:0:0:
432,172,55132,1,0,0:0:0:0:
246,112,55298,2,0,B|200:153|200:153|248:249|217:334,1,210.000008010865,4|0,0:2|0:0,0:0:0:0:
76,200,55798,1,0,0:0:0:0:
266,286,55965,2,4,B|297:234|297:234|352:218|373:164|440:199|440:199|451:99|474:79|474:79|366:31,1,420.000016021729,4|4,0:2|0:0,0:0:0:0:
123,195,57298,5,4,0:2:0:0:
290,87,57521,1,0,0:3:0:0:
341,270,57743,1,0,0:3:0:0:
113,209,57965,2,8,L|95:283,2,70.0000026702882,8|8|8,0:3|0:3|0:3,0:3:0:0:
238,191,58298,2,8,L|256:117,2,70.0000026702882,8|8|8,0:3|0:3|0:3,0:3:0:0:
382,233,58632,2,0,B|408:175|408:175|277:112|456:48|281:-52|254:75|254:75,1,315.000012016297,4|0,0:2|0:0,0:0:0:0:
117,221,59298,1,0,0:0:0:0:
341,267,59965,6,0,B|297:199|297:199|320:146|286:89|246:59,1,210.000008010865,4|0,0:2|0:0,0:0:0:0:
114,190,60465,1,0,0:0:0:0:
233,315,60632,2,0,B|277:247|277:247|254:194|288:137|328:107,1,210.000008010865,4|0,0:2|0:0,0:0:0:0:
460,238,61132,1,0,0:0:0:0:
140,244,61298,2,0,B|126:188|126:188|193:143|165:93|140:55|140:55|254:64|289:28|289:28|347:53,1,420.000016021729,4|0,0:2|0:0,0:0:0:0:
389,247,62632,5,4,0:2:0:0:
266,55,62854,1,0,0:0:0:0:
117,241,63076,1,0,0:0:0:0:
379,123,63298,1,4,0:2:0:0:
143,113,63521,1,0,0:0:0:0:
269,315,63743,1,0,0:0:0:0:
126,136,63965,6,0,P|189:142|230:215,1,140.000005340576,4|0,0:2|0:0,0:0:0:0:
341,92,64410,1,0,0:0:0:0:
175,197,64632,2,0,P|183:237|170:285,2,70.0000026702882
68,201,64965,2,0,P|60:161|73:113,2,70.0000026702882
339,262,65298,1,4,0:2:0:0:
79,146,66132,5,2,0:0:0:0:
192,206,66298,1,0,0:0:0:0:
271,327,66465,1,0,0:0:0:0:
403,254,66632,2,0,B|383:202|383:202|406:110,1,140,4|0,0:0|0:0,0:0:0:0:
433,238,67465,5,2,0:0:0:0:
320,178,67631,1,0,0:0:0:0:
241,57,67798,1,0,0:0:0:0:
109,130,67965,2,0,B|129:182|129:182|106:274,1,140,4|0,0:0|0:0,0:0:0:0:
318,227,68632,5,10,0:3:0:0:
186,71,68798,1,8,0:3:0:0:
316,312,68965,1,8,0:3:0:0:
184,156,69131,1,8,0:3:0:0:
377,92,69298,2,0,B|401:133|401:133|374:237,1,140,4|0,0:0|0:0,0:0:0:0:
167,83,69965,5,10,0:3:0:0:
125,126,70048,1,2,0:0:0:0:
122,186,70131,1,2,0:0:0:0:
158,234,70214,1,2,0:0:0:0:
217,247,70298,1,10,0:3:0:0:
367,125,70632,6,0,B|363:96|363:96|302:73,1,70,4|0,0:0|0:0,0:0:0:0:
175,74,70965,1,0,0:0:0:0:
175,74,71048,1,0,0:0:0:0:
175,74,71132,1,0,0:0:0:0:
175,74,71215,2,0,B|202:113,1,35
374,137,71465,5,10,0:3:0:0:
400,316,71632,1,8,0:3:0:0:
191,221,71798,1,8,0:3:0:0:
397,114,71965,2,0,B|410:153|410:153|381:197,1,70,4|0,0:0|0:0,0:0:0:0:
228,288,72298,5,10,0:3:0:0:
226,89,72465,1,8,0:3:0:0:
390,339,72632,1,8,0:3:0:0:
392,140,72799,1,8,0:3:0:0:
171,318,72965,1,8,0:3:0:0:
148,120,73132,1,8,0:3:0:0:
401,316,73298,2,0,B|412:280|412:280|399:222,1,70,4|0,0:0|0:0,0:0:0:0:
365,60,73632,5,2,0:0:0:0:
153,119,73798,1,0,0:0:0:0:
370,193,73965,1,8,0:3:0:0:
142,258,74132,1,0,0:0:0:0:
370,292,74298,5,0,0:0:0:0:
158,233,74464,1,0,0:0:0:0:
378,161,74632,2,0,B|373:128|373:128|343:84,1,70,4|0,0:0|0:0,0:0:0:0:
178,49,74965,5,2,0:0:0:0:
120,244,75132,1,0,0:0:0:0:
362,180,75298,1,10,0:3:0:0:
377,121,75381,1,2,0:0:0:0:
355,65,75464,1,2,0:0:0:0:
304,34,75547,1,2,0:0:0:0:
244,39,75631,1,10,0:3:0:0:
87,208,76298,5,4,0:0:0:0:
99,253,76381,1,0,0:0:0:0:
133,285,76464,1,0,0:0:0:0:
180,294,76547,1,0,0:0:0:0:
224,277,76631,1,8,0:3:0:0:
252,239,76714,1,0,0:0:0:0:
256,192,76797,1,0,0:0:0:0:
243,148,76882,1,0,0:0:0:0:
215,111,76965,1,4,0:0:0:0:
173,94,77048,1,0,0:0:0:0:
129,102,77131,1,0,0:0:0:0:
94,131,77215,1,0,0:0:0:0:
80,174,77298,1,8,0:3:0:0:
90,218,77381,1,0,0:0:0:0:
128,245,77465,1,0,0:0:0:0:
173,249,77548,1,0,0:0:0:0:
214,228,77632,6,0,L|246:199,3,35,4|0|0|0,0:0|0:0|0:0|0:0,0:0:0:0:
264,118,77965,2,0,L|232:89,3,35,8|0|0|0,0:3|0:0|0:0|0:0,0:0:0:0:
148,122,78298,2,0,L|116:151,3,35,4|0|0|0,0:0|0:0|0:0|0:0,0:0:0:0:
147,225,78632,2,0,L|179:254,3,35,8|0|0|0,0:3|0:0|0:0|0:0,0:0:0:0:
313,293,78965,5,4,0:0:0:0:
359,276,79048,1,0,0:0:0:0:
387,235,79131,1,0,0:0:0:0:
387,185,79214,1,0,0:0:0:0:
363,142,79298,1,8,0:3:0:0:
342,97,79381,1,0,0:0:0:0:
359,51,79464,1,0,0:0:0:0:
403,30,79547,1,0,0:0:0:0:
449,47,79631,1,4,0:0:0:0:
470,91,79714,1,0,0:0:0:0:
464,141,79798,1,0,0:0:0:0:
429,177,79882,1,0,0:0:0:0:
380,180,79965,2,0,L|341:170,3,35,8|0|0|0,0:3|0:0|0:0|0:0,0:0:0:0:
170,81,80298,6,0,L|207:107,1,35,4|0,0:0|0:0,0:0:0:0:
326,124,80465,2,0,L|289:150,1,35,2|0,0:0|0:0,0:0:0:0:
155,177,80632,2,0,L|192:203,1,35,8|0,0:3|0:0,0:0:0:0:
311,220,80799,2,0,L|274:246,1,35,2|0,0:0|0:0,0:0:0:0:
145,255,80965,2,0,L|108:223,1,35,4|0,0:0|0:0,0:0:0:0:
240,218,81132,2,0,L|277:186,1,35,2|0,0:0|0:0,0:0:0:0:
143,166,81298,2,0,L|106:134,1,35,8|0,0:3|0:0,0:0:0:0:
236,132,81465,2,0,L|273:100,1,35,2|0,0:0|0:0,0:0:0:0:
392,58,81632,5,4,0:0:0:0:
403,102,81715,1,0,0:0:0:0:
407,147,81798,1,0,0:0:0:0:
401,193,81881,1,0,0:0:0:0:
382,235,81965,1,8,0:3:0:0:
346,206,82048,1,0,0:0:0:0:
303,191,82131,1,0,0:0:0:0:
257,192,82214,1,0,0:0:0:0:
215,210,82298,1,4,0:0:0:0:
176,231,82381,1,0,0:0:0:0:
133,217,82464,1,0,0:0:0:0:
115,176,82547,1,0,0:0:0:0:
119,130,82632,2,0,L|133:90,3,35,8|0|0|0,0:3|0:0|0:0|0:0,0:0:0:0:
299,66,82965,5,4,0:0:0:0:
288,110,83048,1,0,0:0:0:0:
291,155,83131,1,0,0:0:0:0:
308,198,83214,1,0,0:0:0:0:
339,233,83298,1,8,0:3:0:0:
367,267,83381,1,0,0:0:0:0:
364,311,83464,1,0,0:0:0:0:
331,341,83547,1,0,0:0:0:0:
285,338,83632,2,0,L|245:323,3,35,4|0|0|0,0:0|0:0|0:0|0:0,0:0:0:0:
252,234,83965,2,0,L|292:219,3,35,8|0|0|0,0:3|0:0|0:0|0:0,0:0:0:0:
440,228,84298,5,4,0:0:0:0:
476,195,84381,1,0,0:0:0:0:
481,146,84464,1,0,0:0:0:0:
452,106,84547,1,0,0:0:0:0:
403,97,84632,1,8,0:3:0:0:
363,118,84715,1,0,0:0:0:0:
317,120,84798,1,0,0:0:0:0:
276,100,84881,1,0,0:0:0:0:
253,60,84965,5,4,0:0:0:0:
215,44,85048,1,0,0:0:0:0:
175,53,85131,1,0,0:0:0:0:
148,84,85214,1,0,0:0:0:0:
143,124,85298,1,8,0:3:0:0:
163,160,85381,1,0,0:0:0:0:
199,178,85464,1,0,0:0:0:0:
240,172,85548,1,0,0:0:0:0:
266,140,85632,1,4,0:0:0:0:
293,104,85715,1,0,0:0:0:0:
335,88,85798,1,0,0:0:0:0:
380,97,85881,1,0,0:0:0:0:
412,129,85965,1,8,0:3:0:0:
422,173,86048,1,0,0:0:0:0:
406,216,86131,1,0,0:0:0:0:
371,244,86215,1,0,0:0:0:0:
326,247,86298,6,0,P|281:243|248:261,1,70,4|0,0:0|0:0,0:0:0:0:
247,298,86548,2,0,P|214:309|179:303,1,70,2|0,0:3|0:0,0:0:0:0:
73,208,86798,1,2,0:2:0:0:
256,66,86965,5,4,0:0:0:0:
279,109,87048,1,0,0:0:0:0:
324,130,87131,1,0,0:0:0:0:
374,125,87215,1,0,0:0:0:0:
421,138,87298,1,8,0:3:0:0:
445,180,87381,1,0,0:0:0:0:
433,228,87464,1,0,0:0:0:0:
391,253,87548,1,0,0:0:0:0:
343,242,87632,1,4,0:0:0:0:
300,226,87715,1,0,0:0:0:0:
254,230,87798,1,0,0:0:0:0:
215,253,87881,1,0,0:0:0:0:
196,295,87965,1,8,0:3:0:0:
157,318,88048,1,0,0:0:0:0:
112,312,88131,1,0,0:0:0:0:
81,280,88214,1,0,0:0:0:0:
78,235,88298,6,0,L|91:192,3,35,4|0|0|0,0:0|0:0|0:0|0:0,0:0:0:0:
177,174,88632,2,0,L|164:131,3,35,8|0|0|0,0:3|0:0|0:0|0:0,0:0:0:0:
82,114,88965,2,0,L|95:71,3,35,4|0|0|0,0:0|0:0|0:0|0:0,0:0:0:0:
175,56,89298,2,0,L|162:13,3,35,8|0|0|0,0:3|0:0|0:0|0:0,0:0:0:0:
293,110,89632,5,4,0:0:0:0:
276,157,89715,1,0,0:0:0:0:
277,207,89798,1,0,0:0:0:0:
295,254,89881,1,0,0:0:0:0:
287,304,89965,1,8,0:3:0:0:
256,342,90048,1,0,0:0:0:0:
207,350,90131,1,0,0:0:0:0:
165,323,90215,1,0,0:0:0:0:
137,279,90298,1,4,0:0:0:0:
133,227,90381,1,0,0:0:0:0:
155,180,90464,1,0,0:0:0:0:
197,149,90548,1,0,0:0:0:0:
250,152,90632,1,8,0:3:0:0:
282,184,90715,1,0,0:0:0:0:
325,197,90798,1,0,0:0:0:0:
370,190,90881,1,0,0:0:0:0:
402,157,90965,6,0,L|426:124,3,35,4|0|0|0,0:0|0:0|0:0|0:0,0:0:0:0:
316,75,91298,2,0,L|286:44,1,35,8|0,0:3|0:0,0:0:0:0:
259,143,91465,2,0,L|234:168,1,35,2|0,0:0|0:0,0:0:0:0:
221,69,91632,2,0,L|191:38,1,35,4|0,0:0|0:0,0:0:0:0:
164,137,91799,2,0,L|139:162,1,35,2|0,0:0|0:0,0:0:0:0:
156,241,91965,2,0,L|186:301,1,35,8|0,0:3|0:0,0:0:0:0:
262,310,92132,2,0,L|246:341,1,35,2|0,0:0|0:0,0:0:0:0:
380,271,92298,5,4,0:0:0:0:
404,233,92381,1,0,0:0:0:0:
399,189,92464,1,0,0:0:0:0:
366,158,92547,1,0,0:0:0:0:
320,154,92632,1,8,0:3:0:0:
276,140,92715,1,0,0:0:0:0:
242,110,92798,1,0,0:0:0:0:
225,68,92881,1,0,0:0:0:0:
223,22,92965,2,0,L|273:30,3,35,4|0|0|0,0:0|0:0|0:0|0:0,0:0:0:0:
378,52,93298,2,0,L|328:60,3,35,8|0|0|0,0:3|0:0|0:0|0:0,0:0:0:0:
206,88,93632,5,4,0:0:0:0:
181,125,93715,1,0,0:0:0:0:
186,169,93798,1,0,0:0:0:0:
219,200,93881,1,0,0:0:0:0:
266,205,93966,1,8,0:3:0:0:
309,218,94049,1,0,0:0:0:0:
343,248,94132,1,0,0:0:0:0:
360,290,94215,1,0,0:0:0:0:
363,337,94299,2,0,L|313:329,3,35,4|0|0|0,0:0|0:0|0:0|0:0,0:0:0:0:
208,307,94632,2,0,L|258:299,3,35,8|0|0|0,0:3|0:0|0:0|0:0,0:0:0:0:
386,244,94965,5,4,0:0:0:0:
392,197,95048,1,0,0:0:0:0:
364,160,95131,1,0,0:0:0:0:
317,153,95214,1,0,0:0:0:0:
275,174,95298,5,8,0:3:0:0:
228,172,95381,1,0,0:0:0:0:
197,137,95464,1,0,0:0:0:0:
200,90,95547,1,0,0:0:0:0:
236,59,95632,5,4,0:0:0:0:
282,55,95715,1,0,0:0:0:0:
319,84,95798,1,0,0:0:0:0:
326,131,95881,1,0,0:0:0:0:
307,174,95965,5,8,0:3:0:0:
305,220,96048,1,0,0:0:0:0:
339,251,96131,1,0,0:0:0:0:
385,246,96214,1,0,0:0:0:0:
418,212,96298,2,0,B|405:180|405:180|473:111|413:93|407:25|330:37,1,210.000008010865,4|8,0:0|0:3,0:0:0:0:
166,169,96965,6,0,P|127:208|113:266,1,105.000004005432,8|8,0:0|0:0,0:0:0:0:
353,295,97298,1,4,0:0:0:0:
379,249,97381,1,4,0:0:0:0:
393,199,97464,1,4,0:0:0:0:
394,146,97547,1,4,0:0:0:0:
388,94,97632,2,0,B|349:49|349:49|271:97|208:57|208:57|164:60|161:58,1,210.000008010865,4|0,0:2|0:0,0:0:0:0:
208,298,98132,1,0,0:0:0:0:
54,173,98298,2,0,B|121:197|121:197|151:287|226:303|226:303|230:288|241:288,1,210.000008010865,4|0,0:2|0:0,0:0:0:0:
178,44,98798,1,0,0:0:0:0:
332,118,98965,2,0,B|281:148|281:148|246:71|184:45|184:45|141:39|141:39,1,210.000008010865,4|0,0:2|0:0,0:0:0:0:
383,265,100298,5,4,0:2:0:0:
244,79,100521,1,0,0:0:0:0:
120,262,100743,1,0,0:0:0:0:
401,251,100965,2,8,P|425:281|445:322,2,70.0000026702882,12|8|8,0:3|0:3|0:3,0:3:0:0:
286,271,101298,2,8,P|262:241|242:200,2,70.0000026702882,8|8|8,0:3|0:3|0:3,0:3:0:0:
404,183,101632,2,0,B|409:131|409:131|370:88|366:45|366:45|282:98|194:47,1,315.000012016297,4|0,0:2|0:0,0:0:0:0:
290,206,102298,1,0,0:0:0:0:
101,233,102965,6,0,B|116:165|116:165|176:148|184:83|184:83|257:74,1,210.000008010865,4|0,0:2|0:0,0:0:0:0:
257,252,103465,1,0,0:0:0:0:
355,114,103632,2,0,B|310:71|251:83|251:83|209:39|151:52,1,210.000008010865,4|0,0:2|0:0,0:0:0:0:
223,216,104132,1,0,0:0:0:0:
382,299,104298,2,0,B|370:243|408:215|408:215|458:182|461:125|461:125|466:83,1,210.000008010865,4|0,0:2|0:0,0:0:0:0:
108,120,105632,5,4,0:2:0:0:
327,243,105855,1,0,0:0:0:0:
304,38,106077,1,0,0:0:0:0:
121,249,106298,1,4,0:2:0:0:
341,117,106521,1,0,0:0:0:0:
116,49,106743,1,0,0:0:0:0:
298,248,106965,6,0,P|278:195|390:258,1,315.000012016297,4|0,0:2|0:0,0:0:0:0:
172,76,107632,1,0,0:0:0:0:
420,324,108298,1,0,0:0:0:0:
164,77,109632,5,4,0:0:0:0:
117,107,109715,1,0,0:0:0:0:
101,159,109798,1,0,0:0:0:0:
121,211,109881,1,0,0:0:0:0:
172,235,109965,1,8,0:3:0:0:
219,209,110048,1,0,0:0:0:0:
272,224,110131,1,0,0:0:0:0:
299,272,110214,1,0,0:0:0:0:
295,328,110298,2,0,L|244:336,3,43.75,4|0|0|0,0:0|0:0|0:0|0:0,0:0:0:0:
140,279,110632,2,0,L|191:288,3,43.75,8|0|0|0,0:3|0:0|0:0|0:0,0:0:0:0:
326,294,110965,5,4,0:0:0:0:
372,263,111048,1,0,0:0:0:0:
388,211,111131,1,0,0:0:0:0:
368,159,111214,1,0,0:0:0:0:
318,136,111298,1,8,0:3:0:0:
270,161,111381,1,0,0:0:0:0:
217,146,111464,1,0,0:0:0:0:
191,98,111547,1,0,0:0:0:0:
196,43,111631,2,0,L|247:35,3,43.75,4|0|0|0,0:0|0:0|0:0|0:0,0:0:0:0:
351,91,111965,2,0,L|300:84,3,43.75,8|0|0|0,0:3|0:0|0:0|0:0,0:0:0:0:
128,102,112298,5,4,0:0:0:0:
96,147,112381,1,0,0:0:0:0:
109,201,112464,1,0,0:0:0:0:
158,227,112547,1,0,0:0:0:0:
214,211,112632,1,8,0:3:0:0:
269,201,112715,1,0,0:0:0:0:
321,223,112798,1,0,0:0:0:0:
352,271,112882,1,0,0:0:0:0:
397,304,112965,1,4,0:0:0:0:
444,274,113048,1,0,0:0:0:0:
468,224,113131,1,0,0:0:0:0:
460,168,113214,1,0,0:0:0:0:
424,125,113298,1,8,0:3:0:0:
368,135,113381,1,0,0:0:0:0:
314,120,113464,1,0,0:0:0:0:
272,82,113547,1,0,0:0:0:0:
261,27,113632,2,0,L|212:38,3,43.75,4|0|0|0,0:0|0:0|0:0|0:0,0:0:0:0:
102,104,113965,5,8,0:3:0:0:
58,139,114048,1,0,0:0:0:0:
52,194,114131,1,0,0:0:0:0:
84,239,114214,1,0,0:0:0:0:
138,257,114298,2,0,L|186:248,3,43.75,4|0|0|0,0:0|0:0|0:0|0:0,0:0:0:0:
306,295,114632,2,0,L|258:286,3,43.75,8|0|0|0,0:3|0:0|0:0|0:0,0:0:0:0:
131,263,114965,5,4,0:0:0:0:
80,229,115048,1,0,0:0:0:0:
59,172,115131,1,0,0:0:0:0:
75,113,115214,1,0,0:0:0:0:
122,75,115298,1,8,0:3:0:0:
183,72,115381,1,0,0:0:0:0:
234,105,115464,1,0,0:0:0:0:
251,163,115548,1,0,0:0:0:0:
283,214,115632,1,4,0:0:0:0:
336,218,115715,1,0,0:0:0:0:
379,186,115798,1,0,0:0:0:0:
391,134,115881,1,0,0:0:0:0:
365,87,115965,1,8,0:3:0:0:
316,68,116048,1,0,0:0:0:0:
263,82,116132,1,0,0:0:0:0:
235,128,116215,1,0,0:0:0:0:
239,181,116298,2,0,L|285:223,3,43.75,4|0|0|0,0:0|0:0|0:0|0:0,0:0:0:0:
342,283,116632,5,8,0:3:0:0:
313,331,116715,1,0,0:0:0:0:
259,347,116798,1,0,0:0:0:0:
208,325,116881,1,0,0:0:0:0:
187,273,116965,2,0,L|177:225,3,43.75,4|0|0|0,0:0|0:0|0:0|0:0,0:0:0:0:
292,229,117298,2,0,L|301:180,3,43.75,8|0|0|0,0:3|0:0|0:0|0:0,0:0:0:0:
297,75,117632,5,4,0:0:0:0:
261,32,117715,1,0,0:0:0:0:
205,28,117798,1,0,0:0:0:0:
162,63,117881,1,0,0:0:0:0:
157,119,117965,1,8,0:3:0:0:
173,171,118048,1,0,0:0:0:0:
142,218,118131,1,0,0:0:0:0:
88,226,118214,1,0,0:0:0:0:
45,191,118298,1,4,0:0:0:0:
32,136,118381,1,0,0:0:0:0:
64,90,118464,1,0,0:0:0:0:
119,82,118547,1,0,0:0:0:0:
170,109,118632,2,0,L|201:145,3,43.75,8|0|0|0,0:3|0:0|0:0|0:0,0:0:0:0:
330,176,118965,6,0,L|297:223,1,43.75,4|0,0:0|0:0,0:0:0:0:
171,205,119132,6,0,L|203:252,1,43.75,2|0,0:0|0:0,0:0:0:0:
342,283,119298,2,0,L|310:330,1,43.75,8|0,0:3|0:0,0:0:0:0:
183,312,119465,2,0,L|215:358,1,43.75,2|0,0:0|0:0,0:0:0:0:
171,205,119632,6,0,L|132:174,3,43.75,4|0|0|0,0:0|0:0|0:0|0:0,0:0:0:0:
256,250,119965,2,0,L|296:280,3,43.75,8|0|0|0,0:3|0:0|0:0|0:0,0:0:0:0:
404,307,120298,5,4,0:0:0:0:
436,261,120381,1,0,0:0:0:0:
432,205,120464,1,0,0:0:0:0:
392,165,120547,1,0,0:0:0:0:
336,161,120632,1,8,0:3:0:0:
279,169,120715,1,0,0:0:0:0:
228,147,120798,1,0,0:0:0:0:
203,96,120882,1,0,0:0:0:0:
157,63,120965,1,4,0:0:0:0:
103,71,121048,1,0,0:0:0:0:
70,116,121131,1,0,0:0:0:0:
77,171,121215,1,0,0:0:0:0:
122,204,121298,1,8,0:3:0:0:
177,189,121382,1,0,0:0:0:0:
230,168,121465,1,0,0:0:0:0:
285,176,121548,1,0,0:0:0:0:
329,213,121632,6,0,L|357:252,3,43.75,4|0|0|0,0:0|0:0|0:0|0:0,0:0:0:0:
249,272,121965,2,0,L|221:233,3,43.75,8|0|0|0,0:3|0:0|0:0|0:0,0:0:0:0:
113,217,122298,2,0,L|140:255,3,43.75,4|0|0|0,0:0|0:0|0:0|0:0,0:0:0:0:
81,343,122632,2,0,L|53:305,3,43.75,8|0|0|0,0:3|0:0|0:0|0:0,0:0:0:0:
58,175,122965,5,4,0:0:0:0:
72,113,123048,1,0,0:0:0:0:
124,81,123131,1,0,0:0:0:0:
185,94,123214,1,0,0:0:0:0:
220,148,123298,1,8,0:3:0:0:
251,202,123381,1,0,0:0:0:0:
312,216,123464,1,0,0:0:0:0:
364,183,123547,1,0,0:0:0:0:
374,120,123632,5,4,0:0:0:0:
344,74,123715,1,0,0:0:0:0:
293,58,123798,1,0,0:0:0:0:
244,79,123881,1,0,0:0:0:0:
224,129,123965,1,8,0:3:0:0:
235,180,124048,1,0,0:0:0:0:
247,232,124131,1,0,0:0:0:0:
234,285,124214,1,0,0:0:0:0:
197,325,124297,5,4,0:0:0:0:
144,333,124382,1,0,0:0:0:0:
117,287,124465,1,0,0:0:0:0:
129,234,124548,1,0,0:0:0:0:
173,204,124631,1,8,0:3:0:0:
226,210,124715,1,0,0:0:0:0:
260,251,124798,1,0,0:0:0:0:
265,304,124882,1,0,0:0:0:0:
240,351,124965,2,0,L|186:321,3,43.75,4|0|0|0,0:0|0:0|0:0|0:0,0:0:0:0:
300,278,125298,2,0,L|355:249,3,43.75,8|0|0|0,0:3|0:0|0:0|0:0,0:0:0:0:
407,179,125632,5,4,0:0:0:0:
412,123,125715,1,0,0:0:0:0:
381,76,125798,1,0,0:0:0:0:
328,58,125881,1,0,0:0:0:0:
275,77,125965,1,8,0:3:0:0:
236,118,126048,1,0,0:0:0:0:
181,123,126131,1,0,0:0:0:0:
137,88,126215,1,0,0:0:0:0:
82,97,126298,1,4,0:0:0:0:
47,141,126381,1,0,0:0:0:0:
50,197,126464,1,0,0:0:0:0:
88,237,126548,1,0,0:0:0:0:
145,236,126632,1,8,0:3:0:0:
181,188,126715,1,0,0:0:0:0:
225,148,126798,1,0,0:0:0:0:
276,115,126881,1,0,0:0:0:0:
336,107,126965,5,4,0:0:0:0:
388,141,127048,1,0,0:0:0:0:
398,203,127131,1,0,0:0:0:0:
360,253,127214,1,0,0:0:0:0:
297,259,127298,1,8,0:3:0:0:
246,224,127382,1,0,0:0:0:0:
201,179,127465,1,0,0:0:0:0:
137,181,127548,1,0,0:0:0:0:
96,229,127631,1,4,0:0:0:0:
103,292,127715,1,0,0:0:0:0:
154,329,127798,1,0,0:0:0:0:
217,322,127882,1,0,0:0:0:0:
257,273,127965,1,8,0:3:0:0:
281,215,128048,1,0,0:0:0:0:
342,201,128131,1,0,0:0:0:0:
390,241,128214,1,0,0:0:0:0:
383,304,128298,5,4,0:0:0:0:
316,313,128381,1,0,0:0:0:0:
256,284,128464,1,0,0:0:0:0:
222,226,128547,1,0,0:0:0:0:
222,158,128632,1,8,0:3:0:0:
200,95,128715,1,0,0:0:0:0:
139,69,128798,1,0,0:0:0:0:
78,94,128881,1,0,0:0:0:0:
62,160,128965,1,4,0:0:0:0:
78,224,129048,1,0,0:0:0:0:
134,259,129131,1,0,0:0:0:0:
200,248,129214,1,0,0:0:0:0:
238,192,129298,1,8,0:3:0:0:
284,145,129381,1,0,0:0:0:0:
350,147,129464,1,0,0:0:0:0:
391,198,129547,1,0,0:0:0:0:
393,267,129632,5,4,0:0:0:0:
359,315,129715,1,0,0:0:0:0:
303,333,129798,1,0,0:0:0:0:
248,312,129881,1,0,0:0:0:0:
225,257,129965,1,8,0:3:0:0:
196,212,130048,1,0,0:0:0:0:
147,190,130131,1,0,0:0:0:0:
94,201,130214,1,0,0:0:0:0:
59,242,130298,2,0,P|43:289|76:350,2,87.5,4|2|8,0:0|0:0|0:3,0:0:0:0:
136,60,130965,6,0,B|204:28|204:28|231:47|333:70|333:70|300:114|290:171|345:205|345:205|338:286,1,420,4|0,0:2|0:0,0:0:0:0:
130,263,132298,2,0,B|171:284|171:284|220:235|266:248|295:272|314:308|314:308|384:267|452:273|452:273|480:212,1,420,4|0,0:0|0:0,0:0:0:0:
352,36,133632,2,0,B|310:64|310:64|251:51|217:86|217:86|154:93|121:64|90:93|90:93|162:194|129:245|108:283|108:283|190:267|225:232|283:289|283:289|316:327|392:312,1,784,4|0,0:0|0:0,0:0:0:0:
389,88,136298,2,0,B|337:63|261:113|295:152|247:182|247:182|178:171|178:171|102:270|41:245,1,420,4|0,0:0|0:0,0:0:0:0:
236,310,137632,2,0,B|285:286|329:313|329:313|382:263|372:213|326:177|326:177|283:163|246:155|246:155|220:73,1,420,4|0,0:0|0:0,0:0:0:0:
88,219,138965,6,0,B|123:250|126:262|126:262|128:314|178:327|178:327|234:351|234:351|282:304|325:320|325:320|339:237|407:214|407:214|361:135|307:124|341:26|403:24,1,672,4|0,0:0|0:0,0:0:0:0:
439,149,141132,1,2,0:0:0:0:
289,110,141298,1,0,0:0:0:0:
159,201,141465,1,0,0:0:0:0:
64,125,141632,5,8,0:3:0:0:
95,88,141715,1,0,0:0:0:0:
137,67,141798,1,0,0:0:0:0:
184,63,141882,1,0,0:0:0:0:
230,76,141965,1,8,0:3:0:0:
255,116,142048,1,0,0:0:0:0:
290,148,142131,1,0,0:0:0:0:
332,171,142215,1,0,0:0:0:0:
378,183,142298,2,0,P|411:221|412:257,1,70,8|0,0:3|0:0,0:0:0:0:
290,201,142632,2,0,L|250:154,3,35,8|0|0|0,0:3|0:0|0:0|0:0,0:0:0:0:
129,102,142965,5,8,0:3:0:0:
91,130,143048,1,0,0:0:0:0:
77,175,143131,1,0,0:0:0:0:
93,220,143215,1,0,0:0:0:0:
133,245,143298,1,8,0:3:0:0:
180,248,143381,1,0,0:0:0:0:
222,271,143464,1,0,0:0:0:0:
252,308,143548,1,0,0:0:0:0:
265,354,143632,2,0,P|307:355|346:325,1,70,8|0,0:3|0:0,0:0:0:0:
316,161,143965,2,0,L|275:114,3,35,8|0|0|0,0:3|0:0|0:0|0:0,0:0:0:0:
153,61,144298,5,8,0:3:0:0:
165,106,144381,1,0,0:0:0:0:
160,154,144464,1,0,0:0:0:0:
138,196,144548,1,0,0:0:0:0:
100,225,144632,1,8,0:3:0:0:
64,255,144715,1,0,0:0:0:0:
59,302,144798,1,0,0:0:0:0:
86,340,144882,1,0,0:0:0:0:
131,350,144965,5,8,0:3:0:0:
172,327,145048,1,0,0:0:0:0:
195,286,145132,1,0,0:0:0:0:
217,243,145215,1,0,0:0:0:0:
254,213,145298,1,8,0:3:0:0:
299,200,145382,1,0,0:0:0:0:
344,217,145465,1,0,0:0:0:0:
369,256,145548,1,0,0:0:0:0:
368,303,145632,5,8,0:3:0:0:
335,343,145715,1,0,0:0:0:0:
285,355,145798,1,0,0:0:0:0:
238,335,145882,1,0,0:0:0:0:
220,288,145965,5,8,0:3:0:0:
192,248,146048,1,0,0:0:0:0:
152,224,146131,1,0,0:0:0:0:
104,219,146215,1,0,0:0:0:0:
65,243,146298,2,0,P|40:266|32:305,1,70,8|0,0:3|0:0,0:0:0:0:
186,275,146632,2,0,L|228:248,3,35,10|0|0|0,0:3|0:0|0:0|0:0,0:0:0:0:
367,213,146965,5,8,0:3:0:0:
364,165,147048,1,0,0:3:0:0:
343,121,147131,1,0,0:3:0:0:
309,90,147215,1,0,0:3:0:0:
264,72,147298,1,8,0:3:0:0:
219,88,147381,1,0,0:3:0:0:
172,92,147464,1,0,0:3:0:0:
126,84,147548,1,0,0:3:0:0:
82,65,147631,2,0,P|48:80|21:128,1,70,8|0,0:3|0:3,0:3:0:0:
129,210,147965,2,0,L|174:170,3,35,8|0|0|0,0:3|0:3|0:3|0:3,0:3:0:0:
328,155,148298,5,8,0:3:0:0:
341,200,148381,1,0,0:3:0:0:
324,244,148464,1,0,0:3:0:0:
284,271,148548,1,0,0:3:0:0:
237,264,148631,1,8,0:3:0:0:
199,238,148714,1,0,0:3:0:0:
151,230,148797,1,0,0:3:0:0:
104,240,148881,1,0,0:3:0:0:
66,269,148965,2,0,P|38:232|33:199,1,70,8|0,0:3|0:3,0:3:0:0:
144,86,149298,2,0,L|167:122,3,35,8|0|0|0,0:3|0:3|0:3|0:3,0:3:0:0:
366,105,149632,5,8,0:3:0:0:
355,151,149715,1,0,0:0:0:0:
324,187,149798,1,0,0:0:0:0:
280,204,149882,1,0,0:0:0:0:
236,189,149965,1,8,0:3:0:0:
192,171,150048,1,0,0:0:0:0:
148,185,150131,1,0,0:0:0:0:
123,226,150215,1,0,0:0:0:0:
132,272,150298,1,8,0:3:0:0:
168,302,150381,1,0,0:0:0:0:
216,304,150465,1,0,0:0:0:0:
257,281,150548,1,0,0:0:0:0:
275,238,150631,1,8,0:3:0:0:
262,193,150715,1,0,0:0:0:0:
223,167,150798,1,0,0:0:0:0:
176,164,150882,1,0,0:0:0:0:
139,193,150965,5,8,0:3:0:0:
91,206,151048,1,0,0:0:0:0:
50,181,151131,1,0,0:0:0:0:
40,133,151215,1,0,0:0:0:0:
56,87,151298,1,8,0:3:0:0:
102,59,151381,1,0,0:0:0:0:
156,57,151464,1,0,0:0:0:0:
204,81,151548,1,0,0:0:0:0:
230,129,151632,2,0,P|256:167|296:182,1,70,8|0,0:3|0:0,0:0:0:0:
431,197,151965,1,0,0:0:0:0:
298,286,152132,1,0,0:0:0:0:
139,79,152298,5,4,0:2:0:0:
380,210,152465,1,0,0:0:0:0:
108,320,152632,1,8,0:3:0:0:
153,60,152798,1,0,0:0:0:0:
391,221,152965,2,0,B|387:258|387:258|402:283|405:333|391:354,1,105.000004005432,0|0,0:0|0:3,0:3:0:0:
134,331,153298,2,0,B|138:294|138:294|123:269|120:219|134:198,1,105.000004005432,8|0,0:3|0:0,0:0:0:0:
376,85,153632,5,0,0:3:0:0:
135,216,153799,1,0,0:3:0:0:
407,326,153966,1,8,0:3:0:0:
362,66,154132,1,0,0:0:0:0:
112,212,154298,2,0,B|139:245|135:275|135:275|161:325,1,105.000004005432,0|0,0:0|0:3,0:0:0:0:
151,137,154632,2,0,B|124:104|128:74|128:74|102:24,1,105.000004005432,8|0,0:3|0:3,0:0:0:0:
373,305,154965,5,0,0:0:0:0:
132,174,155132,1,0,0:0:0:0:
404,64,155299,1,8,0:3:0:0:
359,324,155465,1,0,0:0:0:0:
121,163,155632,2,0,B|125:126|125:126|110:101|107:51|121:30,1,105.000004005432
378,53,155965,2,0,B|374:90|374:90|389:115|392:165|378:186,1,105.000004005432,8|0,0:3|0:0,0:0:0:0:
139,305,156298,5,0,0:0:0:0:
380,174,156465,1,0,0:0:0:0:
108,64,156632,1,8,0:3:0:0:
153,324,156798,1,0,0:0:0:0:
373,79,156965,5,0,0:0:0:0:
132,210,157132,1,0,0:0:0:0:
404,320,157299,1,8,0:3:0:0:
359,60,157465,1,0,0:0:0:0:
139,79,157632,5,4,0:2:0:0:
380,210,157799,1,0,0:0:0:0:
108,320,157966,1,8,0:3:0:0:
153,60,158132,1,0,0:0:0:0:
391,221,158299,2,0,B|387:258|387:258|402:283|405:333|391:354,1,105.000004005432
134,331,158632,2,0,B|138:294|138:294|123:269|120:219|134:198,1,105.000004005432,8|0,0:3|0:0,0:0:0:0:
373,79,158965,5,0,0:0:0:0:
132,210,159132,1,0,0:0:0:0:
404,320,159299,1,8,0:3:0:0:
359,60,159465,1,0,0:0:0:0:
116,211,159632,6,0,B|149:300|149:300|217:302|258:335,1,210.000008010865,2|8,0:0|0:3,0:0:0:0:
382,146,160132,1,0,0:0:0:0:
122,81,160298,2,0,B|142:127|142:127|68:180|159:278,1,210.000008010865,2|8,0:0|0:3,0:0:0:0:
351,115,160798,1,0,0:0:0:0:
146,223,160965,2,0,P|173:276|218:295,1,105.000004005432
212,294,161215,1,0,0:0:0:0:
212,294,161298,1,8,0:3:0:0:
353,91,161465,1,0,0:0:0:0:
102,85,161632,2,0,B|98:151|98:151|158:196|158:196|171:268|228:277|228:277,1,210.000008010865,2|8,0:0|0:3,0:0:0:0:
320,318,162298,5,8,0:3:0:0:
450,254,162465,1,8,0:3:0:0:
315,200,162632,1,8,0:3:0:0:
445,136,162798,1,8,0:3:0:0:
296,23,162965,5,6,0:2:0:0:
64,134,163132,1,2,0:0:0:0:
302,228,163299,1,8,0:3:0:0:
70,342,163465,1,2,0:0:0:0:
310,222,163632,2,2,B|340:180|340:180|396:166|404:114,1,105.000004005432
116,155,163965,2,0,B|85:113|85:113|29:99|21:47,1,105.000004005432,8|2,0:3|0:0,0:0:0:0:
106,293,164298,5,2,0:0:0:0:
216,62,164465,1,2,0:0:0:0:
311,300,164632,1,8,0:3:0:0:
425,68,164798,1,2,0:0:0:0:
165,45,164965,2,0,B|127:94|136:144|136:144|94:182|87:237,1,210.000008010865,2|8,0:0|0:3,0:0:0:0:
337,338,165632,5,2,0:0:0:0:
105,227,165799,1,2,0:0:0:0:
343,133,165966,1,8,0:3:0:0:
111,19,166132,1,2,0:0:0:0:
351,139,166299,2,0,B|381:181|381:181|437:195|445:247,1,105.000004005432,2|2,0:0|0:0,0:0:0:0:
157,206,166632,2,0,B|126:248|126:248|70:262|62:314,1,105.000004005432,8|2,0:3|0:0,0:0:0:0:
406,293,166965,5,2,0:0:0:0:
296,62,167132,1,2,0:0:0:0:
201,300,167299,1,8,0:3:0:0:
87,68,167465,1,2,0:0:0:0:
106,293,167632,5,2,0:0:0:0:
216,62,167799,1,2,0:0:0:0:
311,300,167966,1,8,0:3:0:0:
425,68,168132,1,0,0:0:0:0:
208,350,168298,5,6,0:2:0:0:
440,239,168465,1,2,0:0:0:0:
202,145,168632,1,2,0:0:0:0:
434,31,168798,1,2,0:0:0:0:
194,151,168965,2,2,B|164:193|164:193|108:207|100:259,1,105.000004005432
388,218,169298,2,0,B|419:260|419:260|475:274|483:326,1,105.000004005432,8|2,0:3|0:0,0:0:0:0:
356,32,169632,5,2,0:0:0:0:
124,143,169799,1,2,0:0:0:0:
362,237,169966,1,8,0:3:0:0:
130,351,170132,1,2,0:0:0:0:
368,219,170298,2,0,B|348:161|348:161|383:88|303:29,1,210.000008010865,2|8,0:0|0:3,0:0:0:0:
148,218,170798,1,0,0:0:0:0:
381,252,170965,2,0,B|385:194|385:194|435:161|478:80|471:53,1,210.000008010865,2|8,0:0|0:3,0:0:0:0:
216,74,171465,1,0,0:0:0:0:
383,268,171632,2,0,P|416:207|416:146,1,105.000004005432
419,172,171882,1,0,0:0:0:0:
419,172,171965,1,8,0:3:0:0:
209,106,172132,1,0,0:0:0:0:
278,287,172298,5,6,0:0:0:0:
295,58,172465,1,4,0:0:0:0:
229,279,172632,1,6,0:0:0:0:
295,58,172798,1,4,0:0:0:0:
321,282,172965,1,6,0:0:0:0:
120,186,173132,1,4,0:0:0:0:
324,292,173298,1,6,0:0:0:0:
153,151,173465,1,4,0:0:0:0:
328,301,173632,1,10,0:3:0:0:
280,135,173965,6,0,P|191:143|162:177,2,105.000004005432,2|0|8,0:0|0:0|0:3,0:0:0:0:
238,320,174632,6,2,P|327:312|356:278,4,105.000004005432,2|2|8|2|2,0:0|0:0|0:3|0:0|0:0,0:0:0:0:
133,197,175465,1,0,0:0:0:0:
350,93,175632,2,0,P|399:147|368:283,1,210.000008010865,4|0,0:2|0:0,0:0:0:0:
149,202,176298,1,8,0:3:0:0:
333,101,176632,1,0,0:0:0:0:
441,50,176798,1,0,0:0:0:0:
457,169,176965,1,8,0:3:0:0:
181,236,177298,5,0,0:0:0:0:
233,132,177465,1,0,0:0:0:0:
334,187,177632,1,8,0:3:0:0:
393,285,177798,1,0,0:0:0:0:
452,185,177965,1,0,0:0:0:0:
396,83,178132,1,0,0:0:0:0:
296,139,178298,2,0,B|234:178|172:156|172:156|87:185,1,210.000008010865,8|0,0:3|0:0,0:0:0:0:
256,192,178965,12,0,180798,0:3:0:0:
404,179,180965,5,4,0:0:0:0:
399,131,181048,1,0,0:0:0:0:
374,91,181131,1,0,0:0:0:0:
332,68,181215,1,0,0:0:0:0:
285,66,181298,1,8,0:3:0:0:
242,87,181381,1,0,0:0:0:0:
218,128,181465,1,0,0:0:0:0:
187,164,181548,1,0,0:0:0:0:
142,178,181632,2,0,L|81:199,3,35,4|0|0|0,0:0|0:0|0:0|0:0,0:0:0:0:
101,77,181965,2,0,L|162:98,3,35,8|0|0|0,0:3|0:0|0:0|0:0,0:0:0:0:
286,127,182298,5,4,0:0:0:0:
325,153,182381,1,0,0:0:0:0:
338,198,182464,1,0,0:0:0:0:
320,241,182548,1,0,0:0:0:0:
276,259,182632,1,8,0:3:0:0:
229,249,182715,1,0,0:0:0:0:
184,265,182798,1,0,0:0:0:0:
154,302,182882,1,0,0:0:0:0:
145,348,182965,2,0,L|105:339,3,35,4|0|0|0,0:0|0:0|0:0|0:0,0:0:0:0:
212,274,183298,2,0,L|252:265,3,35,8|0|0|0,0:3|0:0|0:0|0:0,0:0:0:0:
391,229,183632,5,4,0:0:0:0:
415,188,183715,1,0,0:0:0:0:
411,141,183798,1,0,0:0:0:0:
380,105,183882,1,0,0:0:0:0:
335,93,183965,1,8,0:3:0:0:
292,113,184048,1,0,0:0:0:0:
244,113,184131,1,0,0:0:0:0:
202,93,184215,1,0,0:0:0:0:
157,78,184298,1,4,0:0:0:0:
116,99,184381,1,0,0:0:0:0:
102,144,184465,1,0,0:0:0:0:
124,186,184548,1,0,0:0:0:0:
170,197,184632,5,8,0:3:0:0:
214,169,184715,1,0,0:0:0:0:
266,164,184798,1,0,0:0:0:0:
315,181,184882,1,0,0:0:0:0:
348,221,184965,2,0,L|369:267,3,35,4|0|0|0,0:0|0:0|0:0|0:0,0:0:0:0:
451,196,185298,2,0,L|470:151,1,35,8|0,0:3|0:0,0:0:0:0:
374,124,185465,2,0,L|355:79,1,35,2|0,0:0|0:0,0:0:0:0:
450,62,185632,2,0,L|469:17,1,35,4|0,0:0|0:0,0:0:0:0:
363,62,185798,2,0,L|349:94,1,35,2|0,0:0|0:0,0:0:0:0:
262,130,185965,2,0,L|275:162,1,35,8|0,0:3|0:0,0:0:0:0:
367,212,186132,2,0,L|353:244,1,35,2|0,0:0|0:0,0:0:0:0:
238,335,186298,5,4,0:0:0:0:
191,336,186381,1,0,0:0:0:0:
155,305,186464,1,0,0:0:0:0:
148,259,186548,1,0,0:0:0:0:
165,215,186632,1,8,0:3:0:0:
191,175,186715,1,0,0:0:0:0:
191,128,186798,1,0,0:0:0:0:
166,88,186882,1,0,0:0:0:0:
121,77,186965,1,4,0:0:0:0:
78,96,187048,1,0,0:0:0:0:
55,138,187131,1,0,0:0:0:0:
62,184,187215,1,0,0:0:0:0:
99,214,187298,2,0,L|136:232,3,35,8|0|0|0,0:3|0:0|0:0|0:0,0:0:0:0:
268,268,187632,5,4,0:0:0:0:
313,276,187715,1,0,0:0:0:0:
353,251,187798,1,0,0:0:0:0:
367,206,187882,1,0,0:0:0:0:
358,160,187966,1,8,0:3:0:0:
338,117,188049,1,0,0:0:0:0:
345,70,188132,1,0,0:0:0:0:
376,35,188216,1,0,0:0:0:0:
423,31,188299,1,4,0:0:0:0:
462,56,188382,1,0,0:0:0:0:
478,101,188465,1,0,0:0:0:0:
464,146,188549,1,0,0:0:0:0:
424,170,188632,2,0,L|384:181,3,35,8|0|0|0,0:3|0:0|0:0|0:0,0:0:0:0:
233,218,188965,5,4,0:0:0:0:
189,199,189048,1,0,0:0:0:0:
164,159,189131,1,0,0:0:0:0:
167,112,189215,1,0,0:0:0:0:
201,80,189298,1,8,0:3:0:0:
247,72,189381,1,0,0:0:0:0:
293,85,189465,1,0,0:0:0:0:
322,124,189548,1,0,0:0:0:0:
345,172,189631,1,4,0:0:0:0:
392,196,189714,1,0,0:0:0:0:
442,180,189798,1,0,0:0:0:0:
466,132,189881,1,0,0:0:0:0:
460,79,189965,1,8,0:3:0:0:
422,41,190048,1,0,0:0:0:0:
369,32,190131,1,0,0:0:0:0:
320,53,190215,1,0,0:0:0:0:
303,104,190298,5,4,0:0:0:0:
270,149,190381,1,0,0:0:0:0:
217,165,190464,1,0,0:0:0:0:
164,146,190548,1,0,0:0:0:0:
138,99,190632,1,8,0:3:0:0:
95,64,190715,1,0,0:0:0:0:
42,79,190798,1,0,0:0:0:0:
25,131,190882,1,0,0:0:0:0:
38,184,190965,2,0,B|60:224|60:224|61:277,1,70,4|0,0:0|0:0,0:0:0:0:
65,288,191215,2,0,B|65:312|65:312|87:352,1,70,4|0,0:0|0:0,0:0:0:0:
236,344,191465,1,2,0:0:0:0:
351,210,191632,5,4,0:0:0:0:
374,162,191715,1,0,0:0:0:0:
373,111,191798,1,0,0:0:0:0:
347,65,191882,1,0,0:0:0:0:
301,42,191965,1,8,0:3:0:0:
258,64,192048,1,0,0:0:0:0:
211,73,192131,1,0,0:0:0:0:
166,58,192215,1,0,0:0:0:0:
120,46,192298,1,4,0:0:0:0:
78,67,192381,1,0,0:0:0:0:
60,110,192465,1,0,0:0:0:0:
74,155,192548,1,0,0:0:0:0:
114,179,192631,5,8,0:3:0:0:
162,170,192715,1,0,0:0:0:0:
203,147,192798,1,0,0:0:0:0:
251,142,192881,1,0,0:0:0:0:
296,155,192965,1,4,0:0:0:0:
333,185,193048,1,0,0:0:0:0:
356,227,193131,1,0,0:0:0:0:
365,275,193215,1,0,0:0:0:0:
363,322,193298,6,0,L|355:372,3,35,8|0|0|0,0:3|0:0|0:0|0:0,0:0:0:0:
259,290,193632,2,0,L|267:240,3,35,4|0|0|0,0:0|0:0|0:0|0:0,0:0:0:0:
148,283,193965,2,0,L|140:333,3,35,8|0|0|0,0:3|0:0|0:0|0:0,0:0:0:0:
48,182,194298,5,4,0:0:0:0:
44,134,194381,1,0,0:0:0:0:
67,93,194464,1,0,0:0:0:0:
109,71,194548,1,0,0:0:0:0:
156,77,194631,1,12,0:3:0:0:
192,107,194714,1,0,0:0:0:0:
215,150,194798,1,0,0:0:0:0:
232,193,194881,1,0,0:0:0:0:
272,219,194964,1,4,0:0:0:0:
319,218,195048,1,0,0:0:0:0:
357,190,195131,1,0,0:0:0:0:
372,146,195214,1,0,0:0:0:0:
369,98,195298,1,8,0:3:0:0:
338,61,195381,1,0,0:0:0:0:
292,52,195464,1,0,0:0:0:0:
249,72,195548,1,0,0:0:0:0:
231,117,195632,6,0,L|224:167,3,35,4|0|0|0,0:0|0:0|0:0|0:0,0:0:0:0:
325,237,195965,2,0,L|349:279,1,35,8|0,0:3|0:0,0:0:0:0:
232,281,196132,2,0,L|208:323,1,35,2|0,0:0|0:0,0:0:0:0:
162,220,196298,2,0,L|186:178,1,35,4|0,0:0|0:0,0:0:0:0:
72,185,196465,2,0,L|48:143,1,35,2|0,0:0|0:0,0:0:0:0:
156,113,196632,2,0,L|180:71,1,35,8|0,0:3|0:0,0:0:0:0:
258,141,196798,2,0,L|275:171,1,35,2|0,0:0|0:0,0:0:0:0:
266,323,196965,5,4,0:0:0:0:
221,340,197048,1,0,0:0:0:0:
175,333,197131,1,0,0:0:0:0:
138,302,197215,1,0,0:0:0:0:
122,258,197298,1,8,0:3:0:0:
132,211,197381,1,0,0:0:0:0:
132,164,197465,1,0,0:0:0:0:
113,120,197548,1,0,0:0:0:0:
130,77,197631,1,4,0:0:0:0:
172,57,197715,1,0,0:0:0:0:
219,69,197798,1,0,0:0:0:0:
248,105,197881,1,0,0:0:0:0:
293,124,197965,2,0,L|344:134,3,35,8|0|0|0,0:3|0:0|0:0|0:0,0:0:0:0:
329,263,198298,5,4,0:0:0:0:
300,301,198381,1,0,0:0:0:0:
259,312,198464,1,0,0:0:0:0:
212,319,198548,1,0,0:0:0:0:
167,337,198631,1,8,0:3:0:0:
121,331,198715,1,0,0:0:0:0:
81,304,198798,1,0,0:0:0:0:
58,262,198881,1,0,0:0:0:0:
55,215,198965,2,0,L|78:165,3,35,4|0|0|0,0:0|0:0|0:0|0:0,0:0:0:0:
178,167,199298,2,0,L|155:217,3,35,8|0|0|0,0:3|0:0|0:0|0:0,0:0:0:0:
198,328,199632,5,4,0:0:0:0:
240,346,199715,1,0,0:0:0:0:
285,332,199798,1,0,0:0:0:0:
308,291,199882,1,0,0:0:0:0:
307,244,199965,1,8,0:3:0:0:
283,203,200048,1,0,0:0:0:0:
238,189,200131,1,0,0:0:0:0:
195,208,200215,1,0,0:0:0:0:
160,240,200298,5,4,0:0:0:0:
130,276,200381,1,0,0:0:0:0:
84,284,200464,1,0,0:0:0:0:
45,259,200548,1,0,0:0:0:0:
33,214,200632,1,8,0:3:0:0:
36,167,200715,1,0,0:0:0:0:
70,134,200798,1,0,0:0:0:0:
117,132,200882,1,0,0:0:0:0:
156,158,200965,1,4,0:0:0:0:
199,181,201048,1,0,0:0:0:0:
247,168,201131,1,0,0:0:0:0:
274,127,201215,1,0,0:0:0:0:
267,79,201298,1,8,0:3:0:0:
229,48,201381,1,0,0:0:0:0:
180,56,201465,1,0,0:0:0:0:
147,93,201548,1,0,0:0:0:0:
144,143,201632,6,0,P|148:179|157:201,1,35,4|0,0:0|0:0,0:0:0:0:
245,303,201798,1,8,0:3:0:0:
295,281,201881,1,8,0:3:0:0:
334,244,201964,1,8,0:3:0:0:
357,195,202048,1,8,0:3:0:0:
373,142,202131,1,8,0:3:0:0:
412,103,202215,1,8,0:3:0:0:
431,52,202298,6,0,B|383:22|383:22|326:78|244:79,1,210,4|0,0:0|0:0,0:0:0:0:
361,235,202798,1,0,0:0:0:0:
174,261,202965,2,0,B|222:291|222:291|279:235|361:234,1,210.000008010865,4|0,0:0|0:0,0:0:0:0:
244,78,203465,1,0,0:0:0:0:
98,345,203632,2,0,B|66:263|66:263|147:225|142:76|142:76|164:43|228:32|267:112,1,420.000016021729,4|0,0:0|0:0,0:0:0:0:
339,232,204965,2,0,B|293:275|244:260|244:260|191:294|134:214,1,210.000008010865,2|0,0:0|0:0,0:0:0:0:
156,117,205632,2,0,B|202:74|251:89|251:89|304:55|361:135,1,210.000008010865,2|0,0:0|0:0,0:0:0:0:
310,301,206298,2,0,B|292:240|292:240|442:250|394:54|256:117,1,315.000012016297,2|0,0:0|0:0,0:0:0:0:
130,127,206965,1,2,0:3:0:0:
431,332,207632,6,0,B|383:362|383:362|326:306|244:305,1,210,4|0,0:0|0:0,0:0:0:0:
361,149,208132,1,0,0:0:0:0:
174,123,208299,2,0,B|222:93|222:93|279:149|361:150,1,210.000008010865,4|0,0:0|0:0,0:0:0:0:
244,306,208799,1,0,0:0:0:0:
98,39,208966,2,0,B|66:121|66:121|147:159|142:308|142:308|164:341|228:352|267:272,1,420.000016021729,4|0,0:0|0:0,0:0:0:0:
325,82,210298,6,0,P|340:187|416:132,1,210.000008010865,4|0,0:0|0:0,0:0:0:0:
187,302,210965,2,0,P|172:197|96:252,1,210.000008010865,4|0,0:0|0:0,0:0:0:0:
169,68,211632,2,0,B|225:108|225:108|231:155|231:155|316:162|368:103|368:103|421:133,1,315.000012016297,4|0,0:0|0:0,0:0:0:0:
322,267,212298,2,0,B|280:210|280:210|262:166|262:166|186:182|157:118|157:118|93:141|56:193|126:285,1,420.000016021729,4|0,0:0|0:0,0:0:0:0:
417,272,214298,5,4,0:0:0:0:
438,219,214381,1,0,0:0:0:0:
423,165,214464,1,0,0:0:0:0:
378,130,214548,1,0,0:0:0:0:
321,140,214632,1,8,0:3:0:0:
269,158,214715,1,0,0:0:0:0:
218,134,214798,1,0,0:0:0:0:
195,82,214882,1,0,0:0:0:0:
146,52,214965,5,4,0:0:0:0:
86,59,215048,1,0,0:0:0:0:
51,105,215132,1,0,0:0:0:0:
55,163,215215,1,0,0:0:0:0:
92,209,215298,1,8,0:3:0:0:
149,217,215381,1,0,0:0:0:0:
199,184,215464,1,0,0:0:0:0:
213,128,215548,1,0,0:0:0:0:
191,75,215632,2,0,L|155:46,3,43.75,4|0|0|0,0:0|0:0|0:0|0:0,0:0:0:0:
56,123,215965,5,8,0:3:0:0:
64,180,216048,1,0,0:0:0:0:
104,224,216131,1,0,0:0:0:0:
161,236,216215,1,0,0:0:0:0:
218,227,216298,2,0,L|265:201,3,43.75,4|0|0|0,0:0|0:0|0:0|0:0,0:0:0:0:
338,73,216632,2,0,L|268:113,3,43.75,8|0|0|0,0:3|0:0|0:3|0:0,0:0:0:0:
144,88,216965,5,4,0:0:0:0:
96,120,217048,1,0,0:0:0:0:
85,177,217131,1,0,0:0:0:0:
118,226,217215,1,0,0:0:0:0:
177,232,217298,1,8,0:3:0:0:
224,198,217381,1,0,0:0:0:0:
282,206,217464,1,0,0:0:0:0:
322,250,217548,1,0,0:0:0:0:
314,307,217631,1,4,0:0:0:0:
266,340,217714,1,0,0:0:0:0:
210,325,217798,1,0,0:0:0:0:
184,273,217881,1,0,0:0:0:0:
202,217,217965,1,8,0:3:0:0:
218,160,218048,1,0,0:0:0:0:
192,108,218131,1,0,0:0:0:0:
137,88,218215,1,0,0:0:0:0:
83,108,218298,6,0,L|50:153,3,43.75,4|0|0|0,0:0|0:0|0:0|0:0,0:0:0:0:
164,220,218632,2,0,L|182:164,3,43.75,8|0|0|0,0:3|0:0|0:0|0:0,0:0:0:0:
328,266,218965,5,4,0:0:0:0:
384,281,219048,1,0,0:0:0:0:
434,252,219131,1,0,0:0:0:0:
451,196,219215,1,0,0:0:0:0:
435,140,219298,2,0,L|405:100,3,43.75,8|0|0|0,0:3|0:0|0:0|0:0,0:0:0:0:
262,54,219632,5,4,0:0:0:0:
221,101,219715,1,0,0:0:0:0:
238,161,219798,1,0,0:0:0:0:
297,181,219882,1,0,0:0:0:0:
346,143,219965,1,8,0:3:0:0:
407,142,220048,1,0,0:0:0:0:
442,193,220131,1,0,0:0:0:0:
418,251,220215,1,0,0:0:0:0:
356,251,220298,1,4,0:0:0:0:
308,210,220381,1,0,0:0:0:0:
294,147,220464,1,0,0:0:0:0:
300,83,220548,1,0,0:0:0:0:
257,37,220631,1,8,0:3:0:0:
194,36,220714,1,0,0:0:0:0:
151,82,220798,1,0,0:0:0:0:
158,146,220882,1,0,0:0:0:0:
199,195,220965,2,0,L|240:227,3,43.75,4|0|0|0,0:0|0:0|0:0|0:0,0:0:0:0:
377,244,221298,5,8,0:3:0:0:
420,204,221381,1,0,0:0:0:0:
426,146,221464,1,0,0:0:0:0:
391,99,221548,1,0,0:0:0:0:
337,78,221632,2,0,L|283:87,3,43.75,4|0|0|0,0:0|0:0|0:0|0:0,0:0:0:0:
188,154,221965,2,0,L|242:164,3,43.75,8|0|0|0,0:3|0:0|0:0|0:0,0:0:0:0:
367,189,222298,5,4,0:0:0:0:
397,235,222381,1,0,0:0:0:0:
386,289,222464,1,0,0:0:0:0:
342,322,222548,1,0,0:0:0:0:
287,316,222631,1,8,0:3:0:0:
252,273,222714,1,0,0:0:0:0:
248,217,222798,1,0,0:0:0:0:
218,169,222881,1,0,0:0:0:0:
165,152,222964,1,4,0:0:0:0:
113,172,223048,1,0,0:0:0:0:
87,220,223131,1,0,0:0:0:0:
103,274,223215,1,0,0:0:0:0:
153,297,223298,2,0,L|199:300,3,43.75,8|0|0|0,0:3|0:0|0:0|0:0,0:0:0:0:
315,245,223632,6,0,L|372:231,1,43.75,4|0,0:0|0:0,0:0:0:0:
197,194,223798,2,0,L|140:181,1,43.75,2|0,0:0|0:0,0:0:0:0:
346,137,223965,2,0,L|403:124,1,43.75,8|0,0:3|0:0,0:0:0:0:
227,87,224131,2,0,L|170:74,1,43.75,2|0,0:0|0:0,0:0:0:0:
72,113,224298,5,4,0:0:0:0:
81,169,224381,1,0,0:0:0:0:
90,225,224464,1,0,0:0:0:0:
100,281,224548,1,0,0:0:0:0:
111,337,224632,2,0,L|169:337,3,43.75,8|0|0|0,0:3|0:0|0:0|0:0,0:0:0:0:
292,286,224965,5,4,0:0:0:0:
321,236,225048,1,0,0:0:0:0:
310,179,225131,1,0,0:0:0:0:
262,145,225215,1,0,0:0:0:0:
204,148,225298,1,8,0:3:0:0:
155,178,225381,1,0,0:0:0:0:
101,157,225464,1,0,0:0:0:0:
85,102,225548,1,0,0:0:0:0:
110,49,225632,1,4,0:0:0:0:
172,33,225715,1,0,0:0:0:0:
230,59,225798,1,0,0:0:0:0:
261,114,225882,1,0,0:0:0:0:
248,175,225965,2,0,L|222:218,3,43.75,8|0|0|0,0:3|0:0|0:0|0:0,0:0:0:0:
162,322,226298,5,4,0:0:0:0:
221,343,226381,1,0,0:0:0:0:
284,329,226464,1,0,0:0:0:0:
330,285,226548,1,0,0:0:0:0:
335,222,226632,1,8,0:3:0:0:
316,160,226715,1,0,0:0:0:0:
336,99,226798,1,0,0:0:0:0:
388,63,226882,1,0,0:0:0:0:
445,92,226965,1,4,0:0:0:0:
465,149,227048,1,0,0:0:0:0:
436,201,227132,1,0,0:0:0:0:
377,209,227215,1,0,0:0:0:0:
335,165,227298,2,0,L|303:120,3,43.75,8|0|0|0,0:3|0:0|0:0|0:0,0:0:0:0:
214,35,227632,5,4,0:0:0:0:
152,58,227715,1,0,0:0:0:0:
133,120,227798,1,0,0:0:0:0:
171,173,227882,1,0,0:0:0:0:
235,191,227965,1,8,0:3:0:0:
270,246,228048,1,0,0:0:0:0:
254,309,228131,1,0,0:0:0:0:
196,340,228215,1,0,0:0:0:0:
142,305,228298,1,4,0:0:0:0:
109,260,228381,1,0,0:0:0:0:
117,205,228464,1,0,0:0:0:0:
160,170,228548,1,0,0:0:0:0:
216,175,228632,1,8,0:3:0:0:
259,210,228715,1,0,0:0:0:0:
315,208,228798,1,0,0:0:0:0:
357,172,228882,1,0,0:0:0:0:
369,117,228965,2,0,L|370:63,3,43.75,4|0|0|0,0:0|0:0|0:0|0:0,0:0:0:0:
224,86,229298,5,8,0:3:0:0:
174,118,229381,1,0,0:0:0:0:
146,171,229464,1,0,0:0:0:0:
148,229,229548,1,0,0:0:0:0:
181,280,229632,2,0,L|212:316,3,43.75,4|0|0|0,0:0|0:0|0:0|0:0,0:0:0:0:
306,249,229965,2,0,L|274:212,3,43.75,8|0|0|0,0:3|0:0|0:0|0:0,0:0:0:0:
238,121,230298,5,4,0:0:0:0:
267,73,230381,1,0,0:0:0:0:
319,55,230464,1,0,0:0:0:0:
371,74,230548,1,0,0:0:0:0:
403,120,230632,1,8,0:3:0:0:
394,175,230715,1,0,0:0:0:0:
353,213,230798,1,0,0:0:0:0:
297,216,230882,1,0,0:0:0:0:
254,184,230965,1,4,0:0:0:0:
210,148,231048,1,0,0:0:0:0:
155,149,231131,1,0,0:0:0:0:
112,186,231215,1,0,0:0:0:0:
105,241,231298,1,8,0:3:0:0:
134,288,231381,1,0,0:0:0:0:
188,302,231465,1,0,0:0:0:0:
238,277,231548,1,0,0:0:0:0:
293,286,231632,5,6,0:0:0:0:
342,247,231715,1,0,0:0:0:0:
343,185,231798,1,0,0:0:0:0:
293,146,231882,1,0,0:0:0:0:
234,164,231965,1,8,0:3:0:0:
188,121,232048,1,0,0:0:0:0:
200,61,232131,1,0,0:0:0:0:
259,41,232215,1,0,0:0:0:0:
310,79,232298,1,4,0:0:0:0:
308,141,232381,1,0,0:0:0:0:
260,183,232464,1,0,0:0:0:0:
198,176,232548,1,0,0:0:0:0:
174,118,232632,1,8,0:3:0:0:
122,82,232715,1,0,0:0:0:0:
62,99,232798,1,0,0:0:0:0:
37,157,232882,1,0,0:0:0:0:
70,210,232965,5,6,0:0:0:0:
140,209,233048,1,0,0:0:0:0:
203,237,233131,1,0,0:0:0:0:
248,290,233215,1,0,0:0:0:0:
316,297,233298,1,8,0:3:0:0:
365,247,233381,1,0,0:0:0:0:
375,179,233464,1,0,0:0:0:0:
343,118,233548,1,0,0:0:0:0:
279,93,233632,5,4,0:0:0:0:
220,95,233715,1,0,0:0:0:0:
178,136,233798,1,0,0:0:0:0:
173,193,233882,1,0,0:0:0:0:
203,245,233965,1,8,0:3:0:0:
255,271,234048,1,0,0:0:0:0:
313,263,234131,1,0,0:0:0:0:
355,222,234215,1,0,0:0:0:0:
367,164,234298,6,0,L|349:110,1,43.75,4|0,0:0|0:0,0:0:0:0:
203,115,234465,2,0,L|177:165,5,43.75,8|0|0|0|0|0,0:3|0:0|0:3|0:0|0:0|0:0,0:0:0:0:
311,308,234965,2,0,L|347:252,3,43.75,8|0|0|0,0:3|0:0|0:0|0:0,0:0:0:0:
256,121,235298,2,0,L|274:70,1,43.75,8|0,0:3|0:0,0:0:0:0:
121,199,235465,2,0,L|103:148,1,43.75,8|0,0:3|0:0,0:0:0:0:
237,307,235632,5,4,0:0:0:0:
260,253,235715,1,0,0:0:0:0:
311,224,235798,1,2,0:0:0:0:
360,188,235882,1,0,0:0:0:0:
379,132,235965,1,8,0:3:0:0:
366,75,236048,1,0,0:0:0:0:
318,39,236132,1,2,0:0:0:0:
259,40,236215,1,0,0:0:0:0:
214,75,236298,2,0,L|183:106,3,43.75,4|0|2|0,0:0|0:0|0:0|0:0,0:0:0:0:
160,236,236632,2,0,L|190:205,3,43.75,8|0|2|0,0:3|0:0|0:0|0:0,0:0:0:0:
246,70,236965,5,4,0:0:0:0:
269,123,237048,1,0,0:0:0:0:
320,153,237131,1,2,0:0:0:0:
368,190,237215,1,0,0:0:0:0:
387,245,237298,1,8,0:3:0:0:
374,302,237381,1,0,0:0:0:0:
327,339,237465,1,2,0:0:0:0:
268,337,237548,1,0,0:0:0:0:
222,303,237632,2,0,L|192:271,3,43.75,4|0|2|0,0:0|0:0|0:0|0:0,0:0:0:0:
168,141,237965,2,0,L|199:173,3,43.75,8|0|2|0,0:3|0:0|0:0|0:0,0:0:0:0:
288,255,238298,5,4,0:0:0:0:
335,292,238381,1,0,0:0:0:0:
396,286,238464,1,2,0:0:0:0:
435,240,238548,1,0,0:0:0:0:
431,179,238631,1,8,0:3:0:0:
386,138,238714,1,0,0:0:0:0:
326,139,238798,1,2,0:0:0:0:
280,179,238882,1,0,0:0:0:0:
235,220,238965,1,4,0:0:0:0:
174,222,239048,1,0,0:0:0:0:
125,183,239132,1,2,0:0:0:0:
114,123,239215,1,0,0:0:0:0:
132,66,239298,1,8,0:3:0:0:
187,39,239381,1,0,0:0:0:0:
248,44,239464,1,2,0:0:0:0:
296,82,239548,1,0,0:0:0:0:
313,141,239632,2,0,L|318:193,3,43.75,4|0|2|0,0:0|0:0|0:0|0:0,0:0:0:0:
275,312,239965,5,8,0:3:0:0:
224,280,240048,1,0,0:0:0:0:
173,248,240131,1,2,0:0:0:0:
123,217,240215,1,0,0:0:0:0:
81,176,240298,2,0,L|119:138,3,43.75,4|0|2|0,0:0|0:0|0:0|0:0,0:0:0:0:
206,66,240632,2,0,L|244:104,3,43.75,8|0|2|0,0:3|0:0|0:0|0:0,0:0:0:0:
340,199,240965,5,4,0:0:0:0:
353,263,241048,1,0,0:0:0:0:
310,311,241131,1,2,0:0:0:0:
244,304,241215,1,0,0:0:0:0:
203,253,241298,1,8,0:3:0:0:
173,192,241381,1,0,0:0:0:0:
117,156,241464,1,2,0:0:0:0:
51,152,241548,1,0,0:0:0:0:
32,87,241632,5,4,0:0:0:0:
80,52,241715,1,0,0:0:0:0:
138,38,241798,1,2,0:0:0:0:
197,47,241882,1,0,0:0:0:0:
246,80,241965,1,8,0:3:0:0:
277,129,242048,1,0,0:0:0:0:
330,156,242131,1,2,0:0:0:0:
388,154,242215,1,0,0:0:0:0:
440,125,242298,2,0,L|477:97,3,43.75,4|0|2|0,0:0|0:0|0:0|0:0,0:0:0:0:
402,213,242632,5,8,0:3:0:0:
367,263,242715,1,0,0:0:0:0:
316,290,242798,1,2,0:0:0:0:
261,315,242882,1,0,0:0:0:0:
207,339,242965,2,0,L|182:293,3,43.75,4|0|2|0,0:0|0:0|0:0|0:0,0:0:0:0:
144,177,243298,2,0,L|169:132,3,43.75,8|0|2|0,0:3|0:0|0:0|0:0,0:0:0:0:
260,47,243632,5,4,0:0:0:0:
317,38,243715,1,0,0:0:0:0:
367,69,243798,1,2,0:0:0:0:
384,125,243882,1,0,0:0:0:0:
352,176,243965,1,8,0:3:0:0:
299,202,244048,1,0,0:0:0:0:
241,192,244131,1,2,0:0:0:0:
203,147,244215,1,0,0:0:0:0:
194,88,244298,1,4,0:0:0:0:
157,43,244381,1,0,0:0:0:0:
99,34,244464,1,2,0:0:0:0:
50,65,244548,1,0,0:0:0:0:
39,125,244632,2,0,L|47:187,3,43.75,8|0|2|0,0:3|0:0|0:0|0:0,0:0:0:0:
133,259,244965,6,0,P|177:295|188:333,1,87.5,4|0,0:0|0:0,0:0:0:0:
264,326,245215,2,0,P|308:290|319:252,1,87.5,4|0,0:0|0:0,0:0:0:0:
325,156,245465,2,0,L|373:166,1,43.75,2|0,0:0|0:0,0:0:0:0:
242,73,245632,2,0,L|194:63,3,43.75,4|0|2|0,0:0|0:0|0:0|0:0,0:0:0:0:
174,186,245965,2,0,L|222:195,3,43.75,8|0|2|0,0:3|0:0|0:0|0:0,0:0:0:0:
367,204,246298,5,4,0:0:0:0:
413,166,246381,1,0,0:0:0:0:
415,105,246464,1,2,0:0:0:0:
370,64,246548,1,0,0:0:0:0:
311,77,246632,1,8,0:3:0:0:
262,113,246715,1,0,0:0:0:0:
201,109,246798,1,2,0:0:0:0:
160,65,246882,1,0,0:0:0:0:
107,37,246965,1,4,0:0:0:0:
53,65,247048,1,0,0:0:0:0:
48,125,247132,1,2,0:0:0:0:
85,173,247215,1,0,0:0:0:0:
136,203,247298,1,8,0:3:0:0:
179,247,247381,1,0,0:0:0:0:
238,263,247465,1,2,0:0:0:0:
298,247,247548,1,0,0:0:0:0:
349,279,247632,5,4,0:0:0:0:
413,290,247715,1,0,0:0:0:0:
460,245,247798,1,2,0:0:0:0:
448,180,247882,1,0,0:0:0:0:
391,149,247965,1,8,0:3:0:0:
327,129,248048,1,0,0:0:0:0:
260,137,248131,1,2,0:0:0:0:
203,173,248215,1,0,0:0:0:0:
177,233,248298,1,4,0:0:0:0:
144,284,248381,1,0,0:0:0:0:
85,289,248464,1,2,0:0:0:0:
45,245,248548,1,0,0:0:0:0:
57,185,248632,1,8,0:3:0:0:
107,149,248715,1,0,0:0:0:0:
166,155,248798,1,2,0:0:0:0:
207,200,248882,1,0,0:0:0:0:
221,259,248965,5,4,0:0:0:0:
243,322,249048,1,0,0:0:0:0:
305,351,249131,1,2,0:0:0:0:
368,326,249215,1,0,0:0:0:0:
394,263,249298,1,8,0:3:0:0:
376,195,249382,1,0,0:0:0:0:
319,154,249465,1,2,0:0:0:0:
283,95,249548,1,0,0:0:0:0:
224,59,249632,1,4,0:0:0:0:
163,60,249715,1,0,0:0:0:0:
125,105,249798,1,2,0:0:0:0:
133,166,249882,1,0,0:0:0:0:
186,194,249965,1,8,0:3:0:0:
242,215,250048,1,0,0:0:0:0:
263,271,250131,1,2,0:0:0:0:
234,324,250215,1,0,0:0:0:0:
175,335,250298,5,4,0:0:0:0:
128,291,250382,1,0,0:0:0:0:
117,229,250465,1,2,0:0:0:0:
149,174,250548,1,0,0:0:0:0:
210,154,250632,1,8,0:3:0:0:
260,121,250715,1,0,0:0:0:0:
259,61,250798,1,2,0:0:0:0:
209,30,250882,1,0,0:0:0:0:
152,58,250965,5,6,0:0:0:0:
182,122,251048,1,6,0:0:0:0:
180,194,251131,1,6,0:0:0:0:
135,252,251215,1,6,0:0:0:0:
170,317,251298,1,6,0:0:0:0:
239,342,251381,1,6,0:0:0:0:
309,316,251465,1,6,0:0:0:0:
344,250,251548,1,6,0:0:0:0:
340,176,251632,2,0,B|317:137|356:72|356:72|262:50|262:50|211:91|157:79|133:66|133:66|55:118|99:196|64:227,1,525,4|0,0:2|0:0,0:0:0:0:
346,124,252965,2,0,B|369:174|335:215|335:215|385:258|298:310|221:299|221:299|190:364|109:329|81:296|81:296|59:241|74:212,1,525,4|0,0:2|0:0,0:0:0:0:
356,97,254298,1,4,0:2:0:0:
256,192,254382,12,0,255632,0:0:0:0:
