osu file format v14

[General]
AudioFilename: audio4.mp3
AudioLeadIn: 0
PreviewTime: -1
Countdown: 1
SampleSet: Normal
StackLeniency: 0.7
Mode: 3
LetterboxInBreaks: 0
SpecialStyle: 0
WidescreenStoryboard: 0

[Editor]
Bookmarks: 167760,189093,322427
DistanceSpacing: 0.5
BeatDivisor: 4
GridSize: 16
TimelineZoom: 1.8

[Metadata]
Title:The Last Winged Unicorn
TitleUnicode:The Last Winged Unicorn
Artist:Rhapsody Of Fire
ArtistUnicode:Rhapsody Of Fire
Creator:pikechu
Version:Victory 1.4x
Source:
Tags:
BeatmapID:1402417
BeatmapSetID:662307

[Difficulty]
HPDrainRate:8
CircleSize:4
OverallDifficulty:8
ApproachRate:5
SliderMultiplier:1.4
SliderTickRate:1

[Events]
//Background and Video events
0,0,"unicorn.jpg",0,0
//Break Periods
//Storyboard Layer 0 (Background)
//Storyboard Layer 1 (Fail)
//Storyboard Layer 2 (Pass)
//Storyboard Layer 3 (Foreground)
//Storyboard Sound Samples

[TimingPoints]
68,238.095238095238,4,1,1,30,1,0
7925,238.095238095238,4,1,1,30,1,0
26495,238.095238095238,4,1,1,30,1,0
58400,-100,4,1,1,30,0,1
72209,-100,4,1,1,30,0,0
187923,-100,4,1,1,30,0,1
215066,-100,4,1,1,30,0,0

[HitObjects]
64,192,68,5,0,0:0:0:0:
192,192,68,1,0,0:0:0:0:
320,192,68,1,0,0:0:0:0:
448,192,306,1,0,0:0:0:0:
64,192,306,1,0,0:0:0:0:
192,192,306,1,0,0:0:0:0:
320,192,425,1,0,0:0:0:0:
64,192,544,1,0,0:0:0:0:
192,192,663,1,0,0:0:0:0:
448,192,782,1,0,0:0:0:0:
320,192,901,1,0,0:0:0:0:
64,192,1020,1,0,0:0:0:0:
192,192,1139,1,0,0:0:0:0:
448,192,1258,1,0,0:0:0:0:
64,192,1258,1,0,0:0:0:0:
320,192,1377,1,0,0:0:0:0:
64,192,1496,1,0,0:0:0:0:
192,192,1615,1,0,0:0:0:0:
448,192,1735,1,0,0:0:0:0:
320,192,1853,1,0,0:0:0:0:
320,192,1972,1,0,0:0:0:0:
448,192,1972,1,0,0:0:0:0:
64,192,1972,1,0,0:0:0:0:
192,192,2092,1,0,0:0:0:0:
64,192,2210,1,0,0:0:0:0:
192,192,2210,1,0,0:0:0:0:
448,192,2210,1,0,0:0:0:0:
320,192,2330,1,0,0:0:0:0:
64,192,2449,1,0,0:0:0:0:
192,192,2567,1,0,0:0:0:0:
448,192,2687,1,0,0:0:0:0:
320,192,2806,1,0,0:0:0:0:
64,192,2925,1,0,0:0:0:0:
192,192,3044,1,0,0:0:0:0:
448,192,3163,1,0,0:0:0:0:
192,192,3163,1,0,0:0:0:0:
64,192,3163,1,0,0:0:0:0:
320,192,3282,1,0,0:0:0:0:
64,192,3401,1,0,0:0:0:0:
192,192,3520,1,0,0:0:0:0:
448,192,3639,1,0,0:0:0:0:
320,192,3758,1,0,0:0:0:0:
64,192,3877,1,0,0:0:0:0:
320,192,3877,1,0,0:0:0:0:
448,192,3877,1,0,0:0:0:0:
192,192,3996,1,0,0:0:0:0:
320,192,4115,1,0,0:0:0:0:
64,192,4115,1,0,0:0:0:0:
192,192,4115,1,0,0:0:0:0:
448,192,4235,1,0,0:0:0:0:
192,192,4353,1,0,0:0:0:0:
64,192,4472,1,0,0:0:0:0:
320,192,4592,1,0,0:0:0:0:
448,192,4710,1,0,0:0:0:0:
192,192,4830,1,0,0:0:0:0:
64,192,4949,1,0,0:0:0:0:
320,192,5067,1,0,0:0:0:0:
192,192,5067,1,0,0:0:0:0:
64,192,5067,1,0,0:0:0:0:
448,192,5187,1,0,0:0:0:0:
192,192,5306,1,0,0:0:0:0:
64,192,5425,1,0,0:0:0:0:
320,192,5544,1,0,0:0:0:0:
448,192,5663,1,0,0:0:0:0:
192,192,5782,1,0,0:0:0:0:
64,192,5901,1,0,0:0:0:0:
320,192,6020,1,0,0:0:0:0:
192,192,6020,1,0,0:0:0:0:
64,192,6020,1,0,0:0:0:0:
448,192,6139,1,0,0:0:0:0:
192,192,6258,1,0,0:0:0:0:
64,192,6377,1,0,0:0:0:0:
320,192,6496,1,0,0:0:0:0:
448,192,6615,1,0,0:0:0:0:
64,192,6615,1,0,0:0:0:0:
192,192,6735,1,0,0:0:0:0:
320,192,6735,1,0,0:0:0:0:
64,192,6853,1,0,0:0:0:0:
448,192,6853,1,0,0:0:0:0:
320,192,6972,1,0,0:0:0:0:
192,192,6972,1,0,0:0:0:0:
64,192,6972,1,0,0:0:0:0:
448,192,7092,1,0,0:0:0:0:
64,192,7210,1,0,0:0:0:0:
192,192,7330,1,0,0:0:0:0:
64,192,7449,1,0,0:0:0:0:
320,192,7449,1,0,0:0:0:0:
448,192,7508,1,0,0:0:0:0:
320,192,7567,1,0,0:0:0:0:
192,192,7567,1,0,0:0:0:0:
448,192,7627,1,0,0:0:0:0:
64,192,7687,1,0,0:0:0:0:
192,192,7687,1,0,0:0:0:0:
64,192,7806,1,0,0:0:0:0:
448,192,7806,1,0,0:0:0:0:
192,192,7865,1,0,0:0:0:0:
320,192,7925,1,0,0:0:0:0:
448,192,7925,1,0,0:0:0:0:
64,192,7925,1,0,0:0:0:0:
192,192,7984,1,0,0:0:0:0:
448,192,8043,1,0,0:0:0:0:
64,192,8043,1,0,0:0:0:0:
320,192,8103,1,0,0:0:0:0:
192,192,8162,1,0,0:0:0:0:
448,192,8162,1,0,0:0:0:0:
64,192,8162,1,0,0:0:0:0:
320,192,8222,1,0,0:0:0:0:
64,192,8282,1,0,0:0:0:0:
192,192,8282,1,0,0:0:0:0:
448,192,8341,1,0,0:0:0:0:
320,192,8400,1,0,0:0:0:0:
192,192,8400,1,0,0:0:0:0:
64,192,8400,1,0,0:0:0:0:
448,192,8460,1,0,0:0:0:0:
320,192,8520,1,0,0:0:0:0:
64,192,8520,1,0,0:0:0:0:
192,192,8579,1,0,0:0:0:0:
320,192,8638,1,0,0:0:0:0:
448,192,8638,1,0,0:0:0:0:
64,192,8638,1,0,0:0:0:0:
192,192,8698,1,0,0:0:0:0:
64,192,8757,1,0,0:0:0:0:
320,192,8757,1,0,0:0:0:0:
448,192,8817,1,0,0:0:0:0:
320,192,8877,1,0,0:0:0:0:
192,192,8877,1,0,0:0:0:0:
64,192,8877,1,0,0:0:0:0:
448,192,8936,1,0,0:0:0:0:
320,192,8995,1,0,0:0:0:0:
64,192,8995,1,0,0:0:0:0:
448,192,9055,1,0,0:0:0:0:
192,192,9115,1,0,0:0:0:0:
320,192,9115,1,0,0:0:0:0:
64,192,9115,1,0,0:0:0:0:
448,192,9174,1,0,0:0:0:0:
64,192,9234,1,0,0:0:0:0:
320,192,9234,1,0,0:0:0:0:
448,192,9293,1,0,0:0:0:0:
192,192,9352,1,0,0:0:0:0:
64,192,9352,1,0,0:0:0:0:
320,192,9352,1,0,0:0:0:0:
448,192,9412,1,0,0:0:0:0:
320,192,9472,1,0,0:0:0:0:
192,192,9472,1,0,0:0:0:0:
64,192,9531,1,0,0:0:0:0:
192,192,9591,1,0,0:0:0:0:
320,192,9591,1,0,0:0:0:0:
448,192,9591,1,0,0:0:0:0:
64,192,9650,1,0,0:0:0:0:
320,192,9710,1,0,0:0:0:0:
192,192,9710,1,0,0:0:0:0:
448,192,9770,1,0,0:0:0:0:
320,192,9829,1,0,0:0:0:0:
192,192,9829,1,0,0:0:0:0:
64,192,9829,1,0,0:0:0:0:
448,192,9888,1,0,0:0:0:0:
192,192,9948,1,0,0:0:0:0:
320,192,9948,1,0,0:0:0:0:
64,192,10007,1,0,0:0:0:0:
192,192,10067,1,0,0:0:0:0:
320,192,10067,1,0,0:0:0:0:
448,192,10067,1,0,0:0:0:0:
64,192,10127,1,0,0:0:0:0:
448,192,10186,1,0,0:0:0:0:
320,192,10186,1,0,0:0:0:0:
192,192,10245,1,0,0:0:0:0:
320,192,10305,1,0,0:0:0:0:
64,192,10305,1,0,0:0:0:0:
448,192,10305,1,0,0:0:0:0:
192,192,10365,1,0,0:0:0:0:
448,192,10424,1,0,0:0:0:0:
64,192,10424,1,0,0:0:0:0:
320,192,10484,1,0,0:0:0:0:
192,192,10543,1,0,0:0:0:0:
448,192,10543,1,0,0:0:0:0:
64,192,10543,1,0,0:0:0:0:
320,192,10602,1,0,0:0:0:0:
64,192,10662,1,0,0:0:0:0:
192,192,10662,1,0,0:0:0:0:
448,192,10722,1,0,0:0:0:0:
320,192,10781,1,0,0:0:0:0:
192,192,10781,1,0,0:0:0:0:
64,192,10781,1,0,0:0:0:0:
448,192,10841,1,0,0:0:0:0:
192,192,10900,1,0,0:0:0:0:
64,192,10900,1,0,0:0:0:0:
320,192,10960,1,0,0:0:0:0:
192,192,11020,1,0,0:0:0:0:
448,192,11020,1,0,0:0:0:0:
64,192,11020,1,0,0:0:0:0:
320,192,11079,1,0,0:0:0:0:
64,192,11138,1,0,0:0:0:0:
192,192,11138,1,0,0:0:0:0:
448,192,11198,1,0,0:0:0:0:
320,192,11257,1,0,0:0:0:0:
192,192,11257,1,0,0:0:0:0:
64,192,11257,1,0,0:0:0:0:
448,192,11317,1,0,0:0:0:0:
320,192,11377,1,0,0:0:0:0:
192,192,11377,1,0,0:0:0:0:
448,192,11436,1,0,0:0:0:0:
192,192,11495,1,0,0:0:0:0:
64,192,11495,1,0,0:0:0:0:
320,192,11495,1,0,0:0:0:0:
448,192,11555,1,0,0:0:0:0:
64,192,11615,1,0,0:0:0:0:
320,192,11615,1,0,0:0:0:0:
192,192,11674,1,0,0:0:0:0:
320,192,11734,1,0,0:0:0:0:
64,192,11734,1,0,0:0:0:0:
448,192,11734,1,0,0:0:0:0:
192,192,11793,1,0,0:0:0:0:
448,192,11852,1,0,0:0:0:0:
320,192,11852,1,0,0:0:0:0:
64,192,11912,1,0,0:0:0:0:
192,192,11972,1,0,0:0:0:0:
320,192,11972,1,0,0:0:0:0:
448,192,11972,1,0,0:0:0:0:
64,192,12031,1,0,0:0:0:0:
192,192,12091,1,0,0:0:0:0:
320,192,12091,1,0,0:0:0:0:
448,192,12150,1,0,0:0:0:0:
320,192,12210,1,0,0:0:0:0:
192,192,12210,1,0,0:0:0:0:
64,192,12210,1,0,0:0:0:0:
448,192,12270,1,0,0:0:0:0:
320,192,12329,1,0,0:0:0:0:
192,192,12329,1,0,0:0:0:0:
64,192,12388,1,0,0:0:0:0:
192,192,12448,1,0,0:0:0:0:
320,192,12448,1,0,0:0:0:0:
448,192,12448,1,0,0:0:0:0:
64,192,12507,1,0,0:0:0:0:
192,192,12567,1,0,0:0:0:0:
448,192,12567,1,0,0:0:0:0:
320,192,12627,1,0,0:0:0:0:
192,192,12686,1,0,0:0:0:0:
64,192,12686,1,0,0:0:0:0:
448,192,12686,1,0,0:0:0:0:
320,192,12745,1,0,0:0:0:0:
448,192,12805,1,0,0:0:0:0:
192,192,12805,1,0,0:0:0:0:
64,192,12865,1,0,0:0:0:0:
192,192,12924,1,0,0:0:0:0:
320,192,12924,1,0,0:0:0:0:
448,192,12924,1,0,0:0:0:0:
64,192,12984,1,0,0:0:0:0:
192,192,13043,1,0,0:0:0:0:
448,192,13043,1,0,0:0:0:0:
64,192,13102,1,0,0:0:0:0:
320,192,13162,1,0,0:0:0:0:
192,192,13162,1,0,0:0:0:0:
448,192,13162,1,0,0:0:0:0:
64,192,13222,1,0,0:0:0:0:
448,192,13281,1,0,0:0:0:0:
320,192,13281,1,0,0:0:0:0:
192,192,13341,1,0,0:0:0:0:
320,192,13400,1,0,0:0:0:0:
64,192,13400,1,0,0:0:0:0:
448,192,13400,1,0,0:0:0:0:
192,192,13460,1,0,0:0:0:0:
64,192,13520,1,0,0:0:0:0:
320,192,13520,1,0,0:0:0:0:
448,192,13579,1,0,0:0:0:0:
320,192,13638,1,0,0:0:0:0:
192,192,13638,1,0,0:0:0:0:
64,192,13638,1,0,0:0:0:0:
448,192,13698,1,0,0:0:0:0:
192,192,13757,1,0,0:0:0:0:
320,192,13757,1,0,0:0:0:0:
64,192,13817,1,0,0:0:0:0:
192,192,13877,1,0,0:0:0:0:
320,192,13877,1,0,0:0:0:0:
448,192,13877,1,0,0:0:0:0:
64,192,13936,1,0,0:0:0:0:
192,192,13995,1,0,0:0:0:0:
448,192,13995,1,0,0:0:0:0:
320,192,14055,1,0,0:0:0:0:
192,192,14115,1,0,0:0:0:0:
64,192,14115,1,0,0:0:0:0:
448,192,14115,1,0,0:0:0:0:
320,192,14174,1,0,0:0:0:0:
448,192,14234,1,0,0:0:0:0:
64,192,14234,1,0,0:0:0:0:
192,192,14293,1,0,0:0:0:0:
320,192,14352,1,0,0:0:0:0:
64,192,14352,1,0,0:0:0:0:
448,192,14352,1,0,0:0:0:0:
192,192,14412,1,0,0:0:0:0:
64,192,14472,1,0,0:0:0:0:
448,192,14472,1,0,0:0:0:0:
320,192,14531,1,0,0:0:0:0:
192,192,14591,1,0,0:0:0:0:
64,192,14591,1,0,0:0:0:0:
448,192,14591,1,0,0:0:0:0:
320,192,14650,1,0,0:0:0:0:
448,192,14710,1,0,0:0:0:0:
192,192,14710,1,0,0:0:0:0:
64,192,14770,1,0,0:0:0:0:
192,192,14829,1,0,0:0:0:0:
320,192,14829,1,0,0:0:0:0:
448,192,14829,1,0,0:0:0:0:
64,192,14888,1,0,0:0:0:0:
192,192,14948,1,0,0:0:0:0:
448,192,14948,1,0,0:0:0:0:
64,192,15007,1,0,0:0:0:0:
448,192,15067,1,0,0:0:0:0:
192,192,15067,1,0,0:0:0:0:
320,192,15127,1,0,0:0:0:0:
64,192,15127,1,0,0:0:0:0:
192,192,15186,1,0,0:0:0:0:
448,192,15186,1,0,0:0:0:0:
64,192,15245,1,0,0:0:0:0:
320,192,15245,1,0,0:0:0:0:
448,192,15305,1,0,0:0:0:0:
192,192,15305,1,0,0:0:0:0:
320,192,15365,1,0,0:0:0:0:
64,192,15365,1,0,0:0:0:0:
192,192,15424,1,0,0:0:0:0:
448,192,15424,1,0,0:0:0:0:
64,192,15484,1,0,0:0:0:0:
320,192,15484,1,0,0:0:0:0:
448,192,15543,128,0,15662:0:0:0:0:
192,192,15543,1,0,0:0:0:0:
64,192,15662,128,0,15781:0:0:0:0:
192,192,15781,128,0,15900:0:0:0:0:
448,192,15781,1,0,0:0:0:0:
320,192,15900,128,0,16020:0:0:0:0:
448,192,16020,128,0,16138:0:0:0:0:
64,192,16020,1,0,0:0:0:0:
64,192,16138,128,0,16257:0:0:0:0:
192,192,16257,128,0,16377:0:0:0:0:
320,192,16257,1,0,0:0:0:0:
320,192,16377,128,0,16495:0:0:0:0:
448,192,16495,128,0,16615:0:0:0:0:
64,192,16495,1,0,0:0:0:0:
64,192,16615,128,0,16734:0:0:0:0:
320,192,16734,128,0,16852:0:0:0:0:
192,192,16734,1,0,0:0:0:0:
64,192,16852,128,0,16972:0:0:0:0:
448,192,16972,1,0,0:0:0:0:
320,192,16972,128,0,17031:0:0:0:0:
320,192,17091,128,0,17150:0:0:0:0:
64,192,17210,128,0,17329:0:0:0:0:
192,192,17210,1,0,0:0:0:0:
192,192,17329,128,0,17448:0:0:0:0:
448,192,17448,128,0,17567:0:0:0:0:
320,192,17448,1,0,0:0:0:0:
320,192,17567,128,0,17686:0:0:0:0:
192,192,17686,128,0,17805:0:0:0:0:
64,192,17686,1,0,0:0:0:0:
64,192,17805,128,0,17924:0:0:0:0:
192,192,17924,128,0,18043:0:0:0:0:
448,192,17924,1,0,0:0:0:0:
320,192,18043,128,0,18162:0:0:0:0:
448,192,18162,128,0,18281:0:0:0:0:
64,192,18162,1,0,0:0:0:0:
320,192,18281,128,0,18400:0:0:0:0:
64,192,18400,128,0,18520:0:0:0:0:
192,192,18400,1,0,0:0:0:0:
192,192,18520,128,0,18638:0:0:0:0:
320,192,18638,128,0,18757:0:0:0:0:
448,192,18638,1,0,0:0:0:0:
448,192,18757,128,0,18877:0:0:0:0:
320,192,18877,128,0,18995:0:0:0:0:
64,192,18877,1,0,0:0:0:0:
448,192,18995,128,0,19115:0:0:0:0:
192,192,19115,128,0,19234:0:0:0:0:
320,192,19115,1,0,0:0:0:0:
448,192,19234,128,0,19352:0:0:0:0:
320,192,19352,128,0,19472:0:0:0:0:
64,192,19352,1,0,0:0:0:0:
448,192,19472,128,0,19591:0:0:0:0:
192,192,19591,128,0,19710:0:0:0:0:
320,192,19591,1,0,0:0:0:0:
448,192,19710,128,0,19829:0:0:0:0:
64,192,19829,128,0,19948:0:0:0:0:
320,192,19829,1,0,0:0:0:0:
448,192,19948,128,0,20067:0:0:0:0:
192,192,20067,128,0,20186:0:0:0:0:
64,192,20067,1,0,0:0:0:0:
448,192,20186,128,0,20305:0:0:0:0:
320,192,20305,1,0,0:0:0:0:
64,192,20305,1,0,0:0:0:0:
320,192,20424,1,0,0:0:0:0:
64,192,20543,128,0,20662:0:0:0:0:
448,192,20543,1,0,0:0:0:0:
192,192,20662,128,0,20781:0:0:0:0:
448,192,20781,128,0,20900:0:0:0:0:
64,192,20781,1,0,0:0:0:0:
320,192,20900,128,0,21020:0:0:0:0:
192,192,21020,128,0,21138:0:0:0:0:
448,192,21020,1,0,0:0:0:0:
64,192,21138,128,0,21257:0:0:0:0:
192,192,21257,128,0,21377:0:0:0:0:
448,192,21257,1,0,0:0:0:0:
320,192,21377,128,0,21495:0:0:0:0:
448,192,21495,128,0,21615:0:0:0:0:
64,192,21495,1,0,0:0:0:0:
320,192,21615,128,0,21734:0:0:0:0:
448,192,21734,128,0,21852:0:0:0:0:
192,192,21734,1,0,0:0:0:0:
320,192,21852,128,0,21972:0:0:0:0:
192,192,21972,128,0,22091:0:0:0:0:
448,192,21972,1,0,0:0:0:0:
64,192,22091,128,0,22210:0:0:0:0:
192,192,22210,128,0,22329:0:0:0:0:
448,192,22210,1,0,0:0:0:0:
320,192,22329,128,0,22448:0:0:0:0:
448,192,22448,128,0,22567:0:0:0:0:
64,192,22448,1,0,0:0:0:0:
320,192,22567,128,0,22686:0:0:0:0:
64,192,22686,128,0,22805:0:0:0:0:
192,192,22686,1,0,0:0:0:0:
192,192,22805,128,0,22924:0:0:0:0:
448,192,22924,128,0,23043:0:0:0:0:
320,192,22924,1,0,0:0:0:0:
320,192,23043,128,0,23162:0:0:0:0:
64,192,23162,128,0,23281:0:0:0:0:
192,192,23162,1,0,0:0:0:0:
320,192,23281,128,0,23400:0:0:0:0:
448,192,23400,128,0,23520:0:0:0:0:
64,192,23400,1,0,0:0:0:0:
192,192,23520,128,0,23638:0:0:0:0:
64,192,23638,128,0,23757:0:0:0:0:
320,192,23638,1,0,0:0:0:0:
448,192,23757,128,0,23877:0:0:0:0:
192,192,23877,128,0,23995:0:0:0:0:
64,192,23877,1,0,0:0:0:0:
320,192,23995,128,0,24115:0:0:0:0:
64,192,24115,128,0,24591:0:0:0:0:
448,192,24115,1,0,0:0:0:0:
448,192,24591,1,0,0:0:0:0:
320,192,24591,1,0,0:0:0:0:
192,192,24650,1,0,0:0:0:0:
448,192,24710,1,0,0:0:0:0:
192,192,24770,1,0,0:0:0:0:
64,192,24829,1,0,0:0:0:0:
448,192,24829,1,0,0:0:0:0:
320,192,24888,1,0,0:0:0:0:
64,192,24948,1,0,0:0:0:0:
192,192,25007,1,0,0:0:0:0:
64,192,25067,1,0,0:0:0:0:
448,192,25067,1,0,0:0:0:0:
320,192,25127,1,0,0:0:0:0:
64,192,25186,1,0,0:0:0:0:
448,192,25245,1,0,0:0:0:0:
192,192,25305,1,0,0:0:0:0:
64,192,25305,1,0,0:0:0:0:
448,192,25365,1,0,0:0:0:0:
320,192,25424,1,0,0:0:0:0:
64,192,25484,1,0,0:0:0:0:
320,192,25543,1,0,0:0:0:0:
448,192,25543,1,0,0:0:0:0:
192,192,25543,128,0,26020:0:0:0:0:
320,192,26020,1,0,0:0:0:0:
448,192,26020,1,0,0:0:0:0:
64,192,26079,1,0,0:0:0:0:
192,192,26079,1,0,0:0:0:0:
320,192,26138,1,0,0:0:0:0:
448,192,26138,1,0,0:0:0:0:
64,192,26198,1,0,0:0:0:0:
192,192,26198,1,0,0:0:0:0:
320,192,26257,1,0,0:0:0:0:
448,192,26257,1,0,0:0:0:0:
64,192,26317,1,0,0:0:0:0:
192,192,26317,1,0,0:0:0:0:
320,192,26377,1,0,0:0:0:0:
448,192,26377,1,0,0:0:0:0:
192,192,26436,1,0,0:0:0:0:
64,192,26436,1,0,0:0:0:0:
448,192,26495,1,0,0:0:0:0:
320,192,26495,1,0,0:0:0:0:
192,192,26495,1,0,0:0:0:0:
64,192,26555,1,0,0:0:0:0:
448,192,26614,1,0,0:0:0:0:
320,192,26674,1,0,0:0:0:0:
64,192,26733,1,0,0:0:0:0:
192,192,26733,1,0,0:0:0:0:
448,192,26733,1,0,0:0:0:0:
320,192,26792,1,0,0:0:0:0:
192,192,26852,1,0,0:0:0:0:
64,192,26912,1,0,0:0:0:0:
320,192,26971,1,0,0:0:0:0:
448,192,26971,1,0,0:0:0:0:
192,192,26971,1,0,0:0:0:0:
64,192,27031,1,0,0:0:0:0:
448,192,27090,1,0,0:0:0:0:
320,192,27150,1,0,0:0:0:0:
64,192,27210,1,0,0:0:0:0:
192,192,27210,1,0,0:0:0:0:
448,192,27210,1,0,0:0:0:0:
320,192,27269,1,0,0:0:0:0:
448,192,27328,1,0,0:0:0:0:
320,192,27388,1,0,0:0:0:0:
448,192,27447,1,0,0:0:0:0:
192,192,27447,1,0,0:0:0:0:
64,192,27447,1,0,0:0:0:0:
320,192,27507,1,0,0:0:0:0:
64,192,27567,1,0,0:0:0:0:
448,192,27626,1,0,0:0:0:0:
64,192,27685,1,0,0:0:0:0:
192,192,27685,1,0,0:0:0:0:
320,192,27685,1,0,0:0:0:0:
448,192,27745,1,0,0:0:0:0:
192,192,27805,1,0,0:0:0:0:
320,192,27864,1,0,0:0:0:0:
448,192,27924,1,0,0:0:0:0:
192,192,27924,1,0,0:0:0:0:
64,192,27924,1,0,0:0:0:0:
320,192,27983,1,0,0:0:0:0:
64,192,28042,1,0,0:0:0:0:
192,192,28102,1,0,0:0:0:0:
64,192,28162,1,0,0:0:0:0:
320,192,28162,1,0,0:0:0:0:
448,192,28162,1,0,0:0:0:0:
192,192,28221,1,0,0:0:0:0:
448,192,28281,1,0,0:0:0:0:
320,192,28340,1,0,0:0:0:0:
448,192,28400,1,0,0:0:0:0:
192,192,28400,1,0,0:0:0:0:
64,192,28400,1,0,0:0:0:0:
320,192,28460,1,0,0:0:0:0:
192,192,28519,1,0,0:0:0:0:
320,192,28578,1,0,0:0:0:0:
64,192,28638,1,0,0:0:0:0:
192,192,28638,1,0,0:0:0:0:
448,192,28638,1,0,0:0:0:0:
320,192,28697,1,0,0:0:0:0:
192,192,28757,1,0,0:0:0:0:
64,192,28817,1,0,0:0:0:0:
320,192,28876,1,0,0:0:0:0:
448,192,28876,1,0,0:0:0:0:
192,192,28876,1,0,0:0:0:0:
64,192,28935,1,0,0:0:0:0:
448,192,28995,1,0,0:0:0:0:
320,192,29055,1,0,0:0:0:0:
64,192,29114,1,0,0:0:0:0:
192,192,29114,1,0,0:0:0:0:
448,192,29114,1,0,0:0:0:0:
320,192,29173,1,0,0:0:0:0:
192,192,29233,1,0,0:0:0:0:
64,192,29292,1,0,0:0:0:0:
320,192,29352,1,0,0:0:0:0:
448,192,29352,1,0,0:0:0:0:
192,192,29352,1,0,0:0:0:0:
64,192,29412,1,0,0:0:0:0:
448,192,29471,1,0,0:0:0:0:
192,192,29530,1,0,0:0:0:0:
64,192,29590,1,0,0:0:0:0:
320,192,29590,1,0,0:0:0:0:
448,192,29590,1,0,0:0:0:0:
192,192,29650,1,0,0:0:0:0:
64,192,29709,1,0,0:0:0:0:
192,192,29769,1,0,0:0:0:0:
320,192,29828,1,0,0:0:0:0:
448,192,29828,1,0,0:0:0:0:
64,192,29828,1,0,0:0:0:0:
192,192,29887,1,0,0:0:0:0:
320,192,29947,1,0,0:0:0:0:
448,192,30007,1,0,0:0:0:0:
64,192,30066,1,0,0:0:0:0:
192,192,30066,1,0,0:0:0:0:
320,192,30066,1,0,0:0:0:0:
448,192,30126,1,0,0:0:0:0:
320,192,30185,1,0,0:0:0:0:
64,192,30245,1,0,0:0:0:0:
320,192,30305,1,0,0:0:0:0:
448,192,30305,1,0,0:0:0:0:
192,192,30305,1,0,0:0:0:0:
64,192,30364,1,0,0:0:0:0:
448,192,30423,1,0,0:0:0:0:
320,192,30483,1,0,0:0:0:0:
64,192,30542,1,0,0:0:0:0:
192,192,30542,1,0,0:0:0:0:
448,192,30542,1,0,0:0:0:0:
320,192,30602,1,0,0:0:0:0:
192,192,30662,1,0,0:0:0:0:
64,192,30721,1,0,0:0:0:0:
320,192,30780,1,0,0:0:0:0:
448,192,30780,1,0,0:0:0:0:
192,192,30780,1,0,0:0:0:0:
64,192,30840,1,0,0:0:0:0:
448,192,30900,1,0,0:0:0:0:
320,192,30959,1,0,0:0:0:0:
64,192,31019,1,0,0:0:0:0:
192,192,31019,1,0,0:0:0:0:
448,192,31019,1,0,0:0:0:0:
320,192,31078,1,0,0:0:0:0:
64,192,31137,1,0,0:0:0:0:
192,192,31197,1,0,0:0:0:0:
320,192,31257,1,0,0:0:0:0:
448,192,31257,1,0,0:0:0:0:
64,192,31257,1,0,0:0:0:0:
192,192,31316,1,0,0:0:0:0:
320,192,31376,1,0,0:0:0:0:
448,192,31435,1,0,0:0:0:0:
64,192,31495,1,0,0:0:0:0:
192,192,31495,1,0,0:0:0:0:
320,192,31495,1,0,0:0:0:0:
448,192,31555,1,0,0:0:0:0:
192,192,31614,1,0,0:0:0:0:
64,192,31673,1,0,0:0:0:0:
320,192,31733,1,0,0:0:0:0:
448,192,31733,1,0,0:0:0:0:
192,192,31733,1,0,0:0:0:0:
64,192,31792,1,0,0:0:0:0:
448,192,31852,1,0,0:0:0:0:
192,192,31912,1,0,0:0:0:0:
64,192,31971,1,0,0:0:0:0:
320,192,31971,1,0,0:0:0:0:
448,192,31971,1,0,0:0:0:0:
192,192,32030,1,0,0:0:0:0:
64,192,32090,1,0,0:0:0:0:
192,192,32150,1,0,0:0:0:0:
448,192,32209,1,0,0:0:0:0:
64,192,32209,1,0,0:0:0:0:
320,192,32209,1,0,0:0:0:0:
192,192,32269,1,0,0:0:0:0:
448,192,32328,1,0,0:0:0:0:
320,192,32387,1,0,0:0:0:0:
64,192,32447,1,0,0:0:0:0:
192,192,32447,1,0,0:0:0:0:
448,192,32447,1,0,0:0:0:0:
320,192,32507,1,0,0:0:0:0:
64,192,32566,1,0,0:0:0:0:
448,192,32626,1,0,0:0:0:0:
320,192,32685,1,0,0:0:0:0:
192,192,32685,1,0,0:0:0:0:
64,192,32685,1,0,0:0:0:0:
448,192,32745,1,0,0:0:0:0:
192,192,32805,1,0,0:0:0:0:
320,192,32864,1,0,0:0:0:0:
64,192,32923,1,0,0:0:0:0:
192,192,32923,1,0,0:0:0:0:
448,192,32923,1,0,0:0:0:0:
320,192,32983,1,0,0:0:0:0:
64,192,33042,1,0,0:0:0:0:
192,192,33102,1,0,0:0:0:0:
320,192,33162,1,0,0:0:0:0:
448,192,33162,1,0,0:0:0:0:
64,192,33162,1,0,0:0:0:0:
192,192,33221,1,0,0:0:0:0:
448,192,33280,1,0,0:0:0:0:
320,192,33340,1,0,0:0:0:0:
64,192,33400,1,0,0:0:0:0:
192,192,33400,1,0,0:0:0:0:
448,192,33400,1,0,0:0:0:0:
320,192,33459,1,0,0:0:0:0:
192,192,33519,1,0,0:0:0:0:
64,192,33578,1,0,0:0:0:0:
320,192,33637,1,0,0:0:0:0:
448,192,33637,1,0,0:0:0:0:
64,192,33697,1,0,0:0:0:0:
192,192,33697,1,0,0:0:0:0:
448,192,33757,1,0,0:0:0:0:
320,192,33757,1,0,0:0:0:0:
64,192,33816,1,0,0:0:0:0:
192,192,33816,1,0,0:0:0:0:
320,192,33876,1,0,0:0:0:0:
448,192,33876,1,0,0:0:0:0:
64,192,33935,1,0,0:0:0:0:
192,192,33935,1,0,0:0:0:0:
320,192,33995,1,0,0:0:0:0:
448,192,33995,1,0,0:0:0:0:
192,192,34055,1,0,0:0:0:0:
64,192,34055,1,0,0:0:0:0:
320,192,34114,1,0,0:0:0:0:
448,192,34114,1,0,0:0:0:0:
64,192,34352,1,0,0:0:0:0:
192,192,34352,1,0,0:0:0:0:
320,192,34590,1,0,0:0:0:0:
448,192,34590,1,0,0:0:0:0:
320,192,34709,1,0,0:0:0:0:
448,192,34709,1,0,0:0:0:0:
64,192,34828,1,0,0:0:0:0:
192,192,34828,1,0,0:0:0:0:
320,192,35066,1,0,0:0:0:0:
448,192,35066,1,0,0:0:0:0:
64,192,35305,1,0,0:0:0:0:
192,192,35305,1,0,0:0:0:0:
320,192,35542,1,0,0:0:0:0:
448,192,35542,1,0,0:0:0:0:
320,192,35662,1,0,0:0:0:0:
448,192,35662,1,0,0:0:0:0:
64,192,35780,1,0,0:0:0:0:
192,192,35780,1,0,0:0:0:0:
320,192,36019,1,0,0:0:0:0:
448,192,36019,1,0,0:0:0:0:
64,192,36257,1,0,0:0:0:0:
192,192,36257,1,0,0:0:0:0:
320,192,36495,1,0,0:0:0:0:
448,192,36495,1,0,0:0:0:0:
320,192,36614,1,0,0:0:0:0:
448,192,36614,1,0,0:0:0:0:
64,192,36733,1,0,0:0:0:0:
192,192,36733,1,0,0:0:0:0:
320,192,36971,1,0,0:0:0:0:
448,192,36971,1,0,0:0:0:0:
64,192,37209,1,0,0:0:0:0:
192,192,37209,1,0,0:0:0:0:
320,192,37447,1,0,0:0:0:0:
448,192,37447,1,0,0:0:0:0:
320,192,37566,1,0,0:0:0:0:
448,192,37566,1,0,0:0:0:0:
64,192,37685,1,0,0:0:0:0:
192,192,37685,1,0,0:0:0:0:
64,192,37923,1,0,0:0:0:0:
192,192,37923,1,0,0:0:0:0:
320,192,38162,1,0,0:0:0:0:
448,192,38162,1,0,0:0:0:0:
64,192,38400,1,0,0:0:0:0:
192,192,38400,1,0,0:0:0:0:
64,192,38519,1,0,0:0:0:0:
192,192,38519,1,0,0:0:0:0:
320,192,38637,1,0,0:0:0:0:
448,192,38637,1,0,0:0:0:0:
192,192,38876,1,0,0:0:0:0:
64,192,38876,1,0,0:0:0:0:
320,192,39114,1,0,0:0:0:0:
448,192,39114,1,0,0:0:0:0:
64,192,39352,1,0,0:0:0:0:
192,192,39352,1,0,0:0:0:0:
64,192,39471,1,0,0:0:0:0:
192,192,39471,1,0,0:0:0:0:
320,192,39590,1,0,0:0:0:0:
448,192,39590,1,0,0:0:0:0:
64,192,39828,1,0,0:0:0:0:
192,192,39828,1,0,0:0:0:0:
320,192,40066,1,0,0:0:0:0:
448,192,40066,1,0,0:0:0:0:
64,192,40305,1,0,0:0:0:0:
192,192,40305,1,0,0:0:0:0:
64,192,40423,1,0,0:0:0:0:
192,192,40423,1,0,0:0:0:0:
320,192,40542,1,0,0:0:0:0:
448,192,40542,1,0,0:0:0:0:
64,192,40780,1,0,0:0:0:0:
192,192,40780,1,0,0:0:0:0:
320,192,41019,1,0,0:0:0:0:
448,192,41019,1,0,0:0:0:0:
64,192,41257,1,0,0:0:0:0:
192,192,41257,1,0,0:0:0:0:
64,192,41376,1,0,0:0:0:0:
192,192,41376,1,0,0:0:0:0:
320,192,41495,1,0,0:0:0:0:
448,192,41495,1,0,0:0:0:0:
64,192,41733,1,0,0:0:0:0:
192,192,41733,1,0,0:0:0:0:
448,192,41733,1,0,0:0:0:0:
320,192,41772,1,0,0:0:0:0:
64,192,41812,1,0,0:0:0:0:
192,192,41852,1,0,0:0:0:0:
448,192,41892,1,0,0:0:0:0:
320,192,41932,1,0,0:0:0:0:
192,192,41971,1,0,0:0:0:0:
64,192,42011,1,0,0:0:0:0:
448,192,42011,1,0,0:0:0:0:
320,192,42050,1,0,0:0:0:0:
64,192,42090,1,0,0:0:0:0:
192,192,42130,1,0,0:0:0:0:
320,192,42170,1,0,0:0:0:0:
448,192,42209,1,0,0:0:0:0:
64,192,42249,1,0,0:0:0:0:
192,192,42289,1,0,0:0:0:0:
448,192,42328,1,0,0:0:0:0:
320,192,42368,1,0,0:0:0:0:
192,192,42407,1,0,0:0:0:0:
448,192,42447,1,0,0:0:0:0:
320,192,42487,1,0,0:0:0:0:
192,192,42527,1,0,0:0:0:0:
64,192,42566,1,0,0:0:0:0:
448,192,42606,1,0,0:0:0:0:
320,192,42646,1,0,0:0:0:0:
64,192,42685,1,0,0:0:0:0:
192,192,42685,1,0,0:0:0:0:
448,192,42745,1,0,0:0:0:0:
64,192,42805,1,0,0:0:0:0:
192,192,42864,1,0,0:0:0:0:
448,192,42923,1,0,0:0:0:0:
320,192,42923,1,0,0:0:0:0:
64,192,42923,1,0,0:0:0:0:
192,192,42983,1,0,0:0:0:0:
320,192,43042,1,0,0:0:0:0:
448,192,43102,1,0,0:0:0:0:
192,192,43162,1,0,0:0:0:0:
64,192,43162,1,0,0:0:0:0:
320,192,43162,1,0,0:0:0:0:
448,192,43221,1,0,0:0:0:0:
64,192,43280,1,0,0:0:0:0:
192,192,43340,1,0,0:0:0:0:
448,192,43400,1,0,0:0:0:0:
320,192,43400,1,0,0:0:0:0:
64,192,43400,1,0,0:0:0:0:
192,192,43459,1,0,0:0:0:0:
64,192,43519,1,0,0:0:0:0:
192,192,43578,1,0,0:0:0:0:
64,192,43637,1,0,0:0:0:0:
320,192,43637,1,0,0:0:0:0:
448,192,43637,1,0,0:0:0:0:
192,192,43697,1,0,0:0:0:0:
448,192,43757,1,0,0:0:0:0:
64,192,43816,1,0,0:0:0:0:
448,192,43876,1,0,0:0:0:0:
320,192,43876,1,0,0:0:0:0:
192,192,43876,1,0,0:0:0:0:
64,192,43935,1,0,0:0:0:0:
320,192,43995,1,0,0:0:0:0:
192,192,44055,1,0,0:0:0:0:
64,192,44114,1,0,0:0:0:0:
320,192,44114,1,0,0:0:0:0:
448,192,44114,1,0,0:0:0:0:
192,192,44173,1,0,0:0:0:0:
448,192,44233,1,0,0:0:0:0:
320,192,44292,1,0,0:0:0:0:
448,192,44352,1,0,0:0:0:0:
192,192,44352,1,0,0:0:0:0:
64,192,44352,1,0,0:0:0:0:
320,192,44412,1,0,0:0:0:0:
64,192,44471,1,0,0:0:0:0:
192,192,44530,1,0,0:0:0:0:
64,192,44590,1,0,0:0:0:0:
320,192,44590,1,0,0:0:0:0:
448,192,44590,1,0,0:0:0:0:
192,192,44650,1,0,0:0:0:0:
320,192,44709,1,0,0:0:0:0:
192,192,44769,1,0,0:0:0:0:
448,192,44828,1,0,0:0:0:0:
320,192,44828,1,0,0:0:0:0:
64,192,44828,1,0,0:0:0:0:
192,192,44887,1,0,0:0:0:0:
320,192,44947,1,0,0:0:0:0:
448,192,45007,1,0,0:0:0:0:
192,192,45066,1,0,0:0:0:0:
64,192,45066,1,0,0:0:0:0:
320,192,45066,1,0,0:0:0:0:
448,192,45126,1,0,0:0:0:0:
64,192,45185,1,0,0:0:0:0:
192,192,45245,1,0,0:0:0:0:
448,192,45305,1,0,0:0:0:0:
320,192,45305,1,0,0:0:0:0:
64,192,45305,1,0,0:0:0:0:
192,192,45364,1,0,0:0:0:0:
320,192,45423,1,0,0:0:0:0:
448,192,45483,1,0,0:0:0:0:
192,192,45542,1,0,0:0:0:0:
64,192,45542,1,0,0:0:0:0:
320,192,45542,1,0,0:0:0:0:
448,192,45602,1,0,0:0:0:0:
64,192,45662,1,0,0:0:0:0:
320,192,45721,1,0,0:0:0:0:
448,192,45780,1,0,0:0:0:0:
192,192,45780,1,0,0:0:0:0:
64,192,45780,1,0,0:0:0:0:
320,192,45840,1,0,0:0:0:0:
448,192,45900,1,0,0:0:0:0:
320,192,45959,1,0,0:0:0:0:
192,192,46019,1,0,0:0:0:0:
64,192,46019,1,0,0:0:0:0:
448,192,46019,1,0,0:0:0:0:
320,192,46078,1,0,0:0:0:0:
192,192,46137,1,0,0:0:0:0:
64,192,46197,1,0,0:0:0:0:
448,192,46257,1,0,0:0:0:0:
320,192,46257,1,0,0:0:0:0:
192,192,46257,1,0,0:0:0:0:
64,192,46316,1,0,0:0:0:0:
192,192,46376,1,0,0:0:0:0:
448,192,46435,1,0,0:0:0:0:
192,192,46495,1,0,0:0:0:0:
64,192,46495,1,0,0:0:0:0:
320,192,46495,1,0,0:0:0:0:
448,192,46555,1,0,0:0:0:0:
64,192,46614,1,0,0:0:0:0:
192,192,46673,1,0,0:0:0:0:
448,192,46733,1,0,0:0:0:0:
320,192,46733,1,0,0:0:0:0:
64,192,46733,1,0,0:0:0:0:
192,192,46792,1,0,0:0:0:0:
320,192,46852,1,0,0:0:0:0:
448,192,46912,1,0,0:0:0:0:
192,192,46971,1,0,0:0:0:0:
64,192,46971,1,0,0:0:0:0:
320,192,46971,1,0,0:0:0:0:
448,192,47030,1,0,0:0:0:0:
64,192,47090,1,0,0:0:0:0:
192,192,47150,1,0,0:0:0:0:
448,192,47209,1,0,0:0:0:0:
320,192,47209,1,0,0:0:0:0:
64,192,47209,1,0,0:0:0:0:
192,192,47269,1,0,0:0:0:0:
448,192,47328,1,0,0:0:0:0:
320,192,47387,1,0,0:0:0:0:
192,192,47447,1,0,0:0:0:0:
64,192,47447,1,0,0:0:0:0:
448,192,47447,1,0,0:0:0:0:
320,192,47507,1,0,0:0:0:0:
192,192,47566,1,0,0:0:0:0:
64,192,47626,1,0,0:0:0:0:
448,192,47685,1,0,0:0:0:0:
320,192,47685,1,0,0:0:0:0:
192,192,47685,1,0,0:0:0:0:
64,192,47745,1,0,0:0:0:0:
320,192,47805,1,0,0:0:0:0:
448,192,47864,1,0,0:0:0:0:
192,192,47923,1,0,0:0:0:0:
64,192,47923,1,0,0:0:0:0:
320,192,47923,1,0,0:0:0:0:
448,192,47983,1,0,0:0:0:0:
64,192,48042,1,0,0:0:0:0:
320,192,48102,1,0,0:0:0:0:
448,192,48162,1,0,0:0:0:0:
192,192,48162,1,0,0:0:0:0:
64,192,48162,1,0,0:0:0:0:
320,192,48221,1,0,0:0:0:0:
448,192,48280,1,0,0:0:0:0:
320,192,48340,1,0,0:0:0:0:
64,192,48400,1,0,0:0:0:0:
448,192,48400,1,0,0:0:0:0:
192,192,48400,1,0,0:0:0:0:
320,192,48459,1,0,0:0:0:0:
64,192,48519,1,0,0:0:0:0:
192,192,48578,1,0,0:0:0:0:
448,192,48637,1,0,0:0:0:0:
320,192,48637,1,0,0:0:0:0:
64,192,48637,1,0,0:0:0:0:
192,192,48697,1,0,0:0:0:0:
448,192,48757,1,0,0:0:0:0:
64,192,48816,1,0,0:0:0:0:
192,192,48876,1,0,0:0:0:0:
320,192,48876,1,0,0:0:0:0:
448,192,48876,1,0,0:0:0:0:
64,192,48935,1,0,0:0:0:0:
320,192,48995,1,0,0:0:0:0:
192,192,49055,1,0,0:0:0:0:
448,192,49114,1,0,0:0:0:0:
320,192,49114,1,0,0:0:0:0:
64,192,49114,1,0,0:0:0:0:
192,192,49173,1,0,0:0:0:0:
448,192,49233,1,0,0:0:0:0:
320,192,49292,1,0,0:0:0:0:
192,192,49352,1,0,0:0:0:0:
64,192,49352,1,0,0:0:0:0:
448,192,49352,1,0,0:0:0:0:
320,192,49412,1,0,0:0:0:0:
64,192,49471,1,0,0:0:0:0:
192,192,49530,1,0,0:0:0:0:
448,192,49590,1,0,0:0:0:0:
320,192,49590,1,0,0:0:0:0:
64,192,49590,1,0,0:0:0:0:
192,192,49650,1,0,0:0:0:0:
320,192,49709,1,0,0:0:0:0:
448,192,49769,1,0,0:0:0:0:
64,192,49828,1,0,0:0:0:0:
192,192,49828,1,0,0:0:0:0:
320,192,49887,1,0,0:0:0:0:
448,192,49887,1,0,0:0:0:0:
64,192,49947,1,0,0:0:0:0:
192,192,49947,1,0,0:0:0:0:
320,192,50007,1,0,0:0:0:0:
448,192,50007,1,0,0:0:0:0:
64,192,50066,1,0,0:0:0:0:
192,192,50066,1,0,0:0:0:0:
320,192,50126,1,0,0:0:0:0:
448,192,50126,1,0,0:0:0:0:
192,192,50185,1,0,0:0:0:0:
64,192,50185,1,0,0:0:0:0:
448,192,50245,1,0,0:0:0:0:
320,192,50245,1,0,0:0:0:0:
64,192,50305,128,0,50780:0:0:0:0:
192,192,50305,1,0,0:0:0:0:
448,192,50542,1,0,0:0:0:0:
320,192,50780,128,0,51019:0:0:0:0:
192,192,50780,1,0,0:0:0:0:
192,192,50900,1,0,0:0:0:0:
448,192,51019,128,0,51257:0:0:0:0:
64,192,51019,1,0,0:0:0:0:
192,192,51257,128,0,51733:0:0:0:0:
64,192,51257,1,0,0:0:0:0:
448,192,51495,1,0,0:0:0:0:
64,192,51733,128,0,51971:0:0:0:0:
448,192,51733,1,0,0:0:0:0:
448,192,51852,1,0,0:0:0:0:
192,192,51971,1,0,0:0:0:0:
448,192,52209,128,0,52387:0:0:0:0:
192,192,52209,1,0,0:0:0:0:
320,192,52387,128,0,52566:0:0:0:0:
64,192,52447,1,0,0:0:0:0:
64,192,52566,128,0,52685:0:0:0:0:
448,192,52685,128,0,52864:0:0:0:0:
320,192,52685,1,0,0:0:0:0:
192,192,52805,1,0,0:0:0:0:
320,192,52864,128,0,53042:0:0:0:0:
64,192,52923,1,0,0:0:0:0:
64,192,53042,128,0,53162:0:0:0:0:
448,192,53162,128,0,53637:0:0:0:0:
192,192,53162,1,0,0:0:0:0:
320,192,53400,1,0,0:0:0:0:
64,192,53637,1,0,0:0:0:0:
64,192,53757,1,0,0:0:0:0:
448,192,53876,1,0,0:0:0:0:
64,192,53995,128,0,54114:0:0:0:0:
448,192,54114,128,0,54292:0:0:0:0:
192,192,54114,1,0,0:0:0:0:
192,192,54292,128,0,54471:0:0:0:0:
320,192,54352,1,0,0:0:0:0:
448,192,54471,128,0,54590:0:0:0:0:
320,192,54590,128,0,54828:0:0:0:0:
64,192,54590,1,0,0:0:0:0:
64,192,54709,1,0,0:0:0:0:
64,192,54828,128,0,55007:0:0:0:0:
192,192,54828,1,0,0:0:0:0:
448,192,55007,128,0,55305:0:0:0:0:
192,192,55066,1,0,0:0:0:0:
192,192,55305,128,0,55662:0:0:0:0:
320,192,55305,1,0,0:0:0:0:
320,192,55542,1,0,0:0:0:0:
320,192,55662,1,0,0:0:0:0:
448,192,55780,1,0,0:0:0:0:
64,192,55959,128,0,56078:0:0:0:0:
192,192,56019,1,0,0:0:0:0:
448,192,56078,128,0,56197:0:0:0:0:
192,192,56197,128,0,56316:0:0:0:0:
320,192,56257,1,0,0:0:0:0:
448,192,56316,128,0,56495:0:0:0:0:
64,192,56495,128,0,56673:0:0:0:0:
192,192,56495,1,0,0:0:0:0:
192,192,56614,1,0,0:0:0:0:
320,192,56673,128,0,56912:0:0:0:0:
448,192,56733,1,0,0:0:0:0:
64,192,56912,128,0,57030:0:0:0:0:
192,192,56971,1,0,0:0:0:0:
448,192,57030,128,0,57923:0:0:0:0:
320,192,57209,1,0,0:0:0:0:
64,192,57328,1,0,0:0:0:0:
64,192,57447,1,0,0:0:0:0:
192,192,57566,1,0,0:0:0:0:
320,192,57923,1,0,0:0:0:0:
192,192,57923,1,0,0:0:0:0:
64,192,57923,1,0,0:0:0:0:
448,192,58400,128,0,58637:0:0:0:0:
320,192,58637,128,0,58876:0:0:0:0:
64,192,58876,1,0,0:0:0:0:
192,192,58876,1,0,0:0:0:0:
448,192,58876,1,0,0:0:0:0:
320,192,58935,1,0,0:0:0:0:
448,192,58995,1,0,0:0:0:0:
320,192,59055,1,0,0:0:0:0:
192,192,59114,1,0,0:0:0:0:
448,192,59114,1,0,0:0:0:0:
64,192,59173,1,0,0:0:0:0:
192,192,59233,1,0,0:0:0:0:
64,192,59292,1,0,0:0:0:0:
320,192,59352,1,0,0:0:0:0:
192,192,59352,1,0,0:0:0:0:
448,192,59412,1,0,0:0:0:0:
320,192,59471,1,0,0:0:0:0:
448,192,59530,1,0,0:0:0:0:
192,192,59590,1,0,0:0:0:0:
320,192,59590,1,0,0:0:0:0:
64,192,59590,1,0,0:0:0:0:
448,192,59650,1,0,0:0:0:0:
320,192,59709,1,0,0:0:0:0:
192,192,59769,1,0,0:0:0:0:
320,192,59828,1,0,0:0:0:0:
64,192,59828,1,0,0:0:0:0:
448,192,59828,1,0,0:0:0:0:
192,192,59887,1,0,0:0:0:0:
64,192,59947,1,0,0:0:0:0:
192,192,60007,1,0,0:0:0:0:
320,192,60066,1,0,0:0:0:0:
448,192,60066,1,0,0:0:0:0:
192,192,60126,1,0,0:0:0:0:
320,192,60185,1,0,0:0:0:0:
192,192,60245,1,0,0:0:0:0:
448,192,60305,1,0,0:0:0:0:
64,192,60305,1,0,0:0:0:0:
320,192,60305,1,0,0:0:0:0:
192,192,60364,1,0,0:0:0:0:
320,192,60423,1,0,0:0:0:0:
448,192,60483,1,0,0:0:0:0:
192,192,60542,1,0,0:0:0:0:
320,192,60542,1,0,0:0:0:0:
64,192,60602,1,0,0:0:0:0:
448,192,60662,1,0,0:0:0:0:
64,192,60721,1,0,0:0:0:0:
320,192,60780,1,0,0:0:0:0:
448,192,60780,1,0,0:0:0:0:
192,192,60780,1,0,0:0:0:0:
64,192,60840,1,0,0:0:0:0:
448,192,60900,1,0,0:0:0:0:
64,192,60959,1,0,0:0:0:0:
192,192,61019,1,0,0:0:0:0:
320,192,61019,1,0,0:0:0:0:
448,192,61019,1,0,0:0:0:0:
64,192,61078,1,0,0:0:0:0:
448,192,61137,1,0,0:0:0:0:
192,192,61137,1,0,0:0:0:0:
320,192,61197,1,0,0:0:0:0:
448,192,61257,1,0,0:0:0:0:
64,192,61257,1,0,0:0:0:0:
192,192,61257,1,0,0:0:0:0:
320,192,61316,1,0,0:0:0:0:
448,192,61376,1,0,0:0:0:0:
192,192,61435,1,0,0:0:0:0:
320,192,61495,1,0,0:0:0:0:
448,192,61495,1,0,0:0:0:0:
64,192,61495,1,0,0:0:0:0:
192,192,61555,1,0,0:0:0:0:
64,192,61614,1,0,0:0:0:0:
320,192,61614,1,0,0:0:0:0:
448,192,61673,1,0,0:0:0:0:
64,192,61733,1,0,0:0:0:0:
320,192,61733,1,0,0:0:0:0:
192,192,61733,1,0,0:0:0:0:
448,192,61792,1,0,0:0:0:0:
320,192,61852,1,0,0:0:0:0:
448,192,61912,1,0,0:0:0:0:
64,192,61971,1,0,0:0:0:0:
320,192,61971,1,0,0:0:0:0:
192,192,61971,1,0,0:0:0:0:
448,192,62030,1,0,0:0:0:0:
64,192,62090,1,0,0:0:0:0:
448,192,62150,1,0,0:0:0:0:
320,192,62209,1,0,0:0:0:0:
192,192,62209,1,0,0:0:0:0:
64,192,62209,1,0,0:0:0:0:
448,192,62269,1,0,0:0:0:0:
64,192,62328,1,0,0:0:0:0:
448,192,62387,1,0,0:0:0:0:
320,192,62447,1,0,0:0:0:0:
64,192,62447,1,0,0:0:0:0:
192,192,62447,1,0,0:0:0:0:
448,192,62507,1,0,0:0:0:0:
192,192,62566,1,0,0:0:0:0:
64,192,62626,1,0,0:0:0:0:
320,192,62685,1,0,0:0:0:0:
192,192,62685,1,0,0:0:0:0:
448,192,62685,1,0,0:0:0:0:
64,192,62745,1,0,0:0:0:0:
192,192,62805,1,0,0:0:0:0:
448,192,62864,1,0,0:0:0:0:
64,192,62923,1,0,0:0:0:0:
320,192,62923,1,0,0:0:0:0:
192,192,62983,1,0,0:0:0:0:
64,192,63042,1,0,0:0:0:0:
448,192,63102,1,0,0:0:0:0:
320,192,63162,1,0,0:0:0:0:
192,192,63162,1,0,0:0:0:0:
64,192,63221,1,0,0:0:0:0:
192,192,63280,1,0,0:0:0:0:
320,192,63340,1,0,0:0:0:0:
64,192,63400,1,0,0:0:0:0:
448,192,63400,1,0,0:0:0:0:
192,192,63459,1,0,0:0:0:0:
64,192,63519,1,0,0:0:0:0:
192,192,63578,1,0,0:0:0:0:
320,192,63637,1,0,0:0:0:0:
64,192,63637,1,0,0:0:0:0:
448,192,63637,1,0,0:0:0:0:
192,192,63697,1,0,0:0:0:0:
320,192,63757,1,0,0:0:0:0:
192,192,63816,1,0,0:0:0:0:
64,192,63876,1,0,0:0:0:0:
320,192,63876,1,0,0:0:0:0:
448,192,63935,1,0,0:0:0:0:
320,192,63995,1,0,0:0:0:0:
448,192,64055,1,0,0:0:0:0:
320,192,64114,1,0,0:0:0:0:
64,192,64114,1,0,0:0:0:0:
192,192,64114,1,0,0:0:0:0:
448,192,64173,1,0,0:0:0:0:
320,192,64233,1,0,0:0:0:0:
64,192,64292,1,0,0:0:0:0:
192,192,64352,1,0,0:0:0:0:
320,192,64352,1,0,0:0:0:0:
448,192,64412,1,0,0:0:0:0:
64,192,64471,1,0,0:0:0:0:
192,192,64530,1,0,0:0:0:0:
320,192,64590,1,0,0:0:0:0:
64,192,64590,1,0,0:0:0:0:
448,192,64590,1,0,0:0:0:0:
192,192,64650,1,0,0:0:0:0:
448,192,64709,1,0,0:0:0:0:
320,192,64769,1,0,0:0:0:0:
64,192,64828,1,0,0:0:0:0:
448,192,64828,1,0,0:0:0:0:
192,192,64887,1,0,0:0:0:0:
320,192,64947,1,0,0:0:0:0:
448,192,65007,1,0,0:0:0:0:
192,192,65066,1,0,0:0:0:0:
64,192,65066,1,0,0:0:0:0:
320,192,65126,1,0,0:0:0:0:
448,192,65185,1,0,0:0:0:0:
320,192,65245,1,0,0:0:0:0:
64,192,65305,1,0,0:0:0:0:
448,192,65305,1,0,0:0:0:0:
64,192,65463,1,0,0:0:0:0:
192,192,65503,1,0,0:0:0:0:
64,192,65542,1,0,0:0:0:0:
320,192,65542,1,0,0:0:0:0:
448,192,65582,1,0,0:0:0:0:
320,192,65622,1,0,0:0:0:0:
448,192,65662,1,0,0:0:0:0:
64,192,65701,1,0,0:0:0:0:
192,192,65741,1,0,0:0:0:0:
64,192,65780,1,0,0:0:0:0:
320,192,65780,1,0,0:0:0:0:
448,192,65820,1,0,0:0:0:0:
320,192,65860,1,0,0:0:0:0:
448,192,65900,1,0,0:0:0:0:
64,192,65940,1,0,0:0:0:0:
192,192,65979,1,0,0:0:0:0:
320,192,66019,1,0,0:0:0:0:
64,192,66019,1,0,0:0:0:0:
448,192,66019,1,0,0:0:0:0:
192,192,66078,1,0,0:0:0:0:
320,192,66137,1,0,0:0:0:0:
64,192,66197,1,0,0:0:0:0:
320,192,66257,1,0,0:0:0:0:
192,192,66257,1,0,0:0:0:0:
448,192,66257,1,0,0:0:0:0:
64,192,66316,1,0,0:0:0:0:
448,192,66376,1,0,0:0:0:0:
320,192,66435,1,0,0:0:0:0:
64,192,66495,1,0,0:0:0:0:
192,192,66495,1,0,0:0:0:0:
448,192,66495,1,0,0:0:0:0:
320,192,66555,1,0,0:0:0:0:
448,192,66614,1,0,0:0:0:0:
64,192,66673,1,0,0:0:0:0:
192,192,66733,1,0,0:0:0:0:
320,192,66733,1,0,0:0:0:0:
64,192,66792,1,0,0:0:0:0:
448,192,66852,1,0,0:0:0:0:
320,192,66912,1,0,0:0:0:0:
64,192,66971,1,0,0:0:0:0:
192,192,66971,1,0,0:0:0:0:
448,192,66971,1,0,0:0:0:0:
320,192,67030,1,0,0:0:0:0:
64,192,67090,1,0,0:0:0:0:
448,192,67150,1,0,0:0:0:0:
192,192,67209,1,0,0:0:0:0:
320,192,67209,1,0,0:0:0:0:
448,192,67269,1,0,0:0:0:0:
192,192,67328,1,0,0:0:0:0:
64,192,67387,1,0,0:0:0:0:
320,192,67447,1,0,0:0:0:0:
192,192,67447,1,0,0:0:0:0:
448,192,67447,1,0,0:0:0:0:
64,192,67507,1,0,0:0:0:0:
448,192,67566,1,0,0:0:0:0:
192,192,67626,1,0,0:0:0:0:
320,192,67685,1,0,0:0:0:0:
64,192,67685,1,0,0:0:0:0:
192,192,67745,1,0,0:0:0:0:
448,192,67805,1,0,0:0:0:0:
320,192,67864,1,0,0:0:0:0:
192,192,67923,1,0,0:0:0:0:
64,192,67923,1,0,0:0:0:0:
448,192,67923,1,0,0:0:0:0:
320,192,67983,1,0,0:0:0:0:
64,192,68042,1,0,0:0:0:0:
448,192,68102,1,0,0:0:0:0:
192,192,68162,1,0,0:0:0:0:
320,192,68162,1,0,0:0:0:0:
448,192,68221,1,0,0:0:0:0:
64,192,68280,1,0,0:0:0:0:
192,192,68340,1,0,0:0:0:0:
320,192,68400,1,0,0:0:0:0:
448,192,68400,1,0,0:0:0:0:
64,192,68400,1,0,0:0:0:0:
192,192,68459,1,0,0:0:0:0:
448,192,68519,1,0,0:0:0:0:
320,192,68578,1,0,0:0:0:0:
192,192,68637,1,0,0:0:0:0:
64,192,68637,1,0,0:0:0:0:
320,192,68697,1,0,0:0:0:0:
448,192,68757,1,0,0:0:0:0:
64,192,68816,1,0,0:0:0:0:
192,192,68876,1,0,0:0:0:0:
320,192,68876,1,0,0:0:0:0:
64,192,68935,1,0,0:0:0:0:
448,192,68995,1,0,0:0:0:0:
192,192,69055,1,0,0:0:0:0:
320,192,69114,1,0,0:0:0:0:
64,192,69114,1,0,0:0:0:0:
448,192,69114,1,0,0:0:0:0:
192,192,69173,1,0,0:0:0:0:
320,192,69233,1,0,0:0:0:0:
448,192,69292,1,0,0:0:0:0:
320,192,69352,1,0,0:0:0:0:
192,192,69352,1,0,0:0:0:0:
64,192,69352,1,0,0:0:0:0:
448,192,69412,1,0,0:0:0:0:
192,192,69471,1,0,0:0:0:0:
320,192,69530,1,0,0:0:0:0:
64,192,69590,1,0,0:0:0:0:
448,192,69590,1,0,0:0:0:0:
320,192,69650,1,0,0:0:0:0:
192,192,69709,1,0,0:0:0:0:
64,192,69769,1,0,0:0:0:0:
320,192,69828,1,0,0:0:0:0:
192,192,69828,1,0,0:0:0:0:
448,192,69828,1,0,0:0:0:0:
64,192,69887,1,0,0:0:0:0:
320,192,69947,1,0,0:0:0:0:
192,192,70007,1,0,0:0:0:0:
320,192,70066,1,0,0:0:0:0:
448,192,70066,1,0,0:0:0:0:
64,192,70066,1,0,0:0:0:0:
192,192,70126,1,0,0:0:0:0:
448,192,70185,1,0,0:0:0:0:
320,192,70245,1,0,0:0:0:0:
192,192,70305,1,0,0:0:0:0:
64,192,70305,1,0,0:0:0:0:
448,192,70305,1,0,0:0:0:0:
320,192,70364,1,0,0:0:0:0:
64,192,70423,1,0,0:0:0:0:
448,192,70483,1,0,0:0:0:0:
192,192,70542,1,0,0:0:0:0:
320,192,70542,1,0,0:0:0:0:
64,192,70602,1,0,0:0:0:0:
192,192,70662,1,0,0:0:0:0:
320,192,70721,1,0,0:0:0:0:
448,192,70780,1,0,0:0:0:0:
64,192,70780,1,0,0:0:0:0:
192,192,70840,1,0,0:0:0:0:
320,192,70900,1,0,0:0:0:0:
448,192,70959,1,0,0:0:0:0:
320,192,71019,1,0,0:0:0:0:
192,192,71019,1,0,0:0:0:0:
64,192,71078,1,0,0:0:0:0:
448,192,71137,1,0,0:0:0:0:
320,192,71197,1,0,0:0:0:0:
64,192,71257,1,0,0:0:0:0:
192,192,71257,1,0,0:0:0:0:
448,192,71257,1,0,0:0:0:0:
320,192,71316,1,0,0:0:0:0:
192,192,71376,1,0,0:0:0:0:
64,192,71435,1,0,0:0:0:0:
192,192,71495,1,0,0:0:0:0:
448,192,71495,1,0,0:0:0:0:
320,192,71555,1,0,0:0:0:0:
192,192,71614,1,0,0:0:0:0:
64,192,71673,1,0,0:0:0:0:
320,192,71733,1,0,0:0:0:0:
448,192,71733,1,0,0:0:0:0:
192,192,71792,1,0,0:0:0:0:
64,192,71852,1,0,0:0:0:0:
448,192,71852,1,0,0:0:0:0:
320,192,71912,1,0,0:0:0:0:
192,192,71971,1,0,0:0:0:0:
320,192,72030,1,0,0:0:0:0:
448,192,72090,1,0,0:0:0:0:
64,192,72090,1,0,0:0:0:0:
192,192,72150,1,0,0:0:0:0:
320,192,72209,1,0,0:0:0:0:
64,192,72209,1,0,0:0:0:0:
448,192,72209,128,0,72328:0:0:0:0:
320,192,72328,128,0,72447:0:0:0:0:
64,192,72447,128,0,72566:0:0:0:0:
192,192,72566,128,0,72685:0:0:0:0:
448,192,72685,128,0,72805:0:0:0:0:
320,192,72805,128,0,72923:0:0:0:0:
448,192,72923,128,0,73042:0:0:0:0:
320,192,73042,128,0,73162:0:0:0:0:
64,192,73162,128,0,73280:0:0:0:0:
192,192,73280,128,0,73400:0:0:0:0:
448,192,73400,128,0,73519:0:0:0:0:
320,192,73519,128,0,73637:0:0:0:0:
64,192,73637,128,0,73757:0:0:0:0:
192,192,73757,128,0,73876:0:0:0:0:
320,192,73876,128,0,73995:0:0:0:0:
448,192,73995,128,0,74114:0:0:0:0:
320,192,74114,128,0,74233:0:0:0:0:
64,192,74352,128,0,74471:0:0:0:0:
448,192,74471,128,0,74590:0:0:0:0:
192,192,74590,128,0,74709:0:0:0:0:
448,192,74709,128,0,74828:0:0:0:0:
320,192,74828,128,0,74947:0:0:0:0:
448,192,74947,128,0,75066:0:0:0:0:
320,192,75066,128,0,75126:0:0:0:0:
64,192,75066,128,0,75185:0:0:0:0:
320,192,75185,128,0,75245:0:0:0:0:
192,192,75185,128,0,75305:0:0:0:0:
448,192,75305,128,0,75423:0:0:0:0:
64,192,75423,128,0,75542:0:0:0:0:
448,192,75542,128,0,75662:0:0:0:0:
320,192,75662,128,0,75780:0:0:0:0:
64,192,75780,128,0,75900:0:0:0:0:
192,192,75900,128,0,76019:0:0:0:0:
448,192,76019,128,0,76137:0:0:0:0:
64,192,76137,128,0,76257:0:0:0:0:
448,192,76257,128,0,76376:0:0:0:0:
320,192,76376,128,0,76495:0:0:0:0:
192,192,76495,128,0,76614:0:0:0:0:
64,192,76614,128,0,76733:0:0:0:0:
320,192,76733,128,0,76852:0:0:0:0:
448,192,76852,128,0,76971:0:0:0:0:
192,192,76971,128,0,77209:0:0:0:0:
64,192,77209,128,0,77328:0:0:0:0:
448,192,77328,128,0,77447:0:0:0:0:
192,192,77447,128,0,77566:0:0:0:0:
448,192,77566,128,0,77685:0:0:0:0:
320,192,77685,128,0,77805:0:0:0:0:
448,192,77805,128,0,77923:0:0:0:0:
64,192,77923,128,0,78042:0:0:0:0:
320,192,77923,128,0,78162:0:0:0:0:
192,192,77923,1,0,0:0:0:0:
192,192,78042,128,0,78162:0:0:0:0:
448,192,78162,128,0,78280:0:0:0:0:
64,192,78162,128,0,78280:0:0:0:0:
320,192,78280,128,0,78400:0:0:0:0:
64,192,78400,128,0,78519:0:0:0:0:
448,192,78400,128,0,78519:0:0:0:0:
192,192,78400,1,0,0:0:0:0:
192,192,78519,128,0,78637:0:0:0:0:
64,192,78637,128,0,78757:0:0:0:0:
448,192,78637,1,0,0:0:0:0:
320,192,78637,128,0,78876:0:0:0:0:
192,192,78757,128,0,78876:0:0:0:0:
448,192,78876,128,0,78995:0:0:0:0:
64,192,78876,128,0,78995:0:0:0:0:
320,192,78995,128,0,79114:0:0:0:0:
64,192,79114,128,0,79233:0:0:0:0:
448,192,79114,128,0,79233:0:0:0:0:
192,192,79233,128,0,79352:0:0:0:0:
448,192,79352,128,0,79471:0:0:0:0:
64,192,79352,128,0,79590:0:0:0:0:
320,192,79352,1,0,0:0:0:0:
320,192,79471,128,0,79590:0:0:0:0:
192,192,79590,128,0,79709:0:0:0:0:
448,192,79590,128,0,79828:0:0:0:0:
64,192,79709,128,0,79828:0:0:0:0:
192,192,79828,128,0,79947:0:0:0:0:
320,192,79828,1,0,0:0:0:0:
448,192,80066,128,0,80185:0:0:0:0:
64,192,80066,1,0,0:0:0:0:
192,192,80066,128,0,80305:0:0:0:0:
64,192,80185,128,0,80305:0:0:0:0:
320,192,80305,128,0,80423:0:0:0:0:
448,192,80305,128,0,80542:0:0:0:0:
64,192,80423,128,0,80542:0:0:0:0:
192,192,80542,128,0,80662:0:0:0:0:
320,192,80542,128,0,80662:0:0:0:0:
64,192,80662,128,0,80780:0:0:0:0:
448,192,80780,128,0,80900:0:0:0:0:
320,192,80780,1,0,0:0:0:0:
192,192,80780,128,0,81019:0:0:0:0:
320,192,80900,128,0,81019:0:0:0:0:
64,192,81019,128,0,81137:0:0:0:0:
448,192,81019,128,0,81257:0:0:0:0:
192,192,81137,128,0,81257:0:0:0:0:
64,192,81257,128,0,81376:0:0:0:0:
320,192,81257,1,0,0:0:0:0:
320,192,81376,128,0,81495:0:0:0:0:
448,192,81495,128,0,81614:0:0:0:0:
64,192,81495,1,0,0:0:0:0:
192,192,81495,128,0,81614:0:0:0:0:
320,192,81614,128,0,81733:0:0:0:0:
64,192,81733,128,0,81852:0:0:0:0:
192,192,81733,128,0,81971:0:0:0:0:
448,192,81852,128,0,81971:0:0:0:0:
64,192,81971,128,0,82090:0:0:0:0:
320,192,81971,128,0,82090:0:0:0:0:
192,192,82090,128,0,82209:0:0:0:0:
320,192,82209,128,0,82328:0:0:0:0:
64,192,82209,1,0,0:0:0:0:
448,192,82209,128,0,82447:0:0:0:0:
64,192,82328,128,0,82447:0:0:0:0:
192,192,82447,128,0,82566:0:0:0:0:
320,192,82447,128,0,82566:0:0:0:0:
64,192,82566,128,0,82685:0:0:0:0:
320,192,82685,128,0,82923:0:0:0:0:
192,192,82685,1,0,0:0:0:0:
448,192,82923,128,0,83042:0:0:0:0:
192,192,82923,1,0,0:0:0:0:
64,192,83042,128,0,83162:0:0:0:0:
192,192,83042,128,0,83280:0:0:0:0:
320,192,83162,128,0,83280:0:0:0:0:
64,192,83280,128,0,83400:0:0:0:0:
192,192,83400,128,0,83519:0:0:0:0:
448,192,83400,128,0,83637:0:0:0:0:
64,192,83519,128,0,83637:0:0:0:0:
320,192,83637,1,0,0:0:0:0:
192,192,83637,128,0,83876:0:0:0:0:
320,192,83876,128,0,84114:0:0:0:0:
64,192,83876,1,0,0:0:0:0:
448,192,84114,128,0,84352:0:0:0:0:
192,192,84114,1,0,0:0:0:0:
192,192,84352,128,0,84590:0:0:0:0:
320,192,84352,1,0,0:0:0:0:
320,192,84590,128,0,84828:0:0:0:0:
64,192,84590,1,0,0:0:0:0:
448,192,84828,128,0,85066:0:0:0:0:
192,192,84828,1,0,0:0:0:0:
64,192,85066,128,0,85305:0:0:0:0:
192,192,85305,1,0,0:0:0:0:
320,192,85305,1,0,0:0:0:0:
192,192,85423,1,0,0:0:0:0:
320,192,85423,1,0,0:0:0:0:
64,192,85542,1,0,0:0:0:0:
448,192,85542,1,0,0:0:0:0:
64,192,85662,1,0,0:0:0:0:
448,192,85662,1,0,0:0:0:0:
192,192,85780,128,0,86019:0:0:0:0:
64,192,86019,1,0,0:0:0:0:
448,192,86019,1,0,0:0:0:0:
448,192,86137,1,0,0:0:0:0:
64,192,86137,1,0,0:0:0:0:
192,192,86257,1,0,0:0:0:0:
320,192,86257,1,0,0:0:0:0:
192,192,86376,1,0,0:0:0:0:
320,192,86376,1,0,0:0:0:0:
192,192,86495,128,0,86733:0:0:0:0:
448,192,86495,1,0,0:0:0:0:
320,192,86733,128,0,86971:0:0:0:0:
64,192,86733,1,0,0:0:0:0:
448,192,86971,128,0,87209:0:0:0:0:
192,192,86971,1,0,0:0:0:0:
192,192,87209,128,0,87447:0:0:0:0:
64,192,87209,1,0,0:0:0:0:
320,192,87447,128,0,87685:0:0:0:0:
448,192,87447,1,0,0:0:0:0:
448,192,87685,128,0,87923:0:0:0:0:
192,192,87685,1,0,0:0:0:0:
320,192,87923,128,0,88162:0:0:0:0:
64,192,88162,1,0,0:0:0:0:
192,192,88162,1,0,0:0:0:0:
64,192,88280,1,0,0:0:0:0:
192,192,88280,1,0,0:0:0:0:
320,192,88400,1,0,0:0:0:0:
448,192,88400,1,0,0:0:0:0:
320,192,88519,1,0,0:0:0:0:
448,192,88519,1,0,0:0:0:0:
448,192,88637,128,0,88876:0:0:0:0:
64,192,88876,1,0,0:0:0:0:
320,192,88876,1,0,0:0:0:0:
64,192,88995,1,0,0:0:0:0:
320,192,88995,1,0,0:0:0:0:
192,192,89114,1,0,0:0:0:0:
448,192,89114,1,0,0:0:0:0:
192,192,89233,1,0,0:0:0:0:
448,192,89233,1,0,0:0:0:0:
448,192,89352,128,0,89590:0:0:0:0:
320,192,89590,128,0,89828:0:0:0:0:
448,192,89828,128,0,90066:0:0:0:0:
192,192,90066,128,0,90305:0:0:0:0:
448,192,90305,128,0,90542:0:0:0:0:
320,192,90542,128,0,90780:0:0:0:0:
448,192,90780,128,0,91019:0:0:0:0:
192,192,91019,128,0,91257:0:0:0:0:
448,192,91257,128,0,91495:0:0:0:0:
64,192,91495,128,0,91733:0:0:0:0:
448,192,91733,128,0,91971:0:0:0:0:
192,192,91971,128,0,92209:0:0:0:0:
448,192,92209,128,0,92447:0:0:0:0:
320,192,92447,128,0,92685:0:0:0:0:
64,192,92685,128,0,92923:0:0:0:0:
192,192,92923,128,0,93162:0:0:0:0:
448,192,93162,128,0,96971:0:0:0:0:
320,192,93816,1,0,0:0:0:0:
192,192,94233,1,0,0:0:0:0:
64,192,94650,1,0,0:0:0:0:
192,192,95066,1,0,0:0:0:0:
320,192,95542,1,0,0:0:0:0:
192,192,95900,1,0,0:0:0:0:
64,192,96019,1,0,0:0:0:0:
192,192,96495,1,0,0:0:0:0:
320,192,96971,1,0,0:0:0:0:
64,192,96971,128,0,97209:0:0:0:0:
192,192,97209,128,0,97447:0:0:0:0:
448,192,97447,128,0,97685:0:0:0:0:
192,192,97685,128,0,97923:0:0:0:0:
448,192,97923,128,0,98162:0:0:0:0:
320,192,98162,128,0,98400:0:0:0:0:
448,192,98400,128,0,98637:0:0:0:0:
192,192,98637,128,0,98876:0:0:0:0:
448,192,98876,128,0,99114:0:0:0:0:
64,192,99114,128,0,99352:0:0:0:0:
448,192,99352,128,0,99590:0:0:0:0:
192,192,99590,128,0,99828:0:0:0:0:
448,192,99828,128,0,100066:0:0:0:0:
320,192,100066,128,0,100305:0:0:0:0:
64,192,100305,128,0,100542:0:0:0:0:
192,192,100542,128,0,100780:0:0:0:0:
448,192,100780,128,0,104590:0:0:0:0:
320,192,101435,1,0,0:0:0:0:
192,192,101673,1,0,0:0:0:0:
64,192,101852,1,0,0:0:0:0:
64,192,102328,1,0,0:0:0:0:
192,192,102626,1,0,0:0:0:0:
320,192,102745,1,0,0:0:0:0:
192,192,103280,1,0,0:0:0:0:
64,192,103757,1,0,0:0:0:0:
192,192,104114,1,0,0:0:0:0:
320,192,104590,1,0,0:0:0:0:
192,192,104590,1,0,0:0:0:0:
64,192,104828,1,0,0:0:0:0:
448,192,104828,1,0,0:0:0:0:
192,192,105066,1,0,0:0:0:0:
320,192,105066,1,0,0:0:0:0:
192,192,105185,1,0,0:0:0:0:
320,192,105185,1,0,0:0:0:0:
64,192,105305,1,0,0:0:0:0:
448,192,105305,1,0,0:0:0:0:
320,192,105305,1,0,0:0:0:0:
192,192,105423,1,0,0:0:0:0:
192,192,105542,1,0,0:0:0:0:
448,192,105542,1,0,0:0:0:0:
64,192,105542,1,0,0:0:0:0:
64,192,105780,1,0,0:0:0:0:
320,192,105780,1,0,0:0:0:0:
192,192,106019,1,0,0:0:0:0:
448,192,106019,1,0,0:0:0:0:
192,192,106137,1,0,0:0:0:0:
448,192,106137,1,0,0:0:0:0:
64,192,106257,1,0,0:0:0:0:
320,192,106257,1,0,0:0:0:0:
64,192,106495,1,0,0:0:0:0:
192,192,106495,1,0,0:0:0:0:
320,192,106733,1,0,0:0:0:0:
448,192,106733,1,0,0:0:0:0:
192,192,106733,1,0,0:0:0:0:
320,192,106852,1,0,0:0:0:0:
64,192,106971,1,0,0:0:0:0:
192,192,106971,1,0,0:0:0:0:
448,192,106971,1,0,0:0:0:0:
64,192,107090,1,0,0:0:0:0:
192,192,107090,1,0,0:0:0:0:
320,192,107209,1,0,0:0:0:0:
448,192,107209,1,0,0:0:0:0:
64,192,107209,1,0,0:0:0:0:
192,192,107328,1,0,0:0:0:0:
320,192,107447,1,0,0:0:0:0:
448,192,107447,1,0,0:0:0:0:
192,192,107447,1,0,0:0:0:0:
64,192,107685,1,0,0:0:0:0:
320,192,107685,1,0,0:0:0:0:
192,192,107923,1,0,0:0:0:0:
448,192,107923,1,0,0:0:0:0:
192,192,108042,1,0,0:0:0:0:
448,192,108042,1,0,0:0:0:0:
64,192,108162,1,0,0:0:0:0:
320,192,108162,1,0,0:0:0:0:
192,192,108400,1,0,0:0:0:0:
320,192,108400,1,0,0:0:0:0:
448,192,108400,1,0,0:0:0:0:
64,192,108637,1,0,0:0:0:0:
448,192,108637,1,0,0:0:0:0:
192,192,108876,1,0,0:0:0:0:
320,192,108876,1,0,0:0:0:0:
192,192,108995,1,0,0:0:0:0:
320,192,108995,1,0,0:0:0:0:
64,192,109114,1,0,0:0:0:0:
448,192,109114,1,0,0:0:0:0:
192,192,109114,1,0,0:0:0:0:
320,192,109233,1,0,0:0:0:0:
448,192,109352,1,0,0:0:0:0:
64,192,109352,1,0,0:0:0:0:
192,192,109352,1,0,0:0:0:0:
320,192,109590,1,0,0:0:0:0:
448,192,109590,1,0,0:0:0:0:
192,192,109590,1,0,0:0:0:0:
192,192,109828,1,0,0:0:0:0:
64,192,109828,1,0,0:0:0:0:
320,192,109828,1,0,0:0:0:0:
64,192,109947,1,0,0:0:0:0:
192,192,109947,1,0,0:0:0:0:
320,192,110066,1,0,0:0:0:0:
448,192,110066,1,0,0:0:0:0:
320,192,110305,1,0,0:0:0:0:
448,192,110305,1,0,0:0:0:0:
192,192,110305,1,0,0:0:0:0:
64,192,110542,1,0,0:0:0:0:
192,192,110542,1,0,0:0:0:0:
320,192,110780,1,0,0:0:0:0:
448,192,110780,1,0,0:0:0:0:
320,192,110900,1,0,0:0:0:0:
448,192,110900,1,0,0:0:0:0:
64,192,111019,1,0,0:0:0:0:
192,192,111019,1,0,0:0:0:0:
192,192,111257,1,0,0:0:0:0:
320,192,111257,1,0,0:0:0:0:
64,192,111495,1,0,0:0:0:0:
448,192,111495,1,0,0:0:0:0:
192,192,111733,1,0,0:0:0:0:
320,192,111733,1,0,0:0:0:0:
192,192,111852,1,0,0:0:0:0:
320,192,111852,1,0,0:0:0:0:
64,192,111971,1,0,0:0:0:0:
448,192,111971,1,0,0:0:0:0:
448,192,112209,1,0,0:0:0:0:
64,192,112209,1,0,0:0:0:0:
192,192,112209,1,0,0:0:0:0:
64,192,112447,1,0,0:0:0:0:
320,192,112447,1,0,0:0:0:0:
448,192,112447,1,0,0:0:0:0:
192,192,112566,1,0,0:0:0:0:
320,192,112685,1,0,0:0:0:0:
64,192,112685,1,0,0:0:0:0:
192,192,112685,1,0,0:0:0:0:
64,192,112805,1,0,0:0:0:0:
192,192,112805,1,0,0:0:0:0:
448,192,112923,1,0,0:0:0:0:
320,192,112923,1,0,0:0:0:0:
192,192,112923,1,0,0:0:0:0:
320,192,113042,1,0,0:0:0:0:
192,192,113162,1,0,0:0:0:0:
320,192,113162,1,0,0:0:0:0:
448,192,113162,1,0,0:0:0:0:
64,192,113280,1,0,0:0:0:0:
192,192,113400,1,0,0:0:0:0:
64,192,113400,1,0,0:0:0:0:
320,192,113400,1,0,0:0:0:0:
320,192,113637,1,0,0:0:0:0:
448,192,113637,1,0,0:0:0:0:
320,192,113757,1,0,0:0:0:0:
448,192,113757,1,0,0:0:0:0:
64,192,113876,1,0,0:0:0:0:
192,192,113876,1,0,0:0:0:0:
320,192,114114,1,0,0:0:0:0:
64,192,114114,1,0,0:0:0:0:
448,192,114114,1,0,0:0:0:0:
64,192,114352,1,0,0:0:0:0:
192,192,114352,1,0,0:0:0:0:
320,192,114352,1,0,0:0:0:0:
192,192,114471,1,0,0:0:0:0:
320,192,114590,1,0,0:0:0:0:
64,192,114590,1,0,0:0:0:0:
448,192,114590,1,0,0:0:0:0:
64,192,114709,1,0,0:0:0:0:
448,192,114709,1,0,0:0:0:0:
64,192,114828,1,0,0:0:0:0:
192,192,114828,1,0,0:0:0:0:
320,192,114828,1,0,0:0:0:0:
192,192,114947,1,0,0:0:0:0:
448,192,115066,1,0,0:0:0:0:
64,192,115066,1,0,0:0:0:0:
192,192,115066,1,0,0:0:0:0:
320,192,115185,1,0,0:0:0:0:
192,192,115305,1,0,0:0:0:0:
320,192,115305,1,0,0:0:0:0:
448,192,115305,1,0,0:0:0:0:
64,192,115542,1,0,0:0:0:0:
192,192,115542,1,0,0:0:0:0:
64,192,115662,1,0,0:0:0:0:
192,192,115662,1,0,0:0:0:0:
320,192,115780,1,0,0:0:0:0:
448,192,115780,1,0,0:0:0:0:
64,192,116019,1,0,0:0:0:0:
448,192,116019,1,0,0:0:0:0:
320,192,116019,1,0,0:0:0:0:
448,192,116257,1,0,0:0:0:0:
64,192,116257,1,0,0:0:0:0:
192,192,116257,1,0,0:0:0:0:
320,192,116376,1,0,0:0:0:0:
192,192,116495,1,0,0:0:0:0:
320,192,116495,1,0,0:0:0:0:
448,192,116495,1,0,0:0:0:0:
320,192,116614,1,0,0:0:0:0:
448,192,116614,1,0,0:0:0:0:
64,192,116733,1,0,0:0:0:0:
192,192,116733,1,0,0:0:0:0:
320,192,116733,1,0,0:0:0:0:
192,192,116852,1,0,0:0:0:0:
448,192,116971,1,0,0:0:0:0:
64,192,116971,1,0,0:0:0:0:
192,192,116971,1,0,0:0:0:0:
192,192,117209,1,0,0:0:0:0:
320,192,117209,1,0,0:0:0:0:
448,192,117209,1,0,0:0:0:0:
64,192,117447,1,0,0:0:0:0:
192,192,117447,1,0,0:0:0:0:
320,192,117447,1,0,0:0:0:0:
64,192,117566,1,0,0:0:0:0:
192,192,117566,1,0,0:0:0:0:
320,192,117685,1,0,0:0:0:0:
448,192,117685,1,0,0:0:0:0:
320,192,117923,1,0,0:0:0:0:
64,192,117923,1,0,0:0:0:0:
192,192,117923,1,0,0:0:0:0:
320,192,118162,1,0,0:0:0:0:
448,192,118162,1,0,0:0:0:0:
64,192,118400,1,0,0:0:0:0:
192,192,118400,1,0,0:0:0:0:
64,192,118519,1,0,0:0:0:0:
192,192,118519,1,0,0:0:0:0:
320,192,118637,1,0,0:0:0:0:
448,192,118637,1,0,0:0:0:0:
192,192,118876,1,0,0:0:0:0:
320,192,118876,1,0,0:0:0:0:
448,192,118876,1,0,0:0:0:0:
64,192,119114,1,0,0:0:0:0:
192,192,119114,1,0,0:0:0:0:
64,192,119352,1,0,0:0:0:0:
320,192,119352,1,0,0:0:0:0:
448,192,119352,1,0,0:0:0:0:
320,192,119471,1,0,0:0:0:0:
448,192,119471,1,0,0:0:0:0:
64,192,119590,1,0,0:0:0:0:
192,192,119590,1,0,0:0:0:0:
320,192,119828,1,0,0:0:0:0:
192,192,119828,1,0,0:0:0:0:
64,192,119828,1,0,0:0:0:0:
448,192,119828,1,0,0:0:0:0:
320,192,119887,1,0,0:0:0:0:
192,192,119947,1,0,0:0:0:0:
64,192,119947,1,0,0:0:0:0:
320,192,120007,1,0,0:0:0:0:
448,192,120066,1,0,0:0:0:0:
192,192,120066,1,0,0:0:0:0:
64,192,120066,1,0,0:0:0:0:
320,192,120126,1,0,0:0:0:0:
448,192,120185,1,0,0:0:0:0:
192,192,120185,1,0,0:0:0:0:
64,192,120245,1,0,0:0:0:0:
320,192,120305,1,0,0:0:0:0:
192,192,120305,1,0,0:0:0:0:
448,192,120305,1,0,0:0:0:0:
64,192,120364,1,0,0:0:0:0:
192,192,120423,1,0,0:0:0:0:
448,192,120423,1,0,0:0:0:0:
320,192,120483,1,0,0:0:0:0:
320,192,120542,1,0,0:0:0:0:
192,192,120542,1,0,0:0:0:0:
64,192,120542,1,0,0:0:0:0:
448,192,120542,1,0,0:0:0:0:
192,192,120602,1,0,0:0:0:0:
448,192,120662,1,0,0:0:0:0:
64,192,120662,1,0,0:0:0:0:
320,192,120721,1,0,0:0:0:0:
320,192,120780,1,0,0:0:0:0:
192,192,120780,1,0,0:0:0:0:
64,192,120780,1,0,0:0:0:0:
448,192,120780,1,0,0:0:0:0:
192,192,120840,1,0,0:0:0:0:
448,192,120900,1,0,0:0:0:0:
64,192,120900,1,0,0:0:0:0:
192,192,120959,1,0,0:0:0:0:
320,192,121019,1,0,0:0:0:0:
64,192,121019,1,0,0:0:0:0:
448,192,121019,1,0,0:0:0:0:
192,192,121078,1,0,0:0:0:0:
448,192,121137,1,0,0:0:0:0:
64,192,121137,1,0,0:0:0:0:
192,192,121197,1,0,0:0:0:0:
320,192,121257,1,0,0:0:0:0:
448,192,121257,1,0,0:0:0:0:
64,192,121257,1,0,0:0:0:0:
192,192,121316,1,0,0:0:0:0:
64,192,121376,1,0,0:0:0:0:
448,192,121376,1,0,0:0:0:0:
320,192,121435,1,0,0:0:0:0:
448,192,121495,1,0,0:0:0:0:
192,192,121495,1,0,0:0:0:0:
64,192,121495,1,0,0:0:0:0:
320,192,121555,1,0,0:0:0:0:
192,192,121614,1,0,0:0:0:0:
64,192,121614,1,0,0:0:0:0:
448,192,121673,1,0,0:0:0:0:
320,192,121733,1,0,0:0:0:0:
192,192,121733,1,0,0:0:0:0:
64,192,121733,1,0,0:0:0:0:
448,192,121733,1,0,0:0:0:0:
64,192,121792,1,0,0:0:0:0:
192,192,121852,1,0,0:0:0:0:
448,192,121852,1,0,0:0:0:0:
320,192,121912,1,0,0:0:0:0:
448,192,121971,1,0,0:0:0:0:
192,192,121971,1,0,0:0:0:0:
64,192,121971,1,0,0:0:0:0:
320,192,122030,1,0,0:0:0:0:
448,192,122090,1,0,0:0:0:0:
192,192,122090,1,0,0:0:0:0:
64,192,122150,1,0,0:0:0:0:
448,192,122209,1,0,0:0:0:0:
192,192,122209,1,0,0:0:0:0:
320,192,122209,1,0,0:0:0:0:
64,192,122269,1,0,0:0:0:0:
192,192,122328,1,0,0:0:0:0:
320,192,122328,1,0,0:0:0:0:
448,192,122387,1,0,0:0:0:0:
320,192,122447,1,0,0:0:0:0:
192,192,122447,1,0,0:0:0:0:
64,192,122447,1,0,0:0:0:0:
448,192,122507,1,0,0:0:0:0:
320,192,122566,1,0,0:0:0:0:
64,192,122566,1,0,0:0:0:0:
192,192,122626,1,0,0:0:0:0:
320,192,122685,1,0,0:0:0:0:
448,192,122685,1,0,0:0:0:0:
192,192,122685,1,0,0:0:0:0:
64,192,122685,1,0,0:0:0:0:
448,192,122745,1,0,0:0:0:0:
320,192,122805,1,0,0:0:0:0:
64,192,122805,1,0,0:0:0:0:
192,192,122864,1,0,0:0:0:0:
320,192,122923,1,0,0:0:0:0:
448,192,122923,1,0,0:0:0:0:
64,192,122923,1,0,0:0:0:0:
192,192,122983,1,0,0:0:0:0:
320,192,123042,1,0,0:0:0:0:
64,192,123042,1,0,0:0:0:0:
448,192,123102,1,0,0:0:0:0:
320,192,123162,1,0,0:0:0:0:
192,192,123162,1,0,0:0:0:0:
64,192,123162,1,0,0:0:0:0:
448,192,123221,1,0,0:0:0:0:
192,192,123280,1,0,0:0:0:0:
64,192,123280,1,0,0:0:0:0:
320,192,123340,1,0,0:0:0:0:
448,192,123400,1,0,0:0:0:0:
192,192,123400,1,0,0:0:0:0:
64,192,123400,1,0,0:0:0:0:
320,192,123459,1,0,0:0:0:0:
192,192,123519,1,0,0:0:0:0:
64,192,123519,1,0,0:0:0:0:
448,192,123578,1,0,0:0:0:0:
320,192,123637,1,0,0:0:0:0:
448,192,123637,1,0,0:0:0:0:
192,192,123637,1,0,0:0:0:0:
64,192,123637,1,0,0:0:0:0:
64,192,123697,1,0,0:0:0:0:
320,192,123757,1,0,0:0:0:0:
192,192,123816,1,0,0:0:0:0:
320,192,123876,1,0,0:0:0:0:
64,192,123876,1,0,0:0:0:0:
448,192,123935,1,0,0:0:0:0:
320,192,123995,1,0,0:0:0:0:
64,192,123995,1,0,0:0:0:0:
192,192,124055,1,0,0:0:0:0:
448,192,124114,1,0,0:0:0:0:
320,192,124114,1,0,0:0:0:0:
64,192,124114,1,0,0:0:0:0:
192,192,124173,1,0,0:0:0:0:
320,192,124233,1,0,0:0:0:0:
448,192,124292,1,0,0:0:0:0:
320,192,124352,1,0,0:0:0:0:
192,192,124352,1,0,0:0:0:0:
64,192,124352,1,0,0:0:0:0:
448,192,124412,1,0,0:0:0:0:
192,192,124471,1,0,0:0:0:0:
64,192,124471,1,0,0:0:0:0:
320,192,124530,1,0,0:0:0:0:
320,192,124590,1,0,0:0:0:0:
448,192,124590,1,0,0:0:0:0:
192,192,124590,1,0,0:0:0:0:
64,192,124590,1,0,0:0:0:0:
192,192,124650,1,0,0:0:0:0:
64,192,124709,1,0,0:0:0:0:
448,192,124769,1,0,0:0:0:0:
320,192,124828,1,0,0:0:0:0:
192,192,124828,1,0,0:0:0:0:
64,192,124887,1,0,0:0:0:0:
448,192,124947,1,0,0:0:0:0:
192,192,124947,1,0,0:0:0:0:
320,192,124947,1,0,0:0:0:0:
64,192,125007,1,0,0:0:0:0:
320,192,125066,1,0,0:0:0:0:
192,192,125066,1,0,0:0:0:0:
448,192,125066,1,0,0:0:0:0:
64,192,125126,1,0,0:0:0:0:
192,192,125185,1,0,0:0:0:0:
448,192,125185,1,0,0:0:0:0:
320,192,125245,1,0,0:0:0:0:
320,192,125305,1,0,0:0:0:0:
448,192,125305,1,0,0:0:0:0:
192,192,125305,1,0,0:0:0:0:
64,192,125305,1,0,0:0:0:0:
192,192,125364,1,0,0:0:0:0:
320,192,125423,1,0,0:0:0:0:
448,192,125423,1,0,0:0:0:0:
192,192,125483,1,0,0:0:0:0:
320,192,125542,1,0,0:0:0:0:
448,192,125542,1,0,0:0:0:0:
192,192,125542,1,0,0:0:0:0:
64,192,125542,1,0,0:0:0:0:
64,192,125602,1,0,0:0:0:0:
192,192,125662,1,0,0:0:0:0:
448,192,125662,1,0,0:0:0:0:
320,192,125721,1,0,0:0:0:0:
448,192,125780,1,0,0:0:0:0:
192,192,125780,1,0,0:0:0:0:
64,192,125780,1,0,0:0:0:0:
320,192,125840,1,0,0:0:0:0:
192,192,125900,1,0,0:0:0:0:
64,192,125900,1,0,0:0:0:0:
448,192,125959,1,0,0:0:0:0:
320,192,126019,1,0,0:0:0:0:
192,192,126019,1,0,0:0:0:0:
64,192,126019,1,0,0:0:0:0:
448,192,126078,1,0,0:0:0:0:
192,192,126137,1,0,0:0:0:0:
320,192,126137,1,0,0:0:0:0:
64,192,126197,1,0,0:0:0:0:
320,192,126257,1,0,0:0:0:0:
448,192,126257,1,0,0:0:0:0:
192,192,126257,1,0,0:0:0:0:
64,192,126257,1,0,0:0:0:0:
320,192,126316,1,0,0:0:0:0:
192,192,126376,1,0,0:0:0:0:
64,192,126376,1,0,0:0:0:0:
448,192,126435,1,0,0:0:0:0:
320,192,126495,1,0,0:0:0:0:
448,192,126495,1,0,0:0:0:0:
192,192,126495,1,0,0:0:0:0:
64,192,126495,1,0,0:0:0:0:
192,192,126555,1,0,0:0:0:0:
320,192,126614,1,0,0:0:0:0:
64,192,126614,1,0,0:0:0:0:
448,192,126673,1,0,0:0:0:0:
320,192,126733,1,0,0:0:0:0:
192,192,126733,1,0,0:0:0:0:
64,192,126733,1,0,0:0:0:0:
448,192,126792,1,0,0:0:0:0:
192,192,126852,1,0,0:0:0:0:
320,192,126852,1,0,0:0:0:0:
64,192,126912,1,0,0:0:0:0:
320,192,126971,1,0,0:0:0:0:
192,192,126971,1,0,0:0:0:0:
448,192,126971,1,0,0:0:0:0:
64,192,127030,1,0,0:0:0:0:
192,192,127090,1,0,0:0:0:0:
448,192,127090,1,0,0:0:0:0:
320,192,127150,1,0,0:0:0:0:
448,192,127209,1,0,0:0:0:0:
192,192,127209,1,0,0:0:0:0:
64,192,127209,1,0,0:0:0:0:
320,192,127269,1,0,0:0:0:0:
448,192,127328,1,0,0:0:0:0:
192,192,127328,1,0,0:0:0:0:
64,192,127328,1,0,0:0:0:0:
320,192,127387,1,0,0:0:0:0:
320,192,127447,1,0,0:0:0:0:
448,192,127447,1,0,0:0:0:0:
192,192,127447,1,0,0:0:0:0:
64,192,127447,1,0,0:0:0:0:
64,192,127507,1,0,0:0:0:0:
192,192,127566,1,0,0:0:0:0:
320,192,127566,1,0,0:0:0:0:
64,192,127626,1,0,0:0:0:0:
320,192,127685,1,0,0:0:0:0:
192,192,127685,1,0,0:0:0:0:
448,192,127685,1,0,0:0:0:0:
64,192,127745,1,0,0:0:0:0:
192,192,127805,1,0,0:0:0:0:
448,192,127805,1,0,0:0:0:0:
320,192,127864,1,0,0:0:0:0:
320,192,127923,1,0,0:0:0:0:
448,192,127923,1,0,0:0:0:0:
192,192,127923,1,0,0:0:0:0:
64,192,127923,1,0,0:0:0:0:
64,192,127983,1,0,0:0:0:0:
192,192,128042,1,0,0:0:0:0:
448,192,128042,1,0,0:0:0:0:
320,192,128102,1,0,0:0:0:0:
448,192,128162,1,0,0:0:0:0:
192,192,128162,1,0,0:0:0:0:
64,192,128162,1,0,0:0:0:0:
320,192,128221,1,0,0:0:0:0:
192,192,128280,1,0,0:0:0:0:
64,192,128280,1,0,0:0:0:0:
320,192,128340,1,0,0:0:0:0:
320,192,128400,1,0,0:0:0:0:
448,192,128400,1,0,0:0:0:0:
192,192,128400,1,0,0:0:0:0:
64,192,128400,1,0,0:0:0:0:
192,192,128459,1,0,0:0:0:0:
448,192,128519,1,0,0:0:0:0:
64,192,128519,1,0,0:0:0:0:
320,192,128578,1,0,0:0:0:0:
448,192,128637,1,0,0:0:0:0:
192,192,128637,1,0,0:0:0:0:
64,192,128637,1,0,0:0:0:0:
320,192,128697,1,0,0:0:0:0:
192,192,128757,1,0,0:0:0:0:
64,192,128757,1,0,0:0:0:0:
448,192,128816,1,0,0:0:0:0:
320,192,128876,1,0,0:0:0:0:
448,192,128876,1,0,0:0:0:0:
192,192,128876,1,0,0:0:0:0:
64,192,128876,1,0,0:0:0:0:
192,192,128935,1,0,0:0:0:0:
320,192,128995,1,0,0:0:0:0:
64,192,128995,1,0,0:0:0:0:
192,192,129055,1,0,0:0:0:0:
320,192,129114,1,0,0:0:0:0:
448,192,129114,1,0,0:0:0:0:
64,192,129114,1,0,0:0:0:0:
192,192,129173,1,0,0:0:0:0:
320,192,129233,1,0,0:0:0:0:
448,192,129233,1,0,0:0:0:0:
192,192,129292,1,0,0:0:0:0:
320,192,129352,1,0,0:0:0:0:
448,192,129352,1,0,0:0:0:0:
192,192,129352,1,0,0:0:0:0:
64,192,129352,1,0,0:0:0:0:
448,192,129412,1,0,0:0:0:0:
320,192,129471,1,0,0:0:0:0:
64,192,129471,1,0,0:0:0:0:
192,192,129530,1,0,0:0:0:0:
320,192,129590,1,0,0:0:0:0:
448,192,129590,1,0,0:0:0:0:
64,192,129590,1,0,0:0:0:0:
192,192,129650,1,0,0:0:0:0:
320,192,129709,1,0,0:0:0:0:
448,192,129709,1,0,0:0:0:0:
64,192,129769,1,0,0:0:0:0:
320,192,129828,1,0,0:0:0:0:
192,192,129828,1,0,0:0:0:0:
448,192,129828,1,0,0:0:0:0:
64,192,129887,1,0,0:0:0:0:
192,192,129947,1,0,0:0:0:0:
448,192,129947,1,0,0:0:0:0:
320,192,130007,1,0,0:0:0:0:
320,192,130066,1,0,0:0:0:0:
448,192,130066,1,0,0:0:0:0:
192,192,130066,1,0,0:0:0:0:
64,192,130066,1,0,0:0:0:0:
64,192,130126,1,0,0:0:0:0:
192,192,130185,1,0,0:0:0:0:
448,192,130185,1,0,0:0:0:0:
320,192,130245,1,0,0:0:0:0:
320,192,130305,1,0,0:0:0:0:
448,192,130305,1,0,0:0:0:0:
192,192,130305,1,0,0:0:0:0:
64,192,130305,1,0,0:0:0:0:
448,192,130364,1,0,0:0:0:0:
192,192,130423,1,0,0:0:0:0:
320,192,130423,1,0,0:0:0:0:
64,192,130483,1,0,0:0:0:0:
320,192,130542,1,0,0:0:0:0:
192,192,130542,1,0,0:0:0:0:
448,192,130542,1,0,0:0:0:0:
64,192,130602,1,0,0:0:0:0:
192,192,130662,1,0,0:0:0:0:
320,192,130662,1,0,0:0:0:0:
448,192,130721,1,0,0:0:0:0:
320,192,130780,1,0,0:0:0:0:
192,192,130780,1,0,0:0:0:0:
64,192,130780,1,0,0:0:0:0:
448,192,130840,1,0,0:0:0:0:
64,192,130840,1,0,0:0:0:0:
192,192,130900,1,0,0:0:0:0:
320,192,130900,1,0,0:0:0:0:
448,192,130959,1,0,0:0:0:0:
64,192,130959,1,0,0:0:0:0:
320,192,131019,1,0,0:0:0:0:
192,192,131019,1,0,0:0:0:0:
448,192,131078,1,0,0:0:0:0:
64,192,131078,1,0,0:0:0:0:
320,192,131137,1,0,0:0:0:0:
192,192,131137,1,0,0:0:0:0:
448,192,131197,1,0,0:0:0:0:
64,192,131197,1,0,0:0:0:0:
320,192,131257,1,0,0:0:0:0:
448,192,131257,1,0,0:0:0:0:
192,192,131257,1,0,0:0:0:0:
64,192,131257,1,0,0:0:0:0:
320,192,131316,1,0,0:0:0:0:
192,192,131376,1,0,0:0:0:0:
64,192,131376,1,0,0:0:0:0:
448,192,131435,1,0,0:0:0:0:
320,192,131495,1,0,0:0:0:0:
192,192,131495,1,0,0:0:0:0:
64,192,131495,1,0,0:0:0:0:
448,192,131555,1,0,0:0:0:0:
64,192,131614,1,0,0:0:0:0:
320,192,131614,1,0,0:0:0:0:
192,192,131673,1,0,0:0:0:0:
320,192,131733,1,0,0:0:0:0:
448,192,131733,1,0,0:0:0:0:
192,192,131733,1,0,0:0:0:0:
64,192,131733,1,0,0:0:0:0:
448,192,131792,1,0,0:0:0:0:
320,192,131852,1,0,0:0:0:0:
64,192,131852,1,0,0:0:0:0:
192,192,131912,1,0,0:0:0:0:
320,192,131971,1,0,0:0:0:0:
448,192,131971,1,0,0:0:0:0:
64,192,131971,1,0,0:0:0:0:
192,192,132030,1,0,0:0:0:0:
320,192,132090,1,0,0:0:0:0:
448,192,132150,1,0,0:0:0:0:
320,192,132209,1,0,0:0:0:0:
448,192,132209,1,0,0:0:0:0:
192,192,132209,1,0,0:0:0:0:
64,192,132209,1,0,0:0:0:0:
64,192,132269,1,0,0:0:0:0:
192,192,132328,1,0,0:0:0:0:
448,192,132328,1,0,0:0:0:0:
320,192,132387,1,0,0:0:0:0:
448,192,132447,1,0,0:0:0:0:
192,192,132447,1,0,0:0:0:0:
64,192,132447,1,0,0:0:0:0:
320,192,132507,1,0,0:0:0:0:
192,192,132566,1,0,0:0:0:0:
64,192,132566,1,0,0:0:0:0:
448,192,132626,1,0,0:0:0:0:
320,192,132685,1,0,0:0:0:0:
448,192,132685,1,0,0:0:0:0:
192,192,132685,1,0,0:0:0:0:
64,192,132685,1,0,0:0:0:0:
192,192,132745,1,0,0:0:0:0:
320,192,132805,1,0,0:0:0:0:
64,192,132805,1,0,0:0:0:0:
448,192,132864,1,0,0:0:0:0:
320,192,132923,1,0,0:0:0:0:
192,192,132923,1,0,0:0:0:0:
64,192,132923,1,0,0:0:0:0:
192,192,132983,1,0,0:0:0:0:
320,192,133042,1,0,0:0:0:0:
64,192,133042,1,0,0:0:0:0:
448,192,133102,1,0,0:0:0:0:
320,192,133162,1,0,0:0:0:0:
448,192,133162,1,0,0:0:0:0:
192,192,133162,1,0,0:0:0:0:
64,192,133162,1,0,0:0:0:0:
320,192,133221,1,0,0:0:0:0:
192,192,133280,1,0,0:0:0:0:
64,192,133340,1,0,0:0:0:0:
320,192,133400,1,0,0:0:0:0:
448,192,133400,1,0,0:0:0:0:
192,192,133459,1,0,0:0:0:0:
64,192,133519,1,0,0:0:0:0:
448,192,133578,1,0,0:0:0:0:
320,192,133637,1,0,0:0:0:0:
192,192,133637,1,0,0:0:0:0:
64,192,133637,1,0,0:0:0:0:
448,192,133697,1,0,0:0:0:0:
320,192,133757,1,0,0:0:0:0:
64,192,133757,1,0,0:0:0:0:
192,192,133816,1,0,0:0:0:0:
320,192,133876,1,0,0:0:0:0:
448,192,133876,1,0,0:0:0:0:
64,192,133876,1,0,0:0:0:0:
192,192,133935,1,0,0:0:0:0:
448,192,133995,1,0,0:0:0:0:
64,192,133995,1,0,0:0:0:0:
192,192,134055,1,0,0:0:0:0:
320,192,134114,1,0,0:0:0:0:
448,192,134114,1,0,0:0:0:0:
64,192,134114,1,0,0:0:0:0:
192,192,134173,1,0,0:0:0:0:
64,192,134233,1,0,0:0:0:0:
448,192,134233,1,0,0:0:0:0:
192,192,134292,1,0,0:0:0:0:
320,192,134352,1,0,0:0:0:0:
448,192,134352,1,0,0:0:0:0:
64,192,134352,1,0,0:0:0:0:
192,192,134412,1,0,0:0:0:0:
64,192,134471,1,0,0:0:0:0:
448,192,134471,1,0,0:0:0:0:
320,192,134530,1,0,0:0:0:0:
320,192,134590,1,0,0:0:0:0:
448,192,134590,1,0,0:0:0:0:
192,192,134590,1,0,0:0:0:0:
64,192,134590,1,0,0:0:0:0:
192,192,134650,1,0,0:0:0:0:
448,192,134709,1,0,0:0:0:0:
64,192,134709,1,0,0:0:0:0:
320,192,134769,1,0,0:0:0:0:
192,192,134828,1,0,0:0:0:0:
448,192,134828,1,0,0:0:0:0:
64,192,134828,1,0,0:0:0:0:
320,192,134887,1,0,0:0:0:0:
192,192,134947,1,0,0:0:0:0:
448,192,134947,1,0,0:0:0:0:
64,192,135007,1,0,0:0:0:0:
320,192,135066,128,0,135542:0:0:0:0:
448,192,135066,1,0,0:0:0:0:
192,192,135185,1,0,0:0:0:0:
448,192,135305,1,0,0:0:0:0:
64,192,135305,1,0,0:0:0:0:
192,192,135423,1,0,0:0:0:0:
64,192,135542,128,0,135780:0:0:0:0:
448,192,135542,1,0,0:0:0:0:
192,192,135542,1,0,0:0:0:0:
192,192,135662,1,0,0:0:0:0:
192,192,135780,128,0,136019:0:0:0:0:
448,192,135780,1,0,0:0:0:0:
320,192,135780,1,0,0:0:0:0:
320,192,135900,1,0,0:0:0:0:
320,192,136019,128,0,136435:0:0:0:0:
64,192,136019,1,0,0:0:0:0:
448,192,136019,1,0,0:0:0:0:
192,192,136137,1,0,0:0:0:0:
64,192,136257,1,0,0:0:0:0:
448,192,136257,1,0,0:0:0:0:
192,192,136376,1,0,0:0:0:0:
64,192,136435,128,0,136495:0:0:0:0:
448,192,136495,128,0,136614:0:0:0:0:
192,192,136495,1,0,0:0:0:0:
320,192,136495,1,0,0:0:0:0:
320,192,136614,128,0,136792:0:0:0:0:
64,192,136614,1,0,0:0:0:0:
448,192,136733,1,0,0:0:0:0:
192,192,136733,1,0,0:0:0:0:
64,192,136792,128,0,137030:0:0:0:0:
448,192,136852,1,0,0:0:0:0:
192,192,136971,1,0,0:0:0:0:
320,192,136971,1,0,0:0:0:0:
448,192,137030,128,0,137387:0:0:0:0:
320,192,137090,1,0,0:0:0:0:
64,192,137209,1,0,0:0:0:0:
192,192,137209,1,0,0:0:0:0:
192,192,137328,1,0,0:0:0:0:
320,192,137387,128,0,137685:0:0:0:0:
64,192,137447,1,0,0:0:0:0:
192,192,137447,1,0,0:0:0:0:
448,192,137566,1,0,0:0:0:0:
192,192,137685,128,0,137923:0:0:0:0:
64,192,137685,1,0,0:0:0:0:
448,192,137685,1,0,0:0:0:0:
320,192,137805,1,0,0:0:0:0:
64,192,137923,128,0,138280:0:0:0:0:
320,192,137923,1,0,0:0:0:0:
448,192,137923,1,0,0:0:0:0:
192,192,138042,1,0,0:0:0:0:
320,192,138162,1,0,0:0:0:0:
448,192,138162,1,0,0:0:0:0:
192,192,138280,128,0,138637:0:0:0:0:
448,192,138280,1,0,0:0:0:0:
64,192,138400,1,0,0:0:0:0:
320,192,138400,1,0,0:0:0:0:
64,192,138519,1,0,0:0:0:0:
448,192,138637,128,0,138876:0:0:0:0:
320,192,138637,1,0,0:0:0:0:
64,192,138637,1,0,0:0:0:0:
192,192,138757,1,0,0:0:0:0:
320,192,138876,128,0,139590:0:0:0:0:
64,192,138876,1,0,0:0:0:0:
192,192,138876,1,0,0:0:0:0:
192,192,138995,1,0,0:0:0:0:
64,192,139114,1,0,0:0:0:0:
448,192,139114,1,0,0:0:0:0:
192,192,139233,1,0,0:0:0:0:
64,192,139352,1,0,0:0:0:0:
448,192,139352,1,0,0:0:0:0:
192,192,139471,1,0,0:0:0:0:
64,192,139590,128,0,139828:0:0:0:0:
192,192,139590,1,0,0:0:0:0:
448,192,139590,1,0,0:0:0:0:
320,192,139709,1,0,0:0:0:0:
192,192,139828,128,0,140185:0:0:0:0:
320,192,139828,1,0,0:0:0:0:
448,192,139828,1,0,0:0:0:0:
320,192,139947,1,0,0:0:0:0:
64,192,140066,1,0,0:0:0:0:
320,192,140066,1,0,0:0:0:0:
448,192,140185,128,0,140542:0:0:0:0:
64,192,140185,1,0,0:0:0:0:
192,192,140305,1,0,0:0:0:0:
320,192,140305,1,0,0:0:0:0:
192,192,140423,1,0,0:0:0:0:
320,192,140542,128,0,140780:0:0:0:0:
64,192,140542,1,0,0:0:0:0:
192,192,140542,1,0,0:0:0:0:
64,192,140662,1,0,0:0:0:0:
192,192,140780,128,0,141733:0:0:0:0:
448,192,140780,1,0,0:0:0:0:
64,192,140780,1,0,0:0:0:0:
320,192,140900,1,0,0:0:0:0:
64,192,141019,1,0,0:0:0:0:
448,192,141019,1,0,0:0:0:0:
320,192,141137,1,0,0:0:0:0:
320,192,141257,1,0,0:0:0:0:
64,192,141257,1,0,0:0:0:0:
448,192,141376,1,0,0:0:0:0:
320,192,141495,1,0,0:0:0:0:
64,192,141495,1,0,0:0:0:0:
448,192,141614,1,0,0:0:0:0:
64,192,141733,128,0,142269:0:0:0:0:
320,192,141733,1,0,0:0:0:0:
448,192,141733,1,0,0:0:0:0:
320,192,141852,1,0,0:0:0:0:
192,192,141971,1,0,0:0:0:0:
448,192,141971,1,0,0:0:0:0:
320,192,142090,1,0,0:0:0:0:
192,192,142209,1,0,0:0:0:0:
448,192,142209,1,0,0:0:0:0:
320,192,142269,128,0,142328:0:0:0:0:
192,192,142328,128,0,142387:0:0:0:0:
64,192,142387,128,0,142447:0:0:0:0:
192,192,142447,128,0,142507:0:0:0:0:
448,192,142447,1,0,0:0:0:0:
320,192,142507,128,0,142566:0:0:0:0:
448,192,142566,128,0,142626:0:0:0:0:
320,192,142626,128,0,142685:0:0:0:0:
64,192,142685,128,0,143637:0:0:0:0:
192,192,142685,1,0,0:0:0:0:
448,192,142805,1,0,0:0:0:0:
192,192,142923,1,0,0:0:0:0:
320,192,142923,1,0,0:0:0:0:
192,192,143042,1,0,0:0:0:0:
320,192,143162,1,0,0:0:0:0:
448,192,143162,1,0,0:0:0:0:
320,192,143280,1,0,0:0:0:0:
192,192,143400,1,0,0:0:0:0:
448,192,143400,1,0,0:0:0:0:
320,192,143519,1,0,0:0:0:0:
448,192,143637,128,0,143876:0:0:0:0:
192,192,143637,1,0,0:0:0:0:
320,192,143637,1,0,0:0:0:0:
192,192,143757,1,0,0:0:0:0:
192,192,143876,128,0,144114:0:0:0:0:
64,192,143876,1,0,0:0:0:0:
320,192,143876,1,0,0:0:0:0:
320,192,143995,1,0,0:0:0:0:
320,192,144114,128,0,144352:0:0:0:0:
64,192,144114,1,0,0:0:0:0:
448,192,144114,1,0,0:0:0:0:
192,192,144233,1,0,0:0:0:0:
448,192,144352,128,0,144471:0:0:0:0:
64,192,144352,1,0,0:0:0:0:
192,192,144352,1,0,0:0:0:0:
64,192,144471,128,0,144590:0:0:0:0:
320,192,144471,1,0,0:0:0:0:
448,192,144590,128,0,145305:0:0:0:0:
192,192,144590,1,0,0:0:0:0:
320,192,144590,1,0,0:0:0:0:
192,192,144709,1,0,0:0:0:0:
64,192,144828,1,0,0:0:0:0:
320,192,144828,1,0,0:0:0:0:
192,192,144947,1,0,0:0:0:0:
192,192,145066,1,0,0:0:0:0:
320,192,145066,1,0,0:0:0:0:
192,192,145185,1,0,0:0:0:0:
320,192,145305,128,0,145423:0:0:0:0:
64,192,145305,1,0,0:0:0:0:
192,192,145305,1,0,0:0:0:0:
192,192,145423,128,0,145542:0:0:0:0:
448,192,145423,1,0,0:0:0:0:
64,192,145542,128,0,146257:0:0:0:0:
320,192,145542,1,0,0:0:0:0:
448,192,145542,1,0,0:0:0:0:
192,192,145662,1,0,0:0:0:0:
320,192,145780,1,0,0:0:0:0:
448,192,145780,1,0,0:0:0:0:
320,192,145900,1,0,0:0:0:0:
192,192,146019,1,0,0:0:0:0:
320,192,146019,1,0,0:0:0:0:
448,192,146137,1,0,0:0:0:0:
192,192,146257,128,0,146376:0:0:0:0:
320,192,146257,1,0,0:0:0:0:
448,192,146257,1,0,0:0:0:0:
320,192,146376,128,0,146495:0:0:0:0:
64,192,146376,1,0,0:0:0:0:
448,192,146495,128,0,146852:0:0:0:0:
64,192,146495,1,0,0:0:0:0:
192,192,146495,1,0,0:0:0:0:
320,192,146614,1,0,0:0:0:0:
192,192,146733,1,0,0:0:0:0:
64,192,146733,1,0,0:0:0:0:
320,192,146852,128,0,147209:0:0:0:0:
192,192,146852,1,0,0:0:0:0:
64,192,146971,1,0,0:0:0:0:
448,192,146971,1,0,0:0:0:0:
192,192,147090,1,0,0:0:0:0:
64,192,147209,128,0,147447:0:0:0:0:
192,192,147209,1,0,0:0:0:0:
448,192,147209,1,0,0:0:0:0:
320,192,147328,1,0,0:0:0:0:
448,192,147447,128,0,147805:0:0:0:0:
192,192,147447,1,0,0:0:0:0:
320,192,147447,1,0,0:0:0:0:
320,192,147566,1,0,0:0:0:0:
192,192,147685,1,0,0:0:0:0:
64,192,147685,1,0,0:0:0:0:
64,192,147805,128,0,147864:0:0:0:0:
192,192,147805,1,0,0:0:0:0:
320,192,147864,128,0,147923:0:0:0:0:
448,192,147923,128,0,148162:0:0:0:0:
64,192,147923,1,0,0:0:0:0:
192,192,147923,1,0,0:0:0:0:
192,192,148042,1,0,0:0:0:0:
64,192,148162,128,0,148400:0:0:0:0:
192,192,148162,1,0,0:0:0:0:
320,192,148162,1,0,0:0:0:0:
320,192,148280,1,0,0:0:0:0:
320,192,148400,128,0,149114:0:0:0:0:
192,192,148400,1,0,0:0:0:0:
448,192,148400,1,0,0:0:0:0:
192,192,148519,1,0,0:0:0:0:
64,192,148637,1,0,0:0:0:0:
192,192,148637,1,0,0:0:0:0:
192,192,148757,1,0,0:0:0:0:
192,192,148876,1,0,0:0:0:0:
448,192,148876,1,0,0:0:0:0:
192,192,148995,1,0,0:0:0:0:
64,192,149114,128,0,149193:0:0:0:0:
192,192,149114,1,0,0:0:0:0:
448,192,149114,1,0,0:0:0:0:
320,192,149193,128,0,149272:0:0:0:0:
192,192,149272,128,0,149312:0:0:0:0:
448,192,149312,128,0,149352:0:0:0:0:
64,192,149352,128,0,150305:0:0:0:0:
320,192,149352,1,0,0:0:0:0:
192,192,149471,1,0,0:0:0:0:
320,192,149590,1,0,0:0:0:0:
448,192,149590,1,0,0:0:0:0:
192,192,149709,1,0,0:0:0:0:
320,192,149828,1,0,0:0:0:0:
448,192,149828,1,0,0:0:0:0:
320,192,149947,1,0,0:0:0:0:
192,192,150066,1,0,0:0:0:0:
320,192,150066,1,0,0:0:0:0:
448,192,150185,1,0,0:0:0:0:
192,192,150305,1,0,0:0:0:0:
320,192,150305,1,0,0:0:0:0:
448,192,150305,128,0,150662:0:0:0:0:
64,192,150423,1,0,0:0:0:0:
192,192,150542,1,0,0:0:0:0:
320,192,150542,1,0,0:0:0:0:
64,192,150662,128,0,150780:0:0:0:0:
192,192,150662,1,0,0:0:0:0:
320,192,150780,128,0,150900:0:0:0:0:
192,192,150780,1,0,0:0:0:0:
448,192,150780,1,0,0:0:0:0:
192,192,150900,128,0,151019:0:0:0:0:
448,192,150900,1,0,0:0:0:0:
64,192,151019,128,0,151137:0:0:0:0:
320,192,151019,1,0,0:0:0:0:
448,192,151019,1,0,0:0:0:0:
192,192,151137,128,0,151257:0:0:0:0:
320,192,151137,1,0,0:0:0:0:
448,192,151257,128,0,151495:0:0:0:0:
320,192,151257,1,0,0:0:0:0:
64,192,151257,1,0,0:0:0:0:
192,192,151376,1,0,0:0:0:0:
320,192,151495,128,0,151733:0:0:0:0:
64,192,151495,1,0,0:0:0:0:
192,192,151495,1,0,0:0:0:0:
192,192,151614,1,0,0:0:0:0:
192,192,151733,128,0,151971:0:0:0:0:
64,192,151733,1,0,0:0:0:0:
448,192,151733,1,0,0:0:0:0:
320,192,151852,1,0,0:0:0:0:
64,192,151971,1,0,0:0:0:0:
448,192,151971,1,0,0:0:0:0:
320,192,152090,1,0,0:0:0:0:
448,192,152209,128,0,152566:0:0:0:0:
192,192,152209,1,0,0:0:0:0:
64,192,152209,1,0,0:0:0:0:
320,192,152328,1,0,0:0:0:0:
64,192,152447,1,0,0:0:0:0:
192,192,152447,1,0,0:0:0:0:
64,192,152566,128,0,152685:0:0:0:0:
320,192,152566,1,0,0:0:0:0:
320,192,152685,128,0,152805:0:0:0:0:
192,192,152685,1,0,0:0:0:0:
448,192,152685,1,0,0:0:0:0:
192,192,152805,128,0,152923:0:0:0:0:
448,192,152805,1,0,0:0:0:0:
64,192,152923,128,0,153042:0:0:0:0:
320,192,152923,1,0,0:0:0:0:
448,192,152923,1,0,0:0:0:0:
192,192,153042,128,0,153162:0:0:0:0:
320,192,153042,1,0,0:0:0:0:
448,192,153162,128,0,153400:0:0:0:0:
64,192,153162,1,0,0:0:0:0:
320,192,153162,1,0,0:0:0:0:
192,192,153280,1,0,0:0:0:0:
64,192,153400,128,0,153637:0:0:0:0:
192,192,153400,1,0,0:0:0:0:
320,192,153400,1,0,0:0:0:0:
320,192,153519,1,0,0:0:0:0:
192,192,153637,128,0,153876:0:0:0:0:
320,192,153637,1,0,0:0:0:0:
448,192,153637,1,0,0:0:0:0:
320,192,153757,1,0,0:0:0:0:
64,192,153876,1,0,0:0:0:0:
320,192,153876,1,0,0:0:0:0:
192,192,153995,1,0,0:0:0:0:
448,192,154114,128,0,154471:0:0:0:0:
64,192,154114,1,0,0:0:0:0:
320,192,154114,1,0,0:0:0:0:
192,192,154233,1,0,0:0:0:0:
64,192,154352,1,0,0:0:0:0:
192,192,154352,1,0,0:0:0:0:
320,192,154471,128,0,154590:0:0:0:0:
192,192,154471,1,0,0:0:0:0:
192,192,154590,128,0,154709:0:0:0:0:
64,192,154590,1,0,0:0:0:0:
448,192,154590,1,0,0:0:0:0:
64,192,154709,128,0,154828:0:0:0:0:
320,192,154709,1,0,0:0:0:0:
320,192,154828,128,0,154947:0:0:0:0:
192,192,154828,1,0,0:0:0:0:
448,192,154828,1,0,0:0:0:0:
448,192,154947,128,0,155066:0:0:0:0:
64,192,154947,1,0,0:0:0:0:
64,192,155066,128,0,155305:0:0:0:0:
192,192,155066,1,0,0:0:0:0:
320,192,155066,1,0,0:0:0:0:
320,192,155185,1,0,0:0:0:0:
192,192,155305,128,0,155542:0:0:0:0:
320,192,155305,1,0,0:0:0:0:
448,192,155305,1,0,0:0:0:0:
320,192,155423,1,0,0:0:0:0:
320,192,155542,128,0,155780:0:0:0:0:
64,192,155542,1,0,0:0:0:0:
448,192,155542,1,0,0:0:0:0:
192,192,155662,1,0,0:0:0:0:
64,192,155780,1,0,0:0:0:0:
448,192,155780,1,0,0:0:0:0:
320,192,155900,1,0,0:0:0:0:
448,192,156019,128,0,156376:0:0:0:0:
192,192,156019,1,0,0:0:0:0:
64,192,156019,1,0,0:0:0:0:
320,192,156137,1,0,0:0:0:0:
192,192,156257,1,0,0:0:0:0:
64,192,156257,1,0,0:0:0:0:
192,192,156376,128,0,156495:0:0:0:0:
320,192,156376,1,0,0:0:0:0:
320,192,156495,128,0,156614:0:0:0:0:
64,192,156495,1,0,0:0:0:0:
448,192,156495,1,0,0:0:0:0:
448,192,156614,128,0,156733:0:0:0:0:
192,192,156614,1,0,0:0:0:0:
320,192,156733,128,0,156852:0:0:0:0:
64,192,156733,1,0,0:0:0:0:
192,192,156733,1,0,0:0:0:0:
192,192,156852,128,0,156971:0:0:0:0:
448,192,156852,1,0,0:0:0:0:
320,192,156971,128,0,157209:0:0:0:0:
64,192,156971,1,0,0:0:0:0:
448,192,156971,1,0,0:0:0:0:
192,192,157090,1,0,0:0:0:0:
64,192,157209,128,0,157447:0:0:0:0:
192,192,157209,1,0,0:0:0:0:
448,192,157209,1,0,0:0:0:0:
320,192,157328,1,0,0:0:0:0:
192,192,157447,128,0,157685:0:0:0:0:
320,192,157447,1,0,0:0:0:0:
448,192,157447,1,0,0:0:0:0:
320,192,157566,1,0,0:0:0:0:
64,192,157685,1,0,0:0:0:0:
448,192,157685,1,0,0:0:0:0:
320,192,157805,1,0,0:0:0:0:
192,192,157923,1,0,0:0:0:0:
64,192,157923,1,0,0:0:0:0:
448,192,158042,1,0,0:0:0:0:
64,192,158042,1,0,0:0:0:0:
320,192,158102,1,0,0:0:0:0:
192,192,158162,1,0,0:0:0:0:
448,192,158162,1,0,0:0:0:0:
64,192,158221,1,0,0:0:0:0:
192,192,158280,1,0,0:0:0:0:
320,192,158280,1,0,0:0:0:0:
448,192,158400,1,0,0:0:0:0:
64,192,158400,1,0,0:0:0:0:
320,192,158519,1,0,0:0:0:0:
192,192,158519,1,0,0:0:0:0:
192,192,158637,1,0,0:0:0:0:
448,192,158637,1,0,0:0:0:0:
64,192,158757,1,0,0:0:0:0:
64,192,158876,1,0,0:0:0:0:
320,192,158876,1,0,0:0:0:0:
448,192,158995,1,0,0:0:0:0:
192,192,158995,1,0,0:0:0:0:
320,192,159055,1,0,0:0:0:0:
192,192,159114,1,0,0:0:0:0:
448,192,159114,1,0,0:0:0:0:
64,192,159173,1,0,0:0:0:0:
192,192,159233,1,0,0:0:0:0:
448,192,159352,1,0,0:0:0:0:
64,192,159352,1,0,0:0:0:0:
320,192,159471,1,0,0:0:0:0:
448,192,159471,1,0,0:0:0:0:
192,192,159590,1,0,0:0:0:0:
64,192,159590,1,0,0:0:0:0:
320,192,159709,1,0,0:0:0:0:
448,192,159828,1,0,0:0:0:0:
192,192,159828,1,0,0:0:0:0:
320,192,159947,1,0,0:0:0:0:
64,192,159947,1,0,0:0:0:0:
192,192,160066,1,0,0:0:0:0:
448,192,160066,1,0,0:0:0:0:
64,192,160185,1,0,0:0:0:0:
320,192,160185,1,0,0:0:0:0:
448,192,160305,1,0,0:0:0:0:
192,192,160305,1,0,0:0:0:0:
320,192,160423,1,0,0:0:0:0:
448,192,160423,1,0,0:0:0:0:
192,192,160542,1,0,0:0:0:0:
64,192,160542,1,0,0:0:0:0:
320,192,160662,1,0,0:0:0:0:
448,192,160662,1,0,0:0:0:0:
448,192,160780,1,0,0:0:0:0:
64,192,160780,1,0,0:0:0:0:
192,192,160780,1,0,0:0:0:0:
320,192,160840,1,0,0:0:0:0:
192,192,160900,1,0,0:0:0:0:
64,192,160959,1,0,0:0:0:0:
448,192,161019,1,0,0:0:0:0:
320,192,161078,1,0,0:0:0:0:
192,192,161137,1,0,0:0:0:0:
64,192,161197,1,0,0:0:0:0:
448,192,161257,1,0,0:0:0:0:
320,192,161316,1,0,0:0:0:0:
192,192,161376,1,0,0:0:0:0:
64,192,161435,1,0,0:0:0:0:
448,192,161495,1,0,0:0:0:0:
320,192,161555,1,0,0:0:0:0:
192,192,161614,1,0,0:0:0:0:
64,192,161673,1,0,0:0:0:0:
448,192,161733,1,0,0:0:0:0:
320,192,161792,1,0,0:0:0:0:
192,192,161852,1,0,0:0:0:0:
64,192,161912,1,0,0:0:0:0:
448,192,161971,1,0,0:0:0:0:
320,192,162030,1,0,0:0:0:0:
192,192,162090,1,0,0:0:0:0:
64,192,162150,1,0,0:0:0:0:
448,192,162209,1,0,0:0:0:0:
320,192,162269,1,0,0:0:0:0:
192,192,162328,1,0,0:0:0:0:
64,192,162387,1,0,0:0:0:0:
448,192,162447,1,0,0:0:0:0:
320,192,162507,1,0,0:0:0:0:
192,192,162566,1,0,0:0:0:0:
64,192,162626,1,0,0:0:0:0:
448,192,162685,1,0,0:0:0:0:
320,192,162745,1,0,0:0:0:0:
192,192,162805,1,0,0:0:0:0:
64,192,162864,1,0,0:0:0:0:
448,192,162923,1,0,0:0:0:0:
320,192,163042,1,0,0:0:0:0:
192,192,163162,1,0,0:0:0:0:
64,192,163280,1,0,0:0:0:0:
64,192,163400,1,0,0:0:0:0:
192,192,163459,1,0,0:0:0:0:
320,192,163519,1,0,0:0:0:0:
448,192,163578,1,0,0:0:0:0:
64,192,163637,1,0,0:0:0:0:
192,192,163667,1,0,0:0:0:0:
320,192,163697,1,0,0:0:0:0:
448,192,163727,1,0,0:0:0:0:
64,192,163757,1,0,0:0:0:0:
192,192,163787,1,0,0:0:0:0:
320,192,163816,1,0,0:0:0:0:
448,192,163846,1,0,0:0:0:0:
64,192,163876,1,0,0:0:0:0:
192,192,163905,1,0,0:0:0:0:
320,192,163935,1,0,0:0:0:0:
448,192,163965,1,0,0:0:0:0:
64,192,164114,1,0,0:0:0:0:
192,192,164114,1,0,0:0:0:0:
320,192,164173,1,0,0:0:0:0:
448,192,164173,1,0,0:0:0:0:
64,192,164233,1,0,0:0:0:0:
192,192,164233,1,0,0:0:0:0:
320,192,164292,1,0,0:0:0:0:
448,192,164292,1,0,0:0:0:0:
64,192,164352,1,0,0:0:0:0:
192,192,164352,1,0,0:0:0:0:
320,192,164412,1,0,0:0:0:0:
448,192,164412,1,0,0:0:0:0:
64,192,164471,1,0,0:0:0:0:
192,192,164471,1,0,0:0:0:0:
320,192,164530,1,0,0:0:0:0:
448,192,164530,1,0,0:0:0:0:
64,192,164590,128,0,164828:0:0:0:0:
192,192,164590,1,0,0:0:0:0:
320,192,164590,1,0,0:0:0:0:
448,192,164709,1,0,0:0:0:0:
192,192,164828,128,0,164947:0:0:0:0:
320,192,164828,1,0,0:0:0:0:
448,192,164828,1,0,0:0:0:0:
64,192,164947,1,0,0:0:0:0:
320,192,164947,128,0,165066:0:0:0:0:
64,192,165066,128,0,165305:0:0:0:0:
192,192,165066,1,0,0:0:0:0:
448,192,165066,1,0,0:0:0:0:
320,192,165185,1,0,0:0:0:0:
320,192,165305,128,0,165542:0:0:0:0:
192,192,165305,1,0,0:0:0:0:
448,192,165305,1,0,0:0:0:0:
64,192,165423,1,0,0:0:0:0:
448,192,165542,128,0,165662:0:0:0:0:
64,192,165542,1,0,0:0:0:0:
192,192,165542,1,0,0:0:0:0:
64,192,165662,128,0,165780:0:0:0:0:
320,192,165662,1,0,0:0:0:0:
320,192,165780,128,0,165900:0:0:0:0:
192,192,165780,1,0,0:0:0:0:
448,192,165780,1,0,0:0:0:0:
192,192,165900,128,0,166019:0:0:0:0:
448,192,165900,1,0,0:0:0:0:
64,192,166019,128,0,166137:0:0:0:0:
320,192,166019,1,0,0:0:0:0:
448,192,166019,1,0,0:0:0:0:
448,192,166137,128,0,166257:0:0:0:0:
192,192,166137,1,0,0:0:0:0:
320,192,166257,128,0,166376:0:0:0:0:
64,192,166257,1,0,0:0:0:0:
192,192,166257,1,0,0:0:0:0:
64,192,166376,128,0,166495:0:0:0:0:
448,192,166376,1,0,0:0:0:0:
192,192,166495,128,0,166733:0:0:0:0:
320,192,166495,1,0,0:0:0:0:
448,192,166495,1,0,0:0:0:0:
320,192,166614,1,0,0:0:0:0:
320,192,166733,128,0,166852:0:0:0:0:
64,192,166733,1,0,0:0:0:0:
448,192,166733,1,0,0:0:0:0:
448,192,166852,128,0,166971:0:0:0:0:
192,192,166852,1,0,0:0:0:0:
64,192,166971,128,0,167090:0:0:0:0:
192,192,166971,1,0,0:0:0:0:
320,192,166971,1,0,0:0:0:0:
192,192,167090,128,0,167209:0:0:0:0:
448,192,167090,1,0,0:0:0:0:
320,192,167209,128,0,167328:0:0:0:0:
64,192,167209,1,0,0:0:0:0:
448,192,167209,1,0,0:0:0:0:
448,192,167328,128,0,167447:0:0:0:0:
192,192,167328,1,0,0:0:0:0:
64,192,167447,128,0,167685:0:0:0:0:
192,192,167447,1,0,0:0:0:0:
320,192,167447,1,0,0:0:0:0:
320,192,167566,1,0,0:0:0:0:
192,192,167685,128,0,167923:0:0:0:0:
320,192,167685,1,0,0:0:0:0:
448,192,167685,1,0,0:0:0:0:
320,192,167805,1,0,0:0:0:0:
64,192,167923,1,0,0:0:0:0:
448,192,167923,1,0,0:0:0:0:
320,192,167923,1,0,0:0:0:0:
64,192,168042,1,0,0:0:0:0:
448,192,168042,1,0,0:0:0:0:
192,192,168102,1,0,0:0:0:0:
320,192,168102,1,0,0:0:0:0:
64,192,168162,1,0,0:0:0:0:
448,192,168162,1,0,0:0:0:0:
192,192,168221,1,0,0:0:0:0:
320,192,168221,1,0,0:0:0:0:
64,192,168280,1,0,0:0:0:0:
448,192,168280,1,0,0:0:0:0:
192,192,168340,1,0,0:0:0:0:
320,192,168340,1,0,0:0:0:0:
320,192,168400,1,0,0:0:0:0:
448,192,168400,1,0,0:0:0:0:
64,192,168400,128,0,168637:0:0:0:0:
192,192,168519,1,0,0:0:0:0:
192,192,168637,128,0,168757:0:0:0:0:
320,192,168637,1,0,0:0:0:0:
448,192,168637,1,0,0:0:0:0:
320,192,168757,128,0,168876:0:0:0:0:
64,192,168757,1,0,0:0:0:0:
448,192,168876,128,0,169114:0:0:0:0:
64,192,168876,1,0,0:0:0:0:
192,192,168876,1,0,0:0:0:0:
320,192,168995,1,0,0:0:0:0:
64,192,169114,128,0,169352:0:0:0:0:
192,192,169114,1,0,0:0:0:0:
320,192,169114,1,0,0:0:0:0:
320,192,169233,1,0,0:0:0:0:
448,192,169352,128,0,169590:0:0:0:0:
192,192,169352,1,0,0:0:0:0:
320,192,169352,1,0,0:0:0:0:
192,192,169471,1,0,0:0:0:0:
64,192,169590,128,0,169709:0:0:0:0:
192,192,169590,1,0,0:0:0:0:
320,192,169590,1,0,0:0:0:0:
192,192,169709,128,0,169828:0:0:0:0:
320,192,169709,1,0,0:0:0:0:
448,192,169828,128,0,169947:0:0:0:0:
64,192,169828,1,0,0:0:0:0:
320,192,169828,1,0,0:0:0:0:
320,192,169947,128,0,170066:0:0:0:0:
192,192,169947,1,0,0:0:0:0:
64,192,170066,128,0,170305:0:0:0:0:
192,192,170066,1,0,0:0:0:0:
448,192,170066,1,0,0:0:0:0:
320,192,170185,1,0,0:0:0:0:
192,192,170305,128,0,170542:0:0:0:0:
320,192,170305,1,0,0:0:0:0:
448,192,170305,1,0,0:0:0:0:
320,192,170423,1,0,0:0:0:0:
64,192,170542,128,0,170662:0:0:0:0:
320,192,170542,1,0,0:0:0:0:
448,192,170542,1,0,0:0:0:0:
448,192,170662,128,0,170780:0:0:0:0:
192,192,170662,1,0,0:0:0:0:
320,192,170780,128,0,170900:0:0:0:0:
64,192,170780,1,0,0:0:0:0:
192,192,170780,1,0,0:0:0:0:
64,192,170900,128,0,171019:0:0:0:0:
448,192,170900,1,0,0:0:0:0:
192,192,171019,128,0,171137:0:0:0:0:
320,192,171019,1,0,0:0:0:0:
448,192,171019,1,0,0:0:0:0:
320,192,171137,128,0,171257:0:0:0:0:
64,192,171137,128,0,171971:0:0:0:0:
448,192,171137,1,0,0:0:0:0:
192,192,171257,1,0,0:0:0:0:
448,192,171257,1,0,0:0:0:0:
448,192,171971,128,0,172209:0:0:0:0:
320,192,172090,128,0,172209:0:0:0:0:
64,192,172209,1,0,0:0:0:0:
192,192,172209,128,0,172447:0:0:0:0:
448,192,172447,128,0,172566:0:0:0:0:
64,192,172566,128,0,172685:0:0:0:0:
320,192,172685,128,0,172864:0:0:0:0:
64,192,172864,128,0,173042:0:0:0:0:
448,192,173042,128,0,173162:0:0:0:0:
192,192,173162,128,0,173637:0:0:0:0:
320,192,173876,128,0,173995:0:0:0:0:
64,192,173995,128,0,174114:0:0:0:0:
448,192,174114,128,0,174292:0:0:0:0:
192,192,174114,1,0,0:0:0:0:
320,192,174114,1,0,0:0:0:0:
192,192,174292,128,0,174471:0:0:0:0:
448,192,174471,128,0,174590:0:0:0:0:
64,192,174590,128,0,174769:0:0:0:0:
320,192,174769,128,0,174947:0:0:0:0:
64,192,174947,128,0,175126:0:0:0:0:
192,192,175066,1,0,0:0:0:0:
448,192,175066,1,0,0:0:0:0:
320,192,175126,128,0,175305:0:0:0:0:
192,192,175305,128,0,175662:0:0:0:0:
448,192,175780,128,0,175900:0:0:0:0:
320,192,175900,128,0,176019:0:0:0:0:
64,192,176019,128,0,176197:0:0:0:0:
192,192,176019,1,0,0:0:0:0:
448,192,176019,1,0,0:0:0:0:
192,192,176197,128,0,176376:0:0:0:0:
320,192,176376,128,0,176495:0:0:0:0:
448,192,176495,128,0,176673:0:0:0:0:
320,192,176673,128,0,176852:0:0:0:0:
64,192,176852,128,0,176971:0:0:0:0:
192,192,176971,128,0,177447:0:0:0:0:
64,192,177805,128,0,177923:0:0:0:0:
448,192,177923,128,0,178280:0:0:0:0:
192,192,177923,1,0,0:0:0:0:
320,192,177923,1,0,0:0:0:0:
192,192,178280,128,0,178400:0:0:0:0:
320,192,178400,128,0,178578:0:0:0:0:
64,192,178578,128,0,178757:0:0:0:0:
448,192,178757,128,0,178876:0:0:0:0:
192,192,178876,128,0,179471:0:0:0:0:
64,192,178876,1,0,0:0:0:0:
320,192,178876,1,0,0:0:0:0:
320,192,179471,1,0,0:0:0:0:
448,192,179530,1,0,0:0:0:0:
192,192,179590,1,0,0:0:0:0:
320,192,179590,1,0,0:0:0:0:
64,192,179650,1,0,0:0:0:0:
448,192,179650,1,0,0:0:0:0:
192,192,179709,1,0,0:0:0:0:
320,192,179709,1,0,0:0:0:0:
64,192,179769,1,0,0:0:0:0:
448,192,179769,1,0,0:0:0:0:
192,192,179828,1,0,0:0:0:0:
320,192,179828,1,0,0:0:0:0:
448,192,179828,1,0,0:0:0:0:
64,192,179828,1,0,0:0:0:0:
192,192,180066,1,0,0:0:0:0:
320,192,180066,1,0,0:0:0:0:
64,192,180185,1,0,0:0:0:0:
192,192,180305,1,0,0:0:0:0:
320,192,180305,1,0,0:0:0:0:
448,192,180305,1,0,0:0:0:0:
64,192,180305,1,0,0:0:0:0:
192,192,180423,1,0,0:0:0:0:
320,192,180423,1,0,0:0:0:0:
448,192,180423,1,0,0:0:0:0:
192,192,180542,1,0,0:0:0:0:
320,192,180542,1,0,0:0:0:0:
448,192,180542,1,0,0:0:0:0:
64,192,180542,1,0,0:0:0:0:
64,192,180662,1,0,0:0:0:0:
192,192,180780,1,0,0:0:0:0:
320,192,180780,1,0,0:0:0:0:
448,192,180780,1,0,0:0:0:0:
64,192,180780,1,0,0:0:0:0:
192,192,180900,1,0,0:0:0:0:
320,192,181019,1,0,0:0:0:0:
192,192,181019,1,0,0:0:0:0:
448,192,181019,1,0,0:0:0:0:
448,192,181137,1,0,0:0:0:0:
192,192,181257,1,0,0:0:0:0:
320,192,181257,1,0,0:0:0:0:
448,192,181257,1,0,0:0:0:0:
64,192,181257,1,0,0:0:0:0:
320,192,181376,1,0,0:0:0:0:
192,192,181376,1,0,0:0:0:0:
64,192,181376,1,0,0:0:0:0:
320,192,181495,1,0,0:0:0:0:
192,192,181495,1,0,0:0:0:0:
64,192,181495,1,0,0:0:0:0:
448,192,181614,1,0,0:0:0:0:
320,192,181733,1,0,0:0:0:0:
192,192,181733,1,0,0:0:0:0:
448,192,181733,1,0,0:0:0:0:
64,192,181733,1,0,0:0:0:0:
64,192,181852,1,0,0:0:0:0:
192,192,181971,1,0,0:0:0:0:
320,192,181971,1,0,0:0:0:0:
448,192,181971,1,0,0:0:0:0:
64,192,181971,1,0,0:0:0:0:
448,192,182090,1,0,0:0:0:0:
192,192,182090,1,0,0:0:0:0:
320,192,182209,1,0,0:0:0:0:
192,192,182209,1,0,0:0:0:0:
448,192,182209,1,0,0:0:0:0:
64,192,182209,1,0,0:0:0:0:
192,192,182328,1,0,0:0:0:0:
448,192,182328,1,0,0:0:0:0:
64,192,182328,1,0,0:0:0:0:
320,192,182387,1,0,0:0:0:0:
192,192,182447,1,0,0:0:0:0:
448,192,182447,1,0,0:0:0:0:
64,192,182447,1,0,0:0:0:0:
448,192,182566,1,0,0:0:0:0:
320,192,182566,1,0,0:0:0:0:
192,192,182685,1,0,0:0:0:0:
320,192,182685,1,0,0:0:0:0:
448,192,182685,1,0,0:0:0:0:
64,192,182685,1,0,0:0:0:0:
192,192,182805,1,0,0:0:0:0:
320,192,182923,1,0,0:0:0:0:
192,192,182923,1,0,0:0:0:0:
64,192,182923,1,0,0:0:0:0:
448,192,183042,1,0,0:0:0:0:
448,192,183162,1,0,0:0:0:0:
320,192,183162,1,0,0:0:0:0:
64,192,183162,1,0,0:0:0:0:
192,192,183221,1,0,0:0:0:0:
320,192,183280,1,0,0:0:0:0:
448,192,183280,1,0,0:0:0:0:
64,192,183280,1,0,0:0:0:0:
192,192,183340,1,0,0:0:0:0:
320,192,183400,1,0,0:0:0:0:
448,192,183400,1,0,0:0:0:0:
64,192,183400,1,0,0:0:0:0:
192,192,183459,1,0,0:0:0:0:
448,192,183519,1,0,0:0:0:0:
320,192,183519,1,0,0:0:0:0:
192,192,183578,1,0,0:0:0:0:
320,192,183637,1,0,0:0:0:0:
192,192,183637,1,0,0:0:0:0:
448,192,183637,1,0,0:0:0:0:
64,192,183637,1,0,0:0:0:0:
64,192,183816,1,0,0:0:0:0:
320,192,183816,1,0,0:0:0:0:
192,192,183876,1,0,0:0:0:0:
320,192,183876,1,0,0:0:0:0:
64,192,183876,1,0,0:0:0:0:
320,192,183995,1,0,0:0:0:0:
320,192,184114,1,0,0:0:0:0:
192,192,184114,1,0,0:0:0:0:
448,192,184114,1,0,0:0:0:0:
64,192,184233,1,0,0:0:0:0:
448,192,184233,1,0,0:0:0:0:
320,192,184233,1,0,0:0:0:0:
192,192,184292,1,0,0:0:0:0:
64,192,184352,1,0,0:0:0:0:
320,192,184352,1,0,0:0:0:0:
448,192,184352,1,0,0:0:0:0:
448,192,184441,1,0,0:0:0:0:
64,192,184471,1,0,0:0:0:0:
192,192,184590,1,0,0:0:0:0:
320,192,184590,1,0,0:0:0:0:
448,192,184590,1,0,0:0:0:0:
64,192,184590,1,0,0:0:0:0:
192,192,184709,1,0,0:0:0:0:
320,192,184828,1,0,0:0:0:0:
192,192,184828,1,0,0:0:0:0:
448,192,184828,1,0,0:0:0:0:
64,192,184828,1,0,0:0:0:0:
320,192,185066,1,0,0:0:0:0:
448,192,185066,1,0,0:0:0:0:
192,192,185066,1,0,0:0:0:0:
448,192,185185,1,0,0:0:0:0:
320,192,185185,1,0,0:0:0:0:
192,192,185185,1,0,0:0:0:0:
448,192,185305,1,0,0:0:0:0:
320,192,185305,1,0,0:0:0:0:
192,192,185305,1,0,0:0:0:0:
64,192,185423,1,0,0:0:0:0:
448,192,185453,1,0,0:0:0:0:
320,192,185542,1,0,0:0:0:0:
192,192,185542,1,0,0:0:0:0:
448,192,185542,1,0,0:0:0:0:
64,192,185542,1,0,0:0:0:0:
192,192,185662,1,0,0:0:0:0:
320,192,185721,1,0,0:0:0:0:
192,192,185780,1,0,0:0:0:0:
448,192,185780,1,0,0:0:0:0:
64,192,185780,1,0,0:0:0:0:
320,192,185900,1,0,0:0:0:0:
64,192,185900,1,0,0:0:0:0:
320,192,186019,1,0,0:0:0:0:
192,192,186019,1,0,0:0:0:0:
448,192,186019,1,0,0:0:0:0:
64,192,186019,1,0,0:0:0:0:
448,192,186137,1,0,0:0:0:0:
320,192,186137,1,0,0:0:0:0:
64,192,186137,1,0,0:0:0:0:
192,192,186197,1,0,0:0:0:0:
448,192,186257,1,0,0:0:0:0:
320,192,186257,1,0,0:0:0:0:
64,192,186257,1,0,0:0:0:0:
448,192,186346,1,0,0:0:0:0:
192,192,186376,1,0,0:0:0:0:
192,192,186495,1,0,0:0:0:0:
320,192,186495,1,0,0:0:0:0:
448,192,186495,1,0,0:0:0:0:
64,192,186495,1,0,0:0:0:0:
320,192,186733,1,0,0:0:0:0:
192,192,186733,1,0,0:0:0:0:
192,192,186971,1,0,0:0:0:0:
320,192,186971,1,0,0:0:0:0:
320,192,187090,1,0,0:0:0:0:
192,192,187090,1,0,0:0:0:0:
448,192,187209,1,0,0:0:0:0:
64,192,187209,1,0,0:0:0:0:
64,192,187447,1,0,0:0:0:0:
192,192,187447,1,0,0:0:0:0:
448,192,187447,1,0,0:0:0:0:
320,192,187447,1,0,0:0:0:0:
64,192,187923,128,0,188162:0:0:0:0:
192,192,188162,128,0,188400:0:0:0:0:
448,192,188400,1,0,0:0:0:0:
320,192,188400,1,0,0:0:0:0:
64,192,188459,1,0,0:0:0:0:
448,192,188519,1,0,0:0:0:0:
192,192,188519,1,0,0:0:0:0:
320,192,188578,1,0,0:0:0:0:
448,192,188637,1,0,0:0:0:0:
64,192,188637,1,0,0:0:0:0:
192,192,188637,1,0,0:0:0:0:
320,192,188697,1,0,0:0:0:0:
448,192,188757,1,0,0:0:0:0:
64,192,188757,1,0,0:0:0:0:
192,192,188757,1,0,0:0:0:0:
320,192,188816,1,0,0:0:0:0:
448,192,188876,1,0,0:0:0:0:
64,192,188876,1,0,0:0:0:0:
192,192,188876,1,0,0:0:0:0:
320,192,188935,1,0,0:0:0:0:
448,192,188995,1,0,0:0:0:0:
192,192,188995,1,0,0:0:0:0:
64,192,189055,1,0,0:0:0:0:
448,192,189114,1,0,0:0:0:0:
320,192,189114,1,0,0:0:0:0:
192,192,189114,1,0,0:0:0:0:
64,192,189173,1,0,0:0:0:0:
448,192,189233,1,0,0:0:0:0:
192,192,189233,1,0,0:0:0:0:
320,192,189233,1,0,0:0:0:0:
64,192,189292,1,0,0:0:0:0:
448,192,189352,1,0,0:0:0:0:
320,192,189352,1,0,0:0:0:0:
192,192,189352,1,0,0:0:0:0:
64,192,189412,1,0,0:0:0:0:
448,192,189471,1,0,0:0:0:0:
192,192,189471,1,0,0:0:0:0:
64,192,189530,1,0,0:0:0:0:
320,192,189590,1,0,0:0:0:0:
192,192,189590,1,0,0:0:0:0:
448,192,189650,1,0,0:0:0:0:
64,192,189709,1,0,0:0:0:0:
192,192,189709,1,0,0:0:0:0:
448,192,189769,1,0,0:0:0:0:
64,192,189828,1,0,0:0:0:0:
320,192,189828,1,0,0:0:0:0:
192,192,189828,1,0,0:0:0:0:
448,192,189887,1,0,0:0:0:0:
64,192,189947,1,0,0:0:0:0:
192,192,189947,1,0,0:0:0:0:
320,192,190007,1,0,0:0:0:0:
448,192,190066,1,0,0:0:0:0:
64,192,190066,1,0,0:0:0:0:
192,192,190126,1,0,0:0:0:0:
320,192,190185,1,0,0:0:0:0:
448,192,190185,1,0,0:0:0:0:
192,192,190245,1,0,0:0:0:0:
448,192,190305,1,0,0:0:0:0:
320,192,190305,1,0,0:0:0:0:
64,192,190305,1,0,0:0:0:0:
192,192,190364,1,0,0:0:0:0:
448,192,190423,1,0,0:0:0:0:
64,192,190423,1,0,0:0:0:0:
320,192,190483,1,0,0:0:0:0:
448,192,190542,1,0,0:0:0:0:
64,192,190542,1,0,0:0:0:0:
192,192,190542,1,0,0:0:0:0:
320,192,190602,1,0,0:0:0:0:
448,192,190662,1,0,0:0:0:0:
64,192,190662,1,0,0:0:0:0:
192,192,190662,1,0,0:0:0:0:
320,192,190721,1,0,0:0:0:0:
448,192,190780,1,0,0:0:0:0:
64,192,190780,1,0,0:0:0:0:
192,192,190780,1,0,0:0:0:0:
320,192,190840,1,0,0:0:0:0:
448,192,190900,1,0,0:0:0:0:
192,192,190900,1,0,0:0:0:0:
64,192,190959,1,0,0:0:0:0:
448,192,191019,1,0,0:0:0:0:
320,192,191019,1,0,0:0:0:0:
64,192,191019,1,0,0:0:0:0:
192,192,191019,1,0,0:0:0:0:
320,192,191078,1,0,0:0:0:0:
448,192,191137,1,0,0:0:0:0:
64,192,191137,1,0,0:0:0:0:
192,192,191137,1,0,0:0:0:0:
320,192,191197,1,0,0:0:0:0:
448,192,191257,1,0,0:0:0:0:
320,192,191257,1,0,0:0:0:0:
64,192,191257,1,0,0:0:0:0:
192,192,191257,1,0,0:0:0:0:
448,192,191316,1,0,0:0:0:0:
64,192,191376,1,0,0:0:0:0:
192,192,191376,1,0,0:0:0:0:
448,192,191435,1,0,0:0:0:0:
320,192,191495,1,0,0:0:0:0:
192,192,191495,1,0,0:0:0:0:
64,192,191555,1,0,0:0:0:0:
448,192,191614,1,0,0:0:0:0:
320,192,191614,1,0,0:0:0:0:
192,192,191673,1,0,0:0:0:0:
448,192,191733,1,0,0:0:0:0:
320,192,191733,1,0,0:0:0:0:
64,192,191733,1,0,0:0:0:0:
192,192,191792,1,0,0:0:0:0:
448,192,191852,1,0,0:0:0:0:
64,192,191852,1,0,0:0:0:0:
320,192,191912,1,0,0:0:0:0:
448,192,191971,1,0,0:0:0:0:
64,192,191971,1,0,0:0:0:0:
192,192,191971,1,0,0:0:0:0:
320,192,192030,1,0,0:0:0:0:
448,192,192090,1,0,0:0:0:0:
192,192,192090,1,0,0:0:0:0:
64,192,192150,1,0,0:0:0:0:
448,192,192209,1,0,0:0:0:0:
320,192,192209,1,0,0:0:0:0:
192,192,192209,1,0,0:0:0:0:
64,192,192269,1,0,0:0:0:0:
320,192,192328,1,0,0:0:0:0:
192,192,192328,1,0,0:0:0:0:
448,192,192387,1,0,0:0:0:0:
64,192,192447,1,0,0:0:0:0:
192,192,192447,1,0,0:0:0:0:
448,192,192507,1,0,0:0:0:0:
320,192,192566,1,0,0:0:0:0:
192,192,192566,1,0,0:0:0:0:
64,192,192626,1,0,0:0:0:0:
448,192,192685,1,0,0:0:0:0:
320,192,192685,1,0,0:0:0:0:
192,192,192685,1,0,0:0:0:0:
64,192,192745,1,0,0:0:0:0:
448,192,192805,1,0,0:0:0:0:
192,192,192805,1,0,0:0:0:0:
64,192,192864,1,0,0:0:0:0:
320,192,192923,1,0,0:0:0:0:
192,192,192923,1,0,0:0:0:0:
448,192,192983,1,0,0:0:0:0:
64,192,193042,1,0,0:0:0:0:
192,192,193042,1,0,0:0:0:0:
320,192,193102,1,0,0:0:0:0:
448,192,193162,1,0,0:0:0:0:
64,192,193162,1,0,0:0:0:0:
192,192,193162,1,0,0:0:0:0:
320,192,193221,1,0,0:0:0:0:
448,192,193280,1,0,0:0:0:0:
192,192,193280,1,0,0:0:0:0:
64,192,193340,1,0,0:0:0:0:
448,192,193400,1,0,0:0:0:0:
192,192,193400,1,0,0:0:0:0:
320,192,193459,1,0,0:0:0:0:
448,192,193519,1,0,0:0:0:0:
192,192,193519,1,0,0:0:0:0:
64,192,193578,1,0,0:0:0:0:
448,192,193637,1,0,0:0:0:0:
320,192,193637,1,0,0:0:0:0:
192,192,193637,1,0,0:0:0:0:
64,192,193697,1,0,0:0:0:0:
448,192,193757,1,0,0:0:0:0:
192,192,193757,1,0,0:0:0:0:
320,192,193816,1,0,0:0:0:0:
448,192,193876,1,0,0:0:0:0:
192,192,193876,1,0,0:0:0:0:
64,192,193935,1,0,0:0:0:0:
448,192,193995,1,0,0:0:0:0:
192,192,193995,1,0,0:0:0:0:
320,192,194055,1,0,0:0:0:0:
448,192,194114,1,0,0:0:0:0:
64,192,194114,1,0,0:0:0:0:
192,192,194114,1,0,0:0:0:0:
320,192,194173,1,0,0:0:0:0:
448,192,194233,1,0,0:0:0:0:
64,192,194233,1,0,0:0:0:0:
192,192,194292,1,0,0:0:0:0:
320,192,194352,1,0,0:0:0:0:
64,192,194352,1,0,0:0:0:0:
448,192,194412,1,0,0:0:0:0:
320,192,194471,1,0,0:0:0:0:
64,192,194471,1,0,0:0:0:0:
448,192,194530,1,0,0:0:0:0:
320,192,194590,1,0,0:0:0:0:
64,192,194590,1,0,0:0:0:0:
192,192,194650,1,0,0:0:0:0:
448,192,194709,1,0,0:0:0:0:
320,192,194709,1,0,0:0:0:0:
64,192,194769,1,0,0:0:0:0:
320,192,194828,1,0,0:0:0:0:
192,192,194828,1,0,0:0:0:0:
64,192,194887,1,0,0:0:0:0:
448,192,194947,1,0,0:0:0:0:
192,192,194947,1,0,0:0:0:0:
320,192,195007,1,0,0:0:0:0:
64,192,195007,1,0,0:0:0:0:
448,192,195066,1,0,0:0:0:0:
192,192,195066,1,0,0:0:0:0:
320,192,195126,1,0,0:0:0:0:
64,192,195126,1,0,0:0:0:0:
448,192,195185,1,0,0:0:0:0:
192,192,195185,1,0,0:0:0:0:
320,192,195245,1,0,0:0:0:0:
64,192,195245,1,0,0:0:0:0:
448,192,195305,1,0,0:0:0:0:
192,192,195305,1,0,0:0:0:0:
320,192,195364,1,0,0:0:0:0:
64,192,195364,1,0,0:0:0:0:
448,192,195423,1,0,0:0:0:0:
192,192,195423,1,0,0:0:0:0:
320,192,195483,1,0,0:0:0:0:
64,192,195483,1,0,0:0:0:0:
448,192,195542,1,0,0:0:0:0:
320,192,195542,1,0,0:0:0:0:
192,192,195542,1,0,0:0:0:0:
64,192,195602,1,0,0:0:0:0:
320,192,195662,1,0,0:0:0:0:
192,192,195662,1,0,0:0:0:0:
448,192,195721,1,0,0:0:0:0:
320,192,195780,1,0,0:0:0:0:
64,192,195780,1,0,0:0:0:0:
192,192,195780,1,0,0:0:0:0:
448,192,195840,1,0,0:0:0:0:
64,192,195900,1,0,0:0:0:0:
192,192,195900,1,0,0:0:0:0:
320,192,195959,1,0,0:0:0:0:
448,192,196019,1,0,0:0:0:0:
64,192,196019,1,0,0:0:0:0:
192,192,196019,1,0,0:0:0:0:
320,192,196078,1,0,0:0:0:0:
448,192,196137,1,0,0:0:0:0:
192,192,196137,1,0,0:0:0:0:
64,192,196197,1,0,0:0:0:0:
448,192,196257,1,0,0:0:0:0:
192,192,196257,1,0,0:0:0:0:
320,192,196316,1,0,0:0:0:0:
448,192,196376,1,0,0:0:0:0:
192,192,196376,1,0,0:0:0:0:
64,192,196435,1,0,0:0:0:0:
448,192,196495,1,0,0:0:0:0:
320,192,196495,1,0,0:0:0:0:
192,192,196495,1,0,0:0:0:0:
64,192,196555,1,0,0:0:0:0:
320,192,196614,1,0,0:0:0:0:
192,192,196614,1,0,0:0:0:0:
64,192,196673,1,0,0:0:0:0:
448,192,196733,1,0,0:0:0:0:
320,192,196733,1,0,0:0:0:0:
64,192,196792,1,0,0:0:0:0:
448,192,196852,1,0,0:0:0:0:
192,192,196852,1,0,0:0:0:0:
320,192,196912,1,0,0:0:0:0:
448,192,196971,1,0,0:0:0:0:
64,192,196971,1,0,0:0:0:0:
192,192,196971,1,0,0:0:0:0:
320,192,197030,1,0,0:0:0:0:
448,192,197090,1,0,0:0:0:0:
192,192,197090,1,0,0:0:0:0:
64,192,197150,1,0,0:0:0:0:
320,192,197209,1,0,0:0:0:0:
192,192,197209,1,0,0:0:0:0:
448,192,197269,1,0,0:0:0:0:
64,192,197328,1,0,0:0:0:0:
192,192,197328,1,0,0:0:0:0:
320,192,197387,1,0,0:0:0:0:
448,192,197447,1,0,0:0:0:0:
64,192,197447,1,0,0:0:0:0:
192,192,197447,1,0,0:0:0:0:
320,192,197507,1,0,0:0:0:0:
64,192,197566,1,0,0:0:0:0:
192,192,197566,1,0,0:0:0:0:
448,192,197626,1,0,0:0:0:0:
320,192,197685,1,0,0:0:0:0:
192,192,197685,1,0,0:0:0:0:
64,192,197745,1,0,0:0:0:0:
448,192,197805,1,0,0:0:0:0:
192,192,197805,1,0,0:0:0:0:
320,192,197864,1,0,0:0:0:0:
448,192,197923,1,0,0:0:0:0:
64,192,197923,1,0,0:0:0:0:
192,192,197923,1,0,0:0:0:0:
320,192,197983,1,0,0:0:0:0:
448,192,198042,1,0,0:0:0:0:
192,192,198042,1,0,0:0:0:0:
64,192,198102,1,0,0:0:0:0:
448,192,198162,1,0,0:0:0:0:
320,192,198162,1,0,0:0:0:0:
192,192,198221,1,0,0:0:0:0:
448,192,198280,1,0,0:0:0:0:
64,192,198280,1,0,0:0:0:0:
320,192,198340,1,0,0:0:0:0:
64,192,198400,1,0,0:0:0:0:
192,192,198400,1,0,0:0:0:0:
320,192,198459,1,0,0:0:0:0:
448,192,198519,1,0,0:0:0:0:
64,192,198519,1,0,0:0:0:0:
192,192,198578,1,0,0:0:0:0:
448,192,198637,1,0,0:0:0:0:
320,192,198637,1,0,0:0:0:0:
64,192,198637,1,0,0:0:0:0:
192,192,198697,1,0,0:0:0:0:
64,192,198757,1,0,0:0:0:0:
320,192,198757,1,0,0:0:0:0:
448,192,198816,1,0,0:0:0:0:
320,192,198876,1,0,0:0:0:0:
64,192,198876,1,0,0:0:0:0:
192,192,198876,1,0,0:0:0:0:
448,192,198935,1,0,0:0:0:0:
64,192,198995,1,0,0:0:0:0:
320,192,198995,1,0,0:0:0:0:
192,192,199055,1,0,0:0:0:0:
448,192,199114,1,0,0:0:0:0:
64,192,199114,1,0,0:0:0:0:
320,192,199173,1,0,0:0:0:0:
448,192,199233,1,0,0:0:0:0:
192,192,199233,1,0,0:0:0:0:
64,192,199292,1,0,0:0:0:0:
448,192,199352,1,0,0:0:0:0:
320,192,199352,1,0,0:0:0:0:
192,192,199352,1,0,0:0:0:0:
64,192,199412,1,0,0:0:0:0:
448,192,199471,1,0,0:0:0:0:
192,192,199471,1,0,0:0:0:0:
320,192,199530,1,0,0:0:0:0:
448,192,199590,1,0,0:0:0:0:
64,192,199590,1,0,0:0:0:0:
192,192,199590,1,0,0:0:0:0:
320,192,199650,1,0,0:0:0:0:
64,192,199709,1,0,0:0:0:0:
448,192,199709,1,0,0:0:0:0:
192,192,199769,1,0,0:0:0:0:
448,192,199828,1,0,0:0:0:0:
320,192,199828,1,0,0:0:0:0:
64,192,199828,1,0,0:0:0:0:
320,192,199887,1,0,0:0:0:0:
192,192,199887,1,0,0:0:0:0:
448,192,199947,1,0,0:0:0:0:
64,192,199947,1,0,0:0:0:0:
320,192,200007,1,0,0:0:0:0:
192,192,200007,1,0,0:0:0:0:
448,192,200066,1,0,0:0:0:0:
64,192,200066,1,0,0:0:0:0:
320,192,200126,1,0,0:0:0:0:
448,192,200185,1,0,0:0:0:0:
192,192,200185,1,0,0:0:0:0:
320,192,200245,1,0,0:0:0:0:
448,192,200305,1,0,0:0:0:0:
192,192,200305,1,0,0:0:0:0:
320,192,200364,1,0,0:0:0:0:
64,192,200364,1,0,0:0:0:0:
192,192,200423,1,0,0:0:0:0:
448,192,200423,1,0,0:0:0:0:
320,192,200483,1,0,0:0:0:0:
64,192,200483,1,0,0:0:0:0:
64,192,200542,1,0,0:0:0:0:
448,192,200542,1,0,0:0:0:0:
192,192,200542,1,0,0:0:0:0:
320,192,200602,1,0,0:0:0:0:
448,192,200662,1,0,0:0:0:0:
192,192,200662,1,0,0:0:0:0:
64,192,200721,1,0,0:0:0:0:
448,192,200780,1,0,0:0:0:0:
320,192,200780,1,0,0:0:0:0:
192,192,200780,1,0,0:0:0:0:
64,192,200840,1,0,0:0:0:0:
448,192,200900,1,0,0:0:0:0:
192,192,200900,1,0,0:0:0:0:
320,192,200959,1,0,0:0:0:0:
64,192,201019,1,0,0:0:0:0:
192,192,201019,1,0,0:0:0:0:
448,192,201078,1,0,0:0:0:0:
320,192,201137,1,0,0:0:0:0:
192,192,201137,1,0,0:0:0:0:
64,192,201197,1,0,0:0:0:0:
448,192,201257,1,0,0:0:0:0:
320,192,201257,1,0,0:0:0:0:
192,192,201257,1,0,0:0:0:0:
64,192,201316,1,0,0:0:0:0:
448,192,201376,1,0,0:0:0:0:
192,192,201376,1,0,0:0:0:0:
320,192,201435,1,0,0:0:0:0:
448,192,201495,1,0,0:0:0:0:
64,192,201495,1,0,0:0:0:0:
192,192,201495,1,0,0:0:0:0:
320,192,201555,1,0,0:0:0:0:
448,192,201614,1,0,0:0:0:0:
192,192,201614,1,0,0:0:0:0:
320,192,201673,1,0,0:0:0:0:
448,192,201733,1,0,0:0:0:0:
192,192,201733,1,0,0:0:0:0:
64,192,201733,1,0,0:0:0:0:
320,192,201792,1,0,0:0:0:0:
448,192,201852,1,0,0:0:0:0:
192,192,201852,1,0,0:0:0:0:
64,192,201852,1,0,0:0:0:0:
320,192,201912,1,0,0:0:0:0:
448,192,201971,1,0,0:0:0:0:
320,192,201971,1,0,0:0:0:0:
64,192,201971,1,0,0:0:0:0:
192,192,202030,1,0,0:0:0:0:
448,192,202090,1,0,0:0:0:0:
320,192,202090,1,0,0:0:0:0:
64,192,202090,1,0,0:0:0:0:
192,192,202150,1,0,0:0:0:0:
448,192,202209,1,0,0:0:0:0:
320,192,202209,1,0,0:0:0:0:
64,192,202209,1,0,0:0:0:0:
448,192,202269,1,0,0:0:0:0:
320,192,202328,1,0,0:0:0:0:
192,192,202328,1,0,0:0:0:0:
64,192,202387,1,0,0:0:0:0:
448,192,202447,1,0,0:0:0:0:
320,192,202447,1,0,0:0:0:0:
192,192,202447,1,0,0:0:0:0:
448,192,202507,1,0,0:0:0:0:
64,192,202507,1,0,0:0:0:0:
320,192,202566,1,0,0:0:0:0:
192,192,202566,1,0,0:0:0:0:
448,192,202626,1,0,0:0:0:0:
64,192,202626,1,0,0:0:0:0:
64,192,202685,1,0,0:0:0:0:
320,192,202685,1,0,0:0:0:0:
192,192,202685,1,0,0:0:0:0:
448,192,202745,1,0,0:0:0:0:
64,192,202805,1,0,0:0:0:0:
192,192,202805,1,0,0:0:0:0:
320,192,202864,1,0,0:0:0:0:
448,192,202923,1,0,0:0:0:0:
192,192,202923,1,0,0:0:0:0:
64,192,202983,1,0,0:0:0:0:
448,192,203042,1,0,0:0:0:0:
192,192,203042,1,0,0:0:0:0:
320,192,203102,1,0,0:0:0:0:
448,192,203162,1,0,0:0:0:0:
64,192,203162,1,0,0:0:0:0:
192,192,203162,1,0,0:0:0:0:
320,192,203221,1,0,0:0:0:0:
448,192,203280,1,0,0:0:0:0:
192,192,203280,1,0,0:0:0:0:
64,192,203340,1,0,0:0:0:0:
320,192,203400,1,0,0:0:0:0:
192,192,203400,1,0,0:0:0:0:
448,192,203459,1,0,0:0:0:0:
64,192,203519,1,0,0:0:0:0:
192,192,203519,1,0,0:0:0:0:
320,192,203578,1,0,0:0:0:0:
448,192,203637,1,0,0:0:0:0:
64,192,203637,1,0,0:0:0:0:
192,192,203637,1,0,0:0:0:0:
320,192,203697,1,0,0:0:0:0:
448,192,203757,1,0,0:0:0:0:
192,192,203757,1,0,0:0:0:0:
64,192,203816,1,0,0:0:0:0:
448,192,203876,1,0,0:0:0:0:
192,192,203876,1,0,0:0:0:0:
320,192,203935,1,0,0:0:0:0:
448,192,203995,1,0,0:0:0:0:
192,192,203995,1,0,0:0:0:0:
64,192,204055,1,0,0:0:0:0:
320,192,204114,1,0,0:0:0:0:
192,192,204114,1,0,0:0:0:0:
64,192,204173,1,0,0:0:0:0:
448,192,204233,1,0,0:0:0:0:
320,192,204233,1,0,0:0:0:0:
192,192,204292,1,0,0:0:0:0:
448,192,204352,1,0,0:0:0:0:
320,192,204352,1,0,0:0:0:0:
64,192,204352,1,0,0:0:0:0:
192,192,204412,1,0,0:0:0:0:
320,192,204471,1,0,0:0:0:0:
448,192,204471,1,0,0:0:0:0:
64,192,204471,1,0,0:0:0:0:
192,192,204530,1,0,0:0:0:0:
448,192,204590,1,0,0:0:0:0:
320,192,204590,1,0,0:0:0:0:
64,192,204590,1,0,0:0:0:0:
192,192,204650,1,0,0:0:0:0:
320,192,204709,1,0,0:0:0:0:
448,192,204709,1,0,0:0:0:0:
64,192,204769,1,0,0:0:0:0:
448,192,204828,1,0,0:0:0:0:
192,192,204828,1,0,0:0:0:0:
320,192,204887,1,0,0:0:0:0:
448,192,204947,1,0,0:0:0:0:
192,192,204947,1,0,0:0:0:0:
64,192,205007,1,0,0:0:0:0:
448,192,205066,1,0,0:0:0:0:
320,192,205066,1,0,0:0:0:0:
192,192,205066,1,0,0:0:0:0:
64,192,205126,1,0,0:0:0:0:
448,192,205185,1,0,0:0:0:0:
192,192,205185,1,0,0:0:0:0:
320,192,205245,1,0,0:0:0:0:
448,192,205305,1,0,0:0:0:0:
64,192,205305,1,0,0:0:0:0:
192,192,205305,1,0,0:0:0:0:
320,192,205364,1,0,0:0:0:0:
64,192,205423,1,0,0:0:0:0:
192,192,205423,1,0,0:0:0:0:
448,192,205483,1,0,0:0:0:0:
320,192,205542,1,0,0:0:0:0:
64,192,205542,1,0,0:0:0:0:
192,192,205542,1,0,0:0:0:0:
448,192,205602,1,0,0:0:0:0:
64,192,205662,1,0,0:0:0:0:
192,192,205662,1,0,0:0:0:0:
320,192,205721,1,0,0:0:0:0:
448,192,205780,1,0,0:0:0:0:
192,192,205780,1,0,0:0:0:0:
64,192,205840,1,0,0:0:0:0:
320,192,205900,1,0,0:0:0:0:
192,192,205900,1,0,0:0:0:0:
448,192,205959,1,0,0:0:0:0:
64,192,206019,1,0,0:0:0:0:
320,192,206019,1,0,0:0:0:0:
192,192,206019,1,0,0:0:0:0:
448,192,206078,1,0,0:0:0:0:
320,192,206137,1,0,0:0:0:0:
192,192,206137,1,0,0:0:0:0:
64,192,206197,1,0,0:0:0:0:
448,192,206257,1,0,0:0:0:0:
320,192,206257,1,0,0:0:0:0:
64,192,206316,1,0,0:0:0:0:
320,192,206376,1,0,0:0:0:0:
192,192,206376,1,0,0:0:0:0:
448,192,206435,1,0,0:0:0:0:
64,192,206495,1,0,0:0:0:0:
320,192,206495,1,0,0:0:0:0:
192,192,206495,1,0,0:0:0:0:
448,192,206555,1,0,0:0:0:0:
64,192,206614,1,0,0:0:0:0:
192,192,206614,1,0,0:0:0:0:
448,192,206673,1,0,0:0:0:0:
320,192,206733,1,0,0:0:0:0:
192,192,206733,1,0,0:0:0:0:
64,192,206792,1,0,0:0:0:0:
448,192,206852,1,0,0:0:0:0:
192,192,206852,1,0,0:0:0:0:
320,192,206912,1,0,0:0:0:0:
448,192,206971,1,0,0:0:0:0:
64,192,206971,1,0,0:0:0:0:
192,192,206971,1,0,0:0:0:0:
320,192,207030,1,0,0:0:0:0:
448,192,207090,1,0,0:0:0:0:
192,192,207090,1,0,0:0:0:0:
64,192,207150,1,0,0:0:0:0:
448,192,207209,1,0,0:0:0:0:
192,192,207209,1,0,0:0:0:0:
320,192,207269,1,0,0:0:0:0:
64,192,207328,1,0,0:0:0:0:
192,192,207328,1,0,0:0:0:0:
320,192,207387,1,0,0:0:0:0:
448,192,207447,1,0,0:0:0:0:
64,192,207447,1,0,0:0:0:0:
192,192,207447,1,0,0:0:0:0:
320,192,207507,1,0,0:0:0:0:
448,192,207566,1,0,0:0:0:0:
192,192,207566,1,0,0:0:0:0:
64,192,207626,1,0,0:0:0:0:
448,192,207685,1,0,0:0:0:0:
320,192,207685,1,0,0:0:0:0:
192,192,207745,1,0,0:0:0:0:
448,192,207805,1,0,0:0:0:0:
64,192,207805,1,0,0:0:0:0:
320,192,207864,1,0,0:0:0:0:
64,192,207923,1,0,0:0:0:0:
192,192,207923,1,0,0:0:0:0:
320,192,207983,1,0,0:0:0:0:
448,192,208042,1,0,0:0:0:0:
192,192,208042,1,0,0:0:0:0:
320,192,208102,1,0,0:0:0:0:
192,192,208162,1,0,0:0:0:0:
64,192,208162,1,0,0:0:0:0:
448,192,208221,1,0,0:0:0:0:
320,192,208280,1,0,0:0:0:0:
192,192,208280,1,0,0:0:0:0:
448,192,208340,1,0,0:0:0:0:
64,192,208340,1,0,0:0:0:0:
320,192,208400,1,0,0:0:0:0:
192,192,208400,1,0,0:0:0:0:
448,192,208459,1,0,0:0:0:0:
64,192,208459,1,0,0:0:0:0:
192,192,208519,1,0,0:0:0:0:
320,192,208519,1,0,0:0:0:0:
448,192,208578,1,0,0:0:0:0:
64,192,208578,1,0,0:0:0:0:
320,192,208637,1,0,0:0:0:0:
192,192,208637,1,0,0:0:0:0:
448,192,208697,1,0,0:0:0:0:
64,192,208697,1,0,0:0:0:0:
320,192,208757,1,0,0:0:0:0:
192,192,208757,1,0,0:0:0:0:
448,192,208816,1,0,0:0:0:0:
64,192,208816,1,0,0:0:0:0:
320,192,208876,1,0,0:0:0:0:
192,192,208876,1,0,0:0:0:0:
448,192,208935,1,0,0:0:0:0:
192,192,208995,1,0,0:0:0:0:
64,192,208995,1,0,0:0:0:0:
320,192,209055,1,0,0:0:0:0:
64,192,209114,1,0,0:0:0:0:
448,192,209114,1,0,0:0:0:0:
192,192,209114,1,0,0:0:0:0:
320,192,209173,1,0,0:0:0:0:
64,192,209233,1,0,0:0:0:0:
192,192,209233,1,0,0:0:0:0:
448,192,209292,1,0,0:0:0:0:
64,192,209352,1,0,0:0:0:0:
320,192,209352,1,0,0:0:0:0:
192,192,209352,1,0,0:0:0:0:
448,192,209412,1,0,0:0:0:0:
320,192,209471,1,0,0:0:0:0:
192,192,209471,1,0,0:0:0:0:
64,192,209530,1,0,0:0:0:0:
448,192,209590,1,0,0:0:0:0:
320,192,209590,1,0,0:0:0:0:
192,192,209650,1,0,0:0:0:0:
448,192,209709,1,0,0:0:0:0:
64,192,209709,1,0,0:0:0:0:
320,192,209769,1,0,0:0:0:0:
448,192,209828,1,0,0:0:0:0:
64,192,209828,1,0,0:0:0:0:
192,192,209828,1,0,0:0:0:0:
320,192,209887,1,0,0:0:0:0:
448,192,209947,1,0,0:0:0:0:
192,192,209947,1,0,0:0:0:0:
64,192,210007,1,0,0:0:0:0:
320,192,210066,1,0,0:0:0:0:
192,192,210066,1,0,0:0:0:0:
448,192,210126,1,0,0:0:0:0:
64,192,210185,1,0,0:0:0:0:
192,192,210185,1,0,0:0:0:0:
320,192,210245,1,0,0:0:0:0:
448,192,210305,1,0,0:0:0:0:
64,192,210305,1,0,0:0:0:0:
192,192,210305,1,0,0:0:0:0:
320,192,210364,1,0,0:0:0:0:
448,192,210423,1,0,0:0:0:0:
192,192,210423,1,0,0:0:0:0:
64,192,210483,1,0,0:0:0:0:
448,192,210542,1,0,0:0:0:0:
320,192,210542,1,0,0:0:0:0:
64,192,210602,1,0,0:0:0:0:
320,192,210662,1,0,0:0:0:0:
192,192,210662,1,0,0:0:0:0:
448,192,210721,1,0,0:0:0:0:
64,192,210780,1,0,0:0:0:0:
320,192,210780,1,0,0:0:0:0:
192,192,210780,1,0,0:0:0:0:
448,192,210840,1,0,0:0:0:0:
320,192,210900,1,0,0:0:0:0:
64,192,210900,1,0,0:0:0:0:
192,192,210959,1,0,0:0:0:0:
448,192,211019,1,0,0:0:0:0:
320,192,211019,1,0,0:0:0:0:
64,192,211078,1,0,0:0:0:0:
448,192,211137,1,0,0:0:0:0:
192,192,211137,1,0,0:0:0:0:
320,192,211197,1,0,0:0:0:0:
448,192,211257,1,0,0:0:0:0:
64,192,211257,1,0,0:0:0:0:
192,192,211257,1,0,0:0:0:0:
320,192,211316,1,0,0:0:0:0:
448,192,211376,1,0,0:0:0:0:
192,192,211376,1,0,0:0:0:0:
64,192,211435,1,0,0:0:0:0:
448,192,211495,1,0,0:0:0:0:
192,192,211495,1,0,0:0:0:0:
320,192,211555,1,0,0:0:0:0:
448,192,211614,1,0,0:0:0:0:
192,192,211614,1,0,0:0:0:0:
320,192,211673,1,0,0:0:0:0:
448,192,211733,1,0,0:0:0:0:
192,192,211733,1,0,0:0:0:0:
64,192,211792,1,0,0:0:0:0:
320,192,211852,1,0,0:0:0:0:
192,192,211852,1,0,0:0:0:0:
448,192,211912,1,0,0:0:0:0:
320,192,211971,1,0,0:0:0:0:
64,192,211971,1,0,0:0:0:0:
192,192,211971,1,0,0:0:0:0:
448,192,212030,1,0,0:0:0:0:
320,192,212090,1,0,0:0:0:0:
192,192,212090,1,0,0:0:0:0:
64,192,212150,1,0,0:0:0:0:
448,192,212209,1,0,0:0:0:0:
320,192,212209,1,0,0:0:0:0:
192,192,212209,1,0,0:0:0:0:
64,192,212269,1,0,0:0:0:0:
448,192,212328,1,0,0:0:0:0:
192,192,212328,1,0,0:0:0:0:
320,192,212387,1,0,0:0:0:0:
448,192,212447,1,0,0:0:0:0:
192,192,212447,1,0,0:0:0:0:
64,192,212507,1,0,0:0:0:0:
448,192,212566,1,0,0:0:0:0:
192,192,212566,1,0,0:0:0:0:
320,192,212626,1,0,0:0:0:0:
448,192,212685,1,0,0:0:0:0:
64,192,212685,1,0,0:0:0:0:
192,192,212685,1,0,0:0:0:0:
320,192,212745,1,0,0:0:0:0:
448,192,212805,1,0,0:0:0:0:
192,192,212805,1,0,0:0:0:0:
64,192,212864,1,0,0:0:0:0:
448,192,212923,1,0,0:0:0:0:
320,192,212923,1,0,0:0:0:0:
192,192,212923,1,0,0:0:0:0:
64,192,212983,1,0,0:0:0:0:
448,192,213042,1,0,0:0:0:0:
192,192,213042,1,0,0:0:0:0:
320,192,213102,1,0,0:0:0:0:
448,192,213162,1,0,0:0:0:0:
192,192,213162,1,0,0:0:0:0:
64,192,213162,1,0,0:0:0:0:
448,192,213221,1,0,0:0:0:0:
320,192,213221,1,0,0:0:0:0:
192,192,213280,1,0,0:0:0:0:
64,192,213280,1,0,0:0:0:0:
448,192,213340,1,0,0:0:0:0:
320,192,213340,1,0,0:0:0:0:
64,192,213400,1,0,0:0:0:0:
192,192,213400,1,0,0:0:0:0:
448,192,213459,1,0,0:0:0:0:
64,192,213519,1,0,0:0:0:0:
192,192,213519,1,0,0:0:0:0:
448,192,213578,1,0,0:0:0:0:
320,192,213637,1,0,0:0:0:0:
192,192,213637,1,0,0:0:0:0:
64,192,213637,1,0,0:0:0:0:
448,192,213697,1,0,0:0:0:0:
320,192,213757,1,0,0:0:0:0:
192,192,213757,1,0,0:0:0:0:
64,192,213816,1,0,0:0:0:0:
192,192,213816,1,0,0:0:0:0:
448,192,213876,1,0,0:0:0:0:
320,192,213876,1,0,0:0:0:0:
192,192,213935,1,0,0:0:0:0:
64,192,213995,1,0,0:0:0:0:
448,192,213995,1,0,0:0:0:0:
320,192,214055,1,0,0:0:0:0:
448,192,214114,1,0,0:0:0:0:
192,192,214114,1,0,0:0:0:0:
320,192,214173,1,0,0:0:0:0:
64,192,214173,1,0,0:0:0:0:
448,192,214233,1,0,0:0:0:0:
192,192,214233,1,0,0:0:0:0:
320,192,214292,1,0,0:0:0:0:
64,192,214292,1,0,0:0:0:0:
448,192,214352,1,0,0:0:0:0:
320,192,214412,1,0,0:0:0:0:
192,192,214412,1,0,0:0:0:0:
448,192,214471,1,0,0:0:0:0:
64,192,214471,1,0,0:0:0:0:
320,192,214530,1,0,0:0:0:0:
192,192,214530,1,0,0:0:0:0:
448,192,214590,1,0,0:0:0:0:
64,192,214590,1,0,0:0:0:0:
320,192,214650,1,0,0:0:0:0:
192,192,214709,1,0,0:0:0:0:
64,192,214709,1,0,0:0:0:0:
448,192,214769,1,0,0:0:0:0:
320,192,214769,1,0,0:0:0:0:
192,192,214828,1,0,0:0:0:0:
64,192,214828,1,0,0:0:0:0:
320,192,214887,1,0,0:0:0:0:
448,192,214947,1,0,0:0:0:0:
192,192,214947,1,0,0:0:0:0:
320,192,215007,1,0,0:0:0:0:
64,192,215007,1,0,0:0:0:0:
448,192,215066,1,0,0:0:0:0:
192,192,215066,1,0,0:0:0:0:
64,192,215066,1,0,0:0:0:0:
320,192,215185,1,0,0:0:0:0:
64,192,215305,1,0,0:0:0:0:
192,192,215423,1,0,0:0:0:0:
448,192,215542,1,0,0:0:0:0:
320,192,215662,1,0,0:0:0:0:
192,192,215662,1,0,0:0:0:0:
64,192,215780,1,0,0:0:0:0:
192,192,215780,1,0,0:0:0:0:
192,192,215900,1,0,0:0:0:0:
448,192,215900,1,0,0:0:0:0:
320,192,215959,1,0,0:0:0:0:
448,192,216019,1,0,0:0:0:0:
320,192,216019,1,0,0:0:0:0:
64,192,216019,1,0,0:0:0:0:
320,192,216137,1,0,0:0:0:0:
64,192,216257,1,0,0:0:0:0:
192,192,216376,1,0,0:0:0:0:
448,192,216495,1,0,0:0:0:0:
320,192,216614,1,0,0:0:0:0:
64,192,216733,1,0,0:0:0:0:
192,192,216733,1,0,0:0:0:0:
320,192,216852,1,0,0:0:0:0:
448,192,216971,1,0,0:0:0:0:
192,192,216971,1,0,0:0:0:0:
320,192,217090,1,0,0:0:0:0:
64,192,217209,1,0,0:0:0:0:
192,192,217328,1,0,0:0:0:0:
448,192,217447,1,0,0:0:0:0:
320,192,217566,1,0,0:0:0:0:
192,192,217566,1,0,0:0:0:0:
64,192,217685,1,0,0:0:0:0:
192,192,217685,1,0,0:0:0:0:
192,192,217805,1,0,0:0:0:0:
320,192,217805,1,0,0:0:0:0:
448,192,217923,1,0,0:0:0:0:
320,192,217923,1,0,0:0:0:0:
64,192,218042,1,0,0:0:0:0:
192,192,218162,1,0,0:0:0:0:
448,192,218280,1,0,0:0:0:0:
64,192,218400,1,0,0:0:0:0:
192,192,218519,1,0,0:0:0:0:
448,192,218637,1,0,0:0:0:0:
192,192,218637,1,0,0:0:0:0:
320,192,218757,1,0,0:0:0:0:
64,192,218876,1,0,0:0:0:0:
192,192,218876,1,0,0:0:0:0:
192,192,218995,1,0,0:0:0:0:
448,192,219114,1,0,0:0:0:0:
320,192,219233,1,0,0:0:0:0:
64,192,219352,1,0,0:0:0:0:
192,192,219471,1,0,0:0:0:0:
320,192,219471,1,0,0:0:0:0:
448,192,219590,1,0,0:0:0:0:
320,192,219590,1,0,0:0:0:0:
320,192,219709,1,0,0:0:0:0:
192,192,219709,1,0,0:0:0:0:
448,192,219769,1,0,0:0:0:0:
64,192,219828,1,0,0:0:0:0:
320,192,219828,1,0,0:0:0:0:
448,192,219828,1,0,0:0:0:0:
192,192,219947,1,0,0:0:0:0:
448,192,220066,1,0,0:0:0:0:
320,192,220185,1,0,0:0:0:0:
64,192,220305,1,0,0:0:0:0:
192,192,220423,1,0,0:0:0:0:
448,192,220542,1,0,0:0:0:0:
192,192,220542,1,0,0:0:0:0:
320,192,220662,1,0,0:0:0:0:
64,192,220780,1,0,0:0:0:0:
192,192,220780,1,0,0:0:0:0:
192,192,220900,1,0,0:0:0:0:
448,192,221019,1,0,0:0:0:0:
320,192,221137,1,0,0:0:0:0:
448,192,221257,1,0,0:0:0:0:
320,192,221376,1,0,0:0:0:0:
192,192,221376,1,0,0:0:0:0:
64,192,221495,1,0,0:0:0:0:
320,192,221495,1,0,0:0:0:0:
448,192,221495,1,0,0:0:0:0:
192,192,221614,1,0,0:0:0:0:
320,192,221614,1,0,0:0:0:0:
448,192,221733,1,0,0:0:0:0:
320,192,221733,1,0,0:0:0:0:
64,192,221733,1,0,0:0:0:0:
320,192,221852,1,0,0:0:0:0:
64,192,221971,1,0,0:0:0:0:
192,192,222090,1,0,0:0:0:0:
448,192,222209,1,0,0:0:0:0:
192,192,222209,1,0,0:0:0:0:
64,192,222209,1,0,0:0:0:0:
320,192,222269,1,0,0:0:0:0:
448,192,222328,1,0,0:0:0:0:
192,192,222328,1,0,0:0:0:0:
320,192,222387,1,0,0:0:0:0:
64,192,222447,1,0,0:0:0:0:
192,192,222447,1,0,0:0:0:0:
448,192,222447,1,0,0:0:0:0:
320,192,222507,1,0,0:0:0:0:
192,192,222566,1,0,0:0:0:0:
448,192,222566,1,0,0:0:0:0:
320,192,222626,1,0,0:0:0:0:
448,192,222685,1,0,0:0:0:0:
64,192,222685,1,0,0:0:0:0:
192,192,222685,1,0,0:0:0:0:
320,192,222745,1,0,0:0:0:0:
192,192,222805,1,0,0:0:0:0:
64,192,222805,1,0,0:0:0:0:
448,192,222864,1,0,0:0:0:0:
64,192,222923,1,0,0:0:0:0:
192,192,222923,1,0,0:0:0:0:
320,192,222923,1,0,0:0:0:0:
448,192,222983,1,0,0:0:0:0:
192,192,223042,1,0,0:0:0:0:
320,192,223042,1,0,0:0:0:0:
64,192,223102,1,0,0:0:0:0:
448,192,223162,1,0,0:0:0:0:
192,192,223162,1,0,0:0:0:0:
320,192,223162,1,0,0:0:0:0:
64,192,223221,1,0,0:0:0:0:
320,192,223280,1,0,0:0:0:0:
192,192,223280,1,0,0:0:0:0:
448,192,223340,1,0,0:0:0:0:
64,192,223400,1,0,0:0:0:0:
192,192,223400,1,0,0:0:0:0:
320,192,223400,1,0,0:0:0:0:
448,192,223459,1,0,0:0:0:0:
192,192,223519,1,0,0:0:0:0:
64,192,223519,1,0,0:0:0:0:
320,192,223578,1,0,0:0:0:0:
448,192,223637,1,0,0:0:0:0:
192,192,223637,1,0,0:0:0:0:
64,192,223637,1,0,0:0:0:0:
320,192,223697,1,0,0:0:0:0:
64,192,223757,1,0,0:0:0:0:
448,192,223757,1,0,0:0:0:0:
192,192,223816,1,0,0:0:0:0:
64,192,223876,1,0,0:0:0:0:
320,192,223876,1,0,0:0:0:0:
448,192,223876,1,0,0:0:0:0:
192,192,223935,1,0,0:0:0:0:
448,192,223995,1,0,0:0:0:0:
320,192,223995,1,0,0:0:0:0:
192,192,224055,1,0,0:0:0:0:
448,192,224114,1,0,0:0:0:0:
320,192,224114,1,0,0:0:0:0:
64,192,224114,1,0,0:0:0:0:
192,192,224173,1,0,0:0:0:0:
320,192,224233,1,0,0:0:0:0:
64,192,224233,1,0,0:0:0:0:
448,192,224292,1,0,0:0:0:0:
192,192,224352,1,0,0:0:0:0:
320,192,224352,1,0,0:0:0:0:
64,192,224412,1,0,0:0:0:0:
320,192,224471,1,0,0:0:0:0:
192,192,224471,1,0,0:0:0:0:
448,192,224530,1,0,0:0:0:0:
64,192,224530,1,0,0:0:0:0:
320,192,224590,1,0,0:0:0:0:
192,192,224590,1,0,0:0:0:0:
448,192,224590,1,0,0:0:0:0:
64,192,224650,1,0,0:0:0:0:
192,192,224709,1,0,0:0:0:0:
448,192,224709,1,0,0:0:0:0:
320,192,224769,1,0,0:0:0:0:
448,192,224828,1,0,0:0:0:0:
192,192,224828,1,0,0:0:0:0:
64,192,224828,1,0,0:0:0:0:
320,192,224887,1,0,0:0:0:0:
448,192,224947,1,0,0:0:0:0:
64,192,224947,1,0,0:0:0:0:
192,192,225007,1,0,0:0:0:0:
64,192,225066,1,0,0:0:0:0:
320,192,225066,1,0,0:0:0:0:
448,192,225066,1,0,0:0:0:0:
192,192,225126,1,0,0:0:0:0:
320,192,225185,1,0,0:0:0:0:
448,192,225185,1,0,0:0:0:0:
64,192,225245,1,0,0:0:0:0:
448,192,225305,1,0,0:0:0:0:
192,192,225305,1,0,0:0:0:0:
320,192,225305,1,0,0:0:0:0:
64,192,225364,1,0,0:0:0:0:
320,192,225423,1,0,0:0:0:0:
448,192,225423,1,0,0:0:0:0:
192,192,225483,1,0,0:0:0:0:
64,192,225542,1,0,0:0:0:0:
320,192,225542,1,0,0:0:0:0:
448,192,225542,1,0,0:0:0:0:
192,192,225602,1,0,0:0:0:0:
64,192,225662,1,0,0:0:0:0:
448,192,225662,1,0,0:0:0:0:
320,192,225721,1,0,0:0:0:0:
448,192,225780,1,0,0:0:0:0:
192,192,225780,1,0,0:0:0:0:
64,192,225780,1,0,0:0:0:0:
320,192,225840,1,0,0:0:0:0:
448,192,225900,1,0,0:0:0:0:
192,192,225900,1,0,0:0:0:0:
320,192,225959,1,0,0:0:0:0:
64,192,226019,1,0,0:0:0:0:
192,192,226019,1,0,0:0:0:0:
448,192,226019,1,0,0:0:0:0:
320,192,226078,1,0,0:0:0:0:
192,192,226137,1,0,0:0:0:0:
64,192,226137,1,0,0:0:0:0:
448,192,226197,1,0,0:0:0:0:
64,192,226257,1,0,0:0:0:0:
192,192,226257,1,0,0:0:0:0:
320,192,226257,1,0,0:0:0:0:
448,192,226316,1,0,0:0:0:0:
64,192,226376,1,0,0:0:0:0:
192,192,226376,1,0,0:0:0:0:
320,192,226435,1,0,0:0:0:0:
64,192,226495,1,0,0:0:0:0:
192,192,226495,1,0,0:0:0:0:
448,192,226495,1,0,0:0:0:0:
320,192,226555,1,0,0:0:0:0:
192,192,226614,1,0,0:0:0:0:
448,192,226614,1,0,0:0:0:0:
320,192,226673,1,0,0:0:0:0:
448,192,226733,1,0,0:0:0:0:
192,192,226733,1,0,0:0:0:0:
64,192,226733,1,0,0:0:0:0:
320,192,226792,1,0,0:0:0:0:
64,192,226852,1,0,0:0:0:0:
448,192,226852,1,0,0:0:0:0:
192,192,226912,1,0,0:0:0:0:
64,192,226971,1,0,0:0:0:0:
320,192,226971,1,0,0:0:0:0:
448,192,226971,1,0,0:0:0:0:
192,192,227030,1,0,0:0:0:0:
448,192,227090,1,0,0:0:0:0:
64,192,227090,1,0,0:0:0:0:
320,192,227150,1,0,0:0:0:0:
448,192,227209,1,0,0:0:0:0:
192,192,227209,1,0,0:0:0:0:
64,192,227209,1,0,0:0:0:0:
320,192,227269,1,0,0:0:0:0:
64,192,227328,1,0,0:0:0:0:
448,192,227387,1,0,0:0:0:0:
192,192,227387,1,0,0:0:0:0:
64,192,227447,1,0,0:0:0:0:
192,192,227447,1,0,0:0:0:0:
448,192,227447,1,0,0:0:0:0:
320,192,227507,1,0,0:0:0:0:
192,192,227566,1,0,0:0:0:0:
448,192,227566,1,0,0:0:0:0:
320,192,227626,1,0,0:0:0:0:
448,192,227685,1,0,0:0:0:0:
192,192,227685,1,0,0:0:0:0:
64,192,227685,1,0,0:0:0:0:
320,192,227745,1,0,0:0:0:0:
448,192,227805,1,0,0:0:0:0:
64,192,227805,1,0,0:0:0:0:
192,192,227864,1,0,0:0:0:0:
64,192,227923,1,0,0:0:0:0:
320,192,227923,1,0,0:0:0:0:
448,192,227923,1,0,0:0:0:0:
192,192,227983,1,0,0:0:0:0:
320,192,228042,1,0,0:0:0:0:
448,192,228042,1,0,0:0:0:0:
64,192,228102,1,0,0:0:0:0:
448,192,228162,1,0,0:0:0:0:
192,192,228162,1,0,0:0:0:0:
320,192,228162,1,0,0:0:0:0:
64,192,228221,1,0,0:0:0:0:
320,192,228280,1,0,0:0:0:0:
448,192,228280,1,0,0:0:0:0:
64,192,228340,1,0,0:0:0:0:
320,192,228400,1,0,0:0:0:0:
192,192,228400,1,0,0:0:0:0:
448,192,228400,1,0,0:0:0:0:
64,192,228459,1,0,0:0:0:0:
192,192,228519,1,0,0:0:0:0:
448,192,228519,1,0,0:0:0:0:
320,192,228578,1,0,0:0:0:0:
448,192,228637,1,0,0:0:0:0:
192,192,228637,1,0,0:0:0:0:
64,192,228637,1,0,0:0:0:0:
320,192,228697,1,0,0:0:0:0:
448,192,228757,1,0,0:0:0:0:
64,192,228757,1,0,0:0:0:0:
192,192,228816,1,0,0:0:0:0:
64,192,228876,1,0,0:0:0:0:
320,192,228876,1,0,0:0:0:0:
448,192,228876,1,0,0:0:0:0:
192,192,228935,1,0,0:0:0:0:
448,192,228995,1,0,0:0:0:0:
64,192,228995,1,0,0:0:0:0:
320,192,229055,1,0,0:0:0:0:
448,192,229114,1,0,0:0:0:0:
192,192,229114,1,0,0:0:0:0:
64,192,229114,1,0,0:0:0:0:
320,192,229173,1,0,0:0:0:0:
64,192,229233,1,0,0:0:0:0:
192,192,229233,1,0,0:0:0:0:
320,192,229292,1,0,0:0:0:0:
64,192,229352,1,0,0:0:0:0:
192,192,229352,1,0,0:0:0:0:
448,192,229352,1,0,0:0:0:0:
320,192,229412,1,0,0:0:0:0:
192,192,229471,5,0,0:0:0:0:
448,192,229471,1,0,0:0:0:0:
320,192,229530,1,0,0:0:0:0:
448,192,229590,1,0,0:0:0:0:
192,192,229590,1,0,0:0:0:0:
64,192,229590,1,0,0:0:0:0:
320,192,229650,1,0,0:0:0:0:
64,192,229709,1,0,0:0:0:0:
448,192,229709,1,0,0:0:0:0:
320,192,229769,1,0,0:0:0:0:
64,192,229828,1,0,0:0:0:0:
192,192,229828,1,0,0:0:0:0:
448,192,229828,1,0,0:0:0:0:
320,192,229887,1,0,0:0:0:0:
448,192,229947,1,0,0:0:0:0:
64,192,229947,1,0,0:0:0:0:
192,192,230007,1,0,0:0:0:0:
448,192,230066,1,0,0:0:0:0:
320,192,230066,1,0,0:0:0:0:
64,192,230066,1,0,0:0:0:0:
192,192,230126,1,0,0:0:0:0:
64,192,230185,1,0,0:0:0:0:
448,192,230185,1,0,0:0:0:0:
192,192,230245,1,0,0:0:0:0:
64,192,230305,128,0,230423:0:0:0:0:
320,192,230305,1,0,0:0:0:0:
448,192,230305,1,0,0:0:0:0:
192,192,230423,128,0,230542:0:0:0:0:
320,192,230542,128,0,230662:0:0:0:0:
448,192,230542,1,0,0:0:0:0:
448,192,230662,128,0,230780:0:0:0:0:
64,192,230780,128,0,230900:0:0:0:0:
192,192,230780,1,0,0:0:0:0:
192,192,230900,128,0,231019:0:0:0:0:
320,192,231019,128,0,231137:0:0:0:0:
448,192,231019,1,0,0:0:0:0:
448,192,231137,128,0,231257:0:0:0:0:
320,192,231257,128,0,231376:0:0:0:0:
64,192,231257,1,0,0:0:0:0:
64,192,231376,128,0,231495:0:0:0:0:
192,192,231495,128,0,231614:0:0:0:0:
320,192,231495,1,0,0:0:0:0:
320,192,231614,128,0,231733:0:0:0:0:
448,192,231733,128,0,231792:0:0:0:0:
64,192,231733,1,0,0:0:0:0:
448,192,231852,128,0,231912:0:0:0:0:
64,192,231971,128,0,232090:0:0:0:0:
320,192,231971,1,0,0:0:0:0:
192,192,232090,128,0,232209:0:0:0:0:
448,192,232209,128,0,232328:0:0:0:0:
64,192,232209,1,0,0:0:0:0:
320,192,232328,128,0,232447:0:0:0:0:
192,192,232447,128,0,232566:0:0:0:0:
448,192,232447,1,0,0:0:0:0:
64,192,232566,128,0,232685:0:0:0:0:
320,192,232685,128,0,232805:0:0:0:0:
192,192,232685,1,0,0:0:0:0:
192,192,232805,128,0,232923:0:0:0:0:
448,192,232923,128,0,233042:0:0:0:0:
320,192,232923,1,0,0:0:0:0:
320,192,233042,128,0,233162:0:0:0:0:
64,192,233162,128,0,233280:0:0:0:0:
192,192,233162,1,0,0:0:0:0:
192,192,233280,128,0,233400:0:0:0:0:
320,192,233400,128,0,233519:0:0:0:0:
448,192,233400,1,0,0:0:0:0:
448,192,233519,128,0,233637:0:0:0:0:
64,192,233637,128,0,233757:0:0:0:0:
192,192,233637,1,0,0:0:0:0:
448,192,233757,128,0,233876:0:0:0:0:
192,192,233876,128,0,233995:0:0:0:0:
320,192,233876,1,0,0:0:0:0:
448,192,233995,128,0,234114:0:0:0:0:
320,192,234114,128,0,234233:0:0:0:0:
64,192,234114,1,0,0:0:0:0:
448,192,234233,128,0,234352:0:0:0:0:
192,192,234352,128,0,234471:0:0:0:0:
320,192,234352,1,0,0:0:0:0:
448,192,234471,128,0,234590:0:0:0:0:
64,192,234590,128,0,234709:0:0:0:0:
192,192,234590,1,0,0:0:0:0:
448,192,234709,128,0,234828:0:0:0:0:
192,192,234828,128,0,234947:0:0:0:0:
320,192,234828,1,0,0:0:0:0:
448,192,234947,128,0,235066:0:0:0:0:
64,192,235066,128,0,235126:0:0:0:0:
320,192,235066,1,0,0:0:0:0:
64,192,235185,128,0,235305:0:0:0:0:
320,192,235305,128,0,235423:0:0:0:0:
448,192,235305,1,0,0:0:0:0:
64,192,235423,128,0,235542:0:0:0:0:
448,192,235542,128,0,235662:0:0:0:0:
192,192,235542,1,0,0:0:0:0:
192,192,235662,128,0,235780:0:0:0:0:
448,192,235780,128,0,235900:0:0:0:0:
320,192,235780,1,0,0:0:0:0:
64,192,235900,128,0,236019:0:0:0:0:
320,192,236019,128,0,236137:0:0:0:0:
192,192,236019,1,0,0:0:0:0:
64,192,236137,128,0,236257:0:0:0:0:
448,192,236257,128,0,236376:0:0:0:0:
320,192,236257,1,0,0:0:0:0:
192,192,236376,128,0,236495:0:0:0:0:
320,192,236495,128,0,236614:0:0:0:0:
64,192,236495,1,0,0:0:0:0:
64,192,236614,128,0,236733:0:0:0:0:
448,192,236733,128,0,236852:0:0:0:0:
320,192,236733,1,0,0:0:0:0:
192,192,236852,128,0,236971:0:0:0:0:
320,192,236971,128,0,237090:0:0:0:0:
64,192,236971,1,0,0:0:0:0:
64,192,237090,128,0,237209:0:0:0:0:
448,192,237209,128,0,237328:0:0:0:0:
320,192,237209,1,0,0:0:0:0:
192,192,237328,128,0,237447:0:0:0:0:
320,192,237447,128,0,237566:0:0:0:0:
64,192,237447,1,0,0:0:0:0:
64,192,237566,128,0,237685:0:0:0:0:
192,192,237685,128,0,237805:0:0:0:0:
320,192,237685,1,0,0:0:0:0:
448,192,237805,128,0,237923:0:0:0:0:
320,192,237923,128,0,238042:0:0:0:0:
64,192,237923,1,0,0:0:0:0:
64,192,238042,128,0,238162:0:0:0:0:
448,192,238162,128,0,238280:0:0:0:0:
320,192,238162,1,0,0:0:0:0:
192,192,238280,128,0,238400:0:0:0:0:
320,192,238400,128,0,238519:0:0:0:0:
64,192,238400,1,0,0:0:0:0:
64,192,238519,128,0,238637:0:0:0:0:
448,192,238637,128,0,238757:0:0:0:0:
192,192,238637,1,0,0:0:0:0:
192,192,238757,128,0,238876:0:0:0:0:
64,192,238876,128,0,239352:0:0:0:0:
320,192,238876,1,0,0:0:0:0:
448,192,239114,1,0,0:0:0:0:
448,192,239352,1,0,0:0:0:0:
192,192,239352,1,0,0:0:0:0:
320,192,239352,1,0,0:0:0:0:
320,192,239412,1,0,0:0:0:0:
192,192,239471,1,0,0:0:0:0:
64,192,239530,1,0,0:0:0:0:
192,192,239590,1,0,0:0:0:0:
448,192,239590,1,0,0:0:0:0:
320,192,239590,1,0,0:0:0:0:
64,192,239650,1,0,0:0:0:0:
192,192,239709,1,0,0:0:0:0:
320,192,239769,1,0,0:0:0:0:
192,192,239828,1,0,0:0:0:0:
448,192,239828,1,0,0:0:0:0:
64,192,239828,1,0,0:0:0:0:
320,192,239887,1,0,0:0:0:0:
192,192,239947,1,0,0:0:0:0:
64,192,240007,1,0,0:0:0:0:
448,192,240066,1,0,0:0:0:0:
320,192,240066,1,0,0:0:0:0:
192,192,240066,1,0,0:0:0:0:
64,192,240126,1,0,0:0:0:0:
320,192,240185,1,0,0:0:0:0:
192,192,240245,1,0,0:0:0:0:
448,192,240305,128,0,240662:0:0:0:0:
64,192,240305,1,0,0:0:0:0:
320,192,240305,1,0,0:0:0:0:
64,192,240780,1,0,0:0:0:0:
320,192,240780,1,0,0:0:0:0:
192,192,240840,1,0,0:0:0:0:
448,192,240840,1,0,0:0:0:0:
64,192,240900,1,0,0:0:0:0:
320,192,240900,1,0,0:0:0:0:
192,192,240959,1,0,0:0:0:0:
448,192,240959,1,0,0:0:0:0:
64,192,241019,1,0,0:0:0:0:
320,192,241019,1,0,0:0:0:0:
192,192,241078,1,0,0:0:0:0:
448,192,241078,1,0,0:0:0:0:
64,192,241137,1,0,0:0:0:0:
320,192,241137,1,0,0:0:0:0:
192,192,241197,1,0,0:0:0:0:
448,192,241197,1,0,0:0:0:0:
192,192,241257,1,0,0:0:0:0:
320,192,241257,1,0,0:0:0:0:
64,192,241257,1,0,0:0:0:0:
448,192,241257,1,0,0:0:0:0:
