osu file format v14

[General]
AudioFilename: audio2.mp3
AudioLeadIn: 0
PreviewTime: -1
Countdown: 1
SampleSet: Normal
StackLeniency: 0.7
Mode: 3
LetterboxInBreaks: 0
SpecialStyle: 0
WidescreenStoryboard: 0

[Editor]
Bookmarks: 167760,189093,322427
DistanceSpacing: 0.5
BeatDivisor: 4
GridSize: 16
TimelineZoom: 1.8

[Metadata]
Title:The Last Winged Unicorn
TitleUnicode:The Last Winged Unicorn
Artist:Rhapsody Of Fire
ArtistUnicode:Rhapsody Of Fire
Creator:pikechu
Version:Victory 1.2x
Source:
Tags:
BeatmapID:1402415
BeatmapSetID:662307

[Difficulty]
HPDrainRate:8
CircleSize:4
OverallDifficulty:8
ApproachRate:5
SliderMultiplier:1.4
SliderTickRate:1

[Events]
//Background and Video events
0,0,"unicorn.jpg",0,0
//Break Periods
//Storyboard Layer 0 (Background)
//Storyboard Layer 1 (Fail)
//Storyboard Layer 2 (Pass)
//Storyboard Layer 3 (Foreground)
//Storyboard Sound Samples

[TimingPoints]
80,277.777777777777,4,1,1,30,1,0
9245,277.777777777777,4,1,1,30,1,0
30911,277.777777777777,4,1,1,30,1,0
68133,-100,4,1,1,30,0,1
84244,-100,4,1,1,30,0,0
219244,-100,4,1,1,30,0,1
250910,-100,4,1,1,30,0,0

[HitObjects]
64,192,80,5,0,0:0:0:0:
192,192,80,1,0,0:0:0:0:
320,192,80,1,0,0:0:0:0:
448,192,357,1,0,0:0:0:0:
64,192,357,1,0,0:0:0:0:
192,192,357,1,0,0:0:0:0:
320,192,495,1,0,0:0:0:0:
64,192,635,1,0,0:0:0:0:
192,192,774,1,0,0:0:0:0:
448,192,912,1,0,0:0:0:0:
320,192,1051,1,0,0:0:0:0:
64,192,1190,1,0,0:0:0:0:
192,192,1329,1,0,0:0:0:0:
448,192,1468,1,0,0:0:0:0:
64,192,1468,1,0,0:0:0:0:
320,192,1607,1,0,0:0:0:0:
64,192,1745,1,0,0:0:0:0:
192,192,1885,1,0,0:0:0:0:
448,192,2024,1,0,0:0:0:0:
320,192,2162,1,0,0:0:0:0:
320,192,2301,1,0,0:0:0:0:
448,192,2301,1,0,0:0:0:0:
64,192,2301,1,0,0:0:0:0:
192,192,2440,1,0,0:0:0:0:
64,192,2579,1,0,0:0:0:0:
192,192,2579,1,0,0:0:0:0:
448,192,2579,1,0,0:0:0:0:
320,192,2718,1,0,0:0:0:0:
64,192,2857,1,0,0:0:0:0:
192,192,2995,1,0,0:0:0:0:
448,192,3135,1,0,0:0:0:0:
320,192,3274,1,0,0:0:0:0:
64,192,3412,1,0,0:0:0:0:
192,192,3551,1,0,0:0:0:0:
448,192,3690,1,0,0:0:0:0:
192,192,3690,1,0,0:0:0:0:
64,192,3690,1,0,0:0:0:0:
320,192,3829,1,0,0:0:0:0:
64,192,3968,1,0,0:0:0:0:
192,192,4107,1,0,0:0:0:0:
448,192,4245,1,0,0:0:0:0:
320,192,4385,1,0,0:0:0:0:
64,192,4524,1,0,0:0:0:0:
320,192,4524,1,0,0:0:0:0:
448,192,4524,1,0,0:0:0:0:
192,192,4662,1,0,0:0:0:0:
320,192,4801,1,0,0:0:0:0:
64,192,4801,1,0,0:0:0:0:
192,192,4801,1,0,0:0:0:0:
448,192,4940,1,0,0:0:0:0:
192,192,5079,1,0,0:0:0:0:
64,192,5218,1,0,0:0:0:0:
320,192,5357,1,0,0:0:0:0:
448,192,5495,1,0,0:0:0:0:
192,192,5635,1,0,0:0:0:0:
64,192,5774,1,0,0:0:0:0:
320,192,5912,1,0,0:0:0:0:
192,192,5912,1,0,0:0:0:0:
64,192,5912,1,0,0:0:0:0:
448,192,6051,1,0,0:0:0:0:
192,192,6190,1,0,0:0:0:0:
64,192,6329,1,0,0:0:0:0:
320,192,6468,1,0,0:0:0:0:
448,192,6607,1,0,0:0:0:0:
192,192,6745,1,0,0:0:0:0:
64,192,6885,1,0,0:0:0:0:
320,192,7024,1,0,0:0:0:0:
192,192,7024,1,0,0:0:0:0:
64,192,7024,1,0,0:0:0:0:
448,192,7162,1,0,0:0:0:0:
192,192,7301,1,0,0:0:0:0:
64,192,7440,1,0,0:0:0:0:
320,192,7579,1,0,0:0:0:0:
448,192,7718,1,0,0:0:0:0:
64,192,7718,1,0,0:0:0:0:
192,192,7857,1,0,0:0:0:0:
320,192,7857,1,0,0:0:0:0:
64,192,7995,1,0,0:0:0:0:
448,192,7995,1,0,0:0:0:0:
320,192,8135,1,0,0:0:0:0:
192,192,8135,1,0,0:0:0:0:
64,192,8135,1,0,0:0:0:0:
448,192,8274,1,0,0:0:0:0:
64,192,8412,1,0,0:0:0:0:
192,192,8551,1,0,0:0:0:0:
64,192,8690,1,0,0:0:0:0:
320,192,8690,1,0,0:0:0:0:
448,192,8760,1,0,0:0:0:0:
320,192,8829,1,0,0:0:0:0:
192,192,8829,1,0,0:0:0:0:
448,192,8899,1,0,0:0:0:0:
64,192,8968,1,0,0:0:0:0:
192,192,8968,1,0,0:0:0:0:
64,192,9107,1,0,0:0:0:0:
448,192,9107,1,0,0:0:0:0:
192,192,9176,1,0,0:0:0:0:
320,192,9245,1,0,0:0:0:0:
448,192,9245,1,0,0:0:0:0:
64,192,9245,1,0,0:0:0:0:
192,192,9315,1,0,0:0:0:0:
448,192,9384,1,0,0:0:0:0:
64,192,9384,1,0,0:0:0:0:
320,192,9454,1,0,0:0:0:0:
192,192,9523,1,0,0:0:0:0:
448,192,9523,1,0,0:0:0:0:
64,192,9523,1,0,0:0:0:0:
320,192,9592,1,0,0:0:0:0:
64,192,9662,1,0,0:0:0:0:
192,192,9662,1,0,0:0:0:0:
448,192,9731,1,0,0:0:0:0:
320,192,9800,1,0,0:0:0:0:
192,192,9800,1,0,0:0:0:0:
64,192,9800,1,0,0:0:0:0:
448,192,9870,1,0,0:0:0:0:
320,192,9940,1,0,0:0:0:0:
64,192,9940,1,0,0:0:0:0:
192,192,10009,1,0,0:0:0:0:
320,192,10078,1,0,0:0:0:0:
448,192,10078,1,0,0:0:0:0:
64,192,10078,1,0,0:0:0:0:
192,192,10148,1,0,0:0:0:0:
64,192,10217,1,0,0:0:0:0:
320,192,10217,1,0,0:0:0:0:
448,192,10286,1,0,0:0:0:0:
320,192,10356,1,0,0:0:0:0:
192,192,10356,1,0,0:0:0:0:
64,192,10356,1,0,0:0:0:0:
448,192,10425,1,0,0:0:0:0:
320,192,10495,1,0,0:0:0:0:
64,192,10495,1,0,0:0:0:0:
448,192,10565,1,0,0:0:0:0:
192,192,10634,1,0,0:0:0:0:
320,192,10634,1,0,0:0:0:0:
64,192,10634,1,0,0:0:0:0:
448,192,10703,1,0,0:0:0:0:
64,192,10773,1,0,0:0:0:0:
320,192,10773,1,0,0:0:0:0:
448,192,10842,1,0,0:0:0:0:
192,192,10911,1,0,0:0:0:0:
64,192,10911,1,0,0:0:0:0:
320,192,10911,1,0,0:0:0:0:
448,192,10981,1,0,0:0:0:0:
320,192,11050,1,0,0:0:0:0:
192,192,11050,1,0,0:0:0:0:
64,192,11120,1,0,0:0:0:0:
192,192,11190,1,0,0:0:0:0:
320,192,11190,1,0,0:0:0:0:
448,192,11190,1,0,0:0:0:0:
64,192,11259,1,0,0:0:0:0:
320,192,11328,1,0,0:0:0:0:
192,192,11328,1,0,0:0:0:0:
448,192,11398,1,0,0:0:0:0:
320,192,11467,1,0,0:0:0:0:
192,192,11467,1,0,0:0:0:0:
64,192,11467,1,0,0:0:0:0:
448,192,11536,1,0,0:0:0:0:
192,192,11606,1,0,0:0:0:0:
320,192,11606,1,0,0:0:0:0:
64,192,11675,1,0,0:0:0:0:
192,192,11745,1,0,0:0:0:0:
320,192,11745,1,0,0:0:0:0:
448,192,11745,1,0,0:0:0:0:
64,192,11815,1,0,0:0:0:0:
448,192,11884,1,0,0:0:0:0:
320,192,11884,1,0,0:0:0:0:
192,192,11953,1,0,0:0:0:0:
320,192,12023,1,0,0:0:0:0:
64,192,12023,1,0,0:0:0:0:
448,192,12023,1,0,0:0:0:0:
192,192,12092,1,0,0:0:0:0:
448,192,12161,1,0,0:0:0:0:
64,192,12161,1,0,0:0:0:0:
320,192,12231,1,0,0:0:0:0:
192,192,12300,1,0,0:0:0:0:
448,192,12300,1,0,0:0:0:0:
64,192,12300,1,0,0:0:0:0:
320,192,12370,1,0,0:0:0:0:
64,192,12440,1,0,0:0:0:0:
192,192,12440,1,0,0:0:0:0:
448,192,12509,1,0,0:0:0:0:
320,192,12578,1,0,0:0:0:0:
192,192,12578,1,0,0:0:0:0:
64,192,12578,1,0,0:0:0:0:
448,192,12648,1,0,0:0:0:0:
192,192,12717,1,0,0:0:0:0:
64,192,12717,1,0,0:0:0:0:
320,192,12786,1,0,0:0:0:0:
192,192,12856,1,0,0:0:0:0:
448,192,12856,1,0,0:0:0:0:
64,192,12856,1,0,0:0:0:0:
320,192,12925,1,0,0:0:0:0:
64,192,12995,1,0,0:0:0:0:
192,192,12995,1,0,0:0:0:0:
448,192,13065,1,0,0:0:0:0:
320,192,13134,1,0,0:0:0:0:
192,192,13134,1,0,0:0:0:0:
64,192,13134,1,0,0:0:0:0:
448,192,13203,1,0,0:0:0:0:
320,192,13273,1,0,0:0:0:0:
192,192,13273,1,0,0:0:0:0:
448,192,13342,1,0,0:0:0:0:
192,192,13411,1,0,0:0:0:0:
64,192,13411,1,0,0:0:0:0:
320,192,13411,1,0,0:0:0:0:
448,192,13481,1,0,0:0:0:0:
64,192,13550,1,0,0:0:0:0:
320,192,13550,1,0,0:0:0:0:
192,192,13620,1,0,0:0:0:0:
320,192,13690,1,0,0:0:0:0:
64,192,13690,1,0,0:0:0:0:
448,192,13690,1,0,0:0:0:0:
192,192,13759,1,0,0:0:0:0:
448,192,13828,1,0,0:0:0:0:
320,192,13828,1,0,0:0:0:0:
64,192,13898,1,0,0:0:0:0:
192,192,13967,1,0,0:0:0:0:
320,192,13967,1,0,0:0:0:0:
448,192,13967,1,0,0:0:0:0:
64,192,14036,1,0,0:0:0:0:
192,192,14106,1,0,0:0:0:0:
320,192,14106,1,0,0:0:0:0:
448,192,14175,1,0,0:0:0:0:
320,192,14245,1,0,0:0:0:0:
192,192,14245,1,0,0:0:0:0:
64,192,14245,1,0,0:0:0:0:
448,192,14315,1,0,0:0:0:0:
320,192,14384,1,0,0:0:0:0:
192,192,14384,1,0,0:0:0:0:
64,192,14453,1,0,0:0:0:0:
192,192,14523,1,0,0:0:0:0:
320,192,14523,1,0,0:0:0:0:
448,192,14523,1,0,0:0:0:0:
64,192,14592,1,0,0:0:0:0:
192,192,14661,1,0,0:0:0:0:
448,192,14661,1,0,0:0:0:0:
320,192,14731,1,0,0:0:0:0:
192,192,14800,1,0,0:0:0:0:
64,192,14800,1,0,0:0:0:0:
448,192,14800,1,0,0:0:0:0:
320,192,14870,1,0,0:0:0:0:
448,192,14940,1,0,0:0:0:0:
192,192,14940,1,0,0:0:0:0:
64,192,15009,1,0,0:0:0:0:
192,192,15078,1,0,0:0:0:0:
320,192,15078,1,0,0:0:0:0:
448,192,15078,1,0,0:0:0:0:
64,192,15148,1,0,0:0:0:0:
192,192,15217,1,0,0:0:0:0:
448,192,15217,1,0,0:0:0:0:
64,192,15286,1,0,0:0:0:0:
320,192,15356,1,0,0:0:0:0:
192,192,15356,1,0,0:0:0:0:
448,192,15356,1,0,0:0:0:0:
64,192,15425,1,0,0:0:0:0:
448,192,15495,1,0,0:0:0:0:
320,192,15495,1,0,0:0:0:0:
192,192,15565,1,0,0:0:0:0:
320,192,15634,1,0,0:0:0:0:
64,192,15634,1,0,0:0:0:0:
448,192,15634,1,0,0:0:0:0:
192,192,15703,1,0,0:0:0:0:
64,192,15773,1,0,0:0:0:0:
320,192,15773,1,0,0:0:0:0:
448,192,15842,1,0,0:0:0:0:
320,192,15911,1,0,0:0:0:0:
192,192,15911,1,0,0:0:0:0:
64,192,15911,1,0,0:0:0:0:
448,192,15981,1,0,0:0:0:0:
192,192,16050,1,0,0:0:0:0:
320,192,16050,1,0,0:0:0:0:
64,192,16120,1,0,0:0:0:0:
192,192,16190,1,0,0:0:0:0:
320,192,16190,1,0,0:0:0:0:
448,192,16190,1,0,0:0:0:0:
64,192,16259,1,0,0:0:0:0:
192,192,16328,1,0,0:0:0:0:
448,192,16328,1,0,0:0:0:0:
320,192,16398,1,0,0:0:0:0:
192,192,16467,1,0,0:0:0:0:
64,192,16467,1,0,0:0:0:0:
448,192,16467,1,0,0:0:0:0:
320,192,16536,1,0,0:0:0:0:
448,192,16606,1,0,0:0:0:0:
64,192,16606,1,0,0:0:0:0:
192,192,16675,1,0,0:0:0:0:
320,192,16745,1,0,0:0:0:0:
64,192,16745,1,0,0:0:0:0:
448,192,16745,1,0,0:0:0:0:
192,192,16815,1,0,0:0:0:0:
64,192,16884,1,0,0:0:0:0:
448,192,16884,1,0,0:0:0:0:
320,192,16953,1,0,0:0:0:0:
192,192,17023,1,0,0:0:0:0:
64,192,17023,1,0,0:0:0:0:
448,192,17023,1,0,0:0:0:0:
320,192,17092,1,0,0:0:0:0:
448,192,17161,1,0,0:0:0:0:
192,192,17161,1,0,0:0:0:0:
64,192,17231,1,0,0:0:0:0:
192,192,17300,1,0,0:0:0:0:
320,192,17300,1,0,0:0:0:0:
448,192,17300,1,0,0:0:0:0:
64,192,17370,1,0,0:0:0:0:
192,192,17440,1,0,0:0:0:0:
448,192,17440,1,0,0:0:0:0:
64,192,17509,1,0,0:0:0:0:
448,192,17578,1,0,0:0:0:0:
192,192,17578,1,0,0:0:0:0:
320,192,17648,1,0,0:0:0:0:
64,192,17648,1,0,0:0:0:0:
192,192,17717,1,0,0:0:0:0:
448,192,17717,1,0,0:0:0:0:
64,192,17786,1,0,0:0:0:0:
320,192,17786,1,0,0:0:0:0:
448,192,17856,1,0,0:0:0:0:
192,192,17856,1,0,0:0:0:0:
320,192,17925,1,0,0:0:0:0:
64,192,17925,1,0,0:0:0:0:
192,192,17995,1,0,0:0:0:0:
448,192,17995,1,0,0:0:0:0:
64,192,18065,1,0,0:0:0:0:
320,192,18065,1,0,0:0:0:0:
448,192,18134,128,0,18273:0:0:0:0:
192,192,18134,1,0,0:0:0:0:
64,192,18273,128,0,18411:0:0:0:0:
192,192,18411,128,0,18550:0:0:0:0:
448,192,18411,1,0,0:0:0:0:
320,192,18550,128,0,18690:0:0:0:0:
448,192,18690,128,0,18828:0:0:0:0:
64,192,18690,1,0,0:0:0:0:
64,192,18828,128,0,18967:0:0:0:0:
192,192,18967,128,0,19106:0:0:0:0:
320,192,18967,1,0,0:0:0:0:
320,192,19106,128,0,19245:0:0:0:0:
448,192,19245,128,0,19384:0:0:0:0:
64,192,19245,1,0,0:0:0:0:
64,192,19384,128,0,19523:0:0:0:0:
320,192,19523,128,0,19661:0:0:0:0:
192,192,19523,1,0,0:0:0:0:
64,192,19661,128,0,19800:0:0:0:0:
448,192,19800,1,0,0:0:0:0:
320,192,19800,128,0,19870:0:0:0:0:
320,192,19940,128,0,20009:0:0:0:0:
64,192,20078,128,0,20217:0:0:0:0:
192,192,20078,1,0,0:0:0:0:
192,192,20217,128,0,20356:0:0:0:0:
448,192,20356,128,0,20495:0:0:0:0:
320,192,20356,1,0,0:0:0:0:
320,192,20495,128,0,20634:0:0:0:0:
192,192,20634,128,0,20773:0:0:0:0:
64,192,20634,1,0,0:0:0:0:
64,192,20773,128,0,20911:0:0:0:0:
192,192,20911,128,0,21050:0:0:0:0:
448,192,20911,1,0,0:0:0:0:
320,192,21050,128,0,21190:0:0:0:0:
448,192,21190,128,0,21328:0:0:0:0:
64,192,21190,1,0,0:0:0:0:
320,192,21328,128,0,21467:0:0:0:0:
64,192,21467,128,0,21606:0:0:0:0:
192,192,21467,1,0,0:0:0:0:
192,192,21606,128,0,21745:0:0:0:0:
320,192,21745,128,0,21884:0:0:0:0:
448,192,21745,1,0,0:0:0:0:
448,192,21884,128,0,22023:0:0:0:0:
320,192,22023,128,0,22161:0:0:0:0:
64,192,22023,1,0,0:0:0:0:
448,192,22161,128,0,22300:0:0:0:0:
192,192,22300,128,0,22440:0:0:0:0:
320,192,22300,1,0,0:0:0:0:
448,192,22440,128,0,22578:0:0:0:0:
320,192,22578,128,0,22717:0:0:0:0:
64,192,22578,1,0,0:0:0:0:
448,192,22717,128,0,22856:0:0:0:0:
192,192,22856,128,0,22995:0:0:0:0:
320,192,22856,1,0,0:0:0:0:
448,192,22995,128,0,23134:0:0:0:0:
64,192,23134,128,0,23273:0:0:0:0:
320,192,23134,1,0,0:0:0:0:
448,192,23273,128,0,23411:0:0:0:0:
192,192,23411,128,0,23550:0:0:0:0:
64,192,23411,1,0,0:0:0:0:
448,192,23550,128,0,23690:0:0:0:0:
320,192,23690,1,0,0:0:0:0:
64,192,23690,1,0,0:0:0:0:
320,192,23828,1,0,0:0:0:0:
64,192,23967,128,0,24106:0:0:0:0:
448,192,23967,1,0,0:0:0:0:
192,192,24106,128,0,24245:0:0:0:0:
448,192,24245,128,0,24384:0:0:0:0:
64,192,24245,1,0,0:0:0:0:
320,192,24384,128,0,24523:0:0:0:0:
192,192,24523,128,0,24661:0:0:0:0:
448,192,24523,1,0,0:0:0:0:
64,192,24661,128,0,24800:0:0:0:0:
192,192,24800,128,0,24940:0:0:0:0:
448,192,24800,1,0,0:0:0:0:
320,192,24940,128,0,25078:0:0:0:0:
448,192,25078,128,0,25217:0:0:0:0:
64,192,25078,1,0,0:0:0:0:
320,192,25217,128,0,25356:0:0:0:0:
448,192,25356,128,0,25495:0:0:0:0:
192,192,25356,1,0,0:0:0:0:
320,192,25495,128,0,25634:0:0:0:0:
192,192,25634,128,0,25773:0:0:0:0:
448,192,25634,1,0,0:0:0:0:
64,192,25773,128,0,25911:0:0:0:0:
192,192,25911,128,0,26050:0:0:0:0:
448,192,25911,1,0,0:0:0:0:
320,192,26050,128,0,26190:0:0:0:0:
448,192,26190,128,0,26328:0:0:0:0:
64,192,26190,1,0,0:0:0:0:
320,192,26328,128,0,26467:0:0:0:0:
64,192,26467,128,0,26606:0:0:0:0:
192,192,26467,1,0,0:0:0:0:
192,192,26606,128,0,26745:0:0:0:0:
448,192,26745,128,0,26884:0:0:0:0:
320,192,26745,1,0,0:0:0:0:
320,192,26884,128,0,27023:0:0:0:0:
64,192,27023,128,0,27161:0:0:0:0:
192,192,27023,1,0,0:0:0:0:
320,192,27161,128,0,27300:0:0:0:0:
448,192,27300,128,0,27440:0:0:0:0:
64,192,27300,1,0,0:0:0:0:
192,192,27440,128,0,27578:0:0:0:0:
64,192,27578,128,0,27717:0:0:0:0:
320,192,27578,1,0,0:0:0:0:
448,192,27717,128,0,27856:0:0:0:0:
192,192,27856,128,0,27995:0:0:0:0:
64,192,27856,1,0,0:0:0:0:
320,192,27995,128,0,28134:0:0:0:0:
64,192,28134,128,0,28690:0:0:0:0:
448,192,28134,1,0,0:0:0:0:
448,192,28690,1,0,0:0:0:0:
320,192,28690,1,0,0:0:0:0:
192,192,28759,1,0,0:0:0:0:
448,192,28828,1,0,0:0:0:0:
192,192,28898,1,0,0:0:0:0:
64,192,28967,1,0,0:0:0:0:
448,192,28967,1,0,0:0:0:0:
320,192,29036,1,0,0:0:0:0:
64,192,29106,1,0,0:0:0:0:
192,192,29175,1,0,0:0:0:0:
64,192,29245,1,0,0:0:0:0:
448,192,29245,1,0,0:0:0:0:
320,192,29315,1,0,0:0:0:0:
64,192,29384,1,0,0:0:0:0:
448,192,29453,1,0,0:0:0:0:
192,192,29523,1,0,0:0:0:0:
64,192,29523,1,0,0:0:0:0:
448,192,29592,1,0,0:0:0:0:
320,192,29661,1,0,0:0:0:0:
64,192,29731,1,0,0:0:0:0:
320,192,29800,1,0,0:0:0:0:
448,192,29800,1,0,0:0:0:0:
192,192,29800,128,0,30356:0:0:0:0:
320,192,30356,1,0,0:0:0:0:
448,192,30356,1,0,0:0:0:0:
64,192,30425,1,0,0:0:0:0:
192,192,30425,1,0,0:0:0:0:
320,192,30495,1,0,0:0:0:0:
448,192,30495,1,0,0:0:0:0:
64,192,30565,1,0,0:0:0:0:
192,192,30565,1,0,0:0:0:0:
320,192,30634,1,0,0:0:0:0:
448,192,30634,1,0,0:0:0:0:
64,192,30703,1,0,0:0:0:0:
192,192,30703,1,0,0:0:0:0:
320,192,30773,1,0,0:0:0:0:
448,192,30773,1,0,0:0:0:0:
192,192,30842,1,0,0:0:0:0:
64,192,30842,1,0,0:0:0:0:
448,192,30911,1,0,0:0:0:0:
320,192,30911,1,0,0:0:0:0:
192,192,30911,1,0,0:0:0:0:
64,192,30980,1,0,0:0:0:0:
448,192,31050,1,0,0:0:0:0:
320,192,31120,1,0,0:0:0:0:
64,192,31189,1,0,0:0:0:0:
192,192,31189,1,0,0:0:0:0:
448,192,31189,1,0,0:0:0:0:
320,192,31258,1,0,0:0:0:0:
192,192,31328,1,0,0:0:0:0:
64,192,31397,1,0,0:0:0:0:
320,192,31466,1,0,0:0:0:0:
448,192,31466,1,0,0:0:0:0:
192,192,31466,1,0,0:0:0:0:
64,192,31536,1,0,0:0:0:0:
448,192,31605,1,0,0:0:0:0:
320,192,31675,1,0,0:0:0:0:
64,192,31745,1,0,0:0:0:0:
192,192,31745,1,0,0:0:0:0:
448,192,31745,1,0,0:0:0:0:
320,192,31814,1,0,0:0:0:0:
448,192,31883,1,0,0:0:0:0:
320,192,31953,1,0,0:0:0:0:
448,192,32022,1,0,0:0:0:0:
192,192,32022,1,0,0:0:0:0:
64,192,32022,1,0,0:0:0:0:
320,192,32091,1,0,0:0:0:0:
64,192,32161,1,0,0:0:0:0:
448,192,32230,1,0,0:0:0:0:
64,192,32300,1,0,0:0:0:0:
192,192,32300,1,0,0:0:0:0:
320,192,32300,1,0,0:0:0:0:
448,192,32370,1,0,0:0:0:0:
192,192,32439,1,0,0:0:0:0:
320,192,32508,1,0,0:0:0:0:
448,192,32578,1,0,0:0:0:0:
192,192,32578,1,0,0:0:0:0:
64,192,32578,1,0,0:0:0:0:
320,192,32647,1,0,0:0:0:0:
64,192,32716,1,0,0:0:0:0:
192,192,32786,1,0,0:0:0:0:
64,192,32855,1,0,0:0:0:0:
320,192,32855,1,0,0:0:0:0:
448,192,32855,1,0,0:0:0:0:
192,192,32925,1,0,0:0:0:0:
448,192,32995,1,0,0:0:0:0:
320,192,33064,1,0,0:0:0:0:
448,192,33133,1,0,0:0:0:0:
192,192,33133,1,0,0:0:0:0:
64,192,33133,1,0,0:0:0:0:
320,192,33203,1,0,0:0:0:0:
192,192,33272,1,0,0:0:0:0:
320,192,33341,1,0,0:0:0:0:
64,192,33411,1,0,0:0:0:0:
192,192,33411,1,0,0:0:0:0:
448,192,33411,1,0,0:0:0:0:
320,192,33480,1,0,0:0:0:0:
192,192,33550,1,0,0:0:0:0:
64,192,33620,1,0,0:0:0:0:
320,192,33689,1,0,0:0:0:0:
448,192,33689,1,0,0:0:0:0:
192,192,33689,1,0,0:0:0:0:
64,192,33758,1,0,0:0:0:0:
448,192,33828,1,0,0:0:0:0:
320,192,33897,1,0,0:0:0:0:
64,192,33966,1,0,0:0:0:0:
192,192,33966,1,0,0:0:0:0:
448,192,33966,1,0,0:0:0:0:
320,192,34035,1,0,0:0:0:0:
192,192,34105,1,0,0:0:0:0:
64,192,34175,1,0,0:0:0:0:
320,192,34244,1,0,0:0:0:0:
448,192,34244,1,0,0:0:0:0:
192,192,34244,1,0,0:0:0:0:
64,192,34314,1,0,0:0:0:0:
448,192,34383,1,0,0:0:0:0:
192,192,34452,1,0,0:0:0:0:
64,192,34522,1,0,0:0:0:0:
320,192,34522,1,0,0:0:0:0:
448,192,34522,1,0,0:0:0:0:
192,192,34591,1,0,0:0:0:0:
64,192,34660,1,0,0:0:0:0:
192,192,34730,1,0,0:0:0:0:
320,192,34800,1,0,0:0:0:0:
448,192,34800,1,0,0:0:0:0:
64,192,34800,1,0,0:0:0:0:
192,192,34869,1,0,0:0:0:0:
320,192,34939,1,0,0:0:0:0:
448,192,35008,1,0,0:0:0:0:
64,192,35077,1,0,0:0:0:0:
192,192,35077,1,0,0:0:0:0:
320,192,35077,1,0,0:0:0:0:
448,192,35147,1,0,0:0:0:0:
320,192,35216,1,0,0:0:0:0:
64,192,35285,1,0,0:0:0:0:
320,192,35355,1,0,0:0:0:0:
448,192,35355,1,0,0:0:0:0:
192,192,35355,1,0,0:0:0:0:
64,192,35425,1,0,0:0:0:0:
448,192,35494,1,0,0:0:0:0:
320,192,35564,1,0,0:0:0:0:
64,192,35633,1,0,0:0:0:0:
192,192,35633,1,0,0:0:0:0:
448,192,35633,1,0,0:0:0:0:
320,192,35702,1,0,0:0:0:0:
192,192,35772,1,0,0:0:0:0:
64,192,35841,1,0,0:0:0:0:
320,192,35910,1,0,0:0:0:0:
448,192,35910,1,0,0:0:0:0:
192,192,35910,1,0,0:0:0:0:
64,192,35980,1,0,0:0:0:0:
448,192,36050,1,0,0:0:0:0:
320,192,36119,1,0,0:0:0:0:
64,192,36189,1,0,0:0:0:0:
192,192,36189,1,0,0:0:0:0:
448,192,36189,1,0,0:0:0:0:
320,192,36258,1,0,0:0:0:0:
64,192,36327,1,0,0:0:0:0:
192,192,36397,1,0,0:0:0:0:
320,192,36466,1,0,0:0:0:0:
448,192,36466,1,0,0:0:0:0:
64,192,36466,1,0,0:0:0:0:
192,192,36535,1,0,0:0:0:0:
320,192,36605,1,0,0:0:0:0:
448,192,36675,1,0,0:0:0:0:
64,192,36744,1,0,0:0:0:0:
192,192,36744,1,0,0:0:0:0:
320,192,36744,1,0,0:0:0:0:
448,192,36814,1,0,0:0:0:0:
192,192,36883,1,0,0:0:0:0:
64,192,36952,1,0,0:0:0:0:
320,192,37022,1,0,0:0:0:0:
448,192,37022,1,0,0:0:0:0:
192,192,37022,1,0,0:0:0:0:
64,192,37091,1,0,0:0:0:0:
448,192,37160,1,0,0:0:0:0:
192,192,37230,1,0,0:0:0:0:
64,192,37300,1,0,0:0:0:0:
320,192,37300,1,0,0:0:0:0:
448,192,37300,1,0,0:0:0:0:
192,192,37369,1,0,0:0:0:0:
64,192,37439,1,0,0:0:0:0:
192,192,37508,1,0,0:0:0:0:
448,192,37577,1,0,0:0:0:0:
64,192,37577,1,0,0:0:0:0:
320,192,37577,1,0,0:0:0:0:
192,192,37647,1,0,0:0:0:0:
448,192,37716,1,0,0:0:0:0:
320,192,37785,1,0,0:0:0:0:
64,192,37855,1,0,0:0:0:0:
192,192,37855,1,0,0:0:0:0:
448,192,37855,1,0,0:0:0:0:
320,192,37925,1,0,0:0:0:0:
64,192,37994,1,0,0:0:0:0:
448,192,38064,1,0,0:0:0:0:
320,192,38133,1,0,0:0:0:0:
192,192,38133,1,0,0:0:0:0:
64,192,38133,1,0,0:0:0:0:
448,192,38202,1,0,0:0:0:0:
192,192,38272,1,0,0:0:0:0:
320,192,38341,1,0,0:0:0:0:
64,192,38410,1,0,0:0:0:0:
192,192,38410,1,0,0:0:0:0:
448,192,38410,1,0,0:0:0:0:
320,192,38480,1,0,0:0:0:0:
64,192,38550,1,0,0:0:0:0:
192,192,38619,1,0,0:0:0:0:
320,192,38689,1,0,0:0:0:0:
448,192,38689,1,0,0:0:0:0:
64,192,38689,1,0,0:0:0:0:
192,192,38758,1,0,0:0:0:0:
448,192,38827,1,0,0:0:0:0:
320,192,38897,1,0,0:0:0:0:
64,192,38966,1,0,0:0:0:0:
192,192,38966,1,0,0:0:0:0:
448,192,38966,1,0,0:0:0:0:
320,192,39035,1,0,0:0:0:0:
192,192,39105,1,0,0:0:0:0:
64,192,39175,1,0,0:0:0:0:
320,192,39244,1,0,0:0:0:0:
448,192,39244,1,0,0:0:0:0:
64,192,39314,1,0,0:0:0:0:
192,192,39314,1,0,0:0:0:0:
448,192,39383,1,0,0:0:0:0:
320,192,39383,1,0,0:0:0:0:
64,192,39452,1,0,0:0:0:0:
192,192,39452,1,0,0:0:0:0:
320,192,39522,1,0,0:0:0:0:
448,192,39522,1,0,0:0:0:0:
64,192,39591,1,0,0:0:0:0:
192,192,39591,1,0,0:0:0:0:
320,192,39660,1,0,0:0:0:0:
448,192,39660,1,0,0:0:0:0:
192,192,39730,1,0,0:0:0:0:
64,192,39730,1,0,0:0:0:0:
320,192,39800,1,0,0:0:0:0:
448,192,39800,1,0,0:0:0:0:
64,192,40077,1,0,0:0:0:0:
192,192,40077,1,0,0:0:0:0:
320,192,40355,1,0,0:0:0:0:
448,192,40355,1,0,0:0:0:0:
320,192,40494,1,0,0:0:0:0:
448,192,40494,1,0,0:0:0:0:
64,192,40633,1,0,0:0:0:0:
192,192,40633,1,0,0:0:0:0:
320,192,40910,1,0,0:0:0:0:
448,192,40910,1,0,0:0:0:0:
64,192,41189,1,0,0:0:0:0:
192,192,41189,1,0,0:0:0:0:
320,192,41466,1,0,0:0:0:0:
448,192,41466,1,0,0:0:0:0:
320,192,41605,1,0,0:0:0:0:
448,192,41605,1,0,0:0:0:0:
64,192,41744,1,0,0:0:0:0:
192,192,41744,1,0,0:0:0:0:
320,192,42022,1,0,0:0:0:0:
448,192,42022,1,0,0:0:0:0:
64,192,42300,1,0,0:0:0:0:
192,192,42300,1,0,0:0:0:0:
320,192,42577,1,0,0:0:0:0:
448,192,42577,1,0,0:0:0:0:
320,192,42716,1,0,0:0:0:0:
448,192,42716,1,0,0:0:0:0:
64,192,42855,1,0,0:0:0:0:
192,192,42855,1,0,0:0:0:0:
320,192,43133,1,0,0:0:0:0:
448,192,43133,1,0,0:0:0:0:
64,192,43410,1,0,0:0:0:0:
192,192,43410,1,0,0:0:0:0:
320,192,43689,1,0,0:0:0:0:
448,192,43689,1,0,0:0:0:0:
320,192,43827,1,0,0:0:0:0:
448,192,43827,1,0,0:0:0:0:
64,192,43966,1,0,0:0:0:0:
192,192,43966,1,0,0:0:0:0:
64,192,44244,1,0,0:0:0:0:
192,192,44244,1,0,0:0:0:0:
320,192,44522,1,0,0:0:0:0:
448,192,44522,1,0,0:0:0:0:
64,192,44800,1,0,0:0:0:0:
192,192,44800,1,0,0:0:0:0:
64,192,44939,1,0,0:0:0:0:
192,192,44939,1,0,0:0:0:0:
320,192,45077,1,0,0:0:0:0:
448,192,45077,1,0,0:0:0:0:
192,192,45355,1,0,0:0:0:0:
64,192,45355,1,0,0:0:0:0:
320,192,45633,1,0,0:0:0:0:
448,192,45633,1,0,0:0:0:0:
64,192,45910,1,0,0:0:0:0:
192,192,45910,1,0,0:0:0:0:
64,192,46050,1,0,0:0:0:0:
192,192,46050,1,0,0:0:0:0:
320,192,46189,1,0,0:0:0:0:
448,192,46189,1,0,0:0:0:0:
64,192,46466,1,0,0:0:0:0:
192,192,46466,1,0,0:0:0:0:
320,192,46744,1,0,0:0:0:0:
448,192,46744,1,0,0:0:0:0:
64,192,47022,1,0,0:0:0:0:
192,192,47022,1,0,0:0:0:0:
64,192,47160,1,0,0:0:0:0:
192,192,47160,1,0,0:0:0:0:
320,192,47300,1,0,0:0:0:0:
448,192,47300,1,0,0:0:0:0:
64,192,47577,1,0,0:0:0:0:
192,192,47577,1,0,0:0:0:0:
320,192,47855,1,0,0:0:0:0:
448,192,47855,1,0,0:0:0:0:
64,192,48133,1,0,0:0:0:0:
192,192,48133,1,0,0:0:0:0:
64,192,48272,1,0,0:0:0:0:
192,192,48272,1,0,0:0:0:0:
320,192,48410,1,0,0:0:0:0:
448,192,48410,1,0,0:0:0:0:
64,192,48689,1,0,0:0:0:0:
192,192,48689,1,0,0:0:0:0:
448,192,48689,1,0,0:0:0:0:
320,192,48735,1,0,0:0:0:0:
64,192,48781,1,0,0:0:0:0:
192,192,48827,1,0,0:0:0:0:
448,192,48874,1,0,0:0:0:0:
320,192,48920,1,0,0:0:0:0:
192,192,48966,1,0,0:0:0:0:
64,192,49013,1,0,0:0:0:0:
448,192,49013,1,0,0:0:0:0:
320,192,49059,1,0,0:0:0:0:
64,192,49105,1,0,0:0:0:0:
192,192,49151,1,0,0:0:0:0:
320,192,49198,1,0,0:0:0:0:
448,192,49244,1,0,0:0:0:0:
64,192,49290,1,0,0:0:0:0:
192,192,49337,1,0,0:0:0:0:
448,192,49383,1,0,0:0:0:0:
320,192,49430,1,0,0:0:0:0:
192,192,49475,1,0,0:0:0:0:
448,192,49522,1,0,0:0:0:0:
320,192,49568,1,0,0:0:0:0:
192,192,49615,1,0,0:0:0:0:
64,192,49660,1,0,0:0:0:0:
448,192,49707,1,0,0:0:0:0:
320,192,49754,1,0,0:0:0:0:
64,192,49800,1,0,0:0:0:0:
192,192,49800,1,0,0:0:0:0:
448,192,49869,1,0,0:0:0:0:
64,192,49939,1,0,0:0:0:0:
192,192,50008,1,0,0:0:0:0:
448,192,50077,1,0,0:0:0:0:
320,192,50077,1,0,0:0:0:0:
64,192,50077,1,0,0:0:0:0:
192,192,50147,1,0,0:0:0:0:
320,192,50216,1,0,0:0:0:0:
448,192,50285,1,0,0:0:0:0:
192,192,50355,1,0,0:0:0:0:
64,192,50355,1,0,0:0:0:0:
320,192,50355,1,0,0:0:0:0:
448,192,50425,1,0,0:0:0:0:
64,192,50494,1,0,0:0:0:0:
192,192,50564,1,0,0:0:0:0:
448,192,50633,1,0,0:0:0:0:
320,192,50633,1,0,0:0:0:0:
64,192,50633,1,0,0:0:0:0:
192,192,50702,1,0,0:0:0:0:
64,192,50772,1,0,0:0:0:0:
192,192,50841,1,0,0:0:0:0:
64,192,50910,1,0,0:0:0:0:
320,192,50910,1,0,0:0:0:0:
448,192,50910,1,0,0:0:0:0:
192,192,50980,1,0,0:0:0:0:
448,192,51050,1,0,0:0:0:0:
64,192,51119,1,0,0:0:0:0:
448,192,51189,1,0,0:0:0:0:
320,192,51189,1,0,0:0:0:0:
192,192,51189,1,0,0:0:0:0:
64,192,51258,1,0,0:0:0:0:
320,192,51327,1,0,0:0:0:0:
192,192,51397,1,0,0:0:0:0:
64,192,51466,1,0,0:0:0:0:
320,192,51466,1,0,0:0:0:0:
448,192,51466,1,0,0:0:0:0:
192,192,51535,1,0,0:0:0:0:
448,192,51605,1,0,0:0:0:0:
320,192,51675,1,0,0:0:0:0:
448,192,51744,1,0,0:0:0:0:
192,192,51744,1,0,0:0:0:0:
64,192,51744,1,0,0:0:0:0:
320,192,51814,1,0,0:0:0:0:
64,192,51883,1,0,0:0:0:0:
192,192,51952,1,0,0:0:0:0:
64,192,52022,1,0,0:0:0:0:
320,192,52022,1,0,0:0:0:0:
448,192,52022,1,0,0:0:0:0:
192,192,52091,1,0,0:0:0:0:
320,192,52160,1,0,0:0:0:0:
192,192,52230,1,0,0:0:0:0:
448,192,52300,1,0,0:0:0:0:
320,192,52300,1,0,0:0:0:0:
64,192,52300,1,0,0:0:0:0:
192,192,52369,1,0,0:0:0:0:
320,192,52439,1,0,0:0:0:0:
448,192,52508,1,0,0:0:0:0:
192,192,52577,1,0,0:0:0:0:
64,192,52577,1,0,0:0:0:0:
320,192,52577,1,0,0:0:0:0:
448,192,52647,1,0,0:0:0:0:
64,192,52716,1,0,0:0:0:0:
192,192,52785,1,0,0:0:0:0:
448,192,52855,1,0,0:0:0:0:
320,192,52855,1,0,0:0:0:0:
64,192,52855,1,0,0:0:0:0:
192,192,52925,1,0,0:0:0:0:
320,192,52994,1,0,0:0:0:0:
448,192,53064,1,0,0:0:0:0:
192,192,53133,1,0,0:0:0:0:
64,192,53133,1,0,0:0:0:0:
320,192,53133,1,0,0:0:0:0:
448,192,53202,1,0,0:0:0:0:
64,192,53272,1,0,0:0:0:0:
320,192,53341,1,0,0:0:0:0:
448,192,53410,1,0,0:0:0:0:
192,192,53410,1,0,0:0:0:0:
64,192,53410,1,0,0:0:0:0:
320,192,53480,1,0,0:0:0:0:
448,192,53550,1,0,0:0:0:0:
320,192,53619,1,0,0:0:0:0:
192,192,53689,1,0,0:0:0:0:
64,192,53689,1,0,0:0:0:0:
448,192,53689,1,0,0:0:0:0:
320,192,53758,1,0,0:0:0:0:
192,192,53827,1,0,0:0:0:0:
64,192,53897,1,0,0:0:0:0:
448,192,53966,1,0,0:0:0:0:
320,192,53966,1,0,0:0:0:0:
192,192,53966,1,0,0:0:0:0:
64,192,54035,1,0,0:0:0:0:
192,192,54105,1,0,0:0:0:0:
448,192,54175,1,0,0:0:0:0:
192,192,54244,1,0,0:0:0:0:
64,192,54244,1,0,0:0:0:0:
320,192,54244,1,0,0:0:0:0:
448,192,54314,1,0,0:0:0:0:
64,192,54383,1,0,0:0:0:0:
192,192,54452,1,0,0:0:0:0:
448,192,54522,1,0,0:0:0:0:
320,192,54522,1,0,0:0:0:0:
64,192,54522,1,0,0:0:0:0:
192,192,54591,1,0,0:0:0:0:
320,192,54660,1,0,0:0:0:0:
448,192,54730,1,0,0:0:0:0:
192,192,54800,1,0,0:0:0:0:
64,192,54800,1,0,0:0:0:0:
320,192,54800,1,0,0:0:0:0:
448,192,54869,1,0,0:0:0:0:
64,192,54939,1,0,0:0:0:0:
192,192,55008,1,0,0:0:0:0:
448,192,55077,1,0,0:0:0:0:
320,192,55077,1,0,0:0:0:0:
64,192,55077,1,0,0:0:0:0:
192,192,55147,1,0,0:0:0:0:
448,192,55216,1,0,0:0:0:0:
320,192,55285,1,0,0:0:0:0:
192,192,55355,1,0,0:0:0:0:
64,192,55355,1,0,0:0:0:0:
448,192,55355,1,0,0:0:0:0:
320,192,55425,1,0,0:0:0:0:
192,192,55494,1,0,0:0:0:0:
64,192,55564,1,0,0:0:0:0:
448,192,55633,1,0,0:0:0:0:
320,192,55633,1,0,0:0:0:0:
192,192,55633,1,0,0:0:0:0:
64,192,55702,1,0,0:0:0:0:
320,192,55772,1,0,0:0:0:0:
448,192,55841,1,0,0:0:0:0:
192,192,55910,1,0,0:0:0:0:
64,192,55910,1,0,0:0:0:0:
320,192,55910,1,0,0:0:0:0:
448,192,55980,1,0,0:0:0:0:
64,192,56050,1,0,0:0:0:0:
320,192,56119,1,0,0:0:0:0:
448,192,56189,1,0,0:0:0:0:
192,192,56189,1,0,0:0:0:0:
64,192,56189,1,0,0:0:0:0:
320,192,56258,1,0,0:0:0:0:
448,192,56327,1,0,0:0:0:0:
320,192,56397,1,0,0:0:0:0:
64,192,56466,1,0,0:0:0:0:
448,192,56466,1,0,0:0:0:0:
192,192,56466,1,0,0:0:0:0:
320,192,56535,1,0,0:0:0:0:
64,192,56605,1,0,0:0:0:0:
192,192,56675,1,0,0:0:0:0:
448,192,56744,1,0,0:0:0:0:
320,192,56744,1,0,0:0:0:0:
64,192,56744,1,0,0:0:0:0:
192,192,56814,1,0,0:0:0:0:
448,192,56883,1,0,0:0:0:0:
64,192,56952,1,0,0:0:0:0:
192,192,57022,1,0,0:0:0:0:
320,192,57022,1,0,0:0:0:0:
448,192,57022,1,0,0:0:0:0:
64,192,57091,1,0,0:0:0:0:
320,192,57160,1,0,0:0:0:0:
192,192,57230,1,0,0:0:0:0:
448,192,57300,1,0,0:0:0:0:
320,192,57300,1,0,0:0:0:0:
64,192,57300,1,0,0:0:0:0:
192,192,57369,1,0,0:0:0:0:
448,192,57439,1,0,0:0:0:0:
320,192,57508,1,0,0:0:0:0:
192,192,57577,1,0,0:0:0:0:
64,192,57577,1,0,0:0:0:0:
448,192,57577,1,0,0:0:0:0:
320,192,57647,1,0,0:0:0:0:
64,192,57716,1,0,0:0:0:0:
192,192,57785,1,0,0:0:0:0:
448,192,57855,1,0,0:0:0:0:
320,192,57855,1,0,0:0:0:0:
64,192,57855,1,0,0:0:0:0:
192,192,57925,1,0,0:0:0:0:
320,192,57994,1,0,0:0:0:0:
448,192,58064,1,0,0:0:0:0:
64,192,58133,1,0,0:0:0:0:
192,192,58133,1,0,0:0:0:0:
320,192,58202,1,0,0:0:0:0:
448,192,58202,1,0,0:0:0:0:
64,192,58272,1,0,0:0:0:0:
192,192,58272,1,0,0:0:0:0:
320,192,58341,1,0,0:0:0:0:
448,192,58341,1,0,0:0:0:0:
64,192,58410,1,0,0:0:0:0:
192,192,58410,1,0,0:0:0:0:
320,192,58480,1,0,0:0:0:0:
448,192,58480,1,0,0:0:0:0:
192,192,58550,1,0,0:0:0:0:
64,192,58550,1,0,0:0:0:0:
448,192,58619,1,0,0:0:0:0:
320,192,58619,1,0,0:0:0:0:
64,192,58689,128,0,59244:0:0:0:0:
192,192,58689,1,0,0:0:0:0:
448,192,58966,1,0,0:0:0:0:
320,192,59244,128,0,59522:0:0:0:0:
192,192,59244,1,0,0:0:0:0:
192,192,59383,1,0,0:0:0:0:
448,192,59522,128,0,59800:0:0:0:0:
64,192,59522,1,0,0:0:0:0:
192,192,59800,128,0,60355:0:0:0:0:
64,192,59800,1,0,0:0:0:0:
448,192,60077,1,0,0:0:0:0:
64,192,60355,128,0,60633:0:0:0:0:
448,192,60355,1,0,0:0:0:0:
448,192,60494,1,0,0:0:0:0:
192,192,60633,1,0,0:0:0:0:
448,192,60910,128,0,61119:0:0:0:0:
192,192,60910,1,0,0:0:0:0:
320,192,61119,128,0,61327:0:0:0:0:
64,192,61189,1,0,0:0:0:0:
64,192,61327,128,0,61466:0:0:0:0:
448,192,61466,128,0,61675:0:0:0:0:
320,192,61466,1,0,0:0:0:0:
192,192,61605,1,0,0:0:0:0:
320,192,61675,128,0,61883:0:0:0:0:
64,192,61744,1,0,0:0:0:0:
64,192,61883,128,0,62022:0:0:0:0:
448,192,62022,128,0,62577:0:0:0:0:
192,192,62022,1,0,0:0:0:0:
320,192,62300,1,0,0:0:0:0:
64,192,62577,1,0,0:0:0:0:
64,192,62716,1,0,0:0:0:0:
448,192,62855,1,0,0:0:0:0:
64,192,62994,128,0,63133:0:0:0:0:
448,192,63133,128,0,63341:0:0:0:0:
192,192,63133,1,0,0:0:0:0:
192,192,63341,128,0,63550:0:0:0:0:
320,192,63410,1,0,0:0:0:0:
448,192,63550,128,0,63689:0:0:0:0:
320,192,63689,128,0,63966:0:0:0:0:
64,192,63689,1,0,0:0:0:0:
64,192,63827,1,0,0:0:0:0:
64,192,63966,128,0,64175:0:0:0:0:
192,192,63966,1,0,0:0:0:0:
448,192,64175,128,0,64522:0:0:0:0:
192,192,64244,1,0,0:0:0:0:
192,192,64522,128,0,64939:0:0:0:0:
320,192,64522,1,0,0:0:0:0:
320,192,64800,1,0,0:0:0:0:
320,192,64939,1,0,0:0:0:0:
448,192,65077,1,0,0:0:0:0:
64,192,65285,128,0,65425:0:0:0:0:
192,192,65355,1,0,0:0:0:0:
448,192,65425,128,0,65564:0:0:0:0:
192,192,65564,128,0,65702:0:0:0:0:
320,192,65633,1,0,0:0:0:0:
448,192,65702,128,0,65910:0:0:0:0:
64,192,65910,128,0,66119:0:0:0:0:
192,192,65910,1,0,0:0:0:0:
192,192,66050,1,0,0:0:0:0:
320,192,66119,128,0,66397:0:0:0:0:
448,192,66189,1,0,0:0:0:0:
64,192,66397,128,0,66535:0:0:0:0:
192,192,66466,1,0,0:0:0:0:
448,192,66535,128,0,67577:0:0:0:0:
320,192,66744,1,0,0:0:0:0:
64,192,66883,1,0,0:0:0:0:
64,192,67022,1,0,0:0:0:0:
192,192,67160,1,0,0:0:0:0:
320,192,67577,1,0,0:0:0:0:
192,192,67577,1,0,0:0:0:0:
64,192,67577,1,0,0:0:0:0:
448,192,68133,128,0,68410:0:0:0:0:
320,192,68410,128,0,68689:0:0:0:0:
64,192,68689,1,0,0:0:0:0:
192,192,68689,1,0,0:0:0:0:
448,192,68689,1,0,0:0:0:0:
320,192,68758,1,0,0:0:0:0:
448,192,68827,1,0,0:0:0:0:
320,192,68897,1,0,0:0:0:0:
192,192,68966,1,0,0:0:0:0:
448,192,68966,1,0,0:0:0:0:
64,192,69035,1,0,0:0:0:0:
192,192,69105,1,0,0:0:0:0:
64,192,69175,1,0,0:0:0:0:
320,192,69244,1,0,0:0:0:0:
192,192,69244,1,0,0:0:0:0:
448,192,69314,1,0,0:0:0:0:
320,192,69383,1,0,0:0:0:0:
448,192,69452,1,0,0:0:0:0:
192,192,69522,1,0,0:0:0:0:
320,192,69522,1,0,0:0:0:0:
64,192,69522,1,0,0:0:0:0:
448,192,69591,1,0,0:0:0:0:
320,192,69660,1,0,0:0:0:0:
192,192,69730,1,0,0:0:0:0:
320,192,69800,1,0,0:0:0:0:
64,192,69800,1,0,0:0:0:0:
448,192,69800,1,0,0:0:0:0:
192,192,69869,1,0,0:0:0:0:
64,192,69939,1,0,0:0:0:0:
192,192,70008,1,0,0:0:0:0:
320,192,70077,1,0,0:0:0:0:
448,192,70077,1,0,0:0:0:0:
192,192,70147,1,0,0:0:0:0:
320,192,70216,1,0,0:0:0:0:
192,192,70285,1,0,0:0:0:0:
448,192,70355,1,0,0:0:0:0:
64,192,70355,1,0,0:0:0:0:
320,192,70355,1,0,0:0:0:0:
192,192,70425,1,0,0:0:0:0:
320,192,70494,1,0,0:0:0:0:
448,192,70564,1,0,0:0:0:0:
192,192,70633,1,0,0:0:0:0:
320,192,70633,1,0,0:0:0:0:
64,192,70702,1,0,0:0:0:0:
448,192,70772,1,0,0:0:0:0:
64,192,70841,1,0,0:0:0:0:
320,192,70910,1,0,0:0:0:0:
448,192,70910,1,0,0:0:0:0:
192,192,70910,1,0,0:0:0:0:
64,192,70980,1,0,0:0:0:0:
448,192,71050,1,0,0:0:0:0:
64,192,71119,1,0,0:0:0:0:
192,192,71189,1,0,0:0:0:0:
320,192,71189,1,0,0:0:0:0:
448,192,71189,1,0,0:0:0:0:
64,192,71258,1,0,0:0:0:0:
448,192,71327,1,0,0:0:0:0:
192,192,71327,1,0,0:0:0:0:
320,192,71397,1,0,0:0:0:0:
448,192,71466,1,0,0:0:0:0:
64,192,71466,1,0,0:0:0:0:
192,192,71466,1,0,0:0:0:0:
320,192,71535,1,0,0:0:0:0:
448,192,71605,1,0,0:0:0:0:
192,192,71675,1,0,0:0:0:0:
320,192,71744,1,0,0:0:0:0:
448,192,71744,1,0,0:0:0:0:
64,192,71744,1,0,0:0:0:0:
192,192,71814,1,0,0:0:0:0:
64,192,71883,1,0,0:0:0:0:
320,192,71883,1,0,0:0:0:0:
448,192,71952,1,0,0:0:0:0:
64,192,72022,1,0,0:0:0:0:
320,192,72022,1,0,0:0:0:0:
192,192,72022,1,0,0:0:0:0:
448,192,72091,1,0,0:0:0:0:
320,192,72160,1,0,0:0:0:0:
448,192,72230,1,0,0:0:0:0:
64,192,72300,1,0,0:0:0:0:
320,192,72300,1,0,0:0:0:0:
192,192,72300,1,0,0:0:0:0:
448,192,72369,1,0,0:0:0:0:
64,192,72439,1,0,0:0:0:0:
448,192,72508,1,0,0:0:0:0:
320,192,72577,1,0,0:0:0:0:
192,192,72577,1,0,0:0:0:0:
64,192,72577,1,0,0:0:0:0:
448,192,72647,1,0,0:0:0:0:
64,192,72716,1,0,0:0:0:0:
448,192,72785,1,0,0:0:0:0:
320,192,72855,1,0,0:0:0:0:
64,192,72855,1,0,0:0:0:0:
192,192,72855,1,0,0:0:0:0:
448,192,72925,1,0,0:0:0:0:
192,192,72994,1,0,0:0:0:0:
64,192,73064,1,0,0:0:0:0:
320,192,73133,1,0,0:0:0:0:
192,192,73133,1,0,0:0:0:0:
448,192,73133,1,0,0:0:0:0:
64,192,73202,1,0,0:0:0:0:
192,192,73272,1,0,0:0:0:0:
448,192,73341,1,0,0:0:0:0:
64,192,73410,1,0,0:0:0:0:
320,192,73410,1,0,0:0:0:0:
192,192,73480,1,0,0:0:0:0:
64,192,73550,1,0,0:0:0:0:
448,192,73619,1,0,0:0:0:0:
320,192,73689,1,0,0:0:0:0:
192,192,73689,1,0,0:0:0:0:
64,192,73758,1,0,0:0:0:0:
192,192,73827,1,0,0:0:0:0:
320,192,73897,1,0,0:0:0:0:
64,192,73966,1,0,0:0:0:0:
448,192,73966,1,0,0:0:0:0:
192,192,74035,1,0,0:0:0:0:
64,192,74105,1,0,0:0:0:0:
192,192,74175,1,0,0:0:0:0:
320,192,74244,1,0,0:0:0:0:
64,192,74244,1,0,0:0:0:0:
448,192,74244,1,0,0:0:0:0:
192,192,74314,1,0,0:0:0:0:
320,192,74383,1,0,0:0:0:0:
192,192,74452,1,0,0:0:0:0:
64,192,74522,1,0,0:0:0:0:
320,192,74522,1,0,0:0:0:0:
448,192,74591,1,0,0:0:0:0:
320,192,74660,1,0,0:0:0:0:
448,192,74730,1,0,0:0:0:0:
320,192,74800,1,0,0:0:0:0:
64,192,74800,1,0,0:0:0:0:
192,192,74800,1,0,0:0:0:0:
448,192,74869,1,0,0:0:0:0:
320,192,74939,1,0,0:0:0:0:
64,192,75008,1,0,0:0:0:0:
192,192,75077,1,0,0:0:0:0:
320,192,75077,1,0,0:0:0:0:
448,192,75147,1,0,0:0:0:0:
64,192,75216,1,0,0:0:0:0:
192,192,75285,1,0,0:0:0:0:
320,192,75355,1,0,0:0:0:0:
64,192,75355,1,0,0:0:0:0:
448,192,75355,1,0,0:0:0:0:
192,192,75425,1,0,0:0:0:0:
448,192,75494,1,0,0:0:0:0:
320,192,75564,1,0,0:0:0:0:
64,192,75633,1,0,0:0:0:0:
448,192,75633,1,0,0:0:0:0:
192,192,75702,1,0,0:0:0:0:
320,192,75772,1,0,0:0:0:0:
448,192,75841,1,0,0:0:0:0:
192,192,75910,1,0,0:0:0:0:
64,192,75910,1,0,0:0:0:0:
320,192,75980,1,0,0:0:0:0:
448,192,76050,1,0,0:0:0:0:
320,192,76119,1,0,0:0:0:0:
64,192,76189,1,0,0:0:0:0:
448,192,76189,1,0,0:0:0:0:
64,192,76374,1,0,0:0:0:0:
192,192,76420,1,0,0:0:0:0:
64,192,76466,1,0,0:0:0:0:
320,192,76466,1,0,0:0:0:0:
448,192,76513,1,0,0:0:0:0:
320,192,76559,1,0,0:0:0:0:
448,192,76605,1,0,0:0:0:0:
64,192,76651,1,0,0:0:0:0:
192,192,76698,1,0,0:0:0:0:
64,192,76744,1,0,0:0:0:0:
320,192,76744,1,0,0:0:0:0:
448,192,76790,1,0,0:0:0:0:
320,192,76837,1,0,0:0:0:0:
448,192,76883,1,0,0:0:0:0:
64,192,76930,1,0,0:0:0:0:
192,192,76975,1,0,0:0:0:0:
320,192,77022,1,0,0:0:0:0:
64,192,77022,1,0,0:0:0:0:
448,192,77022,1,0,0:0:0:0:
192,192,77091,1,0,0:0:0:0:
320,192,77160,1,0,0:0:0:0:
64,192,77230,1,0,0:0:0:0:
320,192,77300,1,0,0:0:0:0:
192,192,77300,1,0,0:0:0:0:
448,192,77300,1,0,0:0:0:0:
64,192,77369,1,0,0:0:0:0:
448,192,77439,1,0,0:0:0:0:
320,192,77508,1,0,0:0:0:0:
64,192,77577,1,0,0:0:0:0:
192,192,77577,1,0,0:0:0:0:
448,192,77577,1,0,0:0:0:0:
320,192,77647,1,0,0:0:0:0:
448,192,77716,1,0,0:0:0:0:
64,192,77785,1,0,0:0:0:0:
192,192,77855,1,0,0:0:0:0:
320,192,77855,1,0,0:0:0:0:
64,192,77925,1,0,0:0:0:0:
448,192,77994,1,0,0:0:0:0:
320,192,78064,1,0,0:0:0:0:
64,192,78133,1,0,0:0:0:0:
192,192,78133,1,0,0:0:0:0:
448,192,78133,1,0,0:0:0:0:
320,192,78202,1,0,0:0:0:0:
64,192,78272,1,0,0:0:0:0:
448,192,78341,1,0,0:0:0:0:
192,192,78410,1,0,0:0:0:0:
320,192,78410,1,0,0:0:0:0:
448,192,78480,1,0,0:0:0:0:
192,192,78550,1,0,0:0:0:0:
64,192,78619,1,0,0:0:0:0:
320,192,78689,1,0,0:0:0:0:
192,192,78689,1,0,0:0:0:0:
448,192,78689,1,0,0:0:0:0:
64,192,78758,1,0,0:0:0:0:
448,192,78827,1,0,0:0:0:0:
192,192,78897,1,0,0:0:0:0:
320,192,78966,1,0,0:0:0:0:
64,192,78966,1,0,0:0:0:0:
192,192,79035,1,0,0:0:0:0:
448,192,79105,1,0,0:0:0:0:
320,192,79175,1,0,0:0:0:0:
192,192,79244,1,0,0:0:0:0:
64,192,79244,1,0,0:0:0:0:
448,192,79244,1,0,0:0:0:0:
320,192,79314,1,0,0:0:0:0:
64,192,79383,1,0,0:0:0:0:
448,192,79452,1,0,0:0:0:0:
192,192,79522,1,0,0:0:0:0:
320,192,79522,1,0,0:0:0:0:
448,192,79591,1,0,0:0:0:0:
64,192,79660,1,0,0:0:0:0:
192,192,79730,1,0,0:0:0:0:
320,192,79800,1,0,0:0:0:0:
448,192,79800,1,0,0:0:0:0:
64,192,79800,1,0,0:0:0:0:
192,192,79869,1,0,0:0:0:0:
448,192,79939,1,0,0:0:0:0:
320,192,80008,1,0,0:0:0:0:
192,192,80077,1,0,0:0:0:0:
64,192,80077,1,0,0:0:0:0:
320,192,80147,1,0,0:0:0:0:
448,192,80216,1,0,0:0:0:0:
64,192,80285,1,0,0:0:0:0:
192,192,80355,1,0,0:0:0:0:
320,192,80355,1,0,0:0:0:0:
64,192,80425,1,0,0:0:0:0:
448,192,80494,1,0,0:0:0:0:
192,192,80564,1,0,0:0:0:0:
320,192,80633,1,0,0:0:0:0:
64,192,80633,1,0,0:0:0:0:
448,192,80633,1,0,0:0:0:0:
192,192,80702,1,0,0:0:0:0:
320,192,80772,1,0,0:0:0:0:
448,192,80841,1,0,0:0:0:0:
320,192,80910,1,0,0:0:0:0:
192,192,80910,1,0,0:0:0:0:
64,192,80910,1,0,0:0:0:0:
448,192,80980,1,0,0:0:0:0:
192,192,81050,1,0,0:0:0:0:
320,192,81119,1,0,0:0:0:0:
64,192,81189,1,0,0:0:0:0:
448,192,81189,1,0,0:0:0:0:
320,192,81258,1,0,0:0:0:0:
192,192,81327,1,0,0:0:0:0:
64,192,81397,1,0,0:0:0:0:
320,192,81466,1,0,0:0:0:0:
192,192,81466,1,0,0:0:0:0:
448,192,81466,1,0,0:0:0:0:
64,192,81535,1,0,0:0:0:0:
320,192,81605,1,0,0:0:0:0:
192,192,81675,1,0,0:0:0:0:
320,192,81744,1,0,0:0:0:0:
448,192,81744,1,0,0:0:0:0:
64,192,81744,1,0,0:0:0:0:
192,192,81814,1,0,0:0:0:0:
448,192,81883,1,0,0:0:0:0:
320,192,81952,1,0,0:0:0:0:
192,192,82022,1,0,0:0:0:0:
64,192,82022,1,0,0:0:0:0:
448,192,82022,1,0,0:0:0:0:
320,192,82091,1,0,0:0:0:0:
64,192,82160,1,0,0:0:0:0:
448,192,82230,1,0,0:0:0:0:
192,192,82300,1,0,0:0:0:0:
320,192,82300,1,0,0:0:0:0:
64,192,82369,1,0,0:0:0:0:
192,192,82439,1,0,0:0:0:0:
320,192,82508,1,0,0:0:0:0:
448,192,82577,1,0,0:0:0:0:
64,192,82577,1,0,0:0:0:0:
192,192,82647,1,0,0:0:0:0:
320,192,82716,1,0,0:0:0:0:
448,192,82785,1,0,0:0:0:0:
320,192,82855,1,0,0:0:0:0:
192,192,82855,1,0,0:0:0:0:
64,192,82925,1,0,0:0:0:0:
448,192,82994,1,0,0:0:0:0:
320,192,83064,1,0,0:0:0:0:
64,192,83133,1,0,0:0:0:0:
192,192,83133,1,0,0:0:0:0:
448,192,83133,1,0,0:0:0:0:
320,192,83202,1,0,0:0:0:0:
192,192,83272,1,0,0:0:0:0:
64,192,83341,1,0,0:0:0:0:
192,192,83410,1,0,0:0:0:0:
448,192,83410,1,0,0:0:0:0:
320,192,83480,1,0,0:0:0:0:
192,192,83550,1,0,0:0:0:0:
64,192,83619,1,0,0:0:0:0:
320,192,83689,1,0,0:0:0:0:
448,192,83689,1,0,0:0:0:0:
192,192,83758,1,0,0:0:0:0:
64,192,83827,1,0,0:0:0:0:
448,192,83827,1,0,0:0:0:0:
320,192,83897,1,0,0:0:0:0:
192,192,83966,1,0,0:0:0:0:
320,192,84035,1,0,0:0:0:0:
448,192,84105,1,0,0:0:0:0:
64,192,84105,1,0,0:0:0:0:
192,192,84175,1,0,0:0:0:0:
320,192,84244,1,0,0:0:0:0:
64,192,84244,1,0,0:0:0:0:
448,192,84244,128,0,84383:0:0:0:0:
320,192,84383,128,0,84522:0:0:0:0:
64,192,84522,128,0,84660:0:0:0:0:
192,192,84660,128,0,84800:0:0:0:0:
448,192,84800,128,0,84939:0:0:0:0:
320,192,84939,128,0,85077:0:0:0:0:
448,192,85077,128,0,85216:0:0:0:0:
320,192,85216,128,0,85355:0:0:0:0:
64,192,85355,128,0,85494:0:0:0:0:
192,192,85494,128,0,85633:0:0:0:0:
448,192,85633,128,0,85772:0:0:0:0:
320,192,85772,128,0,85910:0:0:0:0:
64,192,85910,128,0,86050:0:0:0:0:
192,192,86050,128,0,86189:0:0:0:0:
320,192,86189,128,0,86327:0:0:0:0:
448,192,86327,128,0,86466:0:0:0:0:
320,192,86466,128,0,86605:0:0:0:0:
64,192,86744,128,0,86883:0:0:0:0:
448,192,86883,128,0,87022:0:0:0:0:
192,192,87022,128,0,87160:0:0:0:0:
448,192,87160,128,0,87300:0:0:0:0:
320,192,87300,128,0,87439:0:0:0:0:
448,192,87439,128,0,87577:0:0:0:0:
320,192,87577,128,0,87647:0:0:0:0:
64,192,87577,128,0,87716:0:0:0:0:
320,192,87716,128,0,87785:0:0:0:0:
192,192,87716,128,0,87855:0:0:0:0:
448,192,87855,128,0,87994:0:0:0:0:
64,192,87994,128,0,88133:0:0:0:0:
448,192,88133,128,0,88272:0:0:0:0:
320,192,88272,128,0,88410:0:0:0:0:
64,192,88410,128,0,88550:0:0:0:0:
192,192,88550,128,0,88689:0:0:0:0:
448,192,88689,128,0,88827:0:0:0:0:
64,192,88827,128,0,88966:0:0:0:0:
448,192,88966,128,0,89105:0:0:0:0:
320,192,89105,128,0,89244:0:0:0:0:
192,192,89244,128,0,89383:0:0:0:0:
64,192,89383,128,0,89522:0:0:0:0:
320,192,89522,128,0,89660:0:0:0:0:
448,192,89660,128,0,89800:0:0:0:0:
192,192,89800,128,0,90077:0:0:0:0:
64,192,90077,128,0,90216:0:0:0:0:
448,192,90216,128,0,90355:0:0:0:0:
192,192,90355,128,0,90494:0:0:0:0:
448,192,90494,128,0,90633:0:0:0:0:
320,192,90633,128,0,90772:0:0:0:0:
448,192,90772,128,0,90910:0:0:0:0:
64,192,90910,128,0,91050:0:0:0:0:
320,192,90910,128,0,91189:0:0:0:0:
192,192,90910,1,0,0:0:0:0:
192,192,91050,128,0,91189:0:0:0:0:
448,192,91189,128,0,91327:0:0:0:0:
64,192,91189,128,0,91327:0:0:0:0:
320,192,91327,128,0,91466:0:0:0:0:
64,192,91466,128,0,91605:0:0:0:0:
448,192,91466,128,0,91605:0:0:0:0:
192,192,91466,1,0,0:0:0:0:
192,192,91605,128,0,91744:0:0:0:0:
64,192,91744,128,0,91883:0:0:0:0:
448,192,91744,1,0,0:0:0:0:
320,192,91744,128,0,92022:0:0:0:0:
192,192,91883,128,0,92022:0:0:0:0:
448,192,92022,128,0,92160:0:0:0:0:
64,192,92022,128,0,92160:0:0:0:0:
320,192,92160,128,0,92300:0:0:0:0:
64,192,92300,128,0,92439:0:0:0:0:
448,192,92300,128,0,92439:0:0:0:0:
192,192,92439,128,0,92577:0:0:0:0:
448,192,92577,128,0,92716:0:0:0:0:
64,192,92577,128,0,92855:0:0:0:0:
320,192,92577,1,0,0:0:0:0:
320,192,92716,128,0,92855:0:0:0:0:
192,192,92855,128,0,92994:0:0:0:0:
448,192,92855,128,0,93133:0:0:0:0:
64,192,92994,128,0,93133:0:0:0:0:
192,192,93133,128,0,93272:0:0:0:0:
320,192,93133,1,0,0:0:0:0:
448,192,93410,128,0,93550:0:0:0:0:
64,192,93410,1,0,0:0:0:0:
192,192,93410,128,0,93689:0:0:0:0:
64,192,93550,128,0,93689:0:0:0:0:
320,192,93689,128,0,93827:0:0:0:0:
448,192,93689,128,0,93966:0:0:0:0:
64,192,93827,128,0,93966:0:0:0:0:
192,192,93966,128,0,94105:0:0:0:0:
320,192,93966,128,0,94105:0:0:0:0:
64,192,94105,128,0,94244:0:0:0:0:
448,192,94244,128,0,94383:0:0:0:0:
320,192,94244,1,0,0:0:0:0:
192,192,94244,128,0,94522:0:0:0:0:
320,192,94383,128,0,94522:0:0:0:0:
64,192,94522,128,0,94660:0:0:0:0:
448,192,94522,128,0,94800:0:0:0:0:
192,192,94660,128,0,94800:0:0:0:0:
64,192,94800,128,0,94939:0:0:0:0:
320,192,94800,1,0,0:0:0:0:
320,192,94939,128,0,95077:0:0:0:0:
448,192,95077,128,0,95216:0:0:0:0:
64,192,95077,1,0,0:0:0:0:
192,192,95077,128,0,95216:0:0:0:0:
320,192,95216,128,0,95355:0:0:0:0:
64,192,95355,128,0,95494:0:0:0:0:
192,192,95355,128,0,95633:0:0:0:0:
448,192,95494,128,0,95633:0:0:0:0:
64,192,95633,128,0,95772:0:0:0:0:
320,192,95633,128,0,95772:0:0:0:0:
192,192,95772,128,0,95910:0:0:0:0:
320,192,95910,128,0,96050:0:0:0:0:
64,192,95910,1,0,0:0:0:0:
448,192,95910,128,0,96189:0:0:0:0:
64,192,96050,128,0,96189:0:0:0:0:
192,192,96189,128,0,96327:0:0:0:0:
320,192,96189,128,0,96327:0:0:0:0:
64,192,96327,128,0,96466:0:0:0:0:
320,192,96466,128,0,96744:0:0:0:0:
192,192,96466,1,0,0:0:0:0:
448,192,96744,128,0,96883:0:0:0:0:
192,192,96744,1,0,0:0:0:0:
64,192,96883,128,0,97022:0:0:0:0:
192,192,96883,128,0,97160:0:0:0:0:
320,192,97022,128,0,97160:0:0:0:0:
64,192,97160,128,0,97300:0:0:0:0:
192,192,97300,128,0,97439:0:0:0:0:
448,192,97300,128,0,97577:0:0:0:0:
64,192,97439,128,0,97577:0:0:0:0:
320,192,97577,1,0,0:0:0:0:
192,192,97577,128,0,97855:0:0:0:0:
320,192,97855,128,0,98133:0:0:0:0:
64,192,97855,1,0,0:0:0:0:
448,192,98133,128,0,98410:0:0:0:0:
192,192,98133,1,0,0:0:0:0:
192,192,98410,128,0,98689:0:0:0:0:
320,192,98410,1,0,0:0:0:0:
320,192,98689,128,0,98966:0:0:0:0:
64,192,98689,1,0,0:0:0:0:
448,192,98966,128,0,99244:0:0:0:0:
192,192,98966,1,0,0:0:0:0:
64,192,99244,128,0,99522:0:0:0:0:
192,192,99522,1,0,0:0:0:0:
320,192,99522,1,0,0:0:0:0:
192,192,99660,1,0,0:0:0:0:
320,192,99660,1,0,0:0:0:0:
64,192,99800,1,0,0:0:0:0:
448,192,99800,1,0,0:0:0:0:
64,192,99939,1,0,0:0:0:0:
448,192,99939,1,0,0:0:0:0:
192,192,100077,128,0,100355:0:0:0:0:
64,192,100355,1,0,0:0:0:0:
448,192,100355,1,0,0:0:0:0:
448,192,100494,1,0,0:0:0:0:
64,192,100494,1,0,0:0:0:0:
192,192,100633,1,0,0:0:0:0:
320,192,100633,1,0,0:0:0:0:
192,192,100772,1,0,0:0:0:0:
320,192,100772,1,0,0:0:0:0:
192,192,100910,128,0,101189:0:0:0:0:
448,192,100910,1,0,0:0:0:0:
320,192,101189,128,0,101466:0:0:0:0:
64,192,101189,1,0,0:0:0:0:
448,192,101466,128,0,101744:0:0:0:0:
192,192,101466,1,0,0:0:0:0:
192,192,101744,128,0,102022:0:0:0:0:
64,192,101744,1,0,0:0:0:0:
320,192,102022,128,0,102300:0:0:0:0:
448,192,102022,1,0,0:0:0:0:
448,192,102300,128,0,102577:0:0:0:0:
192,192,102300,1,0,0:0:0:0:
320,192,102577,128,0,102855:0:0:0:0:
64,192,102855,1,0,0:0:0:0:
192,192,102855,1,0,0:0:0:0:
64,192,102994,1,0,0:0:0:0:
192,192,102994,1,0,0:0:0:0:
320,192,103133,1,0,0:0:0:0:
448,192,103133,1,0,0:0:0:0:
320,192,103272,1,0,0:0:0:0:
448,192,103272,1,0,0:0:0:0:
448,192,103410,128,0,103689:0:0:0:0:
64,192,103689,1,0,0:0:0:0:
320,192,103689,1,0,0:0:0:0:
64,192,103827,1,0,0:0:0:0:
320,192,103827,1,0,0:0:0:0:
192,192,103966,1,0,0:0:0:0:
448,192,103966,1,0,0:0:0:0:
192,192,104105,1,0,0:0:0:0:
448,192,104105,1,0,0:0:0:0:
448,192,104244,128,0,104522:0:0:0:0:
320,192,104522,128,0,104800:0:0:0:0:
448,192,104800,128,0,105077:0:0:0:0:
192,192,105077,128,0,105355:0:0:0:0:
448,192,105355,128,0,105633:0:0:0:0:
320,192,105633,128,0,105910:0:0:0:0:
448,192,105910,128,0,106189:0:0:0:0:
192,192,106189,128,0,106466:0:0:0:0:
448,192,106466,128,0,106744:0:0:0:0:
64,192,106744,128,0,107022:0:0:0:0:
448,192,107022,128,0,107300:0:0:0:0:
192,192,107300,128,0,107577:0:0:0:0:
448,192,107577,128,0,107855:0:0:0:0:
320,192,107855,128,0,108133:0:0:0:0:
64,192,108133,128,0,108410:0:0:0:0:
192,192,108410,128,0,108689:0:0:0:0:
448,192,108689,128,0,113133:0:0:0:0:
320,192,109452,1,0,0:0:0:0:
192,192,109939,1,0,0:0:0:0:
64,192,110425,1,0,0:0:0:0:
192,192,110910,1,0,0:0:0:0:
320,192,111466,1,0,0:0:0:0:
192,192,111883,1,0,0:0:0:0:
64,192,112022,1,0,0:0:0:0:
192,192,112577,1,0,0:0:0:0:
320,192,113133,1,0,0:0:0:0:
64,192,113133,128,0,113410:0:0:0:0:
192,192,113410,128,0,113689:0:0:0:0:
448,192,113689,128,0,113966:0:0:0:0:
192,192,113966,128,0,114244:0:0:0:0:
448,192,114244,128,0,114522:0:0:0:0:
320,192,114522,128,0,114800:0:0:0:0:
448,192,114800,128,0,115077:0:0:0:0:
192,192,115077,128,0,115355:0:0:0:0:
448,192,115355,128,0,115633:0:0:0:0:
64,192,115633,128,0,115910:0:0:0:0:
448,192,115910,128,0,116189:0:0:0:0:
192,192,116189,128,0,116466:0:0:0:0:
448,192,116466,128,0,116744:0:0:0:0:
320,192,116744,128,0,117022:0:0:0:0:
64,192,117022,128,0,117300:0:0:0:0:
192,192,117300,128,0,117577:0:0:0:0:
448,192,117577,128,0,122022:0:0:0:0:
320,192,118341,1,0,0:0:0:0:
192,192,118619,1,0,0:0:0:0:
64,192,118827,1,0,0:0:0:0:
64,192,119383,1,0,0:0:0:0:
192,192,119730,1,0,0:0:0:0:
320,192,119869,1,0,0:0:0:0:
192,192,120494,1,0,0:0:0:0:
64,192,121050,1,0,0:0:0:0:
192,192,121466,1,0,0:0:0:0:
320,192,122022,1,0,0:0:0:0:
192,192,122022,1,0,0:0:0:0:
64,192,122300,1,0,0:0:0:0:
448,192,122300,1,0,0:0:0:0:
192,192,122577,1,0,0:0:0:0:
320,192,122577,1,0,0:0:0:0:
192,192,122716,1,0,0:0:0:0:
320,192,122716,1,0,0:0:0:0:
64,192,122855,1,0,0:0:0:0:
448,192,122855,1,0,0:0:0:0:
320,192,122855,1,0,0:0:0:0:
192,192,122994,1,0,0:0:0:0:
192,192,123133,1,0,0:0:0:0:
448,192,123133,1,0,0:0:0:0:
64,192,123133,1,0,0:0:0:0:
64,192,123410,1,0,0:0:0:0:
320,192,123410,1,0,0:0:0:0:
192,192,123689,1,0,0:0:0:0:
448,192,123689,1,0,0:0:0:0:
192,192,123827,1,0,0:0:0:0:
448,192,123827,1,0,0:0:0:0:
64,192,123966,1,0,0:0:0:0:
320,192,123966,1,0,0:0:0:0:
64,192,124244,1,0,0:0:0:0:
192,192,124244,1,0,0:0:0:0:
320,192,124522,1,0,0:0:0:0:
448,192,124522,1,0,0:0:0:0:
192,192,124522,1,0,0:0:0:0:
320,192,124660,1,0,0:0:0:0:
64,192,124800,1,0,0:0:0:0:
192,192,124800,1,0,0:0:0:0:
448,192,124800,1,0,0:0:0:0:
64,192,124939,1,0,0:0:0:0:
192,192,124939,1,0,0:0:0:0:
320,192,125077,1,0,0:0:0:0:
448,192,125077,1,0,0:0:0:0:
64,192,125077,1,0,0:0:0:0:
192,192,125216,1,0,0:0:0:0:
320,192,125355,1,0,0:0:0:0:
448,192,125355,1,0,0:0:0:0:
192,192,125355,1,0,0:0:0:0:
64,192,125633,1,0,0:0:0:0:
320,192,125633,1,0,0:0:0:0:
192,192,125910,1,0,0:0:0:0:
448,192,125910,1,0,0:0:0:0:
192,192,126050,1,0,0:0:0:0:
448,192,126050,1,0,0:0:0:0:
64,192,126189,1,0,0:0:0:0:
320,192,126189,1,0,0:0:0:0:
192,192,126466,1,0,0:0:0:0:
320,192,126466,1,0,0:0:0:0:
448,192,126466,1,0,0:0:0:0:
64,192,126744,1,0,0:0:0:0:
448,192,126744,1,0,0:0:0:0:
192,192,127022,1,0,0:0:0:0:
320,192,127022,1,0,0:0:0:0:
192,192,127160,1,0,0:0:0:0:
320,192,127160,1,0,0:0:0:0:
64,192,127300,1,0,0:0:0:0:
448,192,127300,1,0,0:0:0:0:
192,192,127300,1,0,0:0:0:0:
320,192,127439,1,0,0:0:0:0:
448,192,127577,1,0,0:0:0:0:
64,192,127577,1,0,0:0:0:0:
192,192,127577,1,0,0:0:0:0:
320,192,127855,1,0,0:0:0:0:
448,192,127855,1,0,0:0:0:0:
192,192,127855,1,0,0:0:0:0:
192,192,128133,1,0,0:0:0:0:
64,192,128133,1,0,0:0:0:0:
320,192,128133,1,0,0:0:0:0:
64,192,128272,1,0,0:0:0:0:
192,192,128272,1,0,0:0:0:0:
320,192,128410,1,0,0:0:0:0:
448,192,128410,1,0,0:0:0:0:
320,192,128689,1,0,0:0:0:0:
448,192,128689,1,0,0:0:0:0:
192,192,128689,1,0,0:0:0:0:
64,192,128966,1,0,0:0:0:0:
192,192,128966,1,0,0:0:0:0:
320,192,129244,1,0,0:0:0:0:
448,192,129244,1,0,0:0:0:0:
320,192,129383,1,0,0:0:0:0:
448,192,129383,1,0,0:0:0:0:
64,192,129522,1,0,0:0:0:0:
192,192,129522,1,0,0:0:0:0:
192,192,129800,1,0,0:0:0:0:
320,192,129800,1,0,0:0:0:0:
64,192,130077,1,0,0:0:0:0:
448,192,130077,1,0,0:0:0:0:
192,192,130355,1,0,0:0:0:0:
320,192,130355,1,0,0:0:0:0:
192,192,130494,1,0,0:0:0:0:
320,192,130494,1,0,0:0:0:0:
64,192,130633,1,0,0:0:0:0:
448,192,130633,1,0,0:0:0:0:
448,192,130910,1,0,0:0:0:0:
64,192,130910,1,0,0:0:0:0:
192,192,130910,1,0,0:0:0:0:
64,192,131189,1,0,0:0:0:0:
320,192,131189,1,0,0:0:0:0:
448,192,131189,1,0,0:0:0:0:
192,192,131327,1,0,0:0:0:0:
320,192,131466,1,0,0:0:0:0:
64,192,131466,1,0,0:0:0:0:
192,192,131466,1,0,0:0:0:0:
64,192,131605,1,0,0:0:0:0:
192,192,131605,1,0,0:0:0:0:
448,192,131744,1,0,0:0:0:0:
320,192,131744,1,0,0:0:0:0:
192,192,131744,1,0,0:0:0:0:
320,192,131883,1,0,0:0:0:0:
192,192,132022,1,0,0:0:0:0:
320,192,132022,1,0,0:0:0:0:
448,192,132022,1,0,0:0:0:0:
64,192,132160,1,0,0:0:0:0:
192,192,132300,1,0,0:0:0:0:
64,192,132300,1,0,0:0:0:0:
320,192,132300,1,0,0:0:0:0:
320,192,132577,1,0,0:0:0:0:
448,192,132577,1,0,0:0:0:0:
320,192,132716,1,0,0:0:0:0:
448,192,132716,1,0,0:0:0:0:
64,192,132855,1,0,0:0:0:0:
192,192,132855,1,0,0:0:0:0:
320,192,133133,1,0,0:0:0:0:
64,192,133133,1,0,0:0:0:0:
448,192,133133,1,0,0:0:0:0:
64,192,133410,1,0,0:0:0:0:
192,192,133410,1,0,0:0:0:0:
320,192,133410,1,0,0:0:0:0:
192,192,133550,1,0,0:0:0:0:
320,192,133689,1,0,0:0:0:0:
64,192,133689,1,0,0:0:0:0:
448,192,133689,1,0,0:0:0:0:
64,192,133827,1,0,0:0:0:0:
448,192,133827,1,0,0:0:0:0:
64,192,133966,1,0,0:0:0:0:
192,192,133966,1,0,0:0:0:0:
320,192,133966,1,0,0:0:0:0:
192,192,134105,1,0,0:0:0:0:
448,192,134244,1,0,0:0:0:0:
64,192,134244,1,0,0:0:0:0:
192,192,134244,1,0,0:0:0:0:
320,192,134383,1,0,0:0:0:0:
192,192,134522,1,0,0:0:0:0:
320,192,134522,1,0,0:0:0:0:
448,192,134522,1,0,0:0:0:0:
64,192,134800,1,0,0:0:0:0:
192,192,134800,1,0,0:0:0:0:
64,192,134939,1,0,0:0:0:0:
192,192,134939,1,0,0:0:0:0:
320,192,135077,1,0,0:0:0:0:
448,192,135077,1,0,0:0:0:0:
64,192,135355,1,0,0:0:0:0:
448,192,135355,1,0,0:0:0:0:
320,192,135355,1,0,0:0:0:0:
448,192,135633,1,0,0:0:0:0:
64,192,135633,1,0,0:0:0:0:
192,192,135633,1,0,0:0:0:0:
320,192,135772,1,0,0:0:0:0:
192,192,135910,1,0,0:0:0:0:
320,192,135910,1,0,0:0:0:0:
448,192,135910,1,0,0:0:0:0:
320,192,136050,1,0,0:0:0:0:
448,192,136050,1,0,0:0:0:0:
64,192,136189,1,0,0:0:0:0:
192,192,136189,1,0,0:0:0:0:
320,192,136189,1,0,0:0:0:0:
192,192,136327,1,0,0:0:0:0:
448,192,136466,1,0,0:0:0:0:
64,192,136466,1,0,0:0:0:0:
192,192,136466,1,0,0:0:0:0:
192,192,136744,1,0,0:0:0:0:
320,192,136744,1,0,0:0:0:0:
448,192,136744,1,0,0:0:0:0:
64,192,137022,1,0,0:0:0:0:
192,192,137022,1,0,0:0:0:0:
320,192,137022,1,0,0:0:0:0:
64,192,137160,1,0,0:0:0:0:
192,192,137160,1,0,0:0:0:0:
320,192,137300,1,0,0:0:0:0:
448,192,137300,1,0,0:0:0:0:
320,192,137577,1,0,0:0:0:0:
64,192,137577,1,0,0:0:0:0:
192,192,137577,1,0,0:0:0:0:
320,192,137855,1,0,0:0:0:0:
448,192,137855,1,0,0:0:0:0:
64,192,138133,1,0,0:0:0:0:
192,192,138133,1,0,0:0:0:0:
64,192,138272,1,0,0:0:0:0:
192,192,138272,1,0,0:0:0:0:
320,192,138410,1,0,0:0:0:0:
448,192,138410,1,0,0:0:0:0:
192,192,138689,1,0,0:0:0:0:
320,192,138689,1,0,0:0:0:0:
448,192,138689,1,0,0:0:0:0:
64,192,138966,1,0,0:0:0:0:
192,192,138966,1,0,0:0:0:0:
64,192,139244,1,0,0:0:0:0:
320,192,139244,1,0,0:0:0:0:
448,192,139244,1,0,0:0:0:0:
320,192,139383,1,0,0:0:0:0:
448,192,139383,1,0,0:0:0:0:
64,192,139522,1,0,0:0:0:0:
192,192,139522,1,0,0:0:0:0:
320,192,139800,1,0,0:0:0:0:
192,192,139800,1,0,0:0:0:0:
64,192,139800,1,0,0:0:0:0:
448,192,139800,1,0,0:0:0:0:
320,192,139869,1,0,0:0:0:0:
192,192,139939,1,0,0:0:0:0:
64,192,139939,1,0,0:0:0:0:
320,192,140008,1,0,0:0:0:0:
448,192,140077,1,0,0:0:0:0:
192,192,140077,1,0,0:0:0:0:
64,192,140077,1,0,0:0:0:0:
320,192,140147,1,0,0:0:0:0:
448,192,140216,1,0,0:0:0:0:
192,192,140216,1,0,0:0:0:0:
64,192,140285,1,0,0:0:0:0:
320,192,140355,1,0,0:0:0:0:
192,192,140355,1,0,0:0:0:0:
448,192,140355,1,0,0:0:0:0:
64,192,140425,1,0,0:0:0:0:
192,192,140494,1,0,0:0:0:0:
448,192,140494,1,0,0:0:0:0:
320,192,140564,1,0,0:0:0:0:
320,192,140633,1,0,0:0:0:0:
192,192,140633,1,0,0:0:0:0:
64,192,140633,1,0,0:0:0:0:
448,192,140633,1,0,0:0:0:0:
192,192,140702,1,0,0:0:0:0:
448,192,140772,1,0,0:0:0:0:
64,192,140772,1,0,0:0:0:0:
320,192,140841,1,0,0:0:0:0:
320,192,140910,1,0,0:0:0:0:
192,192,140910,1,0,0:0:0:0:
64,192,140910,1,0,0:0:0:0:
448,192,140910,1,0,0:0:0:0:
192,192,140980,1,0,0:0:0:0:
448,192,141050,1,0,0:0:0:0:
64,192,141050,1,0,0:0:0:0:
192,192,141119,1,0,0:0:0:0:
320,192,141189,1,0,0:0:0:0:
64,192,141189,1,0,0:0:0:0:
448,192,141189,1,0,0:0:0:0:
192,192,141258,1,0,0:0:0:0:
448,192,141327,1,0,0:0:0:0:
64,192,141327,1,0,0:0:0:0:
192,192,141397,1,0,0:0:0:0:
320,192,141466,1,0,0:0:0:0:
448,192,141466,1,0,0:0:0:0:
64,192,141466,1,0,0:0:0:0:
192,192,141535,1,0,0:0:0:0:
64,192,141605,1,0,0:0:0:0:
448,192,141605,1,0,0:0:0:0:
320,192,141675,1,0,0:0:0:0:
448,192,141744,1,0,0:0:0:0:
192,192,141744,1,0,0:0:0:0:
64,192,141744,1,0,0:0:0:0:
320,192,141814,1,0,0:0:0:0:
192,192,141883,1,0,0:0:0:0:
64,192,141883,1,0,0:0:0:0:
448,192,141952,1,0,0:0:0:0:
320,192,142022,1,0,0:0:0:0:
192,192,142022,1,0,0:0:0:0:
64,192,142022,1,0,0:0:0:0:
448,192,142022,1,0,0:0:0:0:
64,192,142091,1,0,0:0:0:0:
192,192,142160,1,0,0:0:0:0:
448,192,142160,1,0,0:0:0:0:
320,192,142230,1,0,0:0:0:0:
448,192,142300,1,0,0:0:0:0:
192,192,142300,1,0,0:0:0:0:
64,192,142300,1,0,0:0:0:0:
320,192,142369,1,0,0:0:0:0:
448,192,142439,1,0,0:0:0:0:
192,192,142439,1,0,0:0:0:0:
64,192,142508,1,0,0:0:0:0:
448,192,142577,1,0,0:0:0:0:
192,192,142577,1,0,0:0:0:0:
320,192,142577,1,0,0:0:0:0:
64,192,142647,1,0,0:0:0:0:
192,192,142716,1,0,0:0:0:0:
320,192,142716,1,0,0:0:0:0:
448,192,142785,1,0,0:0:0:0:
320,192,142855,1,0,0:0:0:0:
192,192,142855,1,0,0:0:0:0:
64,192,142855,1,0,0:0:0:0:
448,192,142925,1,0,0:0:0:0:
320,192,142994,1,0,0:0:0:0:
64,192,142994,1,0,0:0:0:0:
192,192,143064,1,0,0:0:0:0:
320,192,143133,1,0,0:0:0:0:
448,192,143133,1,0,0:0:0:0:
192,192,143133,1,0,0:0:0:0:
64,192,143133,1,0,0:0:0:0:
448,192,143202,1,0,0:0:0:0:
320,192,143272,1,0,0:0:0:0:
64,192,143272,1,0,0:0:0:0:
192,192,143341,1,0,0:0:0:0:
320,192,143410,1,0,0:0:0:0:
448,192,143410,1,0,0:0:0:0:
64,192,143410,1,0,0:0:0:0:
192,192,143480,1,0,0:0:0:0:
320,192,143550,1,0,0:0:0:0:
64,192,143550,1,0,0:0:0:0:
448,192,143619,1,0,0:0:0:0:
320,192,143689,1,0,0:0:0:0:
192,192,143689,1,0,0:0:0:0:
64,192,143689,1,0,0:0:0:0:
448,192,143758,1,0,0:0:0:0:
192,192,143827,1,0,0:0:0:0:
64,192,143827,1,0,0:0:0:0:
320,192,143897,1,0,0:0:0:0:
448,192,143966,1,0,0:0:0:0:
192,192,143966,1,0,0:0:0:0:
64,192,143966,1,0,0:0:0:0:
320,192,144035,1,0,0:0:0:0:
192,192,144105,1,0,0:0:0:0:
64,192,144105,1,0,0:0:0:0:
448,192,144175,1,0,0:0:0:0:
320,192,144244,1,0,0:0:0:0:
448,192,144244,1,0,0:0:0:0:
192,192,144244,1,0,0:0:0:0:
64,192,144244,1,0,0:0:0:0:
64,192,144314,1,0,0:0:0:0:
320,192,144383,1,0,0:0:0:0:
192,192,144452,1,0,0:0:0:0:
320,192,144522,1,0,0:0:0:0:
64,192,144522,1,0,0:0:0:0:
448,192,144591,1,0,0:0:0:0:
320,192,144660,1,0,0:0:0:0:
64,192,144660,1,0,0:0:0:0:
192,192,144730,1,0,0:0:0:0:
448,192,144800,1,0,0:0:0:0:
320,192,144800,1,0,0:0:0:0:
64,192,144800,1,0,0:0:0:0:
192,192,144869,1,0,0:0:0:0:
320,192,144939,1,0,0:0:0:0:
448,192,145008,1,0,0:0:0:0:
320,192,145077,1,0,0:0:0:0:
192,192,145077,1,0,0:0:0:0:
64,192,145077,1,0,0:0:0:0:
448,192,145147,1,0,0:0:0:0:
192,192,145216,1,0,0:0:0:0:
64,192,145216,1,0,0:0:0:0:
320,192,145285,1,0,0:0:0:0:
320,192,145355,1,0,0:0:0:0:
448,192,145355,1,0,0:0:0:0:
192,192,145355,1,0,0:0:0:0:
64,192,145355,1,0,0:0:0:0:
192,192,145425,1,0,0:0:0:0:
64,192,145494,1,0,0:0:0:0:
448,192,145564,1,0,0:0:0:0:
320,192,145633,1,0,0:0:0:0:
192,192,145633,1,0,0:0:0:0:
64,192,145702,1,0,0:0:0:0:
448,192,145772,1,0,0:0:0:0:
192,192,145772,1,0,0:0:0:0:
320,192,145772,1,0,0:0:0:0:
64,192,145841,1,0,0:0:0:0:
320,192,145910,1,0,0:0:0:0:
192,192,145910,1,0,0:0:0:0:
448,192,145910,1,0,0:0:0:0:
64,192,145980,1,0,0:0:0:0:
192,192,146050,1,0,0:0:0:0:
448,192,146050,1,0,0:0:0:0:
320,192,146119,1,0,0:0:0:0:
320,192,146189,1,0,0:0:0:0:
448,192,146189,1,0,0:0:0:0:
192,192,146189,1,0,0:0:0:0:
64,192,146189,1,0,0:0:0:0:
192,192,146258,1,0,0:0:0:0:
320,192,146327,1,0,0:0:0:0:
448,192,146327,1,0,0:0:0:0:
192,192,146397,1,0,0:0:0:0:
320,192,146466,1,0,0:0:0:0:
448,192,146466,1,0,0:0:0:0:
192,192,146466,1,0,0:0:0:0:
64,192,146466,1,0,0:0:0:0:
64,192,146535,1,0,0:0:0:0:
192,192,146605,1,0,0:0:0:0:
448,192,146605,1,0,0:0:0:0:
320,192,146675,1,0,0:0:0:0:
448,192,146744,1,0,0:0:0:0:
192,192,146744,1,0,0:0:0:0:
64,192,146744,1,0,0:0:0:0:
320,192,146814,1,0,0:0:0:0:
192,192,146883,1,0,0:0:0:0:
64,192,146883,1,0,0:0:0:0:
448,192,146952,1,0,0:0:0:0:
320,192,147022,1,0,0:0:0:0:
192,192,147022,1,0,0:0:0:0:
64,192,147022,1,0,0:0:0:0:
448,192,147091,1,0,0:0:0:0:
192,192,147160,1,0,0:0:0:0:
320,192,147160,1,0,0:0:0:0:
64,192,147230,1,0,0:0:0:0:
320,192,147300,1,0,0:0:0:0:
448,192,147300,1,0,0:0:0:0:
192,192,147300,1,0,0:0:0:0:
64,192,147300,1,0,0:0:0:0:
320,192,147369,1,0,0:0:0:0:
192,192,147439,1,0,0:0:0:0:
64,192,147439,1,0,0:0:0:0:
448,192,147508,1,0,0:0:0:0:
320,192,147577,1,0,0:0:0:0:
448,192,147577,1,0,0:0:0:0:
192,192,147577,1,0,0:0:0:0:
64,192,147577,1,0,0:0:0:0:
192,192,147647,1,0,0:0:0:0:
320,192,147716,1,0,0:0:0:0:
64,192,147716,1,0,0:0:0:0:
448,192,147785,1,0,0:0:0:0:
320,192,147855,1,0,0:0:0:0:
192,192,147855,1,0,0:0:0:0:
64,192,147855,1,0,0:0:0:0:
448,192,147925,1,0,0:0:0:0:
192,192,147994,1,0,0:0:0:0:
320,192,147994,1,0,0:0:0:0:
64,192,148064,1,0,0:0:0:0:
320,192,148133,1,0,0:0:0:0:
192,192,148133,1,0,0:0:0:0:
448,192,148133,1,0,0:0:0:0:
64,192,148202,1,0,0:0:0:0:
192,192,148272,1,0,0:0:0:0:
448,192,148272,1,0,0:0:0:0:
320,192,148341,1,0,0:0:0:0:
448,192,148410,1,0,0:0:0:0:
192,192,148410,1,0,0:0:0:0:
64,192,148410,1,0,0:0:0:0:
320,192,148480,1,0,0:0:0:0:
448,192,148550,1,0,0:0:0:0:
192,192,148550,1,0,0:0:0:0:
64,192,148550,1,0,0:0:0:0:
320,192,148619,1,0,0:0:0:0:
320,192,148689,1,0,0:0:0:0:
448,192,148689,1,0,0:0:0:0:
192,192,148689,1,0,0:0:0:0:
64,192,148689,1,0,0:0:0:0:
64,192,148758,1,0,0:0:0:0:
192,192,148827,1,0,0:0:0:0:
320,192,148827,1,0,0:0:0:0:
64,192,148897,1,0,0:0:0:0:
320,192,148966,1,0,0:0:0:0:
192,192,148966,1,0,0:0:0:0:
448,192,148966,1,0,0:0:0:0:
64,192,149035,1,0,0:0:0:0:
192,192,149105,1,0,0:0:0:0:
448,192,149105,1,0,0:0:0:0:
320,192,149175,1,0,0:0:0:0:
320,192,149244,1,0,0:0:0:0:
448,192,149244,1,0,0:0:0:0:
192,192,149244,1,0,0:0:0:0:
64,192,149244,1,0,0:0:0:0:
64,192,149314,1,0,0:0:0:0:
192,192,149383,1,0,0:0:0:0:
448,192,149383,1,0,0:0:0:0:
320,192,149452,1,0,0:0:0:0:
448,192,149522,1,0,0:0:0:0:
192,192,149522,1,0,0:0:0:0:
64,192,149522,1,0,0:0:0:0:
320,192,149591,1,0,0:0:0:0:
192,192,149660,1,0,0:0:0:0:
64,192,149660,1,0,0:0:0:0:
320,192,149730,1,0,0:0:0:0:
320,192,149800,1,0,0:0:0:0:
448,192,149800,1,0,0:0:0:0:
192,192,149800,1,0,0:0:0:0:
64,192,149800,1,0,0:0:0:0:
192,192,149869,1,0,0:0:0:0:
448,192,149939,1,0,0:0:0:0:
64,192,149939,1,0,0:0:0:0:
320,192,150008,1,0,0:0:0:0:
448,192,150077,1,0,0:0:0:0:
192,192,150077,1,0,0:0:0:0:
64,192,150077,1,0,0:0:0:0:
320,192,150147,1,0,0:0:0:0:
192,192,150216,1,0,0:0:0:0:
64,192,150216,1,0,0:0:0:0:
448,192,150285,1,0,0:0:0:0:
320,192,150355,1,0,0:0:0:0:
448,192,150355,1,0,0:0:0:0:
192,192,150355,1,0,0:0:0:0:
64,192,150355,1,0,0:0:0:0:
192,192,150425,1,0,0:0:0:0:
320,192,150494,1,0,0:0:0:0:
64,192,150494,1,0,0:0:0:0:
192,192,150564,1,0,0:0:0:0:
320,192,150633,1,0,0:0:0:0:
448,192,150633,1,0,0:0:0:0:
64,192,150633,1,0,0:0:0:0:
192,192,150702,1,0,0:0:0:0:
320,192,150772,1,0,0:0:0:0:
448,192,150772,1,0,0:0:0:0:
192,192,150841,1,0,0:0:0:0:
320,192,150910,1,0,0:0:0:0:
448,192,150910,1,0,0:0:0:0:
192,192,150910,1,0,0:0:0:0:
64,192,150910,1,0,0:0:0:0:
448,192,150980,1,0,0:0:0:0:
320,192,151050,1,0,0:0:0:0:
64,192,151050,1,0,0:0:0:0:
192,192,151119,1,0,0:0:0:0:
320,192,151189,1,0,0:0:0:0:
448,192,151189,1,0,0:0:0:0:
64,192,151189,1,0,0:0:0:0:
192,192,151258,1,0,0:0:0:0:
320,192,151327,1,0,0:0:0:0:
448,192,151327,1,0,0:0:0:0:
64,192,151397,1,0,0:0:0:0:
320,192,151466,1,0,0:0:0:0:
192,192,151466,1,0,0:0:0:0:
448,192,151466,1,0,0:0:0:0:
64,192,151535,1,0,0:0:0:0:
192,192,151605,1,0,0:0:0:0:
448,192,151605,1,0,0:0:0:0:
320,192,151675,1,0,0:0:0:0:
320,192,151744,1,0,0:0:0:0:
448,192,151744,1,0,0:0:0:0:
192,192,151744,1,0,0:0:0:0:
64,192,151744,1,0,0:0:0:0:
64,192,151814,1,0,0:0:0:0:
192,192,151883,1,0,0:0:0:0:
448,192,151883,1,0,0:0:0:0:
320,192,151952,1,0,0:0:0:0:
320,192,152022,1,0,0:0:0:0:
448,192,152022,1,0,0:0:0:0:
192,192,152022,1,0,0:0:0:0:
64,192,152022,1,0,0:0:0:0:
448,192,152091,1,0,0:0:0:0:
192,192,152160,1,0,0:0:0:0:
320,192,152160,1,0,0:0:0:0:
64,192,152230,1,0,0:0:0:0:
320,192,152300,1,0,0:0:0:0:
192,192,152300,1,0,0:0:0:0:
448,192,152300,1,0,0:0:0:0:
64,192,152369,1,0,0:0:0:0:
192,192,152439,1,0,0:0:0:0:
320,192,152439,1,0,0:0:0:0:
448,192,152508,1,0,0:0:0:0:
320,192,152577,1,0,0:0:0:0:
192,192,152577,1,0,0:0:0:0:
64,192,152577,1,0,0:0:0:0:
448,192,152647,1,0,0:0:0:0:
64,192,152647,1,0,0:0:0:0:
192,192,152716,1,0,0:0:0:0:
320,192,152716,1,0,0:0:0:0:
448,192,152785,1,0,0:0:0:0:
64,192,152785,1,0,0:0:0:0:
320,192,152855,1,0,0:0:0:0:
192,192,152855,1,0,0:0:0:0:
448,192,152925,1,0,0:0:0:0:
64,192,152925,1,0,0:0:0:0:
320,192,152994,1,0,0:0:0:0:
192,192,152994,1,0,0:0:0:0:
448,192,153064,1,0,0:0:0:0:
64,192,153064,1,0,0:0:0:0:
320,192,153133,1,0,0:0:0:0:
448,192,153133,1,0,0:0:0:0:
192,192,153133,1,0,0:0:0:0:
64,192,153133,1,0,0:0:0:0:
320,192,153202,1,0,0:0:0:0:
192,192,153272,1,0,0:0:0:0:
64,192,153272,1,0,0:0:0:0:
448,192,153341,1,0,0:0:0:0:
320,192,153410,1,0,0:0:0:0:
192,192,153410,1,0,0:0:0:0:
64,192,153410,1,0,0:0:0:0:
448,192,153480,1,0,0:0:0:0:
64,192,153550,1,0,0:0:0:0:
320,192,153550,1,0,0:0:0:0:
192,192,153619,1,0,0:0:0:0:
320,192,153689,1,0,0:0:0:0:
448,192,153689,1,0,0:0:0:0:
192,192,153689,1,0,0:0:0:0:
64,192,153689,1,0,0:0:0:0:
448,192,153758,1,0,0:0:0:0:
320,192,153827,1,0,0:0:0:0:
64,192,153827,1,0,0:0:0:0:
192,192,153897,1,0,0:0:0:0:
320,192,153966,1,0,0:0:0:0:
448,192,153966,1,0,0:0:0:0:
64,192,153966,1,0,0:0:0:0:
192,192,154035,1,0,0:0:0:0:
320,192,154105,1,0,0:0:0:0:
448,192,154175,1,0,0:0:0:0:
320,192,154244,1,0,0:0:0:0:
448,192,154244,1,0,0:0:0:0:
192,192,154244,1,0,0:0:0:0:
64,192,154244,1,0,0:0:0:0:
64,192,154314,1,0,0:0:0:0:
192,192,154383,1,0,0:0:0:0:
448,192,154383,1,0,0:0:0:0:
320,192,154452,1,0,0:0:0:0:
448,192,154522,1,0,0:0:0:0:
192,192,154522,1,0,0:0:0:0:
64,192,154522,1,0,0:0:0:0:
320,192,154591,1,0,0:0:0:0:
192,192,154660,1,0,0:0:0:0:
64,192,154660,1,0,0:0:0:0:
448,192,154730,1,0,0:0:0:0:
320,192,154800,1,0,0:0:0:0:
448,192,154800,1,0,0:0:0:0:
192,192,154800,1,0,0:0:0:0:
64,192,154800,1,0,0:0:0:0:
192,192,154869,1,0,0:0:0:0:
320,192,154939,1,0,0:0:0:0:
64,192,154939,1,0,0:0:0:0:
448,192,155008,1,0,0:0:0:0:
320,192,155077,1,0,0:0:0:0:
192,192,155077,1,0,0:0:0:0:
64,192,155077,1,0,0:0:0:0:
192,192,155147,1,0,0:0:0:0:
320,192,155216,1,0,0:0:0:0:
64,192,155216,1,0,0:0:0:0:
448,192,155285,1,0,0:0:0:0:
320,192,155355,1,0,0:0:0:0:
448,192,155355,1,0,0:0:0:0:
192,192,155355,1,0,0:0:0:0:
64,192,155355,1,0,0:0:0:0:
320,192,155425,1,0,0:0:0:0:
192,192,155494,1,0,0:0:0:0:
64,192,155564,1,0,0:0:0:0:
320,192,155633,1,0,0:0:0:0:
448,192,155633,1,0,0:0:0:0:
192,192,155702,1,0,0:0:0:0:
64,192,155772,1,0,0:0:0:0:
448,192,155841,1,0,0:0:0:0:
320,192,155910,1,0,0:0:0:0:
192,192,155910,1,0,0:0:0:0:
64,192,155910,1,0,0:0:0:0:
448,192,155980,1,0,0:0:0:0:
320,192,156050,1,0,0:0:0:0:
64,192,156050,1,0,0:0:0:0:
192,192,156119,1,0,0:0:0:0:
320,192,156189,1,0,0:0:0:0:
448,192,156189,1,0,0:0:0:0:
64,192,156189,1,0,0:0:0:0:
192,192,156258,1,0,0:0:0:0:
448,192,156327,1,0,0:0:0:0:
64,192,156327,1,0,0:0:0:0:
192,192,156397,1,0,0:0:0:0:
320,192,156466,1,0,0:0:0:0:
448,192,156466,1,0,0:0:0:0:
64,192,156466,1,0,0:0:0:0:
192,192,156535,1,0,0:0:0:0:
64,192,156605,1,0,0:0:0:0:
448,192,156605,1,0,0:0:0:0:
192,192,156675,1,0,0:0:0:0:
320,192,156744,1,0,0:0:0:0:
448,192,156744,1,0,0:0:0:0:
64,192,156744,1,0,0:0:0:0:
192,192,156814,1,0,0:0:0:0:
64,192,156883,1,0,0:0:0:0:
448,192,156883,1,0,0:0:0:0:
320,192,156952,1,0,0:0:0:0:
320,192,157022,1,0,0:0:0:0:
448,192,157022,1,0,0:0:0:0:
192,192,157022,1,0,0:0:0:0:
64,192,157022,1,0,0:0:0:0:
192,192,157091,1,0,0:0:0:0:
448,192,157160,1,0,0:0:0:0:
64,192,157160,1,0,0:0:0:0:
320,192,157230,1,0,0:0:0:0:
192,192,157300,1,0,0:0:0:0:
448,192,157300,1,0,0:0:0:0:
64,192,157300,1,0,0:0:0:0:
320,192,157369,1,0,0:0:0:0:
192,192,157439,1,0,0:0:0:0:
448,192,157439,1,0,0:0:0:0:
64,192,157508,1,0,0:0:0:0:
320,192,157577,128,0,158133:0:0:0:0:
448,192,157577,1,0,0:0:0:0:
192,192,157716,1,0,0:0:0:0:
448,192,157855,1,0,0:0:0:0:
64,192,157855,1,0,0:0:0:0:
192,192,157994,1,0,0:0:0:0:
64,192,158133,128,0,158410:0:0:0:0:
448,192,158133,1,0,0:0:0:0:
192,192,158133,1,0,0:0:0:0:
192,192,158272,1,0,0:0:0:0:
192,192,158410,128,0,158689:0:0:0:0:
448,192,158410,1,0,0:0:0:0:
320,192,158410,1,0,0:0:0:0:
320,192,158550,1,0,0:0:0:0:
320,192,158689,128,0,159175:0:0:0:0:
64,192,158689,1,0,0:0:0:0:
448,192,158689,1,0,0:0:0:0:
192,192,158827,1,0,0:0:0:0:
64,192,158966,1,0,0:0:0:0:
448,192,158966,1,0,0:0:0:0:
192,192,159105,1,0,0:0:0:0:
64,192,159175,128,0,159244:0:0:0:0:
448,192,159244,128,0,159383:0:0:0:0:
192,192,159244,1,0,0:0:0:0:
320,192,159244,1,0,0:0:0:0:
320,192,159383,128,0,159591:0:0:0:0:
64,192,159383,1,0,0:0:0:0:
448,192,159522,1,0,0:0:0:0:
192,192,159522,1,0,0:0:0:0:
64,192,159591,128,0,159869:0:0:0:0:
448,192,159660,1,0,0:0:0:0:
192,192,159800,1,0,0:0:0:0:
320,192,159800,1,0,0:0:0:0:
448,192,159869,128,0,160285:0:0:0:0:
320,192,159939,1,0,0:0:0:0:
64,192,160077,1,0,0:0:0:0:
192,192,160077,1,0,0:0:0:0:
192,192,160216,1,0,0:0:0:0:
320,192,160285,128,0,160633:0:0:0:0:
64,192,160355,1,0,0:0:0:0:
192,192,160355,1,0,0:0:0:0:
448,192,160494,1,0,0:0:0:0:
192,192,160633,128,0,160910:0:0:0:0:
64,192,160633,1,0,0:0:0:0:
448,192,160633,1,0,0:0:0:0:
320,192,160772,1,0,0:0:0:0:
64,192,160910,128,0,161327:0:0:0:0:
320,192,160910,1,0,0:0:0:0:
448,192,160910,1,0,0:0:0:0:
192,192,161050,1,0,0:0:0:0:
320,192,161189,1,0,0:0:0:0:
448,192,161189,1,0,0:0:0:0:
192,192,161327,128,0,161744:0:0:0:0:
448,192,161327,1,0,0:0:0:0:
64,192,161466,1,0,0:0:0:0:
320,192,161466,1,0,0:0:0:0:
64,192,161605,1,0,0:0:0:0:
448,192,161744,128,0,162022:0:0:0:0:
320,192,161744,1,0,0:0:0:0:
64,192,161744,1,0,0:0:0:0:
192,192,161883,1,0,0:0:0:0:
320,192,162022,128,0,162855:0:0:0:0:
64,192,162022,1,0,0:0:0:0:
192,192,162022,1,0,0:0:0:0:
192,192,162160,1,0,0:0:0:0:
64,192,162300,1,0,0:0:0:0:
448,192,162300,1,0,0:0:0:0:
192,192,162439,1,0,0:0:0:0:
64,192,162577,1,0,0:0:0:0:
448,192,162577,1,0,0:0:0:0:
192,192,162716,1,0,0:0:0:0:
64,192,162855,128,0,163133:0:0:0:0:
192,192,162855,1,0,0:0:0:0:
448,192,162855,1,0,0:0:0:0:
320,192,162994,1,0,0:0:0:0:
192,192,163133,128,0,163550:0:0:0:0:
320,192,163133,1,0,0:0:0:0:
448,192,163133,1,0,0:0:0:0:
320,192,163272,1,0,0:0:0:0:
64,192,163410,1,0,0:0:0:0:
320,192,163410,1,0,0:0:0:0:
448,192,163550,128,0,163966:0:0:0:0:
64,192,163550,1,0,0:0:0:0:
192,192,163689,1,0,0:0:0:0:
320,192,163689,1,0,0:0:0:0:
192,192,163827,1,0,0:0:0:0:
320,192,163966,128,0,164244:0:0:0:0:
64,192,163966,1,0,0:0:0:0:
192,192,163966,1,0,0:0:0:0:
64,192,164105,1,0,0:0:0:0:
192,192,164244,128,0,165355:0:0:0:0:
448,192,164244,1,0,0:0:0:0:
64,192,164244,1,0,0:0:0:0:
320,192,164383,1,0,0:0:0:0:
64,192,164522,1,0,0:0:0:0:
448,192,164522,1,0,0:0:0:0:
320,192,164660,1,0,0:0:0:0:
320,192,164800,1,0,0:0:0:0:
64,192,164800,1,0,0:0:0:0:
448,192,164939,1,0,0:0:0:0:
320,192,165077,1,0,0:0:0:0:
64,192,165077,1,0,0:0:0:0:
448,192,165216,1,0,0:0:0:0:
64,192,165355,128,0,165980:0:0:0:0:
320,192,165355,1,0,0:0:0:0:
448,192,165355,1,0,0:0:0:0:
320,192,165494,1,0,0:0:0:0:
192,192,165633,1,0,0:0:0:0:
448,192,165633,1,0,0:0:0:0:
320,192,165772,1,0,0:0:0:0:
192,192,165910,1,0,0:0:0:0:
448,192,165910,1,0,0:0:0:0:
320,192,165980,128,0,166050:0:0:0:0:
192,192,166050,128,0,166119:0:0:0:0:
64,192,166119,128,0,166189:0:0:0:0:
192,192,166189,128,0,166258:0:0:0:0:
448,192,166189,1,0,0:0:0:0:
320,192,166258,128,0,166327:0:0:0:0:
448,192,166327,128,0,166397:0:0:0:0:
320,192,166397,128,0,166466:0:0:0:0:
64,192,166466,128,0,167577:0:0:0:0:
192,192,166466,1,0,0:0:0:0:
448,192,166605,1,0,0:0:0:0:
192,192,166744,1,0,0:0:0:0:
320,192,166744,1,0,0:0:0:0:
192,192,166883,1,0,0:0:0:0:
320,192,167022,1,0,0:0:0:0:
448,192,167022,1,0,0:0:0:0:
320,192,167160,1,0,0:0:0:0:
192,192,167300,1,0,0:0:0:0:
448,192,167300,1,0,0:0:0:0:
320,192,167439,1,0,0:0:0:0:
448,192,167577,128,0,167855:0:0:0:0:
192,192,167577,1,0,0:0:0:0:
320,192,167577,1,0,0:0:0:0:
192,192,167716,1,0,0:0:0:0:
192,192,167855,128,0,168133:0:0:0:0:
64,192,167855,1,0,0:0:0:0:
320,192,167855,1,0,0:0:0:0:
320,192,167994,1,0,0:0:0:0:
320,192,168133,128,0,168410:0:0:0:0:
64,192,168133,1,0,0:0:0:0:
448,192,168133,1,0,0:0:0:0:
192,192,168272,1,0,0:0:0:0:
448,192,168410,128,0,168550:0:0:0:0:
64,192,168410,1,0,0:0:0:0:
192,192,168410,1,0,0:0:0:0:
64,192,168550,128,0,168689:0:0:0:0:
320,192,168550,1,0,0:0:0:0:
448,192,168689,128,0,169522:0:0:0:0:
192,192,168689,1,0,0:0:0:0:
320,192,168689,1,0,0:0:0:0:
192,192,168827,1,0,0:0:0:0:
64,192,168966,1,0,0:0:0:0:
320,192,168966,1,0,0:0:0:0:
192,192,169105,1,0,0:0:0:0:
192,192,169244,1,0,0:0:0:0:
320,192,169244,1,0,0:0:0:0:
192,192,169383,1,0,0:0:0:0:
320,192,169522,128,0,169660:0:0:0:0:
64,192,169522,1,0,0:0:0:0:
192,192,169522,1,0,0:0:0:0:
192,192,169660,128,0,169800:0:0:0:0:
448,192,169660,1,0,0:0:0:0:
64,192,169800,128,0,170633:0:0:0:0:
320,192,169800,1,0,0:0:0:0:
448,192,169800,1,0,0:0:0:0:
192,192,169939,1,0,0:0:0:0:
320,192,170077,1,0,0:0:0:0:
448,192,170077,1,0,0:0:0:0:
320,192,170216,1,0,0:0:0:0:
192,192,170355,1,0,0:0:0:0:
320,192,170355,1,0,0:0:0:0:
448,192,170494,1,0,0:0:0:0:
192,192,170633,128,0,170772:0:0:0:0:
320,192,170633,1,0,0:0:0:0:
448,192,170633,1,0,0:0:0:0:
320,192,170772,128,0,170910:0:0:0:0:
64,192,170772,1,0,0:0:0:0:
448,192,170910,128,0,171327:0:0:0:0:
64,192,170910,1,0,0:0:0:0:
192,192,170910,1,0,0:0:0:0:
320,192,171050,1,0,0:0:0:0:
192,192,171189,1,0,0:0:0:0:
64,192,171189,1,0,0:0:0:0:
320,192,171327,128,0,171744:0:0:0:0:
192,192,171327,1,0,0:0:0:0:
64,192,171466,1,0,0:0:0:0:
448,192,171466,1,0,0:0:0:0:
192,192,171605,1,0,0:0:0:0:
64,192,171744,128,0,172022:0:0:0:0:
192,192,171744,1,0,0:0:0:0:
448,192,171744,1,0,0:0:0:0:
320,192,171883,1,0,0:0:0:0:
448,192,172022,128,0,172439:0:0:0:0:
192,192,172022,1,0,0:0:0:0:
320,192,172022,1,0,0:0:0:0:
320,192,172160,1,0,0:0:0:0:
192,192,172300,1,0,0:0:0:0:
64,192,172300,1,0,0:0:0:0:
64,192,172439,128,0,172508:0:0:0:0:
192,192,172439,1,0,0:0:0:0:
320,192,172508,128,0,172577:0:0:0:0:
448,192,172577,128,0,172855:0:0:0:0:
64,192,172577,1,0,0:0:0:0:
192,192,172577,1,0,0:0:0:0:
192,192,172716,1,0,0:0:0:0:
64,192,172855,128,0,173133:0:0:0:0:
192,192,172855,1,0,0:0:0:0:
320,192,172855,1,0,0:0:0:0:
320,192,172994,1,0,0:0:0:0:
320,192,173133,128,0,173966:0:0:0:0:
192,192,173133,1,0,0:0:0:0:
448,192,173133,1,0,0:0:0:0:
192,192,173272,1,0,0:0:0:0:
64,192,173410,1,0,0:0:0:0:
192,192,173410,1,0,0:0:0:0:
192,192,173550,1,0,0:0:0:0:
192,192,173689,1,0,0:0:0:0:
448,192,173689,1,0,0:0:0:0:
192,192,173827,1,0,0:0:0:0:
64,192,173966,128,0,174059:0:0:0:0:
192,192,173966,1,0,0:0:0:0:
448,192,173966,1,0,0:0:0:0:
320,192,174059,128,0,174151:0:0:0:0:
192,192,174151,128,0,174198:0:0:0:0:
448,192,174198,128,0,174244:0:0:0:0:
64,192,174244,128,0,175355:0:0:0:0:
320,192,174244,1,0,0:0:0:0:
192,192,174383,1,0,0:0:0:0:
320,192,174522,1,0,0:0:0:0:
448,192,174522,1,0,0:0:0:0:
192,192,174660,1,0,0:0:0:0:
320,192,174800,1,0,0:0:0:0:
448,192,174800,1,0,0:0:0:0:
320,192,174939,1,0,0:0:0:0:
192,192,175077,1,0,0:0:0:0:
320,192,175077,1,0,0:0:0:0:
448,192,175216,1,0,0:0:0:0:
192,192,175355,1,0,0:0:0:0:
320,192,175355,1,0,0:0:0:0:
448,192,175355,128,0,175772:0:0:0:0:
64,192,175494,1,0,0:0:0:0:
192,192,175633,1,0,0:0:0:0:
320,192,175633,1,0,0:0:0:0:
64,192,175772,128,0,175910:0:0:0:0:
192,192,175772,1,0,0:0:0:0:
320,192,175910,128,0,176050:0:0:0:0:
192,192,175910,1,0,0:0:0:0:
448,192,175910,1,0,0:0:0:0:
192,192,176050,128,0,176189:0:0:0:0:
448,192,176050,1,0,0:0:0:0:
64,192,176189,128,0,176327:0:0:0:0:
320,192,176189,1,0,0:0:0:0:
448,192,176189,1,0,0:0:0:0:
192,192,176327,128,0,176466:0:0:0:0:
320,192,176327,1,0,0:0:0:0:
448,192,176466,128,0,176744:0:0:0:0:
320,192,176466,1,0,0:0:0:0:
64,192,176466,1,0,0:0:0:0:
192,192,176605,1,0,0:0:0:0:
320,192,176744,128,0,177022:0:0:0:0:
64,192,176744,1,0,0:0:0:0:
192,192,176744,1,0,0:0:0:0:
192,192,176883,1,0,0:0:0:0:
192,192,177022,128,0,177300:0:0:0:0:
64,192,177022,1,0,0:0:0:0:
448,192,177022,1,0,0:0:0:0:
320,192,177160,1,0,0:0:0:0:
64,192,177300,1,0,0:0:0:0:
448,192,177300,1,0,0:0:0:0:
320,192,177439,1,0,0:0:0:0:
448,192,177577,128,0,177994:0:0:0:0:
192,192,177577,1,0,0:0:0:0:
64,192,177577,1,0,0:0:0:0:
320,192,177716,1,0,0:0:0:0:
64,192,177855,1,0,0:0:0:0:
192,192,177855,1,0,0:0:0:0:
64,192,177994,128,0,178133:0:0:0:0:
320,192,177994,1,0,0:0:0:0:
320,192,178133,128,0,178272:0:0:0:0:
192,192,178133,1,0,0:0:0:0:
448,192,178133,1,0,0:0:0:0:
192,192,178272,128,0,178410:0:0:0:0:
448,192,178272,1,0,0:0:0:0:
64,192,178410,128,0,178550:0:0:0:0:
320,192,178410,1,0,0:0:0:0:
448,192,178410,1,0,0:0:0:0:
192,192,178550,128,0,178689:0:0:0:0:
320,192,178550,1,0,0:0:0:0:
448,192,178689,128,0,178966:0:0:0:0:
64,192,178689,1,0,0:0:0:0:
320,192,178689,1,0,0:0:0:0:
192,192,178827,1,0,0:0:0:0:
64,192,178966,128,0,179244:0:0:0:0:
192,192,178966,1,0,0:0:0:0:
320,192,178966,1,0,0:0:0:0:
320,192,179105,1,0,0:0:0:0:
192,192,179244,128,0,179522:0:0:0:0:
320,192,179244,1,0,0:0:0:0:
448,192,179244,1,0,0:0:0:0:
320,192,179383,1,0,0:0:0:0:
64,192,179522,1,0,0:0:0:0:
320,192,179522,1,0,0:0:0:0:
192,192,179660,1,0,0:0:0:0:
448,192,179800,128,0,180216:0:0:0:0:
64,192,179800,1,0,0:0:0:0:
320,192,179800,1,0,0:0:0:0:
192,192,179939,1,0,0:0:0:0:
64,192,180077,1,0,0:0:0:0:
192,192,180077,1,0,0:0:0:0:
320,192,180216,128,0,180355:0:0:0:0:
192,192,180216,1,0,0:0:0:0:
192,192,180355,128,0,180494:0:0:0:0:
64,192,180355,1,0,0:0:0:0:
448,192,180355,1,0,0:0:0:0:
64,192,180494,128,0,180633:0:0:0:0:
320,192,180494,1,0,0:0:0:0:
320,192,180633,128,0,180772:0:0:0:0:
192,192,180633,1,0,0:0:0:0:
448,192,180633,1,0,0:0:0:0:
448,192,180772,128,0,180910:0:0:0:0:
64,192,180772,1,0,0:0:0:0:
64,192,180910,128,0,181189:0:0:0:0:
192,192,180910,1,0,0:0:0:0:
320,192,180910,1,0,0:0:0:0:
320,192,181050,1,0,0:0:0:0:
192,192,181189,128,0,181466:0:0:0:0:
320,192,181189,1,0,0:0:0:0:
448,192,181189,1,0,0:0:0:0:
320,192,181327,1,0,0:0:0:0:
320,192,181466,128,0,181744:0:0:0:0:
64,192,181466,1,0,0:0:0:0:
448,192,181466,1,0,0:0:0:0:
192,192,181605,1,0,0:0:0:0:
64,192,181744,1,0,0:0:0:0:
448,192,181744,1,0,0:0:0:0:
320,192,181883,1,0,0:0:0:0:
448,192,182022,128,0,182439:0:0:0:0:
192,192,182022,1,0,0:0:0:0:
64,192,182022,1,0,0:0:0:0:
320,192,182160,1,0,0:0:0:0:
192,192,182300,1,0,0:0:0:0:
64,192,182300,1,0,0:0:0:0:
192,192,182439,128,0,182577:0:0:0:0:
320,192,182439,1,0,0:0:0:0:
320,192,182577,128,0,182716:0:0:0:0:
64,192,182577,1,0,0:0:0:0:
448,192,182577,1,0,0:0:0:0:
448,192,182716,128,0,182855:0:0:0:0:
192,192,182716,1,0,0:0:0:0:
320,192,182855,128,0,182994:0:0:0:0:
64,192,182855,1,0,0:0:0:0:
192,192,182855,1,0,0:0:0:0:
192,192,182994,128,0,183133:0:0:0:0:
448,192,182994,1,0,0:0:0:0:
320,192,183133,128,0,183410:0:0:0:0:
64,192,183133,1,0,0:0:0:0:
448,192,183133,1,0,0:0:0:0:
192,192,183272,1,0,0:0:0:0:
64,192,183410,128,0,183689:0:0:0:0:
192,192,183410,1,0,0:0:0:0:
448,192,183410,1,0,0:0:0:0:
320,192,183550,1,0,0:0:0:0:
192,192,183689,128,0,183966:0:0:0:0:
320,192,183689,1,0,0:0:0:0:
448,192,183689,1,0,0:0:0:0:
320,192,183827,1,0,0:0:0:0:
64,192,183966,1,0,0:0:0:0:
448,192,183966,1,0,0:0:0:0:
320,192,184105,1,0,0:0:0:0:
192,192,184244,1,0,0:0:0:0:
64,192,184244,1,0,0:0:0:0:
448,192,184383,1,0,0:0:0:0:
64,192,184383,1,0,0:0:0:0:
320,192,184452,1,0,0:0:0:0:
192,192,184522,1,0,0:0:0:0:
448,192,184522,1,0,0:0:0:0:
64,192,184591,1,0,0:0:0:0:
192,192,184660,1,0,0:0:0:0:
320,192,184660,1,0,0:0:0:0:
448,192,184800,1,0,0:0:0:0:
64,192,184800,1,0,0:0:0:0:
320,192,184939,1,0,0:0:0:0:
192,192,184939,1,0,0:0:0:0:
192,192,185077,1,0,0:0:0:0:
448,192,185077,1,0,0:0:0:0:
64,192,185216,1,0,0:0:0:0:
64,192,185355,1,0,0:0:0:0:
320,192,185355,1,0,0:0:0:0:
448,192,185494,1,0,0:0:0:0:
192,192,185494,1,0,0:0:0:0:
320,192,185564,1,0,0:0:0:0:
192,192,185633,1,0,0:0:0:0:
448,192,185633,1,0,0:0:0:0:
64,192,185702,1,0,0:0:0:0:
192,192,185772,1,0,0:0:0:0:
448,192,185910,1,0,0:0:0:0:
64,192,185910,1,0,0:0:0:0:
320,192,186050,1,0,0:0:0:0:
448,192,186050,1,0,0:0:0:0:
192,192,186189,1,0,0:0:0:0:
64,192,186189,1,0,0:0:0:0:
320,192,186327,1,0,0:0:0:0:
448,192,186466,1,0,0:0:0:0:
192,192,186466,1,0,0:0:0:0:
320,192,186605,1,0,0:0:0:0:
64,192,186605,1,0,0:0:0:0:
192,192,186744,1,0,0:0:0:0:
448,192,186744,1,0,0:0:0:0:
64,192,186883,1,0,0:0:0:0:
320,192,186883,1,0,0:0:0:0:
448,192,187022,1,0,0:0:0:0:
192,192,187022,1,0,0:0:0:0:
320,192,187160,1,0,0:0:0:0:
448,192,187160,1,0,0:0:0:0:
192,192,187300,1,0,0:0:0:0:
64,192,187300,1,0,0:0:0:0:
320,192,187439,1,0,0:0:0:0:
448,192,187439,1,0,0:0:0:0:
448,192,187577,1,0,0:0:0:0:
64,192,187577,1,0,0:0:0:0:
192,192,187577,1,0,0:0:0:0:
320,192,187647,1,0,0:0:0:0:
192,192,187716,1,0,0:0:0:0:
64,192,187785,1,0,0:0:0:0:
448,192,187855,1,0,0:0:0:0:
320,192,187925,1,0,0:0:0:0:
192,192,187994,1,0,0:0:0:0:
64,192,188064,1,0,0:0:0:0:
448,192,188133,1,0,0:0:0:0:
320,192,188202,1,0,0:0:0:0:
192,192,188272,1,0,0:0:0:0:
64,192,188341,1,0,0:0:0:0:
448,192,188410,1,0,0:0:0:0:
320,192,188480,1,0,0:0:0:0:
192,192,188550,1,0,0:0:0:0:
64,192,188619,1,0,0:0:0:0:
448,192,188689,1,0,0:0:0:0:
320,192,188758,1,0,0:0:0:0:
192,192,188827,1,0,0:0:0:0:
64,192,188897,1,0,0:0:0:0:
448,192,188966,1,0,0:0:0:0:
320,192,189035,1,0,0:0:0:0:
192,192,189105,1,0,0:0:0:0:
64,192,189175,1,0,0:0:0:0:
448,192,189244,1,0,0:0:0:0:
320,192,189314,1,0,0:0:0:0:
192,192,189383,1,0,0:0:0:0:
64,192,189452,1,0,0:0:0:0:
448,192,189522,1,0,0:0:0:0:
320,192,189591,1,0,0:0:0:0:
192,192,189660,1,0,0:0:0:0:
64,192,189730,1,0,0:0:0:0:
448,192,189800,1,0,0:0:0:0:
320,192,189869,1,0,0:0:0:0:
192,192,189939,1,0,0:0:0:0:
64,192,190008,1,0,0:0:0:0:
448,192,190077,1,0,0:0:0:0:
320,192,190216,1,0,0:0:0:0:
192,192,190355,1,0,0:0:0:0:
64,192,190494,1,0,0:0:0:0:
64,192,190633,1,0,0:0:0:0:
192,192,190702,1,0,0:0:0:0:
320,192,190772,1,0,0:0:0:0:
448,192,190841,1,0,0:0:0:0:
64,192,190910,1,0,0:0:0:0:
192,192,190945,1,0,0:0:0:0:
320,192,190980,1,0,0:0:0:0:
448,192,191015,1,0,0:0:0:0:
64,192,191050,1,0,0:0:0:0:
192,192,191085,1,0,0:0:0:0:
320,192,191119,1,0,0:0:0:0:
448,192,191154,1,0,0:0:0:0:
64,192,191189,1,0,0:0:0:0:
192,192,191223,1,0,0:0:0:0:
320,192,191258,1,0,0:0:0:0:
448,192,191293,1,0,0:0:0:0:
64,192,191466,1,0,0:0:0:0:
192,192,191466,1,0,0:0:0:0:
320,192,191535,1,0,0:0:0:0:
448,192,191535,1,0,0:0:0:0:
64,192,191605,1,0,0:0:0:0:
192,192,191605,1,0,0:0:0:0:
320,192,191675,1,0,0:0:0:0:
448,192,191675,1,0,0:0:0:0:
64,192,191744,1,0,0:0:0:0:
192,192,191744,1,0,0:0:0:0:
320,192,191814,1,0,0:0:0:0:
448,192,191814,1,0,0:0:0:0:
64,192,191883,1,0,0:0:0:0:
192,192,191883,1,0,0:0:0:0:
320,192,191952,1,0,0:0:0:0:
448,192,191952,1,0,0:0:0:0:
64,192,192022,128,0,192300:0:0:0:0:
192,192,192022,1,0,0:0:0:0:
320,192,192022,1,0,0:0:0:0:
448,192,192160,1,0,0:0:0:0:
192,192,192300,128,0,192439:0:0:0:0:
320,192,192300,1,0,0:0:0:0:
448,192,192300,1,0,0:0:0:0:
64,192,192439,1,0,0:0:0:0:
320,192,192439,128,0,192577:0:0:0:0:
64,192,192577,128,0,192855:0:0:0:0:
192,192,192577,1,0,0:0:0:0:
448,192,192577,1,0,0:0:0:0:
320,192,192716,1,0,0:0:0:0:
320,192,192855,128,0,193133:0:0:0:0:
192,192,192855,1,0,0:0:0:0:
448,192,192855,1,0,0:0:0:0:
64,192,192994,1,0,0:0:0:0:
448,192,193133,128,0,193272:0:0:0:0:
64,192,193133,1,0,0:0:0:0:
192,192,193133,1,0,0:0:0:0:
64,192,193272,128,0,193410:0:0:0:0:
320,192,193272,1,0,0:0:0:0:
320,192,193410,128,0,193550:0:0:0:0:
192,192,193410,1,0,0:0:0:0:
448,192,193410,1,0,0:0:0:0:
192,192,193550,128,0,193689:0:0:0:0:
448,192,193550,1,0,0:0:0:0:
64,192,193689,128,0,193827:0:0:0:0:
320,192,193689,1,0,0:0:0:0:
448,192,193689,1,0,0:0:0:0:
448,192,193827,128,0,193966:0:0:0:0:
192,192,193827,1,0,0:0:0:0:
320,192,193966,128,0,194105:0:0:0:0:
64,192,193966,1,0,0:0:0:0:
192,192,193966,1,0,0:0:0:0:
64,192,194105,128,0,194244:0:0:0:0:
448,192,194105,1,0,0:0:0:0:
192,192,194244,128,0,194522:0:0:0:0:
320,192,194244,1,0,0:0:0:0:
448,192,194244,1,0,0:0:0:0:
320,192,194383,1,0,0:0:0:0:
320,192,194522,128,0,194660:0:0:0:0:
64,192,194522,1,0,0:0:0:0:
448,192,194522,1,0,0:0:0:0:
448,192,194660,128,0,194800:0:0:0:0:
192,192,194660,1,0,0:0:0:0:
64,192,194800,128,0,194939:0:0:0:0:
192,192,194800,1,0,0:0:0:0:
320,192,194800,1,0,0:0:0:0:
192,192,194939,128,0,195077:0:0:0:0:
448,192,194939,1,0,0:0:0:0:
320,192,195077,128,0,195216:0:0:0:0:
64,192,195077,1,0,0:0:0:0:
448,192,195077,1,0,0:0:0:0:
448,192,195216,128,0,195355:0:0:0:0:
192,192,195216,1,0,0:0:0:0:
64,192,195355,128,0,195633:0:0:0:0:
192,192,195355,1,0,0:0:0:0:
320,192,195355,1,0,0:0:0:0:
320,192,195494,1,0,0:0:0:0:
192,192,195633,128,0,195910:0:0:0:0:
320,192,195633,1,0,0:0:0:0:
448,192,195633,1,0,0:0:0:0:
320,192,195772,1,0,0:0:0:0:
64,192,195910,1,0,0:0:0:0:
448,192,195910,1,0,0:0:0:0:
320,192,195910,1,0,0:0:0:0:
64,192,196050,1,0,0:0:0:0:
448,192,196050,1,0,0:0:0:0:
192,192,196119,1,0,0:0:0:0:
320,192,196119,1,0,0:0:0:0:
64,192,196189,1,0,0:0:0:0:
448,192,196189,1,0,0:0:0:0:
192,192,196258,1,0,0:0:0:0:
320,192,196258,1,0,0:0:0:0:
64,192,196327,1,0,0:0:0:0:
448,192,196327,1,0,0:0:0:0:
192,192,196397,1,0,0:0:0:0:
320,192,196397,1,0,0:0:0:0:
320,192,196466,1,0,0:0:0:0:
448,192,196466,1,0,0:0:0:0:
64,192,196466,128,0,196744:0:0:0:0:
192,192,196605,1,0,0:0:0:0:
192,192,196744,128,0,196883:0:0:0:0:
320,192,196744,1,0,0:0:0:0:
448,192,196744,1,0,0:0:0:0:
320,192,196883,128,0,197022:0:0:0:0:
64,192,196883,1,0,0:0:0:0:
448,192,197022,128,0,197300:0:0:0:0:
64,192,197022,1,0,0:0:0:0:
192,192,197022,1,0,0:0:0:0:
320,192,197160,1,0,0:0:0:0:
64,192,197300,128,0,197577:0:0:0:0:
192,192,197300,1,0,0:0:0:0:
320,192,197300,1,0,0:0:0:0:
320,192,197439,1,0,0:0:0:0:
448,192,197577,128,0,197855:0:0:0:0:
192,192,197577,1,0,0:0:0:0:
320,192,197577,1,0,0:0:0:0:
192,192,197716,1,0,0:0:0:0:
64,192,197855,128,0,197994:0:0:0:0:
192,192,197855,1,0,0:0:0:0:
320,192,197855,1,0,0:0:0:0:
192,192,197994,128,0,198133:0:0:0:0:
320,192,197994,1,0,0:0:0:0:
448,192,198133,128,0,198272:0:0:0:0:
64,192,198133,1,0,0:0:0:0:
320,192,198133,1,0,0:0:0:0:
320,192,198272,128,0,198410:0:0:0:0:
192,192,198272,1,0,0:0:0:0:
64,192,198410,128,0,198689:0:0:0:0:
192,192,198410,1,0,0:0:0:0:
448,192,198410,1,0,0:0:0:0:
320,192,198550,1,0,0:0:0:0:
192,192,198689,128,0,198966:0:0:0:0:
320,192,198689,1,0,0:0:0:0:
448,192,198689,1,0,0:0:0:0:
320,192,198827,1,0,0:0:0:0:
64,192,198966,128,0,199105:0:0:0:0:
320,192,198966,1,0,0:0:0:0:
448,192,198966,1,0,0:0:0:0:
448,192,199105,128,0,199244:0:0:0:0:
192,192,199105,1,0,0:0:0:0:
320,192,199244,128,0,199383:0:0:0:0:
64,192,199244,1,0,0:0:0:0:
192,192,199244,1,0,0:0:0:0:
64,192,199383,128,0,199522:0:0:0:0:
448,192,199383,1,0,0:0:0:0:
192,192,199522,128,0,199660:0:0:0:0:
320,192,199522,1,0,0:0:0:0:
448,192,199522,1,0,0:0:0:0:
320,192,199660,128,0,199800:0:0:0:0:
64,192,199660,128,0,200633:0:0:0:0:
448,192,199660,1,0,0:0:0:0:
192,192,199800,1,0,0:0:0:0:
448,192,199800,1,0,0:0:0:0:
448,192,200633,128,0,200910:0:0:0:0:
320,192,200772,128,0,200910:0:0:0:0:
64,192,200910,1,0,0:0:0:0:
192,192,200910,128,0,201189:0:0:0:0:
448,192,201189,128,0,201327:0:0:0:0:
64,192,201327,128,0,201466:0:0:0:0:
320,192,201466,128,0,201675:0:0:0:0:
64,192,201675,128,0,201883:0:0:0:0:
448,192,201883,128,0,202022:0:0:0:0:
192,192,202022,128,0,202577:0:0:0:0:
320,192,202855,128,0,202994:0:0:0:0:
64,192,202994,128,0,203133:0:0:0:0:
448,192,203133,128,0,203341:0:0:0:0:
192,192,203133,1,0,0:0:0:0:
320,192,203133,1,0,0:0:0:0:
192,192,203341,128,0,203550:0:0:0:0:
448,192,203550,128,0,203689:0:0:0:0:
64,192,203689,128,0,203897:0:0:0:0:
320,192,203897,128,0,204105:0:0:0:0:
64,192,204105,128,0,204314:0:0:0:0:
192,192,204244,1,0,0:0:0:0:
448,192,204244,1,0,0:0:0:0:
320,192,204314,128,0,204522:0:0:0:0:
192,192,204522,128,0,204939:0:0:0:0:
448,192,205077,128,0,205216:0:0:0:0:
320,192,205216,128,0,205355:0:0:0:0:
64,192,205355,128,0,205564:0:0:0:0:
192,192,205355,1,0,0:0:0:0:
448,192,205355,1,0,0:0:0:0:
192,192,205564,128,0,205772:0:0:0:0:
320,192,205772,128,0,205910:0:0:0:0:
448,192,205910,128,0,206119:0:0:0:0:
320,192,206119,128,0,206327:0:0:0:0:
64,192,206327,128,0,206466:0:0:0:0:
192,192,206466,128,0,207022:0:0:0:0:
64,192,207439,128,0,207577:0:0:0:0:
448,192,207577,128,0,207994:0:0:0:0:
192,192,207577,1,0,0:0:0:0:
320,192,207577,1,0,0:0:0:0:
192,192,207994,128,0,208133:0:0:0:0:
320,192,208133,128,0,208341:0:0:0:0:
64,192,208341,128,0,208550:0:0:0:0:
448,192,208550,128,0,208689:0:0:0:0:
192,192,208689,128,0,209383:0:0:0:0:
64,192,208689,1,0,0:0:0:0:
320,192,208689,1,0,0:0:0:0:
320,192,209383,1,0,0:0:0:0:
448,192,209452,1,0,0:0:0:0:
192,192,209522,1,0,0:0:0:0:
320,192,209522,1,0,0:0:0:0:
64,192,209591,1,0,0:0:0:0:
448,192,209591,1,0,0:0:0:0:
192,192,209660,1,0,0:0:0:0:
320,192,209660,1,0,0:0:0:0:
64,192,209730,1,0,0:0:0:0:
448,192,209730,1,0,0:0:0:0:
192,192,209800,1,0,0:0:0:0:
320,192,209800,1,0,0:0:0:0:
448,192,209800,1,0,0:0:0:0:
64,192,209800,1,0,0:0:0:0:
192,192,210077,1,0,0:0:0:0:
320,192,210077,1,0,0:0:0:0:
64,192,210216,1,0,0:0:0:0:
192,192,210355,1,0,0:0:0:0:
320,192,210355,1,0,0:0:0:0:
448,192,210355,1,0,0:0:0:0:
64,192,210355,1,0,0:0:0:0:
192,192,210494,1,0,0:0:0:0:
320,192,210494,1,0,0:0:0:0:
448,192,210494,1,0,0:0:0:0:
192,192,210633,1,0,0:0:0:0:
320,192,210633,1,0,0:0:0:0:
448,192,210633,1,0,0:0:0:0:
64,192,210633,1,0,0:0:0:0:
64,192,210772,1,0,0:0:0:0:
192,192,210910,1,0,0:0:0:0:
320,192,210910,1,0,0:0:0:0:
448,192,210910,1,0,0:0:0:0:
64,192,210910,1,0,0:0:0:0:
192,192,211050,1,0,0:0:0:0:
320,192,211189,1,0,0:0:0:0:
192,192,211189,1,0,0:0:0:0:
448,192,211189,1,0,0:0:0:0:
448,192,211327,1,0,0:0:0:0:
192,192,211466,1,0,0:0:0:0:
320,192,211466,1,0,0:0:0:0:
448,192,211466,1,0,0:0:0:0:
64,192,211466,1,0,0:0:0:0:
320,192,211605,1,0,0:0:0:0:
192,192,211605,1,0,0:0:0:0:
64,192,211605,1,0,0:0:0:0:
320,192,211744,1,0,0:0:0:0:
192,192,211744,1,0,0:0:0:0:
64,192,211744,1,0,0:0:0:0:
448,192,211883,1,0,0:0:0:0:
320,192,212022,1,0,0:0:0:0:
192,192,212022,1,0,0:0:0:0:
448,192,212022,1,0,0:0:0:0:
64,192,212022,1,0,0:0:0:0:
64,192,212160,1,0,0:0:0:0:
192,192,212300,1,0,0:0:0:0:
320,192,212300,1,0,0:0:0:0:
448,192,212300,1,0,0:0:0:0:
64,192,212300,1,0,0:0:0:0:
448,192,212439,1,0,0:0:0:0:
192,192,212439,1,0,0:0:0:0:
320,192,212577,1,0,0:0:0:0:
192,192,212577,1,0,0:0:0:0:
448,192,212577,1,0,0:0:0:0:
64,192,212577,1,0,0:0:0:0:
192,192,212716,1,0,0:0:0:0:
448,192,212716,1,0,0:0:0:0:
64,192,212716,1,0,0:0:0:0:
320,192,212785,1,0,0:0:0:0:
192,192,212855,1,0,0:0:0:0:
448,192,212855,1,0,0:0:0:0:
64,192,212855,1,0,0:0:0:0:
448,192,212994,1,0,0:0:0:0:
320,192,212994,1,0,0:0:0:0:
192,192,213133,1,0,0:0:0:0:
320,192,213133,1,0,0:0:0:0:
448,192,213133,1,0,0:0:0:0:
64,192,213133,1,0,0:0:0:0:
192,192,213272,1,0,0:0:0:0:
320,192,213410,1,0,0:0:0:0:
192,192,213410,1,0,0:0:0:0:
64,192,213410,1,0,0:0:0:0:
448,192,213550,1,0,0:0:0:0:
448,192,213689,1,0,0:0:0:0:
320,192,213689,1,0,0:0:0:0:
64,192,213689,1,0,0:0:0:0:
192,192,213758,1,0,0:0:0:0:
320,192,213827,1,0,0:0:0:0:
448,192,213827,1,0,0:0:0:0:
64,192,213827,1,0,0:0:0:0:
192,192,213897,1,0,0:0:0:0:
320,192,213966,1,0,0:0:0:0:
448,192,213966,1,0,0:0:0:0:
64,192,213966,1,0,0:0:0:0:
192,192,214035,1,0,0:0:0:0:
448,192,214105,1,0,0:0:0:0:
320,192,214105,1,0,0:0:0:0:
192,192,214175,1,0,0:0:0:0:
320,192,214244,1,0,0:0:0:0:
192,192,214244,1,0,0:0:0:0:
448,192,214244,1,0,0:0:0:0:
64,192,214244,1,0,0:0:0:0:
64,192,214452,1,0,0:0:0:0:
320,192,214452,1,0,0:0:0:0:
192,192,214522,1,0,0:0:0:0:
320,192,214522,1,0,0:0:0:0:
64,192,214522,1,0,0:0:0:0:
320,192,214660,1,0,0:0:0:0:
320,192,214800,1,0,0:0:0:0:
192,192,214800,1,0,0:0:0:0:
448,192,214800,1,0,0:0:0:0:
64,192,214939,1,0,0:0:0:0:
448,192,214939,1,0,0:0:0:0:
320,192,214939,1,0,0:0:0:0:
192,192,215008,1,0,0:0:0:0:
64,192,215077,1,0,0:0:0:0:
320,192,215077,1,0,0:0:0:0:
448,192,215077,1,0,0:0:0:0:
448,192,215181,1,0,0:0:0:0:
64,192,215216,1,0,0:0:0:0:
192,192,215355,1,0,0:0:0:0:
320,192,215355,1,0,0:0:0:0:
448,192,215355,1,0,0:0:0:0:
64,192,215355,1,0,0:0:0:0:
192,192,215494,1,0,0:0:0:0:
320,192,215633,1,0,0:0:0:0:
192,192,215633,1,0,0:0:0:0:
448,192,215633,1,0,0:0:0:0:
64,192,215633,1,0,0:0:0:0:
320,192,215910,1,0,0:0:0:0:
448,192,215910,1,0,0:0:0:0:
192,192,215910,1,0,0:0:0:0:
448,192,216050,1,0,0:0:0:0:
320,192,216050,1,0,0:0:0:0:
192,192,216050,1,0,0:0:0:0:
448,192,216189,1,0,0:0:0:0:
320,192,216189,1,0,0:0:0:0:
192,192,216189,1,0,0:0:0:0:
64,192,216327,1,0,0:0:0:0:
448,192,216362,1,0,0:0:0:0:
320,192,216466,1,0,0:0:0:0:
192,192,216466,1,0,0:0:0:0:
448,192,216466,1,0,0:0:0:0:
64,192,216466,1,0,0:0:0:0:
192,192,216605,1,0,0:0:0:0:
320,192,216675,1,0,0:0:0:0:
192,192,216744,1,0,0:0:0:0:
448,192,216744,1,0,0:0:0:0:
64,192,216744,1,0,0:0:0:0:
320,192,216883,1,0,0:0:0:0:
64,192,216883,1,0,0:0:0:0:
320,192,217022,1,0,0:0:0:0:
192,192,217022,1,0,0:0:0:0:
448,192,217022,1,0,0:0:0:0:
64,192,217022,1,0,0:0:0:0:
448,192,217160,1,0,0:0:0:0:
320,192,217160,1,0,0:0:0:0:
64,192,217160,1,0,0:0:0:0:
192,192,217230,1,0,0:0:0:0:
448,192,217300,1,0,0:0:0:0:
320,192,217300,1,0,0:0:0:0:
64,192,217300,1,0,0:0:0:0:
448,192,217404,1,0,0:0:0:0:
192,192,217439,1,0,0:0:0:0:
192,192,217577,1,0,0:0:0:0:
320,192,217577,1,0,0:0:0:0:
448,192,217577,1,0,0:0:0:0:
64,192,217577,1,0,0:0:0:0:
320,192,217855,1,0,0:0:0:0:
192,192,217855,1,0,0:0:0:0:
192,192,218133,1,0,0:0:0:0:
320,192,218133,1,0,0:0:0:0:
320,192,218272,1,0,0:0:0:0:
192,192,218272,1,0,0:0:0:0:
448,192,218410,1,0,0:0:0:0:
64,192,218410,1,0,0:0:0:0:
64,192,218689,1,0,0:0:0:0:
192,192,218689,1,0,0:0:0:0:
448,192,218689,1,0,0:0:0:0:
320,192,218689,1,0,0:0:0:0:
64,192,219244,128,0,219522:0:0:0:0:
192,192,219522,128,0,219800:0:0:0:0:
448,192,219800,1,0,0:0:0:0:
320,192,219800,1,0,0:0:0:0:
64,192,219869,1,0,0:0:0:0:
448,192,219939,1,0,0:0:0:0:
192,192,219939,1,0,0:0:0:0:
320,192,220008,1,0,0:0:0:0:
448,192,220077,1,0,0:0:0:0:
64,192,220077,1,0,0:0:0:0:
192,192,220077,1,0,0:0:0:0:
320,192,220147,1,0,0:0:0:0:
448,192,220216,1,0,0:0:0:0:
64,192,220216,1,0,0:0:0:0:
192,192,220216,1,0,0:0:0:0:
320,192,220285,1,0,0:0:0:0:
448,192,220355,1,0,0:0:0:0:
64,192,220355,1,0,0:0:0:0:
192,192,220355,1,0,0:0:0:0:
320,192,220425,1,0,0:0:0:0:
448,192,220494,1,0,0:0:0:0:
192,192,220494,1,0,0:0:0:0:
64,192,220564,1,0,0:0:0:0:
448,192,220633,1,0,0:0:0:0:
320,192,220633,1,0,0:0:0:0:
192,192,220633,1,0,0:0:0:0:
64,192,220702,1,0,0:0:0:0:
448,192,220772,1,0,0:0:0:0:
192,192,220772,1,0,0:0:0:0:
320,192,220772,1,0,0:0:0:0:
64,192,220841,1,0,0:0:0:0:
448,192,220910,1,0,0:0:0:0:
320,192,220910,1,0,0:0:0:0:
192,192,220910,1,0,0:0:0:0:
64,192,220980,1,0,0:0:0:0:
448,192,221050,1,0,0:0:0:0:
192,192,221050,1,0,0:0:0:0:
64,192,221119,1,0,0:0:0:0:
320,192,221189,1,0,0:0:0:0:
192,192,221189,1,0,0:0:0:0:
448,192,221258,1,0,0:0:0:0:
64,192,221327,1,0,0:0:0:0:
192,192,221327,1,0,0:0:0:0:
448,192,221397,1,0,0:0:0:0:
64,192,221466,1,0,0:0:0:0:
320,192,221466,1,0,0:0:0:0:
192,192,221466,1,0,0:0:0:0:
448,192,221535,1,0,0:0:0:0:
64,192,221605,1,0,0:0:0:0:
192,192,221605,1,0,0:0:0:0:
320,192,221675,1,0,0:0:0:0:
448,192,221744,1,0,0:0:0:0:
64,192,221744,1,0,0:0:0:0:
192,192,221814,1,0,0:0:0:0:
320,192,221883,1,0,0:0:0:0:
448,192,221883,1,0,0:0:0:0:
192,192,221952,1,0,0:0:0:0:
448,192,222022,1,0,0:0:0:0:
320,192,222022,1,0,0:0:0:0:
64,192,222022,1,0,0:0:0:0:
192,192,222091,1,0,0:0:0:0:
448,192,222160,1,0,0:0:0:0:
64,192,222160,1,0,0:0:0:0:
320,192,222230,1,0,0:0:0:0:
448,192,222300,1,0,0:0:0:0:
64,192,222300,1,0,0:0:0:0:
192,192,222300,1,0,0:0:0:0:
320,192,222369,1,0,0:0:0:0:
448,192,222439,1,0,0:0:0:0:
64,192,222439,1,0,0:0:0:0:
192,192,222439,1,0,0:0:0:0:
320,192,222508,1,0,0:0:0:0:
448,192,222577,1,0,0:0:0:0:
64,192,222577,1,0,0:0:0:0:
192,192,222577,1,0,0:0:0:0:
320,192,222647,1,0,0:0:0:0:
448,192,222716,1,0,0:0:0:0:
192,192,222716,1,0,0:0:0:0:
64,192,222785,1,0,0:0:0:0:
448,192,222855,1,0,0:0:0:0:
320,192,222855,1,0,0:0:0:0:
64,192,222855,1,0,0:0:0:0:
192,192,222855,1,0,0:0:0:0:
320,192,222925,1,0,0:0:0:0:
448,192,222994,1,0,0:0:0:0:
64,192,222994,1,0,0:0:0:0:
192,192,222994,1,0,0:0:0:0:
320,192,223064,1,0,0:0:0:0:
448,192,223133,1,0,0:0:0:0:
320,192,223133,1,0,0:0:0:0:
64,192,223133,1,0,0:0:0:0:
192,192,223133,1,0,0:0:0:0:
448,192,223202,1,0,0:0:0:0:
64,192,223272,1,0,0:0:0:0:
192,192,223272,1,0,0:0:0:0:
448,192,223341,1,0,0:0:0:0:
320,192,223410,1,0,0:0:0:0:
192,192,223410,1,0,0:0:0:0:
64,192,223480,1,0,0:0:0:0:
448,192,223550,1,0,0:0:0:0:
320,192,223550,1,0,0:0:0:0:
192,192,223619,1,0,0:0:0:0:
448,192,223689,1,0,0:0:0:0:
320,192,223689,1,0,0:0:0:0:
64,192,223689,1,0,0:0:0:0:
192,192,223758,1,0,0:0:0:0:
448,192,223827,1,0,0:0:0:0:
64,192,223827,1,0,0:0:0:0:
320,192,223897,1,0,0:0:0:0:
448,192,223966,1,0,0:0:0:0:
64,192,223966,1,0,0:0:0:0:
192,192,223966,1,0,0:0:0:0:
320,192,224035,1,0,0:0:0:0:
448,192,224105,1,0,0:0:0:0:
192,192,224105,1,0,0:0:0:0:
64,192,224175,1,0,0:0:0:0:
448,192,224244,1,0,0:0:0:0:
320,192,224244,1,0,0:0:0:0:
192,192,224244,1,0,0:0:0:0:
64,192,224314,1,0,0:0:0:0:
320,192,224383,1,0,0:0:0:0:
192,192,224383,1,0,0:0:0:0:
448,192,224452,1,0,0:0:0:0:
64,192,224522,1,0,0:0:0:0:
192,192,224522,1,0,0:0:0:0:
448,192,224591,1,0,0:0:0:0:
320,192,224660,1,0,0:0:0:0:
192,192,224660,1,0,0:0:0:0:
64,192,224730,1,0,0:0:0:0:
448,192,224800,1,0,0:0:0:0:
320,192,224800,1,0,0:0:0:0:
192,192,224800,1,0,0:0:0:0:
64,192,224869,1,0,0:0:0:0:
448,192,224939,1,0,0:0:0:0:
192,192,224939,1,0,0:0:0:0:
64,192,225008,1,0,0:0:0:0:
320,192,225077,1,0,0:0:0:0:
192,192,225077,1,0,0:0:0:0:
448,192,225147,1,0,0:0:0:0:
64,192,225216,1,0,0:0:0:0:
192,192,225216,1,0,0:0:0:0:
320,192,225285,1,0,0:0:0:0:
448,192,225355,1,0,0:0:0:0:
64,192,225355,1,0,0:0:0:0:
192,192,225355,1,0,0:0:0:0:
320,192,225425,1,0,0:0:0:0:
448,192,225494,1,0,0:0:0:0:
192,192,225494,1,0,0:0:0:0:
64,192,225564,1,0,0:0:0:0:
448,192,225633,1,0,0:0:0:0:
192,192,225633,1,0,0:0:0:0:
320,192,225702,1,0,0:0:0:0:
448,192,225772,1,0,0:0:0:0:
192,192,225772,1,0,0:0:0:0:
64,192,225841,1,0,0:0:0:0:
448,192,225910,1,0,0:0:0:0:
320,192,225910,1,0,0:0:0:0:
192,192,225910,1,0,0:0:0:0:
64,192,225980,1,0,0:0:0:0:
448,192,226050,1,0,0:0:0:0:
192,192,226050,1,0,0:0:0:0:
320,192,226119,1,0,0:0:0:0:
448,192,226189,1,0,0:0:0:0:
192,192,226189,1,0,0:0:0:0:
64,192,226258,1,0,0:0:0:0:
448,192,226327,1,0,0:0:0:0:
192,192,226327,1,0,0:0:0:0:
320,192,226397,1,0,0:0:0:0:
448,192,226466,1,0,0:0:0:0:
64,192,226466,1,0,0:0:0:0:
192,192,226466,1,0,0:0:0:0:
320,192,226535,1,0,0:0:0:0:
448,192,226605,1,0,0:0:0:0:
64,192,226605,1,0,0:0:0:0:
192,192,226675,1,0,0:0:0:0:
320,192,226744,1,0,0:0:0:0:
64,192,226744,1,0,0:0:0:0:
448,192,226814,1,0,0:0:0:0:
320,192,226883,1,0,0:0:0:0:
64,192,226883,1,0,0:0:0:0:
448,192,226952,1,0,0:0:0:0:
320,192,227022,1,0,0:0:0:0:
64,192,227022,1,0,0:0:0:0:
192,192,227091,1,0,0:0:0:0:
448,192,227160,1,0,0:0:0:0:
320,192,227160,1,0,0:0:0:0:
64,192,227230,1,0,0:0:0:0:
320,192,227300,1,0,0:0:0:0:
192,192,227300,1,0,0:0:0:0:
64,192,227369,1,0,0:0:0:0:
448,192,227439,1,0,0:0:0:0:
192,192,227439,1,0,0:0:0:0:
320,192,227508,1,0,0:0:0:0:
64,192,227508,1,0,0:0:0:0:
448,192,227577,1,0,0:0:0:0:
192,192,227577,1,0,0:0:0:0:
320,192,227647,1,0,0:0:0:0:
64,192,227647,1,0,0:0:0:0:
448,192,227716,1,0,0:0:0:0:
192,192,227716,1,0,0:0:0:0:
320,192,227785,1,0,0:0:0:0:
64,192,227785,1,0,0:0:0:0:
448,192,227855,1,0,0:0:0:0:
192,192,227855,1,0,0:0:0:0:
320,192,227925,1,0,0:0:0:0:
64,192,227925,1,0,0:0:0:0:
448,192,227994,1,0,0:0:0:0:
192,192,227994,1,0,0:0:0:0:
320,192,228064,1,0,0:0:0:0:
64,192,228064,1,0,0:0:0:0:
448,192,228133,1,0,0:0:0:0:
320,192,228133,1,0,0:0:0:0:
192,192,228133,1,0,0:0:0:0:
64,192,228202,1,0,0:0:0:0:
320,192,228272,1,0,0:0:0:0:
192,192,228272,1,0,0:0:0:0:
448,192,228341,1,0,0:0:0:0:
320,192,228410,1,0,0:0:0:0:
64,192,228410,1,0,0:0:0:0:
192,192,228410,1,0,0:0:0:0:
448,192,228480,1,0,0:0:0:0:
64,192,228550,1,0,0:0:0:0:
192,192,228550,1,0,0:0:0:0:
320,192,228619,1,0,0:0:0:0:
448,192,228689,1,0,0:0:0:0:
64,192,228689,1,0,0:0:0:0:
192,192,228689,1,0,0:0:0:0:
320,192,228758,1,0,0:0:0:0:
448,192,228827,1,0,0:0:0:0:
192,192,228827,1,0,0:0:0:0:
64,192,228897,1,0,0:0:0:0:
448,192,228966,1,0,0:0:0:0:
192,192,228966,1,0,0:0:0:0:
320,192,229035,1,0,0:0:0:0:
448,192,229105,1,0,0:0:0:0:
192,192,229105,1,0,0:0:0:0:
64,192,229175,1,0,0:0:0:0:
448,192,229244,1,0,0:0:0:0:
320,192,229244,1,0,0:0:0:0:
192,192,229244,1,0,0:0:0:0:
64,192,229314,1,0,0:0:0:0:
320,192,229383,1,0,0:0:0:0:
192,192,229383,1,0,0:0:0:0:
64,192,229452,1,0,0:0:0:0:
448,192,229522,1,0,0:0:0:0:
320,192,229522,1,0,0:0:0:0:
64,192,229591,1,0,0:0:0:0:
448,192,229660,1,0,0:0:0:0:
192,192,229660,1,0,0:0:0:0:
320,192,229730,1,0,0:0:0:0:
448,192,229800,1,0,0:0:0:0:
64,192,229800,1,0,0:0:0:0:
192,192,229800,1,0,0:0:0:0:
320,192,229869,1,0,0:0:0:0:
448,192,229939,1,0,0:0:0:0:
192,192,229939,1,0,0:0:0:0:
64,192,230008,1,0,0:0:0:0:
320,192,230077,1,0,0:0:0:0:
192,192,230077,1,0,0:0:0:0:
448,192,230147,1,0,0:0:0:0:
64,192,230216,1,0,0:0:0:0:
192,192,230216,1,0,0:0:0:0:
320,192,230285,1,0,0:0:0:0:
448,192,230355,1,0,0:0:0:0:
64,192,230355,1,0,0:0:0:0:
192,192,230355,1,0,0:0:0:0:
320,192,230425,1,0,0:0:0:0:
64,192,230494,1,0,0:0:0:0:
192,192,230494,1,0,0:0:0:0:
448,192,230564,1,0,0:0:0:0:
320,192,230633,1,0,0:0:0:0:
192,192,230633,1,0,0:0:0:0:
64,192,230702,1,0,0:0:0:0:
448,192,230772,1,0,0:0:0:0:
192,192,230772,1,0,0:0:0:0:
320,192,230841,1,0,0:0:0:0:
448,192,230910,1,0,0:0:0:0:
64,192,230910,1,0,0:0:0:0:
192,192,230910,1,0,0:0:0:0:
320,192,230980,1,0,0:0:0:0:
448,192,231050,1,0,0:0:0:0:
192,192,231050,1,0,0:0:0:0:
64,192,231119,1,0,0:0:0:0:
448,192,231189,1,0,0:0:0:0:
320,192,231189,1,0,0:0:0:0:
192,192,231258,1,0,0:0:0:0:
448,192,231327,1,0,0:0:0:0:
64,192,231327,1,0,0:0:0:0:
320,192,231397,1,0,0:0:0:0:
64,192,231466,1,0,0:0:0:0:
192,192,231466,1,0,0:0:0:0:
320,192,231535,1,0,0:0:0:0:
448,192,231605,1,0,0:0:0:0:
64,192,231605,1,0,0:0:0:0:
192,192,231675,1,0,0:0:0:0:
448,192,231744,1,0,0:0:0:0:
320,192,231744,1,0,0:0:0:0:
64,192,231744,1,0,0:0:0:0:
192,192,231814,1,0,0:0:0:0:
64,192,231883,1,0,0:0:0:0:
320,192,231883,1,0,0:0:0:0:
448,192,231952,1,0,0:0:0:0:
320,192,232022,1,0,0:0:0:0:
64,192,232022,1,0,0:0:0:0:
192,192,232022,1,0,0:0:0:0:
448,192,232091,1,0,0:0:0:0:
64,192,232160,1,0,0:0:0:0:
320,192,232160,1,0,0:0:0:0:
192,192,232230,1,0,0:0:0:0:
448,192,232300,1,0,0:0:0:0:
64,192,232300,1,0,0:0:0:0:
320,192,232369,1,0,0:0:0:0:
448,192,232439,1,0,0:0:0:0:
192,192,232439,1,0,0:0:0:0:
64,192,232508,1,0,0:0:0:0:
448,192,232577,1,0,0:0:0:0:
320,192,232577,1,0,0:0:0:0:
192,192,232577,1,0,0:0:0:0:
64,192,232647,1,0,0:0:0:0:
448,192,232716,1,0,0:0:0:0:
192,192,232716,1,0,0:0:0:0:
320,192,232785,1,0,0:0:0:0:
448,192,232855,1,0,0:0:0:0:
64,192,232855,1,0,0:0:0:0:
192,192,232855,1,0,0:0:0:0:
320,192,232925,1,0,0:0:0:0:
64,192,232994,1,0,0:0:0:0:
448,192,232994,1,0,0:0:0:0:
192,192,233064,1,0,0:0:0:0:
448,192,233133,1,0,0:0:0:0:
320,192,233133,1,0,0:0:0:0:
64,192,233133,1,0,0:0:0:0:
320,192,233202,1,0,0:0:0:0:
192,192,233202,1,0,0:0:0:0:
448,192,233272,1,0,0:0:0:0:
64,192,233272,1,0,0:0:0:0:
320,192,233341,1,0,0:0:0:0:
192,192,233341,1,0,0:0:0:0:
448,192,233410,1,0,0:0:0:0:
64,192,233410,1,0,0:0:0:0:
320,192,233480,1,0,0:0:0:0:
448,192,233550,1,0,0:0:0:0:
192,192,233550,1,0,0:0:0:0:
320,192,233619,1,0,0:0:0:0:
448,192,233689,1,0,0:0:0:0:
192,192,233689,1,0,0:0:0:0:
320,192,233758,1,0,0:0:0:0:
64,192,233758,1,0,0:0:0:0:
192,192,233827,1,0,0:0:0:0:
448,192,233827,1,0,0:0:0:0:
320,192,233897,1,0,0:0:0:0:
64,192,233897,1,0,0:0:0:0:
64,192,233966,1,0,0:0:0:0:
448,192,233966,1,0,0:0:0:0:
192,192,233966,1,0,0:0:0:0:
320,192,234035,1,0,0:0:0:0:
448,192,234105,1,0,0:0:0:0:
192,192,234105,1,0,0:0:0:0:
64,192,234175,1,0,0:0:0:0:
448,192,234244,1,0,0:0:0:0:
320,192,234244,1,0,0:0:0:0:
192,192,234244,1,0,0:0:0:0:
64,192,234314,1,0,0:0:0:0:
448,192,234383,1,0,0:0:0:0:
192,192,234383,1,0,0:0:0:0:
320,192,234452,1,0,0:0:0:0:
64,192,234522,1,0,0:0:0:0:
192,192,234522,1,0,0:0:0:0:
448,192,234591,1,0,0:0:0:0:
320,192,234660,1,0,0:0:0:0:
192,192,234660,1,0,0:0:0:0:
64,192,234730,1,0,0:0:0:0:
448,192,234800,1,0,0:0:0:0:
320,192,234800,1,0,0:0:0:0:
192,192,234800,1,0,0:0:0:0:
64,192,234869,1,0,0:0:0:0:
448,192,234939,1,0,0:0:0:0:
192,192,234939,1,0,0:0:0:0:
320,192,235008,1,0,0:0:0:0:
448,192,235077,1,0,0:0:0:0:
64,192,235077,1,0,0:0:0:0:
192,192,235077,1,0,0:0:0:0:
320,192,235147,1,0,0:0:0:0:
448,192,235216,1,0,0:0:0:0:
192,192,235216,1,0,0:0:0:0:
320,192,235285,1,0,0:0:0:0:
448,192,235355,1,0,0:0:0:0:
192,192,235355,1,0,0:0:0:0:
64,192,235355,1,0,0:0:0:0:
320,192,235425,1,0,0:0:0:0:
448,192,235494,1,0,0:0:0:0:
192,192,235494,1,0,0:0:0:0:
64,192,235494,1,0,0:0:0:0:
320,192,235564,1,0,0:0:0:0:
448,192,235633,1,0,0:0:0:0:
320,192,235633,1,0,0:0:0:0:
64,192,235633,1,0,0:0:0:0:
192,192,235702,1,0,0:0:0:0:
448,192,235772,1,0,0:0:0:0:
320,192,235772,1,0,0:0:0:0:
64,192,235772,1,0,0:0:0:0:
192,192,235841,1,0,0:0:0:0:
448,192,235910,1,0,0:0:0:0:
320,192,235910,1,0,0:0:0:0:
64,192,235910,1,0,0:0:0:0:
448,192,235980,1,0,0:0:0:0:
320,192,236050,1,0,0:0:0:0:
192,192,236050,1,0,0:0:0:0:
64,192,236119,1,0,0:0:0:0:
448,192,236189,1,0,0:0:0:0:
320,192,236189,1,0,0:0:0:0:
192,192,236189,1,0,0:0:0:0:
448,192,236258,1,0,0:0:0:0:
64,192,236258,1,0,0:0:0:0:
320,192,236327,1,0,0:0:0:0:
192,192,236327,1,0,0:0:0:0:
448,192,236397,1,0,0:0:0:0:
64,192,236397,1,0,0:0:0:0:
64,192,236466,1,0,0:0:0:0:
320,192,236466,1,0,0:0:0:0:
192,192,236466,1,0,0:0:0:0:
448,192,236535,1,0,0:0:0:0:
64,192,236605,1,0,0:0:0:0:
192,192,236605,1,0,0:0:0:0:
320,192,236675,1,0,0:0:0:0:
448,192,236744,1,0,0:0:0:0:
192,192,236744,1,0,0:0:0:0:
64,192,236814,1,0,0:0:0:0:
448,192,236883,1,0,0:0:0:0:
192,192,236883,1,0,0:0:0:0:
320,192,236952,1,0,0:0:0:0:
448,192,237022,1,0,0:0:0:0:
64,192,237022,1,0,0:0:0:0:
192,192,237022,1,0,0:0:0:0:
320,192,237091,1,0,0:0:0:0:
448,192,237160,1,0,0:0:0:0:
192,192,237160,1,0,0:0:0:0:
64,192,237230,1,0,0:0:0:0:
320,192,237300,1,0,0:0:0:0:
192,192,237300,1,0,0:0:0:0:
448,192,237369,1,0,0:0:0:0:
64,192,237439,1,0,0:0:0:0:
192,192,237439,1,0,0:0:0:0:
320,192,237508,1,0,0:0:0:0:
448,192,237577,1,0,0:0:0:0:
64,192,237577,1,0,0:0:0:0:
192,192,237577,1,0,0:0:0:0:
320,192,237647,1,0,0:0:0:0:
448,192,237716,1,0,0:0:0:0:
192,192,237716,1,0,0:0:0:0:
64,192,237785,1,0,0:0:0:0:
448,192,237855,1,0,0:0:0:0:
192,192,237855,1,0,0:0:0:0:
320,192,237925,1,0,0:0:0:0:
448,192,237994,1,0,0:0:0:0:
192,192,237994,1,0,0:0:0:0:
64,192,238064,1,0,0:0:0:0:
320,192,238133,1,0,0:0:0:0:
192,192,238133,1,0,0:0:0:0:
64,192,238202,1,0,0:0:0:0:
448,192,238272,1,0,0:0:0:0:
320,192,238272,1,0,0:0:0:0:
192,192,238341,1,0,0:0:0:0:
448,192,238410,1,0,0:0:0:0:
320,192,238410,1,0,0:0:0:0:
64,192,238410,1,0,0:0:0:0:
192,192,238480,1,0,0:0:0:0:
320,192,238550,1,0,0:0:0:0:
448,192,238550,1,0,0:0:0:0:
64,192,238550,1,0,0:0:0:0:
192,192,238619,1,0,0:0:0:0:
448,192,238689,1,0,0:0:0:0:
320,192,238689,1,0,0:0:0:0:
64,192,238689,1,0,0:0:0:0:
192,192,238758,1,0,0:0:0:0:
320,192,238827,1,0,0:0:0:0:
448,192,238827,1,0,0:0:0:0:
64,192,238897,1,0,0:0:0:0:
448,192,238966,1,0,0:0:0:0:
192,192,238966,1,0,0:0:0:0:
320,192,239035,1,0,0:0:0:0:
448,192,239105,1,0,0:0:0:0:
192,192,239105,1,0,0:0:0:0:
64,192,239175,1,0,0:0:0:0:
448,192,239244,1,0,0:0:0:0:
320,192,239244,1,0,0:0:0:0:
192,192,239244,1,0,0:0:0:0:
64,192,239314,1,0,0:0:0:0:
448,192,239383,1,0,0:0:0:0:
192,192,239383,1,0,0:0:0:0:
320,192,239452,1,0,0:0:0:0:
448,192,239522,1,0,0:0:0:0:
64,192,239522,1,0,0:0:0:0:
192,192,239522,1,0,0:0:0:0:
320,192,239591,1,0,0:0:0:0:
64,192,239660,1,0,0:0:0:0:
192,192,239660,1,0,0:0:0:0:
448,192,239730,1,0,0:0:0:0:
320,192,239800,1,0,0:0:0:0:
64,192,239800,1,0,0:0:0:0:
192,192,239800,1,0,0:0:0:0:
448,192,239869,1,0,0:0:0:0:
64,192,239939,1,0,0:0:0:0:
192,192,239939,1,0,0:0:0:0:
320,192,240008,1,0,0:0:0:0:
448,192,240077,1,0,0:0:0:0:
192,192,240077,1,0,0:0:0:0:
64,192,240147,1,0,0:0:0:0:
320,192,240216,1,0,0:0:0:0:
192,192,240216,1,0,0:0:0:0:
448,192,240285,1,0,0:0:0:0:
64,192,240355,1,0,0:0:0:0:
320,192,240355,1,0,0:0:0:0:
192,192,240355,1,0,0:0:0:0:
448,192,240425,1,0,0:0:0:0:
320,192,240494,1,0,0:0:0:0:
192,192,240494,1,0,0:0:0:0:
64,192,240564,1,0,0:0:0:0:
448,192,240633,1,0,0:0:0:0:
320,192,240633,1,0,0:0:0:0:
64,192,240702,1,0,0:0:0:0:
320,192,240772,1,0,0:0:0:0:
192,192,240772,1,0,0:0:0:0:
448,192,240841,1,0,0:0:0:0:
64,192,240910,1,0,0:0:0:0:
320,192,240910,1,0,0:0:0:0:
192,192,240910,1,0,0:0:0:0:
448,192,240980,1,0,0:0:0:0:
64,192,241050,1,0,0:0:0:0:
192,192,241050,1,0,0:0:0:0:
448,192,241119,1,0,0:0:0:0:
320,192,241189,1,0,0:0:0:0:
192,192,241189,1,0,0:0:0:0:
64,192,241258,1,0,0:0:0:0:
448,192,241327,1,0,0:0:0:0:
192,192,241327,1,0,0:0:0:0:
320,192,241397,1,0,0:0:0:0:
448,192,241466,1,0,0:0:0:0:
64,192,241466,1,0,0:0:0:0:
192,192,241466,1,0,0:0:0:0:
320,192,241535,1,0,0:0:0:0:
448,192,241605,1,0,0:0:0:0:
192,192,241605,1,0,0:0:0:0:
64,192,241675,1,0,0:0:0:0:
448,192,241744,1,0,0:0:0:0:
192,192,241744,1,0,0:0:0:0:
320,192,241814,1,0,0:0:0:0:
64,192,241883,1,0,0:0:0:0:
192,192,241883,1,0,0:0:0:0:
320,192,241952,1,0,0:0:0:0:
448,192,242022,1,0,0:0:0:0:
64,192,242022,1,0,0:0:0:0:
192,192,242022,1,0,0:0:0:0:
320,192,242091,1,0,0:0:0:0:
448,192,242160,1,0,0:0:0:0:
192,192,242160,1,0,0:0:0:0:
64,192,242230,1,0,0:0:0:0:
448,192,242300,1,0,0:0:0:0:
320,192,242300,1,0,0:0:0:0:
192,192,242369,1,0,0:0:0:0:
448,192,242439,1,0,0:0:0:0:
64,192,242439,1,0,0:0:0:0:
320,192,242508,1,0,0:0:0:0:
64,192,242577,1,0,0:0:0:0:
192,192,242577,1,0,0:0:0:0:
320,192,242647,1,0,0:0:0:0:
448,192,242716,1,0,0:0:0:0:
192,192,242716,1,0,0:0:0:0:
320,192,242785,1,0,0:0:0:0:
192,192,242855,1,0,0:0:0:0:
64,192,242855,1,0,0:0:0:0:
448,192,242925,1,0,0:0:0:0:
320,192,242994,1,0,0:0:0:0:
192,192,242994,1,0,0:0:0:0:
448,192,243064,1,0,0:0:0:0:
64,192,243064,1,0,0:0:0:0:
320,192,243133,1,0,0:0:0:0:
192,192,243133,1,0,0:0:0:0:
448,192,243202,1,0,0:0:0:0:
64,192,243202,1,0,0:0:0:0:
192,192,243272,1,0,0:0:0:0:
320,192,243272,1,0,0:0:0:0:
448,192,243341,1,0,0:0:0:0:
64,192,243341,1,0,0:0:0:0:
320,192,243410,1,0,0:0:0:0:
192,192,243410,1,0,0:0:0:0:
448,192,243480,1,0,0:0:0:0:
64,192,243480,1,0,0:0:0:0:
320,192,243550,1,0,0:0:0:0:
192,192,243550,1,0,0:0:0:0:
448,192,243619,1,0,0:0:0:0:
64,192,243619,1,0,0:0:0:0:
320,192,243689,1,0,0:0:0:0:
192,192,243689,1,0,0:0:0:0:
448,192,243758,1,0,0:0:0:0:
192,192,243827,1,0,0:0:0:0:
64,192,243827,1,0,0:0:0:0:
320,192,243897,1,0,0:0:0:0:
64,192,243966,1,0,0:0:0:0:
448,192,243966,1,0,0:0:0:0:
192,192,243966,1,0,0:0:0:0:
320,192,244035,1,0,0:0:0:0:
64,192,244105,1,0,0:0:0:0:
192,192,244105,1,0,0:0:0:0:
448,192,244175,1,0,0:0:0:0:
64,192,244244,1,0,0:0:0:0:
320,192,244244,1,0,0:0:0:0:
192,192,244244,1,0,0:0:0:0:
448,192,244314,1,0,0:0:0:0:
320,192,244383,1,0,0:0:0:0:
192,192,244383,1,0,0:0:0:0:
64,192,244452,1,0,0:0:0:0:
448,192,244522,1,0,0:0:0:0:
320,192,244522,1,0,0:0:0:0:
192,192,244591,1,0,0:0:0:0:
448,192,244660,1,0,0:0:0:0:
64,192,244660,1,0,0:0:0:0:
320,192,244730,1,0,0:0:0:0:
448,192,244800,1,0,0:0:0:0:
64,192,244800,1,0,0:0:0:0:
192,192,244800,1,0,0:0:0:0:
320,192,244869,1,0,0:0:0:0:
448,192,244939,1,0,0:0:0:0:
192,192,244939,1,0,0:0:0:0:
64,192,245008,1,0,0:0:0:0:
320,192,245077,1,0,0:0:0:0:
192,192,245077,1,0,0:0:0:0:
448,192,245147,1,0,0:0:0:0:
64,192,245216,1,0,0:0:0:0:
192,192,245216,1,0,0:0:0:0:
320,192,245285,1,0,0:0:0:0:
448,192,245355,1,0,0:0:0:0:
64,192,245355,1,0,0:0:0:0:
192,192,245355,1,0,0:0:0:0:
320,192,245425,1,0,0:0:0:0:
448,192,245494,1,0,0:0:0:0:
192,192,245494,1,0,0:0:0:0:
64,192,245564,1,0,0:0:0:0:
448,192,245633,1,0,0:0:0:0:
320,192,245633,1,0,0:0:0:0:
64,192,245702,1,0,0:0:0:0:
320,192,245772,1,0,0:0:0:0:
192,192,245772,1,0,0:0:0:0:
448,192,245841,1,0,0:0:0:0:
64,192,245910,1,0,0:0:0:0:
320,192,245910,1,0,0:0:0:0:
192,192,245910,1,0,0:0:0:0:
448,192,245980,1,0,0:0:0:0:
320,192,246050,1,0,0:0:0:0:
64,192,246050,1,0,0:0:0:0:
192,192,246119,1,0,0:0:0:0:
448,192,246189,1,0,0:0:0:0:
320,192,246189,1,0,0:0:0:0:
64,192,246258,1,0,0:0:0:0:
448,192,246327,1,0,0:0:0:0:
192,192,246327,1,0,0:0:0:0:
320,192,246397,1,0,0:0:0:0:
448,192,246466,1,0,0:0:0:0:
64,192,246466,1,0,0:0:0:0:
192,192,246466,1,0,0:0:0:0:
320,192,246535,1,0,0:0:0:0:
448,192,246605,1,0,0:0:0:0:
192,192,246605,1,0,0:0:0:0:
64,192,246675,1,0,0:0:0:0:
448,192,246744,1,0,0:0:0:0:
192,192,246744,1,0,0:0:0:0:
320,192,246814,1,0,0:0:0:0:
448,192,246883,1,0,0:0:0:0:
192,192,246883,1,0,0:0:0:0:
320,192,246952,1,0,0:0:0:0:
448,192,247022,1,0,0:0:0:0:
192,192,247022,1,0,0:0:0:0:
64,192,247091,1,0,0:0:0:0:
320,192,247160,1,0,0:0:0:0:
192,192,247160,1,0,0:0:0:0:
448,192,247230,1,0,0:0:0:0:
320,192,247300,1,0,0:0:0:0:
64,192,247300,1,0,0:0:0:0:
192,192,247300,1,0,0:0:0:0:
448,192,247369,1,0,0:0:0:0:
320,192,247439,1,0,0:0:0:0:
192,192,247439,1,0,0:0:0:0:
64,192,247508,1,0,0:0:0:0:
448,192,247577,1,0,0:0:0:0:
320,192,247577,1,0,0:0:0:0:
192,192,247577,1,0,0:0:0:0:
64,192,247647,1,0,0:0:0:0:
448,192,247716,1,0,0:0:0:0:
192,192,247716,1,0,0:0:0:0:
320,192,247785,1,0,0:0:0:0:
448,192,247855,1,0,0:0:0:0:
192,192,247855,1,0,0:0:0:0:
64,192,247925,1,0,0:0:0:0:
448,192,247994,1,0,0:0:0:0:
192,192,247994,1,0,0:0:0:0:
320,192,248064,1,0,0:0:0:0:
448,192,248133,1,0,0:0:0:0:
64,192,248133,1,0,0:0:0:0:
192,192,248133,1,0,0:0:0:0:
320,192,248202,1,0,0:0:0:0:
448,192,248272,1,0,0:0:0:0:
192,192,248272,1,0,0:0:0:0:
64,192,248341,1,0,0:0:0:0:
448,192,248410,1,0,0:0:0:0:
320,192,248410,1,0,0:0:0:0:
192,192,248410,1,0,0:0:0:0:
64,192,248480,1,0,0:0:0:0:
448,192,248550,1,0,0:0:0:0:
192,192,248550,1,0,0:0:0:0:
320,192,248619,1,0,0:0:0:0:
448,192,248689,1,0,0:0:0:0:
192,192,248689,1,0,0:0:0:0:
64,192,248689,1,0,0:0:0:0:
448,192,248758,1,0,0:0:0:0:
320,192,248758,1,0,0:0:0:0:
192,192,248827,1,0,0:0:0:0:
64,192,248827,1,0,0:0:0:0:
448,192,248897,1,0,0:0:0:0:
320,192,248897,1,0,0:0:0:0:
64,192,248966,1,0,0:0:0:0:
192,192,248966,1,0,0:0:0:0:
448,192,249035,1,0,0:0:0:0:
64,192,249105,1,0,0:0:0:0:
192,192,249105,1,0,0:0:0:0:
448,192,249175,1,0,0:0:0:0:
320,192,249244,1,0,0:0:0:0:
192,192,249244,1,0,0:0:0:0:
64,192,249244,1,0,0:0:0:0:
448,192,249314,1,0,0:0:0:0:
320,192,249383,1,0,0:0:0:0:
192,192,249383,1,0,0:0:0:0:
64,192,249452,1,0,0:0:0:0:
192,192,249452,1,0,0:0:0:0:
448,192,249522,1,0,0:0:0:0:
320,192,249522,1,0,0:0:0:0:
192,192,249591,1,0,0:0:0:0:
64,192,249660,1,0,0:0:0:0:
448,192,249660,1,0,0:0:0:0:
320,192,249730,1,0,0:0:0:0:
448,192,249800,1,0,0:0:0:0:
192,192,249800,1,0,0:0:0:0:
320,192,249869,1,0,0:0:0:0:
64,192,249869,1,0,0:0:0:0:
448,192,249939,1,0,0:0:0:0:
192,192,249939,1,0,0:0:0:0:
320,192,250008,1,0,0:0:0:0:
64,192,250008,1,0,0:0:0:0:
448,192,250077,1,0,0:0:0:0:
320,192,250147,1,0,0:0:0:0:
192,192,250147,1,0,0:0:0:0:
448,192,250216,1,0,0:0:0:0:
64,192,250216,1,0,0:0:0:0:
320,192,250285,1,0,0:0:0:0:
192,192,250285,1,0,0:0:0:0:
448,192,250355,1,0,0:0:0:0:
64,192,250355,1,0,0:0:0:0:
320,192,250425,1,0,0:0:0:0:
192,192,250494,1,0,0:0:0:0:
64,192,250494,1,0,0:0:0:0:
448,192,250564,1,0,0:0:0:0:
320,192,250564,1,0,0:0:0:0:
192,192,250633,1,0,0:0:0:0:
64,192,250633,1,0,0:0:0:0:
320,192,250702,1,0,0:0:0:0:
448,192,250772,1,0,0:0:0:0:
192,192,250772,1,0,0:0:0:0:
320,192,250841,1,0,0:0:0:0:
64,192,250841,1,0,0:0:0:0:
448,192,250910,1,0,0:0:0:0:
192,192,250910,1,0,0:0:0:0:
64,192,250910,1,0,0:0:0:0:
320,192,251050,1,0,0:0:0:0:
64,192,251189,1,0,0:0:0:0:
192,192,251327,1,0,0:0:0:0:
448,192,251466,1,0,0:0:0:0:
320,192,251605,1,0,0:0:0:0:
192,192,251605,1,0,0:0:0:0:
64,192,251744,1,0,0:0:0:0:
192,192,251744,1,0,0:0:0:0:
192,192,251883,1,0,0:0:0:0:
448,192,251883,1,0,0:0:0:0:
320,192,251952,1,0,0:0:0:0:
448,192,252022,1,0,0:0:0:0:
320,192,252022,1,0,0:0:0:0:
64,192,252022,1,0,0:0:0:0:
320,192,252160,1,0,0:0:0:0:
64,192,252300,1,0,0:0:0:0:
192,192,252439,1,0,0:0:0:0:
448,192,252577,1,0,0:0:0:0:
320,192,252716,1,0,0:0:0:0:
64,192,252855,1,0,0:0:0:0:
192,192,252855,1,0,0:0:0:0:
320,192,252994,1,0,0:0:0:0:
448,192,253133,1,0,0:0:0:0:
192,192,253133,1,0,0:0:0:0:
320,192,253272,1,0,0:0:0:0:
64,192,253410,1,0,0:0:0:0:
192,192,253550,1,0,0:0:0:0:
448,192,253689,1,0,0:0:0:0:
320,192,253827,1,0,0:0:0:0:
192,192,253827,1,0,0:0:0:0:
64,192,253966,1,0,0:0:0:0:
192,192,253966,1,0,0:0:0:0:
192,192,254105,1,0,0:0:0:0:
320,192,254105,1,0,0:0:0:0:
448,192,254244,1,0,0:0:0:0:
320,192,254244,1,0,0:0:0:0:
64,192,254383,1,0,0:0:0:0:
192,192,254522,1,0,0:0:0:0:
448,192,254660,1,0,0:0:0:0:
64,192,254800,1,0,0:0:0:0:
192,192,254939,1,0,0:0:0:0:
448,192,255077,1,0,0:0:0:0:
192,192,255077,1,0,0:0:0:0:
320,192,255216,1,0,0:0:0:0:
64,192,255355,1,0,0:0:0:0:
192,192,255355,1,0,0:0:0:0:
192,192,255494,1,0,0:0:0:0:
448,192,255633,1,0,0:0:0:0:
320,192,255772,1,0,0:0:0:0:
64,192,255910,1,0,0:0:0:0:
192,192,256050,1,0,0:0:0:0:
320,192,256050,1,0,0:0:0:0:
448,192,256189,1,0,0:0:0:0:
320,192,256189,1,0,0:0:0:0:
320,192,256327,1,0,0:0:0:0:
192,192,256327,1,0,0:0:0:0:
448,192,256397,1,0,0:0:0:0:
64,192,256466,1,0,0:0:0:0:
320,192,256466,1,0,0:0:0:0:
448,192,256466,1,0,0:0:0:0:
192,192,256605,1,0,0:0:0:0:
448,192,256744,1,0,0:0:0:0:
320,192,256883,1,0,0:0:0:0:
64,192,257022,1,0,0:0:0:0:
192,192,257160,1,0,0:0:0:0:
448,192,257300,1,0,0:0:0:0:
192,192,257300,1,0,0:0:0:0:
320,192,257439,1,0,0:0:0:0:
64,192,257577,1,0,0:0:0:0:
192,192,257577,1,0,0:0:0:0:
192,192,257716,1,0,0:0:0:0:
448,192,257855,1,0,0:0:0:0:
320,192,257994,1,0,0:0:0:0:
448,192,258133,1,0,0:0:0:0:
320,192,258272,1,0,0:0:0:0:
192,192,258272,1,0,0:0:0:0:
64,192,258410,1,0,0:0:0:0:
320,192,258410,1,0,0:0:0:0:
448,192,258410,1,0,0:0:0:0:
192,192,258550,1,0,0:0:0:0:
320,192,258550,1,0,0:0:0:0:
448,192,258689,1,0,0:0:0:0:
320,192,258689,1,0,0:0:0:0:
64,192,258689,1,0,0:0:0:0:
320,192,258827,1,0,0:0:0:0:
64,192,258966,1,0,0:0:0:0:
192,192,259105,1,0,0:0:0:0:
448,192,259244,1,0,0:0:0:0:
192,192,259244,1,0,0:0:0:0:
64,192,259244,1,0,0:0:0:0:
320,192,259314,1,0,0:0:0:0:
448,192,259383,1,0,0:0:0:0:
192,192,259383,1,0,0:0:0:0:
320,192,259452,1,0,0:0:0:0:
64,192,259522,1,0,0:0:0:0:
192,192,259522,1,0,0:0:0:0:
448,192,259522,1,0,0:0:0:0:
320,192,259591,1,0,0:0:0:0:
192,192,259660,1,0,0:0:0:0:
448,192,259660,1,0,0:0:0:0:
320,192,259730,1,0,0:0:0:0:
448,192,259800,1,0,0:0:0:0:
64,192,259800,1,0,0:0:0:0:
192,192,259800,1,0,0:0:0:0:
320,192,259869,1,0,0:0:0:0:
192,192,259939,1,0,0:0:0:0:
64,192,259939,1,0,0:0:0:0:
448,192,260008,1,0,0:0:0:0:
64,192,260077,1,0,0:0:0:0:
192,192,260077,1,0,0:0:0:0:
320,192,260077,1,0,0:0:0:0:
448,192,260147,1,0,0:0:0:0:
192,192,260216,1,0,0:0:0:0:
320,192,260216,1,0,0:0:0:0:
64,192,260285,1,0,0:0:0:0:
448,192,260355,1,0,0:0:0:0:
192,192,260355,1,0,0:0:0:0:
320,192,260355,1,0,0:0:0:0:
64,192,260425,1,0,0:0:0:0:
320,192,260494,1,0,0:0:0:0:
192,192,260494,1,0,0:0:0:0:
448,192,260564,1,0,0:0:0:0:
64,192,260633,1,0,0:0:0:0:
192,192,260633,1,0,0:0:0:0:
320,192,260633,1,0,0:0:0:0:
448,192,260702,1,0,0:0:0:0:
192,192,260772,1,0,0:0:0:0:
64,192,260772,1,0,0:0:0:0:
320,192,260841,1,0,0:0:0:0:
448,192,260910,1,0,0:0:0:0:
192,192,260910,1,0,0:0:0:0:
64,192,260910,1,0,0:0:0:0:
320,192,260980,1,0,0:0:0:0:
64,192,261050,1,0,0:0:0:0:
448,192,261050,1,0,0:0:0:0:
192,192,261119,1,0,0:0:0:0:
64,192,261189,1,0,0:0:0:0:
320,192,261189,1,0,0:0:0:0:
448,192,261189,1,0,0:0:0:0:
192,192,261258,1,0,0:0:0:0:
448,192,261327,1,0,0:0:0:0:
320,192,261327,1,0,0:0:0:0:
192,192,261397,1,0,0:0:0:0:
448,192,261466,1,0,0:0:0:0:
320,192,261466,1,0,0:0:0:0:
64,192,261466,1,0,0:0:0:0:
192,192,261535,1,0,0:0:0:0:
320,192,261605,1,0,0:0:0:0:
64,192,261605,1,0,0:0:0:0:
448,192,261675,1,0,0:0:0:0:
192,192,261744,1,0,0:0:0:0:
320,192,261744,1,0,0:0:0:0:
64,192,261814,1,0,0:0:0:0:
320,192,261883,1,0,0:0:0:0:
192,192,261883,1,0,0:0:0:0:
448,192,261952,1,0,0:0:0:0:
64,192,261952,1,0,0:0:0:0:
320,192,262022,1,0,0:0:0:0:
192,192,262022,1,0,0:0:0:0:
448,192,262022,1,0,0:0:0:0:
64,192,262091,1,0,0:0:0:0:
192,192,262160,1,0,0:0:0:0:
448,192,262160,1,0,0:0:0:0:
320,192,262230,1,0,0:0:0:0:
448,192,262300,1,0,0:0:0:0:
192,192,262300,1,0,0:0:0:0:
64,192,262300,1,0,0:0:0:0:
320,192,262369,1,0,0:0:0:0:
448,192,262439,1,0,0:0:0:0:
64,192,262439,1,0,0:0:0:0:
192,192,262508,1,0,0:0:0:0:
64,192,262577,1,0,0:0:0:0:
320,192,262577,1,0,0:0:0:0:
448,192,262577,1,0,0:0:0:0:
192,192,262647,1,0,0:0:0:0:
320,192,262716,1,0,0:0:0:0:
448,192,262716,1,0,0:0:0:0:
64,192,262785,1,0,0:0:0:0:
448,192,262855,1,0,0:0:0:0:
192,192,262855,1,0,0:0:0:0:
320,192,262855,1,0,0:0:0:0:
64,192,262925,1,0,0:0:0:0:
320,192,262994,1,0,0:0:0:0:
448,192,262994,1,0,0:0:0:0:
192,192,263064,1,0,0:0:0:0:
64,192,263133,1,0,0:0:0:0:
320,192,263133,1,0,0:0:0:0:
448,192,263133,1,0,0:0:0:0:
192,192,263202,1,0,0:0:0:0:
64,192,263272,1,0,0:0:0:0:
448,192,263272,1,0,0:0:0:0:
320,192,263341,1,0,0:0:0:0:
448,192,263410,1,0,0:0:0:0:
192,192,263410,1,0,0:0:0:0:
64,192,263410,1,0,0:0:0:0:
320,192,263480,1,0,0:0:0:0:
448,192,263550,1,0,0:0:0:0:
192,192,263550,1,0,0:0:0:0:
320,192,263619,1,0,0:0:0:0:
64,192,263689,1,0,0:0:0:0:
192,192,263689,1,0,0:0:0:0:
448,192,263689,1,0,0:0:0:0:
320,192,263758,1,0,0:0:0:0:
192,192,263827,1,0,0:0:0:0:
64,192,263827,1,0,0:0:0:0:
448,192,263897,1,0,0:0:0:0:
64,192,263966,1,0,0:0:0:0:
192,192,263966,1,0,0:0:0:0:
320,192,263966,1,0,0:0:0:0:
448,192,264035,1,0,0:0:0:0:
64,192,264105,1,0,0:0:0:0:
192,192,264105,1,0,0:0:0:0:
320,192,264175,1,0,0:0:0:0:
64,192,264244,1,0,0:0:0:0:
192,192,264244,1,0,0:0:0:0:
448,192,264244,1,0,0:0:0:0:
320,192,264314,1,0,0:0:0:0:
192,192,264383,1,0,0:0:0:0:
448,192,264383,1,0,0:0:0:0:
320,192,264452,1,0,0:0:0:0:
448,192,264522,1,0,0:0:0:0:
192,192,264522,1,0,0:0:0:0:
64,192,264522,1,0,0:0:0:0:
320,192,264591,1,0,0:0:0:0:
64,192,264660,1,0,0:0:0:0:
448,192,264660,1,0,0:0:0:0:
192,192,264730,1,0,0:0:0:0:
64,192,264800,1,0,0:0:0:0:
320,192,264800,1,0,0:0:0:0:
448,192,264800,1,0,0:0:0:0:
192,192,264869,1,0,0:0:0:0:
448,192,264939,1,0,0:0:0:0:
64,192,264939,1,0,0:0:0:0:
320,192,265008,1,0,0:0:0:0:
448,192,265077,1,0,0:0:0:0:
192,192,265077,1,0,0:0:0:0:
64,192,265077,1,0,0:0:0:0:
320,192,265147,1,0,0:0:0:0:
64,192,265216,1,0,0:0:0:0:
448,192,265285,1,0,0:0:0:0:
192,192,265285,1,0,0:0:0:0:
64,192,265355,1,0,0:0:0:0:
192,192,265355,1,0,0:0:0:0:
448,192,265355,1,0,0:0:0:0:
320,192,265425,1,0,0:0:0:0:
192,192,265494,1,0,0:0:0:0:
448,192,265494,1,0,0:0:0:0:
320,192,265564,1,0,0:0:0:0:
448,192,265633,1,0,0:0:0:0:
192,192,265633,1,0,0:0:0:0:
64,192,265633,1,0,0:0:0:0:
320,192,265702,1,0,0:0:0:0:
448,192,265772,1,0,0:0:0:0:
64,192,265772,1,0,0:0:0:0:
192,192,265841,1,0,0:0:0:0:
64,192,265910,1,0,0:0:0:0:
320,192,265910,1,0,0:0:0:0:
448,192,265910,1,0,0:0:0:0:
192,192,265980,1,0,0:0:0:0:
320,192,266050,1,0,0:0:0:0:
448,192,266050,1,0,0:0:0:0:
64,192,266119,1,0,0:0:0:0:
448,192,266189,1,0,0:0:0:0:
192,192,266189,1,0,0:0:0:0:
320,192,266189,1,0,0:0:0:0:
64,192,266258,1,0,0:0:0:0:
320,192,266327,1,0,0:0:0:0:
448,192,266327,1,0,0:0:0:0:
64,192,266397,1,0,0:0:0:0:
320,192,266466,1,0,0:0:0:0:
192,192,266466,1,0,0:0:0:0:
448,192,266466,1,0,0:0:0:0:
64,192,266535,1,0,0:0:0:0:
192,192,266605,1,0,0:0:0:0:
448,192,266605,1,0,0:0:0:0:
320,192,266675,1,0,0:0:0:0:
448,192,266744,1,0,0:0:0:0:
192,192,266744,1,0,0:0:0:0:
64,192,266744,1,0,0:0:0:0:
320,192,266814,1,0,0:0:0:0:
448,192,266883,1,0,0:0:0:0:
64,192,266883,1,0,0:0:0:0:
192,192,266952,1,0,0:0:0:0:
64,192,267022,1,0,0:0:0:0:
320,192,267022,1,0,0:0:0:0:
448,192,267022,1,0,0:0:0:0:
192,192,267091,1,0,0:0:0:0:
448,192,267160,1,0,0:0:0:0:
64,192,267160,1,0,0:0:0:0:
320,192,267230,1,0,0:0:0:0:
448,192,267300,1,0,0:0:0:0:
192,192,267300,1,0,0:0:0:0:
64,192,267300,1,0,0:0:0:0:
320,192,267369,1,0,0:0:0:0:
64,192,267439,1,0,0:0:0:0:
192,192,267439,1,0,0:0:0:0:
320,192,267508,1,0,0:0:0:0:
64,192,267577,1,0,0:0:0:0:
192,192,267577,1,0,0:0:0:0:
448,192,267577,1,0,0:0:0:0:
320,192,267647,1,0,0:0:0:0:
192,192,267716,5,0,0:0:0:0:
448,192,267716,1,0,0:0:0:0:
320,192,267785,1,0,0:0:0:0:
448,192,267855,1,0,0:0:0:0:
192,192,267855,1,0,0:0:0:0:
64,192,267855,1,0,0:0:0:0:
320,192,267925,1,0,0:0:0:0:
64,192,267994,1,0,0:0:0:0:
448,192,267994,1,0,0:0:0:0:
320,192,268064,1,0,0:0:0:0:
64,192,268133,1,0,0:0:0:0:
192,192,268133,1,0,0:0:0:0:
448,192,268133,1,0,0:0:0:0:
320,192,268202,1,0,0:0:0:0:
448,192,268272,1,0,0:0:0:0:
64,192,268272,1,0,0:0:0:0:
192,192,268341,1,0,0:0:0:0:
448,192,268410,1,0,0:0:0:0:
320,192,268410,1,0,0:0:0:0:
64,192,268410,1,0,0:0:0:0:
192,192,268480,1,0,0:0:0:0:
64,192,268550,1,0,0:0:0:0:
448,192,268550,1,0,0:0:0:0:
192,192,268619,1,0,0:0:0:0:
64,192,268689,128,0,268827:0:0:0:0:
320,192,268689,1,0,0:0:0:0:
448,192,268689,1,0,0:0:0:0:
192,192,268827,128,0,268966:0:0:0:0:
320,192,268966,128,0,269105:0:0:0:0:
448,192,268966,1,0,0:0:0:0:
448,192,269105,128,0,269244:0:0:0:0:
64,192,269244,128,0,269383:0:0:0:0:
192,192,269244,1,0,0:0:0:0:
192,192,269383,128,0,269522:0:0:0:0:
320,192,269522,128,0,269660:0:0:0:0:
448,192,269522,1,0,0:0:0:0:
448,192,269660,128,0,269800:0:0:0:0:
320,192,269800,128,0,269939:0:0:0:0:
64,192,269800,1,0,0:0:0:0:
64,192,269939,128,0,270077:0:0:0:0:
192,192,270077,128,0,270216:0:0:0:0:
320,192,270077,1,0,0:0:0:0:
320,192,270216,128,0,270355:0:0:0:0:
448,192,270355,128,0,270425:0:0:0:0:
64,192,270355,1,0,0:0:0:0:
448,192,270494,128,0,270564:0:0:0:0:
64,192,270633,128,0,270772:0:0:0:0:
320,192,270633,1,0,0:0:0:0:
192,192,270772,128,0,270910:0:0:0:0:
448,192,270910,128,0,271050:0:0:0:0:
64,192,270910,1,0,0:0:0:0:
320,192,271050,128,0,271189:0:0:0:0:
192,192,271189,128,0,271327:0:0:0:0:
448,192,271189,1,0,0:0:0:0:
64,192,271327,128,0,271466:0:0:0:0:
320,192,271466,128,0,271605:0:0:0:0:
192,192,271466,1,0,0:0:0:0:
192,192,271605,128,0,271744:0:0:0:0:
448,192,271744,128,0,271883:0:0:0:0:
320,192,271744,1,0,0:0:0:0:
320,192,271883,128,0,272022:0:0:0:0:
64,192,272022,128,0,272160:0:0:0:0:
192,192,272022,1,0,0:0:0:0:
192,192,272160,128,0,272300:0:0:0:0:
320,192,272300,128,0,272439:0:0:0:0:
448,192,272300,1,0,0:0:0:0:
448,192,272439,128,0,272577:0:0:0:0:
64,192,272577,128,0,272716:0:0:0:0:
192,192,272577,1,0,0:0:0:0:
448,192,272716,128,0,272855:0:0:0:0:
192,192,272855,128,0,272994:0:0:0:0:
320,192,272855,1,0,0:0:0:0:
448,192,272994,128,0,273133:0:0:0:0:
320,192,273133,128,0,273272:0:0:0:0:
64,192,273133,1,0,0:0:0:0:
448,192,273272,128,0,273410:0:0:0:0:
192,192,273410,128,0,273550:0:0:0:0:
320,192,273410,1,0,0:0:0:0:
448,192,273550,128,0,273689:0:0:0:0:
64,192,273689,128,0,273827:0:0:0:0:
192,192,273689,1,0,0:0:0:0:
448,192,273827,128,0,273966:0:0:0:0:
192,192,273966,128,0,274105:0:0:0:0:
320,192,273966,1,0,0:0:0:0:
448,192,274105,128,0,274244:0:0:0:0:
64,192,274244,128,0,274314:0:0:0:0:
320,192,274244,1,0,0:0:0:0:
64,192,274383,128,0,274522:0:0:0:0:
320,192,274522,128,0,274660:0:0:0:0:
448,192,274522,1,0,0:0:0:0:
64,192,274660,128,0,274800:0:0:0:0:
448,192,274800,128,0,274939:0:0:0:0:
192,192,274800,1,0,0:0:0:0:
192,192,274939,128,0,275077:0:0:0:0:
448,192,275077,128,0,275216:0:0:0:0:
320,192,275077,1,0,0:0:0:0:
64,192,275216,128,0,275355:0:0:0:0:
320,192,275355,128,0,275494:0:0:0:0:
192,192,275355,1,0,0:0:0:0:
64,192,275494,128,0,275633:0:0:0:0:
448,192,275633,128,0,275772:0:0:0:0:
320,192,275633,1,0,0:0:0:0:
192,192,275772,128,0,275910:0:0:0:0:
320,192,275910,128,0,276050:0:0:0:0:
64,192,275910,1,0,0:0:0:0:
64,192,276050,128,0,276189:0:0:0:0:
448,192,276189,128,0,276327:0:0:0:0:
320,192,276189,1,0,0:0:0:0:
192,192,276327,128,0,276466:0:0:0:0:
320,192,276466,128,0,276605:0:0:0:0:
64,192,276466,1,0,0:0:0:0:
64,192,276605,128,0,276744:0:0:0:0:
448,192,276744,128,0,276883:0:0:0:0:
320,192,276744,1,0,0:0:0:0:
192,192,276883,128,0,277022:0:0:0:0:
320,192,277022,128,0,277160:0:0:0:0:
64,192,277022,1,0,0:0:0:0:
64,192,277160,128,0,277300:0:0:0:0:
192,192,277300,128,0,277439:0:0:0:0:
320,192,277300,1,0,0:0:0:0:
448,192,277439,128,0,277577:0:0:0:0:
320,192,277577,128,0,277716:0:0:0:0:
64,192,277577,1,0,0:0:0:0:
64,192,277716,128,0,277855:0:0:0:0:
448,192,277855,128,0,277994:0:0:0:0:
320,192,277855,1,0,0:0:0:0:
192,192,277994,128,0,278133:0:0:0:0:
320,192,278133,128,0,278272:0:0:0:0:
64,192,278133,1,0,0:0:0:0:
64,192,278272,128,0,278410:0:0:0:0:
448,192,278410,128,0,278550:0:0:0:0:
192,192,278410,1,0,0:0:0:0:
192,192,278550,128,0,278689:0:0:0:0:
64,192,278689,128,0,279244:0:0:0:0:
320,192,278689,1,0,0:0:0:0:
448,192,278966,1,0,0:0:0:0:
448,192,279244,1,0,0:0:0:0:
192,192,279244,1,0,0:0:0:0:
320,192,279244,1,0,0:0:0:0:
320,192,279314,1,0,0:0:0:0:
192,192,279383,1,0,0:0:0:0:
64,192,279452,1,0,0:0:0:0:
192,192,279522,1,0,0:0:0:0:
448,192,279522,1,0,0:0:0:0:
320,192,279522,1,0,0:0:0:0:
64,192,279591,1,0,0:0:0:0:
192,192,279660,1,0,0:0:0:0:
320,192,279730,1,0,0:0:0:0:
192,192,279800,1,0,0:0:0:0:
448,192,279800,1,0,0:0:0:0:
64,192,279800,1,0,0:0:0:0:
320,192,279869,1,0,0:0:0:0:
192,192,279939,1,0,0:0:0:0:
64,192,280008,1,0,0:0:0:0:
448,192,280077,1,0,0:0:0:0:
320,192,280077,1,0,0:0:0:0:
192,192,280077,1,0,0:0:0:0:
64,192,280147,1,0,0:0:0:0:
320,192,280216,1,0,0:0:0:0:
192,192,280285,1,0,0:0:0:0:
448,192,280355,128,0,280772:0:0:0:0:
64,192,280355,1,0,0:0:0:0:
320,192,280355,1,0,0:0:0:0:
64,192,280910,1,0,0:0:0:0:
320,192,280910,1,0,0:0:0:0:
192,192,280980,1,0,0:0:0:0:
448,192,280980,1,0,0:0:0:0:
64,192,281050,1,0,0:0:0:0:
320,192,281050,1,0,0:0:0:0:
192,192,281119,1,0,0:0:0:0:
448,192,281119,1,0,0:0:0:0:
64,192,281189,1,0,0:0:0:0:
320,192,281189,1,0,0:0:0:0:
192,192,281258,1,0,0:0:0:0:
448,192,281258,1,0,0:0:0:0:
64,192,281327,1,0,0:0:0:0:
320,192,281327,1,0,0:0:0:0:
192,192,281397,1,0,0:0:0:0:
448,192,281397,1,0,0:0:0:0:
192,192,281466,1,0,0:0:0:0:
320,192,281466,1,0,0:0:0:0:
64,192,281466,1,0,0:0:0:0:
448,192,281466,1,0,0:0:0:0:
