osu file format v14

[General]
AudioFilename: audio.mp3
AudioLeadIn: 0
PreviewTime: 276088
Countdown: 0
SampleSet: Normal
StackLeniency: 0.4
Mode: 1
LetterboxInBreaks: 0
WidescreenStoryboard: 1

[Editor]
Bookmarks: 10345,22985,33077,43198,53287,63404,73509,83603,93246,93724,103770,113876,121455,123981,126507,134086,136613,146718,156823,177034,187139,197244,207349,217455,227560,230145,250297,270507,275560,285724,295770,305876,313455,315981,321034,323560
DistanceSpacing: 2.7
BeatDivisor: 6
GridSize: 32
TimelineZoom: 4.099999

[Metadata]
Title:Master Of Peace
TitleUnicode:Master Of Peace
Artist:Rhapsody Of Fire
ArtistUnicode:Rhapsody Of Fire
Creator:Chanci
Version:Raiden's Inner Oni
Source:
Tags:the eighth mountain symphonic power metal neoclassical english marathon itswinter silence player raiden
BeatmapID:2559827
BeatmapSetID:956155

[Difficulty]
HPDrainRate:4.4
CircleSize:2
OverallDifficulty:6.6
ApproachRate:10
SliderMultiplier:1.4
SliderTickRate:1

[Events]
//Background and Video events
0,0,"eighth.jpg",0,0
//Break Periods
//Storyboard Layer 0 (Background)
//Storyboard Layer 1 (Fail)
//Storyboard Layer 2 (Pass)
//Storyboard Layer 3 (Foreground)
//Storyboard Layer 4 (Overlay)
//Storyboard Sound Samples

[TimingPoints]
250,315.789473684211,4,1,0,60,1,0
250,-83.3333333333333,4,1,0,60,0,0
7828,-83.3333333333333,4,1,0,60,0,0
7986,-84.2082571248606,4,1,0,60,0,0
8144,-85.1016752264768,4,1,0,60,0,0
8302,-86.0143282668027,4,1,0,60,0,0
8460,-86.9466929825324,4,1,0,60,0,0
8618,-87.8995694679087,4,1,0,60,0,0
8776,-88.873484151636,4,1,0,60,0,0
8934,-89.8693030725416,4,1,0,60,0,0
9092,-90.887608383473,4,1,0,60,0,0
9250,-91.9293394325386,4,1,0,60,0,0
9328,-92.4592116187944,4,1,0,60,0,0
9407,-92.9951410038825,4,1,0,60,0,0
9486,-93.5374070121253,4,1,0,60,0,0
9565,-94.0860341513487,4,1,0,60,0,0
9644,-94.641135012204,4,1,0,60,0,0
9723,-95.2027342225269,4,1,0,60,0,0
9802,-95.7711299844084,4,1,0,60,0,0
9881,-96.3463535795561,4,1,0,60,0,0
9960,-96.9285287800188,4,1,0,60,0,0
10039,-97.5176872705287,4,1,0,60,0,0
10118,-98.114147962022,4,1,0,60,0,0
10197,-98.7179499835635,4,1,0,60,0,0
10276,-99.3292297117565,4,1,0,60,0,0
10355,-99.9481269221274,4,1,0,60,0,0
21642,-55.5555555555556,4,1,0,60,0,0
21800,-100,4,1,0,60,0,0
31986,-83.3333333333333,4,1,0,60,0,0
32302,-86.9304426063485,4,1,0,60,0,0
32618,-90.8521018633766,4,1,0,60,0,0
32934,-95.1444006568769,4,1,0,60,0,0
33092,-100,4,1,0,60,0,0
62302,-83.3333333333333,4,1,0,60,0,0
62618,-86.9304426063485,4,1,0,60,0,0
62934,-90.8521018633766,4,1,0,60,0,0
63250,-95.1444006568769,4,1,0,60,0,0
63407,-100,4,1,0,60,0,0
83460,-96.7741935796046,4,1,0,60,0,0
83539,-93.7500000000059,4,1,0,60,0,0
83618,-90.9090909090909,4,1,0,70,0,1
103197,-90.9090909090909,4,1,0,70,0,1
103276,-91.9540229885058,4,1,0,70,0,1
103355,-93.0232558139535,4,1,0,70,0,1
103434,-94.1176470588235,4,1,0,70,0,1
103513,-95.2380952380952,4,1,0,70,0,1
103592,-96.3855421686747,4,1,0,70,0,1
103671,-97.5609756097561,4,1,0,70,0,1
103750,-98.7654320987654,4,1,0,70,0,1
103828,-100,4,1,0,60,0,0
135565,-83.3333333333333,4,1,0,60,0,0
135881,-86.9304426063485,4,1,0,60,0,0
136197,-90.8521018633766,4,1,0,60,0,0
136513,-95.1444006568769,4,1,0,60,0,0
136671,-100,4,1,0,60,0,0
156250,-100,4,1,0,60,0,0
156328,-98.7654320987654,4,1,0,60,0,0
156407,-97.5609756097561,4,1,0,60,0,0
156486,-96.3855421686747,4,1,0,60,0,0
156565,-95.2380952380952,4,1,0,60,0,0
156644,-94.1176470588235,4,1,0,60,0,0
156723,-93.0232558139535,4,1,0,60,0,0
156802,-91.9540229885058,4,1,0,60,0,0
156881,-90.9090909090909,4,1,0,70,0,1
176459,-90.9090909090909,4,1,0,70,0,1
176538,-91.9540229885058,4,1,0,70,0,1
176617,-93.0232558139535,4,1,0,70,0,1
176696,-94.1176470588235,4,1,0,70,0,1
176775,-95.2380952380952,4,1,0,70,0,1
176854,-96.3855421686747,4,1,0,70,0,1
176933,-97.5609756097561,4,1,0,70,0,1
177012,-98.7654320987654,4,1,0,70,0,1
177092,-100,4,1,0,70,0,0
196907,-90.9090909090909,4,1,0,70,0,0
197065,-80,4,1,0,70,0,0
197222,-71.4285714285714,4,1,0,90,0,0
206302,-71.4285714285714,4,1,0,90,0,0
206381,-72.5388826545749,4,1,0,90,0,0
206460,-73.6842027700839,4,1,0,90,0,0
206539,-74.8663261746152,4,1,0,90,0,0
206618,-76.0869399811,4,1,0,90,0,0
206697,-77.3480748450911,4,1,0,90,0,0
206776,-78.6516588814633,4,1,0,90,0,0
206855,-80,4,1,0,90,0,0
206934,-81.3953772309455,4,1,0,90,0,0
207013,-82.8402268828134,4,1,0,90,0,0
207092,-84.3373697198481,4,1,0,90,0,0
207171,-85.8895494749572,4,1,0,90,0,0
207250,-87.5000109375014,4,1,0,90,0,0
207328,-89.1719404438444,4,1,0,90,0,0
207407,-90.9090909090909,4,1,0,70,0,1
214354,-90.9090909090909,4,1,0,70,0,1
214433,-91.9540229885058,4,1,0,70,0,1
214512,-93.0232558139535,4,1,0,70,0,1
214591,-94.1176470588235,4,1,0,70,0,1
214670,-95.2380952380952,4,1,0,70,0,1
214749,-96.3855421686747,4,1,0,70,0,1
214828,-97.5609756097561,4,1,0,70,0,1
214907,-98.7654320987654,4,1,0,70,0,1
214986,-100,4,1,0,70,0,0
216880,-100,4,1,0,70,0,0
216958,-98.7654320987654,4,1,0,70,0,0
217037,-97.5609756097561,4,1,0,70,0,0
217116,-96.3855421686747,4,1,0,70,0,0
217195,-95.2380952380952,4,1,0,70,0,0
217274,-94.1176470588235,4,1,0,70,0,0
217353,-93.0232558139535,4,1,0,70,0,0
217432,-91.9540229885058,4,1,0,70,0,0
217513,-90.9090909090909,4,1,0,70,0,1
224460,-90.9090909090909,4,1,0,70,0,1
224539,-91.9540229885058,4,1,0,70,0,1
224618,-93.0232558139535,4,1,0,70,0,1
224697,-94.1176470588235,4,1,0,70,0,1
224776,-95.2380952380952,4,1,0,70,0,1
224855,-96.3855421686747,4,1,0,70,0,1
224934,-97.5609756097561,4,1,0,70,0,1
225013,-98.7654320987654,4,1,0,70,0,1
225092,-100,4,1,0,70,0,0
228880,-111.111111111111,4,1,0,60,0,0
230143,-125,4,1,0,50,0,0
249722,-125,4,1,0,55,0,0
249801,-123.0964670083,4,1,0,55,0,0
249880,-121.250039406263,4,1,0,55,0,0
249959,-119.458185454055,4,1,0,55,0,0
250038,-117.71838231399,4,1,0,55,0,0
250117,-116.028663721086,4,1,0,55,0,0
250196,-114.38676682372,4,1,0,55,0,0
250275,-112.790689805301,4,1,0,55,0,0
250354,-111.238541039791,4,1,0,55,0,0
274039,-111.111111111111,4,1,0,55,0,0
274118,-110.497237569061,4,1,0,55,0,0
274197,-109.89010989011,4,1,0,55,0,0
274276,-109.289617486339,4,1,0,55,0,0
274355,-108.695652173913,4,1,0,55,0,0
274434,-108.108108108108,4,1,0,55,0,0
274513,-107.52688172043,4,1,0,55,0,0
274671,-106.382978723404,4,1,0,55,0,0
274750,-105.820105820106,4,1,0,55,0,0
274828,-105.263157894737,4,1,0,55,0,0
274907,-104.712041884817,4,1,0,55,0,0
274986,-104.166666666667,4,1,0,55,0,0
275065,-103.626943005181,4,1,0,55,0,0
275144,-103.092783505155,4,1,0,55,0,0
275223,-102.564102564103,4,1,0,55,0,0
275302,-102.040816326531,4,1,0,55,0,0
275381,-101.522842639594,4,1,0,55,0,0
275460,-101.010101010101,4,1,0,55,0,0
275618,-90.9090909090909,4,1,0,70,0,1
295196,-90.9090909090909,4,1,0,70,0,1
295275,-91.9540229885058,4,1,0,70,0,1
295354,-93.0232558139535,4,1,0,70,0,1
295433,-94.1176470588235,4,1,0,70,0,1
295512,-95.2380952380952,4,1,0,70,0,1
295591,-96.3855421686747,4,1,0,70,0,1
295670,-97.5609756097561,4,1,0,70,0,1
295749,-98.7654320987654,4,1,0,70,0,1
295828,-100,4,1,0,70,0,0
305301,-100,4,1,0,70,0,0
305379,-98.7654320987654,4,1,0,70,0,0
305458,-97.5609756097561,4,1,0,70,0,0
305537,-96.3855421686747,4,1,0,70,0,0
305616,-95.2380952380952,4,1,0,70,0,0
305695,-94.1176470588235,4,1,0,70,0,0
305774,-93.0232558139535,4,1,0,70,0,0
305853,-91.9540229885058,4,1,0,70,0,0
305934,-90.9090909090909,4,1,0,70,0,1
312880,-90.9090909090909,4,1,0,70,0,1
312959,-91.9540229885058,4,1,0,70,0,1
313038,-93.0232558139535,4,1,0,70,0,1
313117,-94.1176470588235,4,1,0,70,0,1
313196,-95.2380952380952,4,1,0,70,0,1
313275,-96.3855421686747,4,1,0,70,0,1
313354,-97.5609756097561,4,1,0,70,0,1
313433,-98.7654320987654,4,1,0,70,0,1
313513,-100,4,1,0,70,0,0
315406,-100,4,1,0,70,0,0
315484,-98.7654320987654,4,1,0,70,0,0
315563,-97.5609756097561,4,1,0,70,0,0
315642,-96.3855421686747,4,1,0,70,0,0
315721,-95.2380952380952,4,1,0,70,0,0
315800,-94.1176470588235,4,1,0,70,0,0
315879,-93.0232558139535,4,1,0,70,0,0
315958,-91.9540229885058,4,1,0,70,0,0
316039,-90.9090909090909,4,1,0,80,0,1
320460,-90.9090909090909,4,1,0,80,0,1
320513,-90.232592553826,4,1,0,80,0,1
320565,-89.5660079086785,4,1,0,80,0,1
320618,-88.9092787501489,4,1,0,80,0,1
320697,-87.9420075225593,4,1,0,80,0,1
320776,-86.9954805847836,4,1,0,80,0,1
320828,-86.3757760863481,4,1,0,80,0,1
320881,-85.7648379602034,4,1,0,80,0,1
320934,-85.1624089720301,4,1,0,80,0,1
320986,-84.568455627777,4,1,0,80,0,1
321039,-83.9826592605159,4,1,0,80,0,1
321092,-83.4049921223985,4,1,0,80,0,1
323618,-83.3333333333333,4,1,0,80,0,1
325750,-78.7401574803149,4,1,0,80,0,1
325907,-75.187969924812,4,1,0,80,0,1
326065,-71.4285714285714,4,1,0,80,0,1
326144,-71.4285714285714,4,1,0,80,0,0

[Colours]
Combo1 : 255,223,128
Combo2 : 128,255,128
Combo3 : 128,185,255
Combo4 : 248,135,152

[HitObjects]
256,192,250,5,12,0:0:0:0:
256,192,2144,5,8,0:0:0:0:
256,192,2223,5,8,0:0:0:0:
256,192,2302,5,0,0:0:0:0:
256,192,2381,5,8,0:0:0:0:
256,192,2460,5,8,0:0:0:0:
256,192,2539,5,8,0:0:0:0:
256,192,2618,5,0,0:0:0:0:
256,192,2697,5,0,0:0:0:0:
256,192,2776,5,12,0:0:0:0:
256,192,4513,5,0,0:0:0:0:
256,192,4592,5,0,0:0:0:0:
256,192,4671,5,0,0:0:0:0:
256,192,4986,5,12,0:0:0:0:
256,192,5302,5,12,0:0:0:0:
256,192,7197,5,8,0:0:0:0:
256,192,7276,5,8,0:0:0:0:
256,192,7355,5,0,0:0:0:0:
256,192,7434,5,8,0:0:0:0:
256,192,7513,5,8,0:0:0:0:
256,192,7592,5,0,0:0:0:0:
256,192,7671,5,0,0:0:0:0:
256,192,7750,5,8,0:0:0:0:
256,192,7828,5,4,0:0:0:0:
256,192,7986,1,8,0:0:0:0:
256,192,8144,1,8,0:0:0:0:
256,192,8302,1,4,0:0:0:0:
256,192,8460,1,8,0:0:0:0:
256,192,8618,1,8,0:0:0:0:
256,192,8776,1,4,0:0:0:0:
256,192,8934,1,8,0:0:0:0:
256,192,9092,1,4,0:0:0:0:
256,192,9250,1,8,0:0:0:0:
256,192,9328,1,8,0:0:0:0:
256,192,9407,1,8,0:0:0:0:
256,192,9486,1,8,0:0:0:0:
256,192,9565,1,0,0:0:0:0:
256,192,9644,1,0,0:0:0:0:
256,192,9723,1,8,0:0:0:0:
256,192,9802,1,8,0:0:0:0:
256,192,9881,1,8,0:0:0:0:
256,192,9960,1,8,0:0:0:0:
256,192,10039,1,0,0:0:0:0:
256,192,10118,1,8,0:0:0:0:
256,192,10197,1,0,0:0:0:0:
256,192,10276,1,0,0:0:0:0:
256,192,10355,1,8,0:0:0:0:
256,192,10434,5,8,0:0:0:0:
256,192,10513,5,8,0:0:0:0:
256,192,10592,5,8,0:0:0:0:
256,192,10671,5,0,0:0:0:0:
256,192,10750,5,0,0:0:0:0:
256,192,10828,5,8,0:0:0:0:
256,192,10907,5,8,0:0:0:0:
256,192,10986,5,0,0:0:0:0:
256,192,11065,5,0,0:0:0:0:
256,192,11144,5,0,0:0:0:0:
256,192,11223,5,0,0:0:0:0:
256,192,11302,5,8,0:0:0:0:
256,192,11381,5,8,0:0:0:0:
256,192,11460,5,8,0:0:0:0:
256,192,11539,5,0,0:0:0:0:
256,192,11618,5,0,0:0:0:0:
256,192,11697,5,0,0:0:0:0:
256,192,11776,5,8,0:0:0:0:
256,192,11855,5,0,0:0:0:0:
256,192,11934,5,0,0:0:0:0:
256,192,12013,5,0,0:0:0:0:
256,192,12092,5,0,0:0:0:0:
256,192,12171,5,0,0:0:0:0:
256,192,12250,5,8,0:0:0:0:
256,192,12328,5,0,0:0:0:0:
256,192,12407,5,8,0:0:0:0:
256,192,12486,5,8,0:0:0:0:
256,192,12565,5,0,0:0:0:0:
256,192,12644,5,0,0:0:0:0:
256,192,12723,5,8,0:0:0:0:
256,192,12802,5,0,0:0:0:0:
256,192,12881,5,8,0:0:0:0:
256,192,12960,5,8,0:0:0:0:
256,192,13039,5,8,0:0:0:0:
256,192,13118,5,8,0:0:0:0:
256,192,13197,5,0,0:0:0:0:
256,192,13276,5,0,0:0:0:0:
256,192,13355,5,8,0:0:0:0:
256,192,13434,5,8,0:0:0:0:
256,192,13513,5,0,0:0:0:0:
256,192,13592,5,0,0:0:0:0:
256,192,13671,5,0,0:0:0:0:
256,192,13750,5,0,0:0:0:0:
256,192,13828,5,8,0:0:0:0:
256,192,13907,5,8,0:0:0:0:
256,192,13986,5,8,0:0:0:0:
256,192,14065,5,8,0:0:0:0:
256,192,14144,5,0,0:0:0:0:
256,192,14223,5,0,0:0:0:0:
256,192,14302,5,8,0:0:0:0:
256,192,14381,5,0,0:0:0:0:
256,192,14460,5,0,0:0:0:0:
256,192,14539,5,0,0:0:0:0:
256,192,14618,5,0,0:0:0:0:
256,192,14697,5,0,0:0:0:0:
256,192,14776,5,8,0:0:0:0:
256,192,14855,5,0,0:0:0:0:
256,192,14934,5,0,0:0:0:0:
256,192,15013,5,0,0:0:0:0:
256,192,15092,5,8,0:0:0:0:
256,192,15171,5,8,0:0:0:0:
256,192,15250,5,8,0:0:0:0:
256,192,15328,5,0,0:0:0:0:
256,192,15407,5,8,0:0:0:0:
256,192,15486,5,8,0:0:0:0:
256,192,15565,5,8,0:0:0:0:
256,192,15644,5,8,0:0:0:0:
256,192,15723,5,0,0:0:0:0:
256,192,15802,5,0,0:0:0:0:
256,192,15881,5,8,0:0:0:0:
256,192,15960,5,8,0:0:0:0:
256,192,16039,5,0,0:0:0:0:
256,192,16118,5,0,0:0:0:0:
256,192,16197,5,0,0:0:0:0:
256,192,16276,5,0,0:0:0:0:
256,192,16355,5,8,0:0:0:0:
256,192,16434,5,8,0:0:0:0:
256,192,16513,5,8,0:0:0:0:
256,192,16592,5,0,0:0:0:0:
256,192,16671,5,0,0:0:0:0:
256,192,16750,5,0,0:0:0:0:
256,192,16828,5,8,0:0:0:0:
256,192,16907,5,0,0:0:0:0:
256,192,16986,5,0,0:0:0:0:
256,192,17065,5,0,0:0:0:0:
256,192,17144,5,0,0:0:0:0:
256,192,17223,5,0,0:0:0:0:
256,192,17302,5,8,0:0:0:0:
256,192,17381,5,8,0:0:0:0:
256,192,17460,5,8,0:0:0:0:
256,192,17539,5,8,0:0:0:0:
256,192,17618,5,0,0:0:0:0:
256,192,17697,5,0,0:0:0:0:
256,192,17776,5,0,0:0:0:0:
256,192,17855,5,0,0:0:0:0:
256,192,17934,5,12,0:0:0:0:
256,192,18092,5,8,0:0:0:0:
256,192,18250,5,8,0:0:0:0:
256,192,18407,5,4,0:0:0:0:
256,192,18565,5,8,0:0:0:0:
256,192,18723,5,8,0:0:0:0:
256,192,18881,5,4,0:0:0:0:
256,192,19039,5,8,0:0:0:0:
256,192,19197,5,4,0:0:0:0:
256,192,19355,5,8,0:0:0:0:
256,192,19513,5,8,0:0:0:0:
256,192,19671,5,4,0:0:0:0:
256,192,19828,5,8,0:0:0:0:
256,192,19986,5,8,0:0:0:0:
256,192,20144,5,4,0:0:0:0:
256,192,20302,5,8,0:0:0:0:
256,192,20460,5,4,0:0:0:0:
256,192,21723,5,4,0:0:0:0:
256,192,22986,5,8,0:0:0:0:
256,192,23065,5,8,0:0:0:0:
256,192,23144,5,8,0:0:0:0:
256,192,23223,5,8,0:0:0:0:
256,192,23302,5,0,0:0:0:0:
256,192,23381,5,0,0:0:0:0:
256,192,23460,5,0,0:0:0:0:
256,192,23539,5,0,0:0:0:0:
256,192,23618,5,8,0:0:0:0:
256,192,23697,5,0,0:0:0:0:
256,192,23776,5,0,0:0:0:0:
256,192,23855,5,0,0:0:0:0:
256,192,23934,5,8,0:0:0:0:
256,192,24013,5,0,0:0:0:0:
256,192,24092,5,0,0:0:0:0:
256,192,24171,5,0,0:0:0:0:
256,192,24250,5,8,0:0:0:0:
256,192,24328,5,8,0:0:0:0:
256,192,24407,5,8,0:0:0:0:
256,192,24486,5,8,0:0:0:0:
256,192,24565,5,0,0:0:0:0:
256,192,24644,5,0,0:0:0:0:
256,192,24723,5,0,0:0:0:0:
256,192,24802,5,0,0:0:0:0:
256,192,24881,5,8,0:0:0:0:
256,192,24960,5,8,0:0:0:0:
256,192,25039,5,0,0:0:0:0:
256,192,25118,5,0,0:0:0:0:
256,192,25197,5,8,0:0:0:0:
256,192,25276,5,0,0:0:0:0:
256,192,25355,5,0,0:0:0:0:
256,192,25434,5,0,0:0:0:0:
256,192,25513,5,8,0:0:0:0:
256,192,25592,5,8,0:0:0:0:
256,192,25671,5,8,0:0:0:0:
256,192,25750,5,8,0:0:0:0:
256,192,25828,5,0,0:0:0:0:
256,192,25907,5,0,0:0:0:0:
256,192,25986,5,0,0:0:0:0:
256,192,26065,5,0,0:0:0:0:
256,192,26144,5,8,0:0:0:0:
256,192,26223,5,0,0:0:0:0:
256,192,26302,5,0,0:0:0:0:
256,192,26381,5,0,0:0:0:0:
256,192,26460,5,8,0:0:0:0:
256,192,26539,5,0,0:0:0:0:
256,192,26618,5,0,0:0:0:0:
256,192,26697,5,0,0:0:0:0:
256,192,26776,5,8,0:0:0:0:
256,192,26855,5,8,0:0:0:0:
256,192,26934,5,0,0:0:0:0:
256,192,27013,5,0,0:0:0:0:
256,192,27092,5,8,0:0:0:0:
256,192,27171,5,0,0:0:0:0:
256,192,27250,5,0,0:0:0:0:
256,192,27328,5,0,0:0:0:0:
256,192,27407,5,8,0:0:0:0:
256,192,27486,5,8,0:0:0:0:
256,192,27565,5,0,0:0:0:0:
256,192,27644,5,0,0:0:0:0:
256,192,27723,5,8,0:0:0:0:
256,192,27802,5,0,0:0:0:0:
256,192,27881,5,0,0:0:0:0:
256,192,27960,5,0,0:0:0:0:
256,192,28039,5,8,0:0:0:0:
256,192,28118,5,8,0:0:0:0:
256,192,28197,5,0,0:0:0:0:
256,192,28276,5,0,0:0:0:0:
256,192,28355,5,0,0:0:0:0:
256,192,28434,5,0,0:0:0:0:
256,192,28513,5,8,0:0:0:0:
256,192,28592,5,8,0:0:0:0:
256,192,28671,5,0,0:0:0:0:
256,192,28750,5,0,0:0:0:0:
256,192,28828,5,0,0:0:0:0:
256,192,28907,5,0,0:0:0:0:
256,192,28986,5,8,0:0:0:0:
256,192,29065,5,0,0:0:0:0:
256,192,29144,5,0,0:0:0:0:
256,192,29223,5,0,0:0:0:0:
256,192,29302,5,8,0:0:0:0:
256,192,29381,5,8,0:0:0:0:
256,192,29460,5,8,0:0:0:0:
256,192,29539,5,8,0:0:0:0:
256,192,29618,5,0,0:0:0:0:
256,192,29697,5,0,0:0:0:0:
256,192,29776,5,8,0:0:0:0:
256,192,29855,5,0,0:0:0:0:
256,192,29934,5,8,0:0:0:0:
256,192,30013,5,8,0:0:0:0:
256,192,30092,5,8,0:0:0:0:
256,192,30171,5,0,0:0:0:0:
256,192,30250,5,8,0:0:0:0:
256,192,30328,5,8,0:0:0:0:
256,192,30407,5,0,0:0:0:0:
256,192,30486,5,0,0:0:0:0:
256,192,30565,5,8,0:0:0:0:
256,192,30881,5,8,0:0:0:0:
256,192,31197,5,0,0:0:0:0:
256,192,31355,5,0,0:0:0:0:
256,192,31513,5,8,0:0:0:0:
256,192,31671,5,0,0:0:0:0:
256,192,31750,5,0,0:0:0:0:
256,192,31828,5,0,0:0:0:0:
256,192,31986,5,12,0:0:0:0:
256,192,32302,1,12,0:0:0:0:
256,192,32618,1,12,0:0:0:0:
256,192,32934,1,12,0:0:0:0:
256,192,33092,5,8,0:0:0:0:
256,192,33171,5,8,0:0:0:0:
256,192,33250,5,8,0:0:0:0:
256,192,33328,5,8,0:0:0:0:
256,192,33407,5,0,0:0:0:0:
256,192,33486,5,0,0:0:0:0:
256,192,33565,5,0,0:0:0:0:
256,192,33644,5,0,0:0:0:0:
256,192,33723,5,8,0:0:0:0:
256,192,33802,5,0,0:0:0:0:
256,192,33881,5,0,0:0:0:0:
256,192,33960,5,0,0:0:0:0:
256,192,34039,5,8,0:0:0:0:
256,192,34118,5,0,0:0:0:0:
256,192,34197,5,0,0:0:0:0:
256,192,34276,5,0,0:0:0:0:
256,192,34355,5,8,0:0:0:0:
256,192,34434,5,8,0:0:0:0:
256,192,34513,5,8,0:0:0:0:
256,192,34592,5,8,0:0:0:0:
256,192,34671,5,0,0:0:0:0:
256,192,34750,5,0,0:0:0:0:
256,192,34828,5,0,0:0:0:0:
256,192,34907,5,0,0:0:0:0:
256,192,34986,5,8,0:0:0:0:
256,192,35065,5,8,0:0:0:0:
256,192,35144,5,0,0:0:0:0:
256,192,35223,5,0,0:0:0:0:
256,192,35302,5,8,0:0:0:0:
256,192,35381,5,0,0:0:0:0:
256,192,35460,5,0,0:0:0:0:
256,192,35539,5,0,0:0:0:0:
256,192,35618,5,8,0:0:0:0:
256,192,35697,5,8,0:0:0:0:
256,192,35776,5,8,0:0:0:0:
256,192,35855,5,8,0:0:0:0:
256,192,35934,5,0,0:0:0:0:
256,192,36013,5,0,0:0:0:0:
256,192,36092,5,0,0:0:0:0:
256,192,36171,5,0,0:0:0:0:
256,192,36250,5,8,0:0:0:0:
256,192,36328,5,0,0:0:0:0:
256,192,36407,5,0,0:0:0:0:
256,192,36486,5,0,0:0:0:0:
256,192,36565,5,8,0:0:0:0:
256,192,36644,5,0,0:0:0:0:
256,192,36723,5,0,0:0:0:0:
256,192,36802,5,0,0:0:0:0:
256,192,36881,5,8,0:0:0:0:
256,192,36960,5,8,0:0:0:0:
256,192,37039,5,0,0:0:0:0:
256,192,37118,5,0,0:0:0:0:
256,192,37197,5,8,0:0:0:0:
256,192,37276,5,0,0:0:0:0:
256,192,37355,5,0,0:0:0:0:
256,192,37434,5,0,0:0:0:0:
256,192,37513,5,8,0:0:0:0:
256,192,37592,5,8,0:0:0:0:
256,192,37671,5,0,0:0:0:0:
256,192,37750,5,0,0:0:0:0:
256,192,37828,5,8,0:0:0:0:
256,192,37907,5,0,0:0:0:0:
256,192,37986,5,0,0:0:0:0:
256,192,38065,5,0,0:0:0:0:
256,192,38144,5,8,0:0:0:0:
256,192,38223,5,8,0:0:0:0:
256,192,38302,5,8,0:0:0:0:
256,192,38381,5,8,0:0:0:0:
256,192,38460,5,0,0:0:0:0:
256,192,38539,5,0,0:0:0:0:
256,192,38618,5,0,0:0:0:0:
256,192,38697,5,0,0:0:0:0:
256,192,38776,5,8,0:0:0:0:
256,192,38855,5,8,0:0:0:0:
256,192,38934,5,8,0:0:0:0:
256,192,39013,5,8,0:0:0:0:
256,192,39092,5,0,0:0:0:0:
256,192,39171,5,0,0:0:0:0:
256,192,39250,5,0,0:0:0:0:
256,192,39328,5,0,0:0:0:0:
256,192,39407,5,8,0:0:0:0:
256,192,39486,5,8,0:0:0:0:
256,192,39565,5,8,0:0:0:0:
256,192,39644,5,0,0:0:0:0:
256,192,39723,5,8,0:0:0:0:
256,192,39802,5,8,0:0:0:0:
256,192,39881,5,0,0:0:0:0:
256,192,39960,5,0,0:0:0:0:
256,192,40039,5,8,0:0:0:0:
256,192,40118,5,8,0:0:0:0:
256,192,40197,5,8,0:0:0:0:
256,192,40276,5,0,0:0:0:0:
256,192,40355,5,8,0:0:0:0:
256,192,40434,5,8,0:0:0:0:
256,192,40513,5,0,0:0:0:0:
256,192,40592,5,0,0:0:0:0:
256,192,40671,5,8,0:0:0:0:
256,192,40750,5,0,0:0:0:0:
256,192,40828,5,0,0:0:0:0:
256,192,40907,5,0,0:0:0:0:
256,192,40986,5,8,0:0:0:0:
256,192,41065,5,8,0:0:0:0:
256,192,41144,5,0,0:0:0:0:
256,192,41223,5,0,0:0:0:0:
256,192,41302,5,8,0:0:0:0:
256,192,41381,5,0,0:0:0:0:
256,192,41460,5,0,0:0:0:0:
256,192,41539,5,0,0:0:0:0:
256,192,41618,5,8,0:0:0:0:
256,192,41697,5,8,0:0:0:0:
256,192,41776,5,0,0:0:0:0:
256,192,41855,5,0,0:0:0:0:
256,192,41934,5,8,0:0:0:0:
256,192,42013,5,0,0:0:0:0:
256,192,42092,5,0,0:0:0:0:
256,192,42171,5,0,0:0:0:0:
256,192,42250,5,8,0:0:0:0:
256,192,42328,5,0,0:0:0:0:
256,192,42407,5,0,0:0:0:0:
256,192,42486,5,0,0:0:0:0:
256,192,42565,5,8,0:0:0:0:
256,192,42644,5,8,0:0:0:0:
256,192,42723,5,8,0:0:0:0:
256,192,42802,5,8,0:0:0:0:
256,192,42881,5,0,0:0:0:0:
256,192,42960,5,0,0:0:0:0:
256,192,43039,5,0,0:0:0:0:
256,192,43118,5,0,0:0:0:0:
256,192,43197,5,8,0:0:0:0:
256,192,43355,5,0,0:0:0:0:
256,192,43513,5,8,0:0:0:0:
256,192,43671,5,0,0:0:0:0:
256,192,43828,5,0,0:0:0:0:
256,192,43986,5,0,0:0:0:0:
256,192,44144,5,8,0:0:0:0:
256,192,44302,5,8,0:0:0:0:
256,192,44460,5,0,0:0:0:0:
256,192,44618,5,8,0:0:0:0:
256,192,44776,5,8,0:0:0:0:
256,192,44934,5,0,0:0:0:0:
256,192,45013,5,0,0:0:0:0:
256,192,45092,5,8,0:0:0:0:
256,192,45250,5,0,0:0:0:0:
256,192,45407,5,8,0:0:0:0:
256,192,45565,5,8,0:0:0:0:
256,192,45723,5,0,0:0:0:0:
256,192,45881,5,0,0:0:0:0:
256,192,46039,5,8,0:0:0:0:
256,192,46197,5,0,0:0:0:0:
256,192,46355,5,0,0:0:0:0:
256,192,46513,5,0,0:0:0:0:
256,192,46671,5,8,0:0:0:0:
256,192,46828,5,8,0:0:0:0:
256,192,46986,5,0,0:0:0:0:
256,192,47144,5,8,0:0:0:0:
256,192,47302,5,8,0:0:0:0:
256,192,47460,5,0,0:0:0:0:
256,192,47539,5,0,0:0:0:0:
256,192,47618,5,0,0:0:0:0:
256,192,47776,5,0,0:0:0:0:
256,192,47934,5,8,0:0:0:0:
256,192,48092,5,0,0:0:0:0:
256,192,48250,5,8,0:0:0:0:
256,192,48407,5,0,0:0:0:0:
256,192,48565,5,8,0:0:0:0:
256,192,48723,5,8,0:0:0:0:
256,192,48881,5,8,0:0:0:0:
256,192,49039,5,0,0:0:0:0:
256,192,49197,5,8,0:0:0:0:
256,192,49355,5,8,0:0:0:0:
256,192,49513,5,0,0:0:0:0:
256,192,49671,5,8,0:0:0:0:
256,192,49828,5,8,0:0:0:0:
256,192,49986,5,0,0:0:0:0:
256,192,50065,5,0,0:0:0:0:
256,192,50144,5,0,0:0:0:0:
256,192,50302,5,0,0:0:0:0:
256,192,50460,5,8,0:0:0:0:
256,192,50618,5,0,0:0:0:0:
256,192,50776,5,8,0:0:0:0:
256,192,50934,5,8,0:0:0:0:
256,192,51092,5,8,0:0:0:0:
256,192,51250,5,0,0:0:0:0:
256,192,51407,5,0,0:0:0:0:
256,192,51565,5,8,0:0:0:0:
256,192,51723,5,8,0:0:0:0:
256,192,51881,5,0,0:0:0:0:
256,192,51960,5,0,0:0:0:0:
256,192,52039,5,8,0:0:0:0:
256,192,52197,5,0,0:0:0:0:
256,192,52355,5,8,0:0:0:0:
256,192,52513,5,0,0:0:0:0:
256,192,52671,5,8,0:0:0:0:
256,192,52750,5,8,0:0:0:0:
256,192,52828,5,0,0:0:0:0:
256,192,52907,5,0,0:0:0:0:
256,192,52986,5,8,0:0:0:0:
256,192,53065,5,0,0:0:0:0:
256,192,53144,5,8,0:0:0:0:
256,192,53223,5,0,0:0:0:0:
256,192,53302,5,8,0:0:0:0:
256,192,53381,5,8,0:0:0:0:
256,192,53460,5,8,0:0:0:0:
256,192,53539,5,8,0:0:0:0:
256,192,53618,5,0,0:0:0:0:
256,192,53697,5,0,0:0:0:0:
256,192,53776,5,0,0:0:0:0:
256,192,53855,5,0,0:0:0:0:
256,192,53934,5,8,0:0:0:0:
256,192,54013,5,0,0:0:0:0:
256,192,54092,5,0,0:0:0:0:
256,192,54171,5,0,0:0:0:0:
256,192,54250,5,8,0:0:0:0:
256,192,54328,5,0,0:0:0:0:
256,192,54407,5,0,0:0:0:0:
256,192,54486,5,0,0:0:0:0:
256,192,54565,5,8,0:0:0:0:
256,192,54644,5,8,0:0:0:0:
256,192,54723,5,8,0:0:0:0:
256,192,54802,5,8,0:0:0:0:
256,192,54881,5,0,0:0:0:0:
256,192,54960,5,0,0:0:0:0:
256,192,55039,5,0,0:0:0:0:
256,192,55118,5,0,0:0:0:0:
256,192,55197,5,8,0:0:0:0:
256,192,55276,5,8,0:0:0:0:
256,192,55355,5,0,0:0:0:0:
256,192,55434,5,0,0:0:0:0:
256,192,55513,5,8,0:0:0:0:
256,192,55592,5,0,0:0:0:0:
256,192,55671,5,0,0:0:0:0:
256,192,55750,5,0,0:0:0:0:
256,192,55828,5,8,0:0:0:0:
256,192,55907,5,8,0:0:0:0:
256,192,55986,5,8,0:0:0:0:
256,192,56065,5,8,0:0:0:0:
256,192,56144,5,0,0:0:0:0:
256,192,56223,5,0,0:0:0:0:
256,192,56302,5,0,0:0:0:0:
256,192,56381,5,0,0:0:0:0:
256,192,56460,5,8,0:0:0:0:
256,192,56539,5,0,0:0:0:0:
256,192,56618,5,0,0:0:0:0:
256,192,56697,5,0,0:0:0:0:
256,192,56776,5,8,0:0:0:0:
256,192,56855,5,0,0:0:0:0:
256,192,56934,5,0,0:0:0:0:
256,192,57013,5,0,0:0:0:0:
256,192,57092,5,8,0:0:0:0:
256,192,57171,5,8,0:0:0:0:
256,192,57250,5,0,0:0:0:0:
256,192,57328,5,0,0:0:0:0:
256,192,57407,5,8,0:0:0:0:
256,192,57486,5,0,0:0:0:0:
256,192,57565,5,0,0:0:0:0:
256,192,57644,5,0,0:0:0:0:
256,192,57723,5,8,0:0:0:0:
256,192,57802,5,8,0:0:0:0:
256,192,57881,5,0,0:0:0:0:
256,192,57960,5,0,0:0:0:0:
256,192,58039,5,8,0:0:0:0:
256,192,58118,5,0,0:0:0:0:
256,192,58197,5,0,0:0:0:0:
256,192,58276,5,0,0:0:0:0:
256,192,58355,5,8,0:0:0:0:
256,192,58434,5,8,0:0:0:0:
256,192,58513,5,8,0:0:0:0:
256,192,58592,5,8,0:0:0:0:
256,192,58671,5,0,0:0:0:0:
256,192,58750,5,0,0:0:0:0:
256,192,58828,5,8,0:0:0:0:
256,192,58907,5,8,0:0:0:0:
256,192,58986,5,0,0:0:0:0:
256,192,59065,5,0,0:0:0:0:
256,192,59144,5,0,0:0:0:0:
256,192,59223,5,0,0:0:0:0:
256,192,59302,5,8,0:0:0:0:
256,192,59381,5,8,0:0:0:0:
256,192,59460,5,0,0:0:0:0:
256,192,59539,5,0,0:0:0:0:
256,192,59618,5,8,0:0:0:0:
256,192,59697,5,8,0:0:0:0:
256,192,59776,5,8,0:0:0:0:
256,192,59855,5,8,0:0:0:0:
256,192,59934,5,0,0:0:0:0:
256,192,60013,5,0,0:0:0:0:
256,192,60092,5,8,0:0:0:0:
256,192,60171,5,8,0:0:0:0:
256,192,60250,5,0,0:0:0:0:
256,192,60328,5,0,0:0:0:0:
256,192,60407,5,8,0:0:0:0:
256,192,60486,5,0,0:0:0:0:
256,192,60565,5,8,0:0:0:0:
256,192,60644,5,8,0:0:0:0:
256,192,60723,5,0,0:0:0:0:
256,192,60802,5,0,0:0:0:0:
256,192,60881,5,8,0:0:0:0:
256,192,61197,5,8,0:0:0:0:
256,192,61513,5,0,0:0:0:0:
256,192,61671,5,0,0:0:0:0:
256,192,61828,5,8,0:0:0:0:
256,192,61986,5,0,0:0:0:0:
256,192,62065,5,0,0:0:0:0:
256,192,62144,5,0,0:0:0:0:
256,192,62302,5,12,0:0:0:0:
256,192,62618,1,12,0:0:0:0:
256,192,62934,1,12,0:0:0:0:
256,192,63250,1,12,0:0:0:0:
256,192,63407,5,8,0:0:0:0:
256,192,63486,5,8,0:0:0:0:
256,192,63565,5,8,0:0:0:0:
256,192,63644,5,8,0:0:0:0:
256,192,63723,5,0,0:0:0:0:
256,192,63802,5,0,0:0:0:0:
256,192,63881,5,8,0:0:0:0:
256,192,63960,5,8,0:0:0:0:
256,192,64039,5,8,0:0:0:0:
256,192,64118,5,8,0:0:0:0:
256,192,64197,5,0,0:0:0:0:
256,192,64276,5,0,0:0:0:0:
256,192,64355,5,8,0:0:0:0:
256,192,64434,5,0,0:0:0:0:
256,192,64513,5,0,0:0:0:0:
256,192,64592,5,0,0:0:0:0:
256,192,64671,5,8,0:0:0:0:
256,192,64750,5,8,0:0:0:0:
256,192,64828,5,8,0:0:0:0:
256,192,64907,5,8,0:0:0:0:
256,192,64986,5,0,0:0:0:0:
256,192,65065,5,0,0:0:0:0:
256,192,65144,5,8,0:0:0:0:
256,192,65223,5,8,0:0:0:0:
256,192,65302,5,8,0:0:0:0:
256,192,65381,5,8,0:0:0:0:
256,192,65460,5,0,0:0:0:0:
256,192,65539,5,0,0:0:0:0:
256,192,65618,5,8,0:0:0:0:
256,192,65697,5,0,0:0:0:0:
256,192,65776,5,0,0:0:0:0:
256,192,65855,5,0,0:0:0:0:
256,192,65934,5,8,0:0:0:0:
256,192,66013,5,8,0:0:0:0:
256,192,66092,5,8,0:0:0:0:
256,192,66171,5,8,0:0:0:0:
256,192,66250,5,0,0:0:0:0:
256,192,66328,5,0,0:0:0:0:
256,192,66407,5,8,0:0:0:0:
256,192,66486,5,8,0:0:0:0:
256,192,66565,5,8,0:0:0:0:
256,192,66644,5,8,0:0:0:0:
256,192,66723,5,0,0:0:0:0:
256,192,66802,5,0,0:0:0:0:
256,192,66881,5,8,0:0:0:0:
256,192,66960,5,0,0:0:0:0:
256,192,67039,5,0,0:0:0:0:
256,192,67118,5,0,0:0:0:0:
256,192,67197,5,8,0:0:0:0:
256,192,67276,5,8,0:0:0:0:
256,192,67355,5,0,0:0:0:0:
256,192,67434,5,0,0:0:0:0:
256,192,67513,5,8,0:0:0:0:
256,192,67592,5,0,0:0:0:0:
256,192,67671,5,0,0:0:0:0:
256,192,67750,5,0,0:0:0:0:
256,192,67828,5,8,0:0:0:0:
256,192,67907,5,8,0:0:0:0:
256,192,67986,5,0,0:0:0:0:
256,192,68065,5,0,0:0:0:0:
256,192,68144,5,8,0:0:0:0:
256,192,68223,5,0,0:0:0:0:
256,192,68302,5,0,0:0:0:0:
256,192,68381,5,0,0:0:0:0:
256,192,68460,5,8,0:0:0:0:
256,192,68539,5,8,0:0:0:0:
256,192,68618,5,8,0:0:0:0:
256,192,68697,5,8,0:0:0:0:
256,192,68776,5,0,0:0:0:0:
256,192,68855,5,0,0:0:0:0:
256,192,68934,5,0,0:0:0:0:
256,192,69013,5,0,0:0:0:0:
256,192,69092,5,8,0:0:0:0:
256,192,69171,5,8,0:0:0:0:
256,192,69250,5,0,0:0:0:0:
256,192,69328,5,0,0:0:0:0:
256,192,69407,5,8,0:0:0:0:
256,192,69486,5,0,0:0:0:0:
256,192,69565,5,0,0:0:0:0:
256,192,69644,5,0,0:0:0:0:
256,192,69723,5,8,0:0:0:0:
256,192,69802,5,8,0:0:0:0:
256,192,69881,5,8,0:0:0:0:
256,192,69960,5,8,0:0:0:0:
256,192,70039,5,0,0:0:0:0:
256,192,70118,5,0,0:0:0:0:
256,192,70197,5,0,0:0:0:0:
256,192,70276,5,0,0:0:0:0:
256,192,70355,5,8,0:0:0:0:
256,192,70434,5,8,0:0:0:0:
256,192,70513,5,8,0:0:0:0:
256,192,70592,5,8,0:0:0:0:
256,192,70671,5,0,0:0:0:0:
256,192,70750,5,0,0:0:0:0:
256,192,70828,5,0,0:0:0:0:
256,192,70907,5,0,0:0:0:0:
256,192,70986,5,8,0:0:0:0:
256,192,71065,5,8,0:0:0:0:
256,192,71144,5,8,0:0:0:0:
256,192,71223,5,0,0:0:0:0:
256,192,71302,5,8,0:0:0:0:
256,192,71381,5,8,0:0:0:0:
256,192,71460,5,0,0:0:0:0:
256,192,71539,5,0,0:0:0:0:
256,192,71618,5,8,0:0:0:0:
256,192,71697,5,0,0:0:0:0:
256,192,71776,5,0,0:0:0:0:
256,192,71855,5,0,0:0:0:0:
256,192,71934,5,8,0:0:0:0:
256,192,72013,5,8,0:0:0:0:
256,192,72092,5,0,0:0:0:0:
256,192,72171,5,0,0:0:0:0:
256,192,72250,5,8,0:0:0:0:
256,192,72328,5,0,0:0:0:0:
256,192,72407,5,0,0:0:0:0:
256,192,72486,5,0,0:0:0:0:
256,192,72565,5,8,0:0:0:0:
256,192,72644,5,8,0:0:0:0:
256,192,72723,5,0,0:0:0:0:
256,192,72802,5,0,0:0:0:0:
256,192,72881,5,8,0:0:0:0:
256,192,72960,5,0,0:0:0:0:
256,192,73039,5,8,0:0:0:0:
256,192,73118,5,8,0:0:0:0:
256,192,73197,5,0,0:0:0:0:
256,192,73276,5,0,0:0:0:0:
256,192,73355,5,0,0:0:0:0:
256,192,73434,5,0,0:0:0:0:
256,192,73513,5,8,0:0:0:0:
256,192,73671,5,0,0:0:0:0:
256,192,73828,5,8,0:0:0:0:
256,192,73986,5,0,0:0:0:0:
256,192,74144,5,0,0:0:0:0:
256,192,74302,5,0,0:0:0:0:
256,192,74460,5,8,0:0:0:0:
256,192,74618,5,8,0:0:0:0:
256,192,74776,5,0,0:0:0:0:
256,192,74934,5,8,0:0:0:0:
256,192,75092,5,8,0:0:0:0:
256,192,75250,5,0,0:0:0:0:
256,192,75328,5,0,0:0:0:0:
256,192,75407,5,8,0:0:0:0:
256,192,75565,5,0,0:0:0:0:
256,192,75723,5,8,0:0:0:0:
256,192,75881,5,8,0:0:0:0:
256,192,76039,5,0,0:0:0:0:
256,192,76197,5,0,0:0:0:0:
256,192,76355,5,8,0:0:0:0:
256,192,76513,5,0,0:0:0:0:
256,192,76671,5,0,0:0:0:0:
256,192,76828,5,0,0:0:0:0:
256,192,76986,5,8,0:0:0:0:
256,192,77144,5,8,0:0:0:0:
256,192,77302,5,0,0:0:0:0:
256,192,77460,5,8,0:0:0:0:
256,192,77618,5,8,0:0:0:0:
256,192,77776,5,0,0:0:0:0:
256,192,77855,5,0,0:0:0:0:
256,192,77934,5,0,0:0:0:0:
256,192,78092,5,0,0:0:0:0:
256,192,78250,5,8,0:0:0:0:
256,192,78407,5,0,0:0:0:0:
256,192,78565,5,8,0:0:0:0:
256,192,78723,5,0,0:0:0:0:
256,192,78881,5,8,0:0:0:0:
256,192,79039,5,8,0:0:0:0:
256,192,79197,5,8,0:0:0:0:
256,192,79355,5,0,0:0:0:0:
256,192,79513,5,8,0:0:0:0:
256,192,79671,5,8,0:0:0:0:
256,192,79828,5,0,0:0:0:0:
256,192,79986,5,8,0:0:0:0:
256,192,80144,5,8,0:0:0:0:
256,192,80302,5,0,0:0:0:0:
256,192,80381,5,0,0:0:0:0:
256,192,80460,5,0,0:0:0:0:
256,192,80618,5,0,0:0:0:0:
256,192,80776,5,8,0:0:0:0:
256,192,80934,5,0,0:0:0:0:
256,192,81092,5,8,0:0:0:0:
256,192,81250,5,8,0:0:0:0:
256,192,81407,5,8,0:0:0:0:
256,192,81565,5,0,0:0:0:0:
256,192,81723,5,0,0:0:0:0:
256,192,81881,5,8,0:0:0:0:
256,192,82039,5,8,0:0:0:0:
256,192,82197,5,0,0:0:0:0:
256,192,82250,5,0,0:0:0:0:
256,192,82302,5,0,0:0:0:0:
256,192,82355,5,8,0:0:0:0:
256,192,82513,5,0,0:0:0:0:
256,192,82828,5,0,0:0:0:0:
256,192,82907,5,0,0:0:0:0:
256,192,82986,5,8,0:0:0:0:
256,192,83065,5,0,0:0:0:0:
256,192,83144,5,8,0:0:0:0:
256,192,83223,5,8,0:0:0:0:
256,192,83302,5,0,0:0:0:0:
256,192,83460,5,8,0:0:0:0:
256,192,83539,5,8,0:0:0:0:
256,192,83618,5,0,0:0:0:0:
256,192,83697,5,0,0:0:0:0:
256,192,83776,5,0,0:0:0:0:
256,192,83855,5,0,0:0:0:0:
256,192,83934,5,8,0:0:0:0:
256,192,84013,5,0,0:0:0:0:
256,192,84092,5,0,0:0:0:0:
256,192,84171,5,0,0:0:0:0:
256,192,84250,5,8,0:0:0:0:
256,192,84328,5,8,0:0:0:0:
256,192,84407,5,8,0:0:0:0:
256,192,84486,5,8,0:0:0:0:
256,192,84565,5,0,0:0:0:0:
256,192,84644,5,0,0:0:0:0:
256,192,84723,5,0,0:0:0:0:
256,192,84802,5,0,0:0:0:0:
256,192,84881,5,8,0:0:0:0:
256,192,84960,5,8,0:0:0:0:
256,192,85039,5,8,0:0:0:0:
256,192,85118,5,8,0:0:0:0:
256,192,85197,5,0,0:0:0:0:
256,192,85276,5,0,0:0:0:0:
256,192,85355,5,0,0:0:0:0:
256,192,85434,5,0,0:0:0:0:
256,192,85513,5,8,0:0:0:0:
256,192,85592,5,8,0:0:0:0:
256,192,85671,5,8,0:0:0:0:
256,192,85750,5,0,0:0:0:0:
256,192,85828,5,8,0:0:0:0:
256,192,85907,5,8,0:0:0:0:
256,192,85986,5,0,0:0:0:0:
256,192,86065,5,0,0:0:0:0:
256,192,86144,5,8,0:0:0:0:
256,192,86223,5,8,0:0:0:0:
256,192,86302,5,8,0:0:0:0:
256,192,86381,5,8,0:0:0:0:
256,192,86460,5,8,0:0:0:0:
256,192,86539,5,8,0:0:0:0:
256,192,86618,5,0,0:0:0:0:
256,192,86697,5,0,0:0:0:0:
256,192,86776,5,0,0:0:0:0:
256,192,86855,5,0,0:0:0:0:
256,192,86934,5,0,0:0:0:0:
256,192,87013,5,0,0:0:0:0:
256,192,87092,5,8,0:0:0:0:
256,192,87171,5,8,0:0:0:0:
256,192,87250,5,0,0:0:0:0:
256,192,87328,5,0,0:0:0:0:
256,192,87407,5,8,0:0:0:0:
256,192,87486,5,8,0:0:0:0:
256,192,87565,5,8,0:0:0:0:
256,192,87644,5,0,0:0:0:0:
256,192,87723,5,8,0:0:0:0:
256,192,87802,5,8,0:0:0:0:
256,192,87881,5,8,0:0:0:0:
256,192,87960,5,8,0:0:0:0:
256,192,88039,5,0,0:0:0:0:
256,192,88118,5,0,0:0:0:0:
256,192,88197,5,0,0:0:0:0:
256,192,88276,5,0,0:0:0:0:
256,192,88355,5,8,0:0:0:0:
256,192,88434,5,8,0:0:0:0:
256,192,88513,5,0,0:0:0:0:
256,192,88592,5,0,0:0:0:0:
256,192,88671,5,8,0:0:0:0:
256,192,88750,5,8,0:0:0:0:
256,192,88828,5,8,0:0:0:0:
256,192,88907,5,8,0:0:0:0:
256,192,88986,5,0,0:0:0:0:
256,192,89065,5,0,0:0:0:0:
256,192,89144,5,0,0:0:0:0:
256,192,89223,5,0,0:0:0:0:
256,192,89302,5,8,0:0:0:0:
256,192,89381,5,8,0:0:0:0:
256,192,89460,5,0,0:0:0:0:
256,192,89539,5,0,0:0:0:0:
256,192,89618,5,0,0:0:0:0:
256,192,89697,5,0,0:0:0:0:
256,192,89776,5,0,0:0:0:0:
256,192,89855,5,0,0:0:0:0:
256,192,89934,5,8,0:0:0:0:
256,192,90013,5,8,0:0:0:0:
256,192,90092,5,8,0:0:0:0:
256,192,90171,5,8,0:0:0:0:
256,192,90250,5,0,0:0:0:0:
256,192,90328,5,0,0:0:0:0:
256,192,90407,5,0,0:0:0:0:
256,192,90486,5,0,0:0:0:0:
256,192,90565,5,8,0:0:0:0:
256,192,90644,5,0,0:0:0:0:
256,192,90723,5,0,0:0:0:0:
256,192,90802,5,0,0:0:0:0:
256,192,90881,5,8,0:0:0:0:
256,192,90960,5,8,0:0:0:0:
256,192,91039,5,0,0:0:0:0:
256,192,91118,5,0,0:0:0:0:
256,192,91197,5,8,0:0:0:0:
256,192,91276,5,8,0:0:0:0:
256,192,91355,5,8,0:0:0:0:
256,192,91434,5,0,0:0:0:0:
256,192,91513,5,8,0:0:0:0:
256,192,91592,5,8,0:0:0:0:
256,192,91671,5,0,0:0:0:0:
256,192,91750,5,0,0:0:0:0:
256,192,91828,5,0,0:0:0:0:
256,192,91907,5,0,0:0:0:0:
256,192,91986,5,0,0:0:0:0:
256,192,92065,5,0,0:0:0:0:
256,192,92144,5,8,0:0:0:0:
256,192,92223,5,8,0:0:0:0:
256,192,92302,5,0,0:0:0:0:
256,192,92381,5,0,0:0:0:0:
256,192,92460,5,8,0:0:0:0:
256,192,92539,5,0,0:0:0:0:
256,192,92618,5,0,0:0:0:0:
256,192,92697,5,0,0:0:0:0:
256,192,92776,5,8,0:0:0:0:
256,192,92855,5,8,0:0:0:0:
256,192,92934,5,0,0:0:0:0:
256,192,93013,5,0,0:0:0:0:
256,192,93092,5,8,0:0:0:0:
256,192,93171,5,0,0:0:0:0:
256,192,93250,5,8,0:0:0:0:
256,192,93328,5,8,0:0:0:0:
256,192,93407,5,0,0:0:0:0:
256,192,93486,5,0,0:0:0:0:
256,192,93565,5,8,0:0:0:0:
256,192,93644,5,8,0:0:0:0:
256,192,93723,5,0,0:0:0:0:
256,192,93802,5,0,0:0:0:0:
256,192,93881,5,0,0:0:0:0:
256,192,93960,5,0,0:0:0:0:
256,192,94039,5,8,0:0:0:0:
256,192,94118,5,0,0:0:0:0:
256,192,94197,5,0,0:0:0:0:
256,192,94276,5,0,0:0:0:0:
256,192,94355,5,8,0:0:0:0:
256,192,94434,5,8,0:0:0:0:
256,192,94513,5,8,0:0:0:0:
256,192,94592,5,8,0:0:0:0:
256,192,94671,5,0,0:0:0:0:
256,192,94750,5,0,0:0:0:0:
256,192,94828,5,0,0:0:0:0:
256,192,94907,5,0,0:0:0:0:
256,192,94986,5,8,0:0:0:0:
256,192,95065,5,8,0:0:0:0:
256,192,95144,5,8,0:0:0:0:
256,192,95223,5,8,0:0:0:0:
256,192,95302,5,0,0:0:0:0:
256,192,95381,5,0,0:0:0:0:
256,192,95460,5,0,0:0:0:0:
256,192,95539,5,0,0:0:0:0:
256,192,95618,5,8,0:0:0:0:
256,192,95697,5,8,0:0:0:0:
256,192,95776,5,8,0:0:0:0:
256,192,95855,5,0,0:0:0:0:
256,192,95934,5,8,0:0:0:0:
256,192,96013,5,0,0:0:0:0:
256,192,96092,5,8,0:0:0:0:
256,192,96171,5,8,0:0:0:0:
256,192,96250,5,0,0:0:0:0:
256,192,96328,5,0,0:0:0:0:
256,192,96407,5,0,0:0:0:0:
256,192,96486,5,0,0:0:0:0:
256,192,96565,5,8,0:0:0:0:
256,192,96644,5,8,0:0:0:0:
256,192,96723,5,8,0:0:0:0:
256,192,96802,5,0,0:0:0:0:
256,192,96881,5,8,0:0:0:0:
256,192,96960,5,0,0:0:0:0:
256,192,97039,5,0,0:0:0:0:
256,192,97118,5,0,0:0:0:0:
256,192,97197,5,8,0:0:0:0:
256,192,97276,5,8,0:0:0:0:
256,192,97355,5,0,0:0:0:0:
256,192,97434,5,0,0:0:0:0:
256,192,97513,5,8,0:0:0:0:
256,192,97592,5,8,0:0:0:0:
256,192,97671,5,8,0:0:0:0:
256,192,97750,5,8,0:0:0:0:
256,192,97828,5,0,0:0:0:0:
256,192,97907,5,0,0:0:0:0:
256,192,97986,5,0,0:0:0:0:
256,192,98065,5,0,0:0:0:0:
256,192,98144,5,8,0:0:0:0:
256,192,98223,5,8,0:0:0:0:
256,192,98302,5,8,0:0:0:0:
256,192,98381,5,0,0:0:0:0:
256,192,98460,5,8,0:0:0:0:
256,192,98539,5,8,0:0:0:0:
256,192,98618,5,8,0:0:0:0:
256,192,98697,5,0,0:0:0:0:
256,192,98776,5,8,0:0:0:0:
256,192,98855,5,8,0:0:0:0:
256,192,98934,5,0,0:0:0:0:
256,192,99013,5,0,0:0:0:0:
256,192,99092,5,8,0:0:0:0:
256,192,99171,5,8,0:0:0:0:
256,192,99250,5,0,0:0:0:0:
256,192,99328,5,0,0:0:0:0:
256,192,99407,5,0,0:0:0:0:
256,192,99486,5,0,0:0:0:0:
256,192,99565,5,0,0:0:0:0:
256,192,99644,5,0,0:0:0:0:
256,192,99723,5,8,0:0:0:0:
256,192,99802,5,8,0:0:0:0:
256,192,99881,5,0,0:0:0:0:
256,192,99960,5,0,0:0:0:0:
256,192,100039,5,8,0:0:0:0:
256,192,100118,5,8,0:0:0:0:
256,192,100197,5,8,0:0:0:0:
256,192,100276,5,0,0:0:0:0:
256,192,100355,5,8,0:0:0:0:
256,192,100434,5,0,0:0:0:0:
256,192,100513,5,8,0:0:0:0:
256,192,100592,5,8,0:0:0:0:
256,192,100671,5,0,0:0:0:0:
256,192,100750,5,0,0:0:0:0:
256,192,100828,5,0,0:0:0:0:
256,192,100907,5,0,0:0:0:0:
256,192,100986,5,8,0:0:0:0:
256,192,101065,5,8,0:0:0:0:
256,192,101144,5,0,0:0:0:0:
256,192,101223,5,0,0:0:0:0:
256,192,101302,5,8,0:0:0:0:
256,192,101381,5,8,0:0:0:0:
256,192,101460,5,8,0:0:0:0:
256,192,101539,5,0,0:0:0:0:
256,192,101618,5,8,0:0:0:0:
256,192,101697,5,8,0:0:0:0:
256,192,101776,5,0,0:0:0:0:
256,192,101855,5,0,0:0:0:0:
256,192,101934,5,8,0:0:0:0:
256,192,102013,5,0,0:0:0:0:
256,192,102092,5,0,0:0:0:0:
256,192,102171,5,0,0:0:0:0:
256,192,102250,5,8,0:0:0:0:
256,192,102328,5,8,0:0:0:0:
256,192,102407,5,8,0:0:0:0:
256,192,102486,5,8,0:0:0:0:
256,192,102565,5,0,0:0:0:0:
256,192,102644,5,0,0:0:0:0:
256,192,102723,5,0,0:0:0:0:
256,192,102802,5,0,0:0:0:0:
256,192,102881,5,8,0:0:0:0:
256,192,102960,5,0,0:0:0:0:
256,192,103039,5,0,0:0:0:0:
256,192,103118,5,0,0:0:0:0:
256,192,103197,5,8,0:0:0:0:
256,192,103276,1,8,0:0:0:0:
256,192,103355,1,8,0:0:0:0:
256,192,103434,1,8,0:0:0:0:
256,192,103513,1,0,0:0:0:0:
256,192,103592,1,8,0:0:0:0:
256,192,103671,1,0,0:0:0:0:
256,192,103750,1,0,0:0:0:0:
256,192,103828,1,12,0:0:0:0:
256,192,105092,5,4,0:0:0:0:
256,192,106355,5,12,0:0:0:0:
256,192,107618,5,4,0:0:0:0:
256,192,108881,5,4,0:0:0:0:
256,192,110144,5,12,0:0:0:0:
256,192,110776,5,4,0:0:0:0:
256,192,111407,5,12,0:0:0:0:
256,192,112671,5,4,0:0:0:0:
256,192,113302,5,12,0:0:0:0:
256,192,113460,5,0,0:0:0:0:
256,192,113618,5,8,0:0:0:0:
256,192,113697,5,8,0:0:0:0:
256,192,113776,5,8,0:0:0:0:
256,192,113855,5,0,0:0:0:0:
256,192,113934,5,8,0:0:0:0:
256,192,114013,5,8,0:0:0:0:
256,192,114092,5,8,0:0:0:0:
256,192,114171,5,8,0:0:0:0:
256,192,114250,5,0,0:0:0:0:
256,192,114328,5,0,0:0:0:0:
256,192,114407,5,8,0:0:0:0:
256,192,114486,5,8,0:0:0:0:
256,192,114565,5,0,0:0:0:0:
256,192,114644,5,0,0:0:0:0:
256,192,114723,5,0,0:0:0:0:
256,192,114802,5,0,0:0:0:0:
256,192,114881,5,8,0:0:0:0:
256,192,114960,5,8,0:0:0:0:
256,192,115039,5,8,0:0:0:0:
256,192,115118,5,0,0:0:0:0:
256,192,115197,5,0,0:0:0:0:
256,192,115276,5,0,0:0:0:0:
256,192,115355,5,8,0:0:0:0:
256,192,115434,5,0,0:0:0:0:
256,192,115513,5,0,0:0:0:0:
256,192,115592,5,0,0:0:0:0:
256,192,115671,5,0,0:0:0:0:
256,192,115750,5,0,0:0:0:0:
256,192,115828,5,8,0:0:0:0:
256,192,115907,5,0,0:0:0:0:
256,192,115986,5,8,0:0:0:0:
256,192,116065,5,8,0:0:0:0:
256,192,116144,5,0,0:0:0:0:
256,192,116223,5,0,0:0:0:0:
256,192,116302,5,8,0:0:0:0:
256,192,116381,5,0,0:0:0:0:
256,192,116460,5,8,0:0:0:0:
256,192,116539,5,8,0:0:0:0:
256,192,116618,5,8,0:0:0:0:
256,192,116697,5,8,0:0:0:0:
256,192,116776,5,0,0:0:0:0:
256,192,116855,5,0,0:0:0:0:
256,192,116934,5,8,0:0:0:0:
256,192,117013,5,8,0:0:0:0:
256,192,117092,5,0,0:0:0:0:
256,192,117171,5,0,0:0:0:0:
256,192,117250,5,0,0:0:0:0:
256,192,117328,5,0,0:0:0:0:
256,192,117407,5,8,0:0:0:0:
256,192,117486,5,8,0:0:0:0:
256,192,117565,5,8,0:0:0:0:
256,192,117644,5,8,0:0:0:0:
256,192,117723,5,0,0:0:0:0:
256,192,117802,5,0,0:0:0:0:
256,192,117881,5,8,0:0:0:0:
256,192,117960,5,0,0:0:0:0:
256,192,118039,5,0,0:0:0:0:
256,192,118118,5,0,0:0:0:0:
256,192,118197,5,0,0:0:0:0:
256,192,118276,5,0,0:0:0:0:
256,192,118355,5,8,0:0:0:0:
256,192,118434,5,0,0:0:0:0:
256,192,118513,5,0,0:0:0:0:
256,192,118592,5,0,0:0:0:0:
256,192,118671,5,8,0:0:0:0:
256,192,118750,5,8,0:0:0:0:
256,192,118828,5,8,0:0:0:0:
256,192,118907,5,0,0:0:0:0:
256,192,118986,5,8,0:0:0:0:
256,192,119065,5,8,0:0:0:0:
256,192,119144,5,8,0:0:0:0:
256,192,119223,5,8,0:0:0:0:
256,192,119302,5,0,0:0:0:0:
256,192,119381,5,0,0:0:0:0:
256,192,119460,5,8,0:0:0:0:
256,192,119539,5,8,0:0:0:0:
256,192,119618,5,0,0:0:0:0:
256,192,119697,5,0,0:0:0:0:
256,192,119776,5,0,0:0:0:0:
256,192,119855,5,0,0:0:0:0:
256,192,119934,5,8,0:0:0:0:
256,192,120013,5,8,0:0:0:0:
256,192,120092,5,8,0:0:0:0:
256,192,120171,5,0,0:0:0:0:
256,192,120250,5,0,0:0:0:0:
256,192,120328,5,0,0:0:0:0:
256,192,120407,5,8,0:0:0:0:
256,192,120486,5,0,0:0:0:0:
256,192,120565,5,0,0:0:0:0:
256,192,120644,5,0,0:0:0:0:
256,192,120723,5,0,0:0:0:0:
256,192,120802,5,0,0:0:0:0:
256,192,120881,5,8,0:0:0:0:
256,192,120960,5,8,0:0:0:0:
256,192,121039,5,8,0:0:0:0:
256,192,121118,5,8,0:0:0:0:
256,192,121197,5,0,0:0:0:0:
256,192,121276,5,0,0:0:0:0:
256,192,121355,5,0,0:0:0:0:
256,192,121434,5,0,0:0:0:0:
256,192,121513,5,12,0:0:0:0:
256,192,121671,5,8,0:0:0:0:
256,192,121828,5,8,0:0:0:0:
256,192,121986,5,4,0:0:0:0:
256,192,122144,5,8,0:0:0:0:
256,192,122302,5,8,0:0:0:0:
256,192,122460,5,4,0:0:0:0:
256,192,122618,5,8,0:0:0:0:
256,192,122776,5,4,0:0:0:0:
256,192,122934,5,8,0:0:0:0:
256,192,123092,5,8,0:0:0:0:
256,192,123250,5,4,0:0:0:0:
256,192,123407,5,8,0:0:0:0:
256,192,123565,5,8,0:0:0:0:
256,192,123723,5,4,0:0:0:0:
256,192,123881,5,8,0:0:0:0:
256,192,124039,5,12,0:0:0:0:
256,192,125302,5,4,0:0:0:0:
256,192,125934,5,0,0:0:0:0:
256,192,126092,5,8,0:0:0:0:
256,192,126250,5,8,0:0:0:0:
256,192,126328,5,8,0:0:0:0:
256,192,126407,5,8,0:0:0:0:
256,192,126486,5,0,0:0:0:0:
256,192,126565,5,8,0:0:0:0:
256,192,126644,5,8,0:0:0:0:
256,192,126723,5,8,0:0:0:0:
256,192,126802,5,8,0:0:0:0:
256,192,126881,5,0,0:0:0:0:
256,192,126960,5,0,0:0:0:0:
256,192,127039,5,0,0:0:0:0:
256,192,127118,5,0,0:0:0:0:
256,192,127197,5,8,0:0:0:0:
256,192,127276,5,0,0:0:0:0:
256,192,127355,5,0,0:0:0:0:
256,192,127434,5,0,0:0:0:0:
256,192,127513,5,8,0:0:0:0:
256,192,127592,5,0,0:0:0:0:
256,192,127671,5,0,0:0:0:0:
256,192,127750,5,0,0:0:0:0:
256,192,127828,5,8,0:0:0:0:
256,192,127907,5,8,0:0:0:0:
256,192,127986,5,8,0:0:0:0:
256,192,128065,5,8,0:0:0:0:
256,192,128144,5,0,0:0:0:0:
256,192,128223,5,0,0:0:0:0:
256,192,128302,5,0,0:0:0:0:
256,192,128381,5,0,0:0:0:0:
256,192,128460,5,8,0:0:0:0:
256,192,128539,5,8,0:0:0:0:
256,192,128618,5,0,0:0:0:0:
256,192,128697,5,0,0:0:0:0:
256,192,128776,5,8,0:0:0:0:
256,192,128855,5,0,0:0:0:0:
256,192,128934,5,0,0:0:0:0:
256,192,129013,5,0,0:0:0:0:
256,192,129092,5,8,0:0:0:0:
256,192,129171,5,8,0:0:0:0:
256,192,129250,5,8,0:0:0:0:
256,192,129328,5,8,0:0:0:0:
256,192,129407,5,0,0:0:0:0:
256,192,129486,5,0,0:0:0:0:
256,192,129565,5,8,0:0:0:0:
256,192,129644,5,8,0:0:0:0:
256,192,129723,5,8,0:0:0:0:
256,192,129802,5,8,0:0:0:0:
256,192,129881,5,0,0:0:0:0:
256,192,129960,5,0,0:0:0:0:
256,192,130039,5,8,0:0:0:0:
256,192,130118,5,0,0:0:0:0:
256,192,130197,5,0,0:0:0:0:
256,192,130276,5,0,0:0:0:0:
256,192,130355,5,8,0:0:0:0:
256,192,130434,5,8,0:0:0:0:
256,192,130513,5,0,0:0:0:0:
256,192,130592,5,0,0:0:0:0:
256,192,130671,5,8,0:0:0:0:
256,192,130750,5,0,0:0:0:0:
256,192,130828,5,0,0:0:0:0:
256,192,130907,5,0,0:0:0:0:
256,192,130986,5,8,0:0:0:0:
256,192,131065,5,8,0:0:0:0:
256,192,131144,5,0,0:0:0:0:
256,192,131223,5,0,0:0:0:0:
256,192,131302,5,8,0:0:0:0:
256,192,131381,5,0,0:0:0:0:
256,192,131460,5,0,0:0:0:0:
256,192,131539,5,0,0:0:0:0:
256,192,131618,5,8,0:0:0:0:
256,192,131697,5,8,0:0:0:0:
256,192,131776,5,8,0:0:0:0:
256,192,131855,5,8,0:0:0:0:
256,192,131934,5,0,0:0:0:0:
256,192,132013,5,0,0:0:0:0:
256,192,132092,5,8,0:0:0:0:
256,192,132171,5,8,0:0:0:0:
256,192,132250,5,0,0:0:0:0:
256,192,132328,5,0,0:0:0:0:
256,192,132407,5,0,0:0:0:0:
256,192,132486,5,0,0:0:0:0:
256,192,132565,5,8,0:0:0:0:
256,192,132644,5,8,0:0:0:0:
256,192,132723,5,0,0:0:0:0:
256,192,132802,5,0,0:0:0:0:
256,192,132881,5,8,0:0:0:0:
256,192,132960,5,8,0:0:0:0:
256,192,133039,5,8,0:0:0:0:
256,192,133118,5,8,0:0:0:0:
256,192,133197,5,0,0:0:0:0:
256,192,133276,5,0,0:0:0:0:
256,192,133355,5,8,0:0:0:0:
256,192,133434,5,8,0:0:0:0:
256,192,133513,5,0,0:0:0:0:
256,192,133592,5,0,0:0:0:0:
256,192,133671,5,8,0:0:0:0:
256,192,133750,5,0,0:0:0:0:
256,192,133828,5,8,0:0:0:0:
256,192,133907,5,8,0:0:0:0:
256,192,133986,5,0,0:0:0:0:
256,192,134065,5,0,0:0:0:0:
256,192,134144,5,8,0:0:0:0:
256,192,134302,5,0,0:0:0:0:
256,192,134460,5,8,0:0:0:0:
256,192,134618,5,0,0:0:0:0:
256,192,134776,5,0,0:0:0:0:
256,192,134934,5,0,0:0:0:0:
256,192,135092,5,8,0:0:0:0:
256,192,135250,5,0,0:0:0:0:
256,192,135328,5,0,0:0:0:0:
256,192,135407,5,0,0:0:0:0:
256,192,135565,5,12,0:0:0:0:
256,192,135881,1,12,0:0:0:0:
256,192,136197,1,12,0:0:0:0:
256,192,136513,1,12,0:0:0:0:
256,192,136671,5,8,0:0:0:0:
256,192,136750,5,8,0:0:0:0:
256,192,136828,5,8,0:0:0:0:
256,192,136907,5,8,0:0:0:0:
256,192,136986,5,0,0:0:0:0:
256,192,137065,5,0,0:0:0:0:
256,192,137144,5,8,0:0:0:0:
256,192,137223,5,8,0:0:0:0:
256,192,137302,5,8,0:0:0:0:
256,192,137381,5,8,0:0:0:0:
256,192,137460,5,0,0:0:0:0:
256,192,137539,5,0,0:0:0:0:
256,192,137618,5,8,0:0:0:0:
256,192,137697,5,0,0:0:0:0:
256,192,137776,5,0,0:0:0:0:
256,192,137855,5,0,0:0:0:0:
256,192,137934,5,8,0:0:0:0:
256,192,138013,5,8,0:0:0:0:
256,192,138092,5,8,0:0:0:0:
256,192,138171,5,8,0:0:0:0:
256,192,138250,5,0,0:0:0:0:
256,192,138328,5,0,0:0:0:0:
256,192,138407,5,8,0:0:0:0:
256,192,138486,5,8,0:0:0:0:
256,192,138565,5,8,0:0:0:0:
256,192,138644,5,8,0:0:0:0:
256,192,138723,5,0,0:0:0:0:
256,192,138802,5,0,0:0:0:0:
256,192,138881,5,8,0:0:0:0:
256,192,138960,5,0,0:0:0:0:
256,192,139039,5,0,0:0:0:0:
256,192,139118,5,0,0:0:0:0:
256,192,139197,5,8,0:0:0:0:
256,192,139276,5,8,0:0:0:0:
256,192,139355,5,0,0:0:0:0:
256,192,139434,5,0,0:0:0:0:
256,192,139513,5,8,0:0:0:0:
256,192,139592,5,0,0:0:0:0:
256,192,139671,5,8,0:0:0:0:
256,192,139750,5,8,0:0:0:0:
256,192,139828,5,0,0:0:0:0:
256,192,139907,5,0,0:0:0:0:
256,192,139986,5,0,0:0:0:0:
256,192,140065,5,0,0:0:0:0:
256,192,140144,5,8,0:0:0:0:
256,192,140223,5,0,0:0:0:0:
256,192,140302,5,0,0:0:0:0:
256,192,140381,5,0,0:0:0:0:
256,192,140460,5,8,0:0:0:0:
256,192,140539,5,8,0:0:0:0:
256,192,140618,5,0,0:0:0:0:
256,192,140697,5,0,0:0:0:0:
256,192,140776,5,8,0:0:0:0:
256,192,140855,5,0,0:0:0:0:
256,192,140934,5,0,0:0:0:0:
256,192,141013,5,0,0:0:0:0:
256,192,141092,5,8,0:0:0:0:
256,192,141171,5,8,0:0:0:0:
256,192,141250,5,0,0:0:0:0:
256,192,141328,5,0,0:0:0:0:
256,192,141407,5,8,0:0:0:0:
256,192,141486,5,0,0:0:0:0:
256,192,141565,5,0,0:0:0:0:
256,192,141644,5,0,0:0:0:0:
256,192,141723,5,8,0:0:0:0:
256,192,141802,5,8,0:0:0:0:
256,192,141881,5,8,0:0:0:0:
256,192,141960,5,8,0:0:0:0:
256,192,142039,5,0,0:0:0:0:
256,192,142118,5,0,0:0:0:0:
256,192,142197,5,0,0:0:0:0:
256,192,142276,5,0,0:0:0:0:
256,192,142355,5,8,0:0:0:0:
256,192,142434,5,8,0:0:0:0:
256,192,142513,5,8,0:0:0:0:
256,192,142592,5,8,0:0:0:0:
256,192,142671,5,0,0:0:0:0:
256,192,142750,5,0,0:0:0:0:
256,192,142828,5,0,0:0:0:0:
256,192,142907,5,0,0:0:0:0:
256,192,142986,5,8,0:0:0:0:
256,192,143065,5,8,0:0:0:0:
256,192,143144,5,8,0:0:0:0:
256,192,143223,5,8,0:0:0:0:
256,192,143302,5,8,0:0:0:0:
256,192,143381,5,8,0:0:0:0:
256,192,143460,5,0,0:0:0:0:
256,192,143539,5,0,0:0:0:0:
256,192,143618,5,8,0:0:0:0:
256,192,143697,5,8,0:0:0:0:
256,192,143776,5,8,0:0:0:0:
256,192,143855,5,8,0:0:0:0:
256,192,143934,5,0,0:0:0:0:
256,192,144013,5,0,0:0:0:0:
256,192,144092,5,0,0:0:0:0:
256,192,144171,5,0,0:0:0:0:
256,192,144250,5,8,0:0:0:0:
256,192,144328,5,8,0:0:0:0:
256,192,144407,5,8,0:0:0:0:
256,192,144486,5,0,0:0:0:0:
256,192,144565,5,8,0:0:0:0:
256,192,144644,5,8,0:0:0:0:
256,192,144723,5,0,0:0:0:0:
256,192,144802,5,0,0:0:0:0:
256,192,144881,5,8,0:0:0:0:
256,192,144960,5,0,0:0:0:0:
256,192,145039,5,0,0:0:0:0:
256,192,145118,5,0,0:0:0:0:
256,192,145197,5,8,0:0:0:0:
256,192,145276,5,8,0:0:0:0:
256,192,145355,5,0,0:0:0:0:
256,192,145434,5,0,0:0:0:0:
256,192,145513,5,8,0:0:0:0:
256,192,145592,5,0,0:0:0:0:
256,192,145671,5,0,0:0:0:0:
256,192,145750,5,0,0:0:0:0:
256,192,145828,5,8,0:0:0:0:
256,192,145907,5,8,0:0:0:0:
256,192,145986,5,0,0:0:0:0:
256,192,146065,5,0,0:0:0:0:
256,192,146144,5,8,0:0:0:0:
256,192,146223,5,8,0:0:0:0:
256,192,146381,5,8,0:0:0:0:
256,192,146460,5,0,0:0:0:0:
256,192,146539,5,0,0:0:0:0:
256,192,146618,5,8,0:0:0:0:
256,192,146697,5,0,0:0:0:0:
256,192,146776,5,12,0:0:0:0:
256,192,146934,5,0,0:0:0:0:
256,192,147092,5,8,0:0:0:0:
256,192,147250,5,0,0:0:0:0:
256,192,147407,5,0,0:0:0:0:
256,192,147565,5,0,0:0:0:0:
256,192,147723,5,8,0:0:0:0:
256,192,147881,5,8,0:0:0:0:
256,192,148039,5,0,0:0:0:0:
256,192,148197,5,8,0:0:0:0:
256,192,148355,5,8,0:0:0:0:
256,192,148513,5,0,0:0:0:0:
256,192,148592,5,0,0:0:0:0:
256,192,148671,5,8,0:0:0:0:
256,192,148828,5,0,0:0:0:0:
256,192,148986,5,8,0:0:0:0:
256,192,149144,5,8,0:0:0:0:
256,192,149302,5,0,0:0:0:0:
256,192,149460,5,0,0:0:0:0:
256,192,149618,5,8,0:0:0:0:
256,192,149776,5,0,0:0:0:0:
256,192,149934,5,0,0:0:0:0:
256,192,150092,5,0,0:0:0:0:
256,192,150250,5,8,0:0:0:0:
256,192,150407,5,8,0:0:0:0:
256,192,150565,5,0,0:0:0:0:
256,192,150723,5,8,0:0:0:0:
256,192,150881,5,8,0:0:0:0:
256,192,151039,5,0,0:0:0:0:
256,192,151118,5,0,0:0:0:0:
256,192,151197,5,0,0:0:0:0:
256,192,151355,5,0,0:0:0:0:
256,192,151513,5,8,0:0:0:0:
256,192,151671,5,0,0:0:0:0:
256,192,151828,5,8,0:0:0:0:
256,192,151986,5,0,0:0:0:0:
256,192,152144,5,8,0:0:0:0:
256,192,152302,5,8,0:0:0:0:
256,192,152460,5,8,0:0:0:0:
256,192,152618,5,0,0:0:0:0:
256,192,152776,5,8,0:0:0:0:
256,192,152934,5,8,0:0:0:0:
256,192,153092,5,0,0:0:0:0:
256,192,153250,5,8,0:0:0:0:
256,192,153407,5,8,0:0:0:0:
256,192,153565,5,0,0:0:0:0:
256,192,153644,5,0,0:0:0:0:
256,192,153723,5,0,0:0:0:0:
256,192,153881,5,0,0:0:0:0:
256,192,154039,5,8,0:0:0:0:
256,192,154197,5,0,0:0:0:0:
256,192,154355,5,8,0:0:0:0:
256,192,154513,5,8,0:0:0:0:
256,192,154671,5,8,0:0:0:0:
256,192,154828,5,0,0:0:0:0:
256,192,154986,5,0,0:0:0:0:
256,192,155144,5,8,0:0:0:0:
256,192,155302,5,8,0:0:0:0:
256,192,155460,5,0,0:0:0:0:
256,192,155513,5,0,0:0:0:0:
256,192,155565,5,0,0:0:0:0:
256,192,155618,5,8,0:0:0:0:
256,192,155776,5,0,0:0:0:0:
256,192,155934,5,8,0:0:0:0:
256,192,156092,5,0,0:0:0:0:
256,192,156250,5,8,0:0:0:0:
256,192,156328,1,0,0:0:0:0:
256,192,156407,1,8,0:0:0:0:
256,192,156486,1,8,0:0:0:0:
256,192,156565,1,0,0:0:0:0:
256,192,156644,1,0,0:0:0:0:
256,192,156723,1,8,0:0:0:0:
256,192,156802,1,8,0:0:0:0:
256,192,156881,1,0,0:0:0:0:
256,192,156960,5,0,0:0:0:0:
256,192,157039,5,0,0:0:0:0:
256,192,157118,5,0,0:0:0:0:
256,192,157197,5,8,0:0:0:0:
256,192,157276,5,0,0:0:0:0:
256,192,157355,5,0,0:0:0:0:
256,192,157434,5,0,0:0:0:0:
256,192,157513,5,8,0:0:0:0:
256,192,157592,5,8,0:0:0:0:
256,192,157671,5,8,0:0:0:0:
256,192,157750,5,8,0:0:0:0:
256,192,157828,5,0,0:0:0:0:
256,192,157907,5,0,0:0:0:0:
256,192,157986,5,0,0:0:0:0:
256,192,158065,5,0,0:0:0:0:
256,192,158144,5,8,0:0:0:0:
256,192,158223,5,8,0:0:0:0:
256,192,158302,5,8,0:0:0:0:
256,192,158381,5,8,0:0:0:0:
256,192,158460,5,0,0:0:0:0:
256,192,158539,5,0,0:0:0:0:
256,192,158618,5,0,0:0:0:0:
256,192,158697,5,0,0:0:0:0:
256,192,158776,5,8,0:0:0:0:
256,192,158855,5,8,0:0:0:0:
256,192,158934,5,8,0:0:0:0:
256,192,159013,5,0,0:0:0:0:
256,192,159092,5,8,0:0:0:0:
256,192,159171,5,8,0:0:0:0:
256,192,159250,5,0,0:0:0:0:
256,192,159328,5,0,0:0:0:0:
256,192,159407,5,8,0:0:0:0:
256,192,159486,5,8,0:0:0:0:
256,192,159565,5,8,0:0:0:0:
256,192,159644,5,8,0:0:0:0:
256,192,159723,5,8,0:0:0:0:
256,192,159802,5,8,0:0:0:0:
256,192,159881,5,0,0:0:0:0:
256,192,159960,5,0,0:0:0:0:
256,192,160039,5,0,0:0:0:0:
256,192,160118,5,0,0:0:0:0:
256,192,160197,5,0,0:0:0:0:
256,192,160276,5,0,0:0:0:0:
256,192,160355,5,8,0:0:0:0:
256,192,160434,5,8,0:0:0:0:
256,192,160513,5,0,0:0:0:0:
256,192,160592,5,0,0:0:0:0:
256,192,160671,5,8,0:0:0:0:
256,192,160750,5,8,0:0:0:0:
256,192,160828,5,8,0:0:0:0:
256,192,160907,5,0,0:0:0:0:
256,192,160986,5,8,0:0:0:0:
256,192,161065,5,8,0:0:0:0:
256,192,161144,5,8,0:0:0:0:
256,192,161223,5,8,0:0:0:0:
256,192,161302,5,0,0:0:0:0:
256,192,161381,5,0,0:0:0:0:
256,192,161460,5,0,0:0:0:0:
256,192,161539,5,0,0:0:0:0:
256,192,161618,5,8,0:0:0:0:
256,192,161697,5,8,0:0:0:0:
256,192,161776,5,0,0:0:0:0:
256,192,161855,5,0,0:0:0:0:
256,192,161934,5,8,0:0:0:0:
256,192,162013,5,8,0:0:0:0:
256,192,162092,5,8,0:0:0:0:
256,192,162171,5,8,0:0:0:0:
256,192,162250,5,0,0:0:0:0:
256,192,162328,5,0,0:0:0:0:
256,192,162407,5,0,0:0:0:0:
256,192,162486,5,0,0:0:0:0:
256,192,162565,5,8,0:0:0:0:
256,192,162644,5,8,0:0:0:0:
256,192,162723,5,0,0:0:0:0:
256,192,162802,5,0,0:0:0:0:
256,192,162881,5,0,0:0:0:0:
256,192,162960,5,0,0:0:0:0:
256,192,163039,5,0,0:0:0:0:
256,192,163118,5,0,0:0:0:0:
256,192,163197,5,8,0:0:0:0:
256,192,163276,5,8,0:0:0:0:
256,192,163355,5,8,0:0:0:0:
256,192,163434,5,8,0:0:0:0:
256,192,163513,5,0,0:0:0:0:
256,192,163592,5,0,0:0:0:0:
256,192,163671,5,0,0:0:0:0:
256,192,163750,5,0,0:0:0:0:
256,192,163828,5,8,0:0:0:0:
256,192,163907,5,0,0:0:0:0:
256,192,163986,5,0,0:0:0:0:
256,192,164065,5,0,0:0:0:0:
256,192,164144,5,8,0:0:0:0:
256,192,164223,5,8,0:0:0:0:
256,192,164302,5,0,0:0:0:0:
256,192,164381,5,0,0:0:0:0:
256,192,164460,5,8,0:0:0:0:
256,192,164539,5,8,0:0:0:0:
256,192,164618,5,8,0:0:0:0:
256,192,164697,5,0,0:0:0:0:
256,192,164776,5,8,0:0:0:0:
256,192,164855,5,8,0:0:0:0:
256,192,164934,5,0,0:0:0:0:
256,192,165013,5,0,0:0:0:0:
256,192,165092,5,0,0:0:0:0:
256,192,165171,5,0,0:0:0:0:
256,192,165250,5,0,0:0:0:0:
256,192,165328,5,0,0:0:0:0:
256,192,165407,5,8,0:0:0:0:
256,192,165486,5,8,0:0:0:0:
256,192,165565,5,0,0:0:0:0:
256,192,165644,5,0,0:0:0:0:
256,192,165723,5,8,0:0:0:0:
256,192,165802,5,0,0:0:0:0:
256,192,165881,5,0,0:0:0:0:
256,192,165960,5,0,0:0:0:0:
256,192,166039,5,8,0:0:0:0:
256,192,166118,5,8,0:0:0:0:
256,192,166197,5,0,0:0:0:0:
256,192,166276,5,0,0:0:0:0:
256,192,166355,5,8,0:0:0:0:
256,192,166434,5,0,0:0:0:0:
256,192,166513,5,8,0:0:0:0:
256,192,166592,5,8,0:0:0:0:
256,192,166671,5,0,0:0:0:0:
256,192,166750,5,0,0:0:0:0:
256,192,166828,5,8,0:0:0:0:
256,192,166907,5,8,0:0:0:0:
256,192,166986,5,0,0:0:0:0:
256,192,167065,5,0,0:0:0:0:
256,192,167144,5,0,0:0:0:0:
256,192,167223,5,0,0:0:0:0:
256,192,167302,5,8,0:0:0:0:
256,192,167381,5,0,0:0:0:0:
256,192,167460,5,0,0:0:0:0:
256,192,167539,5,0,0:0:0:0:
256,192,167618,5,8,0:0:0:0:
256,192,167697,5,8,0:0:0:0:
256,192,167776,5,8,0:0:0:0:
256,192,167855,5,8,0:0:0:0:
256,192,167934,5,0,0:0:0:0:
256,192,168013,5,0,0:0:0:0:
256,192,168092,5,0,0:0:0:0:
256,192,168171,5,0,0:0:0:0:
256,192,168250,5,8,0:0:0:0:
256,192,168328,5,8,0:0:0:0:
256,192,168407,5,8,0:0:0:0:
256,192,168486,5,8,0:0:0:0:
256,192,168565,5,0,0:0:0:0:
256,192,168644,5,0,0:0:0:0:
256,192,168723,5,0,0:0:0:0:
256,192,168802,5,0,0:0:0:0:
256,192,168881,5,8,0:0:0:0:
256,192,168960,5,8,0:0:0:0:
256,192,169039,5,8,0:0:0:0:
256,192,169118,5,0,0:0:0:0:
256,192,169197,5,8,0:0:0:0:
256,192,169276,5,0,0:0:0:0:
256,192,169355,5,8,0:0:0:0:
256,192,169434,5,8,0:0:0:0:
256,192,169513,5,0,0:0:0:0:
256,192,169592,5,0,0:0:0:0:
256,192,169671,5,0,0:0:0:0:
256,192,169750,5,0,0:0:0:0:
256,192,169828,5,8,0:0:0:0:
256,192,169907,5,8,0:0:0:0:
256,192,169986,5,8,0:0:0:0:
256,192,170065,5,0,0:0:0:0:
256,192,170144,5,8,0:0:0:0:
256,192,170223,5,0,0:0:0:0:
256,192,170302,5,0,0:0:0:0:
256,192,170381,5,0,0:0:0:0:
256,192,170460,5,8,0:0:0:0:
256,192,170539,5,8,0:0:0:0:
256,192,170618,5,0,0:0:0:0:
256,192,170697,5,0,0:0:0:0:
256,192,170776,5,8,0:0:0:0:
256,192,170855,5,8,0:0:0:0:
256,192,170934,5,8,0:0:0:0:
256,192,171013,5,8,0:0:0:0:
256,192,171092,5,0,0:0:0:0:
256,192,171171,5,0,0:0:0:0:
256,192,171250,5,0,0:0:0:0:
256,192,171328,5,0,0:0:0:0:
256,192,171407,5,8,0:0:0:0:
256,192,171486,5,8,0:0:0:0:
256,192,171565,5,8,0:0:0:0:
256,192,171644,5,0,0:0:0:0:
256,192,171723,5,8,0:0:0:0:
256,192,171802,5,8,0:0:0:0:
256,192,171881,5,8,0:0:0:0:
256,192,171960,5,0,0:0:0:0:
256,192,172039,5,8,0:0:0:0:
256,192,172118,5,8,0:0:0:0:
256,192,172197,5,0,0:0:0:0:
256,192,172276,5,0,0:0:0:0:
256,192,172355,5,8,0:0:0:0:
256,192,172434,5,8,0:0:0:0:
256,192,172513,5,0,0:0:0:0:
256,192,172592,5,0,0:0:0:0:
256,192,172671,5,0,0:0:0:0:
256,192,172750,5,0,0:0:0:0:
256,192,172828,5,0,0:0:0:0:
256,192,172907,5,0,0:0:0:0:
256,192,172986,5,8,0:0:0:0:
256,192,173065,5,8,0:0:0:0:
256,192,173144,5,0,0:0:0:0:
256,192,173223,5,0,0:0:0:0:
256,192,173302,5,8,0:0:0:0:
256,192,173381,5,8,0:0:0:0:
256,192,173460,5,8,0:0:0:0:
256,192,173539,5,0,0:0:0:0:
256,192,173618,5,8,0:0:0:0:
256,192,173697,5,0,0:0:0:0:
256,192,173776,5,8,0:0:0:0:
256,192,173855,5,8,0:0:0:0:
256,192,173934,5,0,0:0:0:0:
256,192,174013,5,0,0:0:0:0:
256,192,174092,5,0,0:0:0:0:
256,192,174171,5,0,0:0:0:0:
256,192,174250,5,8,0:0:0:0:
256,192,174328,5,8,0:0:0:0:
256,192,174407,5,0,0:0:0:0:
256,192,174486,5,0,0:0:0:0:
256,192,174565,5,8,0:0:0:0:
256,192,174644,5,8,0:0:0:0:
256,192,174723,5,8,0:0:0:0:
256,192,174802,5,0,0:0:0:0:
256,192,174881,5,8,0:0:0:0:
256,192,174960,5,8,0:0:0:0:
256,192,175039,5,0,0:0:0:0:
256,192,175118,5,0,0:0:0:0:
256,192,175197,5,8,0:0:0:0:
256,192,175276,5,0,0:0:0:0:
256,192,175355,5,0,0:0:0:0:
256,192,175434,5,0,0:0:0:0:
256,192,175513,5,8,0:0:0:0:
256,192,175592,5,8,0:0:0:0:
256,192,175671,5,8,0:0:0:0:
256,192,175750,5,8,0:0:0:0:
256,192,175828,5,0,0:0:0:0:
256,192,175907,5,0,0:0:0:0:
256,192,175986,5,0,0:0:0:0:
256,192,176065,5,0,0:0:0:0:
256,192,176144,5,8,0:0:0:0:
256,192,176223,5,0,0:0:0:0:
256,192,176302,5,0,0:0:0:0:
256,192,176381,5,0,0:0:0:0:
256,192,176460,5,8,0:0:0:0:
256,192,176539,1,8,0:0:0:0:
256,192,176618,1,8,0:0:0:0:
256,192,176697,1,8,0:0:0:0:
256,192,176776,1,0,0:0:0:0:
256,192,176855,1,8,0:0:0:0:
256,192,176934,1,0,0:0:0:0:
256,192,177013,1,0,0:0:0:0:
256,192,177092,1,12,0:0:0:0:
256,192,178355,5,4,0:0:0:0:
256,192,179618,5,12,0:0:0:0:
256,192,180881,5,4,0:0:0:0:
256,192,182144,5,12,0:0:0:0:
256,192,183407,5,12,0:0:0:0:
256,192,184039,5,4,0:0:0:0:
256,192,184671,5,12,0:0:0:0:
256,192,185934,5,4,0:0:0:0:
256,192,186565,5,12,0:0:0:0:
256,192,186723,5,0,0:0:0:0:
256,192,186881,5,8,0:0:0:0:
256,192,186960,5,8,0:0:0:0:
256,192,187039,5,8,0:0:0:0:
256,192,187118,5,0,0:0:0:0:
256,192,187197,5,8,0:0:0:0:
256,192,187276,5,8,0:0:0:0:
256,192,187355,5,8,0:0:0:0:
256,192,187434,5,8,0:0:0:0:
256,192,187513,5,0,0:0:0:0:
256,192,187592,5,0,0:0:0:0:
256,192,187671,5,8,0:0:0:0:
256,192,187750,5,8,0:0:0:0:
256,192,187828,5,0,0:0:0:0:
256,192,187907,5,0,0:0:0:0:
256,192,187986,5,0,0:0:0:0:
256,192,188065,5,0,0:0:0:0:
256,192,188144,5,8,0:0:0:0:
256,192,188223,5,8,0:0:0:0:
256,192,188302,5,8,0:0:0:0:
256,192,188381,5,0,0:0:0:0:
256,192,188460,5,0,0:0:0:0:
256,192,188539,5,0,0:0:0:0:
256,192,188618,5,8,0:0:0:0:
256,192,188697,5,0,0:0:0:0:
256,192,188776,5,0,0:0:0:0:
256,192,188855,5,0,0:0:0:0:
256,192,188934,5,0,0:0:0:0:
256,192,189013,5,0,0:0:0:0:
256,192,189092,5,8,0:0:0:0:
256,192,189171,5,0,0:0:0:0:
256,192,189250,5,8,0:0:0:0:
256,192,189328,5,8,0:0:0:0:
256,192,189407,5,0,0:0:0:0:
256,192,189486,5,0,0:0:0:0:
256,192,189565,5,8,0:0:0:0:
256,192,189644,5,0,0:0:0:0:
256,192,189723,5,8,0:0:0:0:
256,192,189802,5,8,0:0:0:0:
256,192,189881,5,8,0:0:0:0:
256,192,189960,5,8,0:0:0:0:
256,192,190039,5,0,0:0:0:0:
256,192,190118,5,0,0:0:0:0:
256,192,190197,5,8,0:0:0:0:
256,192,190276,5,8,0:0:0:0:
256,192,190355,5,0,0:0:0:0:
256,192,190434,5,0,0:0:0:0:
256,192,190513,5,0,0:0:0:0:
256,192,190592,5,0,0:0:0:0:
256,192,190671,5,8,0:0:0:0:
256,192,190750,5,8,0:0:0:0:
256,192,190828,5,8,0:0:0:0:
256,192,190907,5,8,0:0:0:0:
256,192,190986,5,0,0:0:0:0:
256,192,191065,5,0,0:0:0:0:
256,192,191144,5,8,0:0:0:0:
256,192,191223,5,0,0:0:0:0:
256,192,191302,5,0,0:0:0:0:
256,192,191381,5,0,0:0:0:0:
256,192,191460,5,0,0:0:0:0:
256,192,191539,5,0,0:0:0:0:
256,192,191618,5,8,0:0:0:0:
256,192,191697,5,0,0:0:0:0:
256,192,191776,5,0,0:0:0:0:
256,192,191855,5,0,0:0:0:0:
256,192,191934,5,8,0:0:0:0:
256,192,192013,5,8,0:0:0:0:
256,192,192092,5,8,0:0:0:0:
256,192,192171,5,0,0:0:0:0:
256,192,192250,5,8,0:0:0:0:
256,192,192328,5,8,0:0:0:0:
256,192,192407,5,8,0:0:0:0:
256,192,192486,5,8,0:0:0:0:
256,192,192565,5,0,0:0:0:0:
256,192,192644,5,0,0:0:0:0:
256,192,192723,5,8,0:0:0:0:
256,192,192802,5,8,0:0:0:0:
256,192,192881,5,0,0:0:0:0:
256,192,192960,5,0,0:0:0:0:
256,192,193039,5,0,0:0:0:0:
256,192,193118,5,0,0:0:0:0:
256,192,193197,5,8,0:0:0:0:
256,192,193276,5,8,0:0:0:0:
256,192,193355,5,8,0:0:0:0:
256,192,193434,5,0,0:0:0:0:
256,192,193513,5,0,0:0:0:0:
256,192,193592,5,0,0:0:0:0:
256,192,193671,5,8,0:0:0:0:
256,192,193750,5,0,0:0:0:0:
256,192,193828,5,0,0:0:0:0:
256,192,193907,5,0,0:0:0:0:
256,192,193986,5,0,0:0:0:0:
256,192,194065,5,0,0:0:0:0:
256,192,194144,5,8,0:0:0:0:
256,192,194223,5,8,0:0:0:0:
256,192,194302,5,8,0:0:0:0:
256,192,194381,5,8,0:0:0:0:
256,192,194460,5,0,0:0:0:0:
256,192,194539,5,0,0:0:0:0:
256,192,194618,5,0,0:0:0:0:
256,192,194697,5,0,0:0:0:0:
256,192,194776,5,12,0:0:0:0:
256,192,194934,5,8,0:0:0:0:
256,192,195092,5,8,0:0:0:0:
256,192,195250,5,4,0:0:0:0:
256,192,195407,5,8,0:0:0:0:
256,192,195565,5,8,0:0:0:0:
256,192,195723,5,4,0:0:0:0:
256,192,195881,5,8,0:0:0:0:
256,192,196039,5,4,0:0:0:0:
256,192,196197,5,8,0:0:0:0:
256,192,196355,5,8,0:0:0:0:
256,192,196513,5,4,0:0:0:0:
256,192,196671,5,8,0:0:0:0:
256,192,196828,5,8,0:0:0:0:
256,192,196986,5,4,0:0:0:0:
256,192,197144,5,8,0:0:0:0:
256,192,197302,5,12,0:0:0:0:
256,192,198565,5,12,0:0:0:0:
256,192,199197,5,4,0:0:0:0:
256,192,199355,5,8,0:0:0:0:
256,192,199513,5,4,0:0:0:0:
256,192,199671,5,8,0:0:0:0:
256,192,199828,5,12,0:0:0:0:
256,192,201092,5,12,0:0:0:0:
256,192,201723,5,4,0:0:0:0:
256,192,201881,5,8,0:0:0:0:
256,192,202039,5,4,0:0:0:0:
256,192,202197,5,0,0:0:0:0:
256,192,202355,5,12,0:0:0:0:
256,192,203618,5,12,0:0:0:0:
256,192,204250,5,4,0:0:0:0:
256,192,204407,5,8,0:0:0:0:
256,192,204565,5,4,0:0:0:0:
256,192,204723,5,8,0:0:0:0:
256,192,204881,5,12,0:0:0:0:
256,192,206144,5,12,0:0:0:0:
256,192,206302,5,8,0:0:0:0:
256,192,206381,1,0,0:0:0:0:
256,192,206460,1,8,0:0:0:0:
256,192,206539,1,8,0:0:0:0:
256,192,206618,1,0,0:0:0:0:
256,192,206697,1,0,0:0:0:0:
256,192,206776,1,8,0:0:0:0:
256,192,206855,1,0,0:0:0:0:
256,192,206934,1,8,0:0:0:0:
256,192,207013,1,8,0:0:0:0:
256,192,207092,1,0,0:0:0:0:
256,192,207171,1,8,0:0:0:0:
256,192,207250,1,0,0:0:0:0:
256,192,207328,1,0,0:0:0:0:
256,192,207407,1,8,0:0:0:0:
256,192,207486,5,8,0:0:0:0:
256,192,207565,5,0,0:0:0:0:
256,192,207644,5,0,0:0:0:0:
256,192,207723,5,8,0:0:0:0:
256,192,207802,5,8,0:0:0:0:
256,192,207881,5,8,0:0:0:0:
256,192,207960,5,0,0:0:0:0:
256,192,208039,5,8,0:0:0:0:
256,192,208118,5,8,0:0:0:0:
256,192,208197,5,0,0:0:0:0:
256,192,208276,5,0,0:0:0:0:
256,192,208355,5,8,0:0:0:0:
256,192,208434,5,0,0:0:0:0:
256,192,208513,5,8,0:0:0:0:
256,192,208592,5,8,0:0:0:0:
256,192,208671,5,0,0:0:0:0:
256,192,208750,5,0,0:0:0:0:
256,192,208828,5,8,0:0:0:0:
256,192,208907,5,0,0:0:0:0:
256,192,208986,5,8,0:0:0:0:
256,192,209065,5,8,0:0:0:0:
256,192,209144,5,0,0:0:0:0:
256,192,209223,5,8,0:0:0:0:
256,192,209302,5,0,0:0:0:0:
256,192,209355,5,0,0:0:0:0:
256,192,209407,1,0,0:0:0:0:
256,192,209460,5,8,0:0:0:0:
256,192,209539,5,0,0:0:0:0:
256,192,209618,5,8,0:0:0:0:
256,192,209671,1,8,0:0:0:0:
256,192,209723,5,8,0:0:0:0:
256,192,209776,5,0,0:0:0:0:
256,192,209855,5,0,0:0:0:0:
256,192,209934,5,8,0:0:0:0:
256,192,210013,5,8,0:0:0:0:
256,192,210092,5,0,0:0:0:0:
256,192,210171,5,8,0:0:0:0:
256,192,210250,5,8,0:0:0:0:
256,192,210328,5,8,0:0:0:0:
256,192,210407,5,0,0:0:0:0:
256,192,210486,5,8,0:0:0:0:
256,192,210565,5,8,0:0:0:0:
256,192,210644,5,8,0:0:0:0:
256,192,210723,5,0,0:0:0:0:
256,192,210802,5,0,0:0:0:0:
256,192,210881,5,8,0:0:0:0:
256,192,210960,5,0,0:0:0:0:
256,192,211039,5,8,0:0:0:0:
256,192,211118,5,8,0:0:0:0:
256,192,211197,5,0,0:0:0:0:
256,192,211276,5,0,0:0:0:0:
256,192,211355,5,8,0:0:0:0:
256,192,211434,5,0,0:0:0:0:
256,192,211513,5,8,0:0:0:0:
256,192,211592,5,8,0:0:0:0:
256,192,211671,5,0,0:0:0:0:
256,192,211750,5,0,0:0:0:0:
256,192,211828,5,8,0:0:0:0:
256,192,211881,5,0,0:0:0:0:
256,192,211934,1,0,0:0:0:0:
256,192,211986,5,8,0:0:0:0:
256,192,212065,5,0,0:0:0:0:
256,192,212144,5,8,0:0:0:0:
256,192,212197,5,8,0:0:0:0:
256,192,212250,1,8,0:0:0:0:
256,192,212302,5,0,0:0:0:0:
256,192,212381,5,0,0:0:0:0:
256,192,212460,5,8,0:0:0:0:
256,192,212539,5,8,0:0:0:0:
256,192,212618,5,0,0:0:0:0:
256,192,212697,5,0,0:0:0:0:
256,192,212776,5,8,0:0:0:0:
256,192,212855,5,0,0:0:0:0:
256,192,212934,5,8,0:0:0:0:
256,192,213013,5,0,0:0:0:0:
256,192,213092,5,8,0:0:0:0:
256,192,213171,5,8,0:0:0:0:
256,192,213250,5,0,0:0:0:0:
256,192,213328,5,0,0:0:0:0:
256,192,213407,5,8,0:0:0:0:
256,192,213486,5,0,0:0:0:0:
256,192,213565,5,8,0:0:0:0:
256,192,213644,5,8,0:0:0:0:
256,192,213723,5,0,0:0:0:0:
256,192,213802,5,8,0:0:0:0:
256,192,213881,5,0,0:0:0:0:
256,192,213960,5,0,0:0:0:0:
256,192,214039,5,8,0:0:0:0:
256,192,214118,5,0,0:0:0:0:
256,192,214197,5,8,0:0:0:0:
256,192,214276,5,0,0:0:0:0:
256,192,214355,5,8,0:0:0:0:
256,192,214434,5,8,0:0:0:0:
256,192,214513,5,8,0:0:0:0:
256,192,214592,5,8,0:0:0:0:
256,192,214671,5,0,0:0:0:0:
256,192,214750,5,0,0:0:0:0:
256,192,214828,5,0,0:0:0:0:
256,192,214907,5,0,0:0:0:0:
256,192,214986,5,12,0:0:0:0:
256,192,215144,5,8,0:0:0:0:
256,192,215302,5,8,0:0:0:0:
256,192,215460,5,4,0:0:0:0:
256,192,215618,5,0,0:0:0:0:
256,192,215776,5,8,0:0:0:0:
256,192,215934,5,4,0:0:0:0:
256,192,216092,5,8,0:0:0:0:
256,192,216250,5,4,0:0:0:0:
256,192,216407,5,8,0:0:0:0:
256,192,216486,5,0,0:0:0:0:
256,192,216565,5,8,0:0:0:0:
256,192,216644,5,8,0:0:0:0:
256,192,216723,5,0,0:0:0:0:
256,192,216802,5,0,0:0:0:0:
256,192,216881,5,8,0:0:0:0:
256,192,216960,1,8,0:0:0:0:
256,192,217039,1,0,0:0:0:0:
256,192,217118,1,8,0:0:0:0:
256,192,217197,1,8,0:0:0:0:
256,192,217276,1,8,0:0:0:0:
256,192,217355,1,0,0:0:0:0:
256,192,217434,1,0,0:0:0:0:
256,192,217513,1,8,0:0:0:0:
256,192,217592,5,8,0:0:0:0:
256,192,217671,5,0,0:0:0:0:
256,192,217750,5,0,0:0:0:0:
256,192,217828,5,8,0:0:0:0:
256,192,217907,5,0,0:0:0:0:
256,192,217986,5,8,0:0:0:0:
256,192,218065,5,8,0:0:0:0:
256,192,218144,5,0,0:0:0:0:
256,192,218223,5,8,0:0:0:0:
256,192,218302,5,0,0:0:0:0:
256,192,218381,5,0,0:0:0:0:
256,192,218460,5,8,0:0:0:0:
256,192,218539,5,8,0:0:0:0:
256,192,218618,5,0,0:0:0:0:
256,192,218697,5,0,0:0:0:0:
256,192,218776,5,8,0:0:0:0:
256,192,218855,5,0,0:0:0:0:
256,192,218934,5,8,0:0:0:0:
256,192,219013,5,0,0:0:0:0:
256,192,219092,5,8,0:0:0:0:
256,192,219171,5,8,0:0:0:0:
256,192,219250,5,0,0:0:0:0:
256,192,219328,5,8,0:0:0:0:
256,192,219407,5,0,0:0:0:0:
256,192,219460,5,0,0:0:0:0:
256,192,219513,1,0,0:0:0:0:
256,192,219565,5,8,0:0:0:0:
256,192,219644,5,0,0:0:0:0:
256,192,219723,5,8,0:0:0:0:
256,192,219776,5,8,0:0:0:0:
256,192,219828,1,8,0:0:0:0:
256,192,219881,5,0,0:0:0:0:
256,192,219960,5,0,0:0:0:0:
256,192,220039,5,8,0:0:0:0:
256,192,220118,5,8,0:0:0:0:
256,192,220197,5,0,0:0:0:0:
256,192,220276,5,0,0:0:0:0:
256,192,220355,5,8,0:0:0:0:
256,192,220434,5,0,0:0:0:0:
256,192,220513,5,8,0:0:0:0:
256,192,220592,5,0,0:0:0:0:
256,192,220671,5,8,0:0:0:0:
256,192,220750,5,8,0:0:0:0:
256,192,220828,5,0,0:0:0:0:
256,192,220907,5,0,0:0:0:0:
256,192,220986,5,8,0:0:0:0:
256,192,221065,5,0,0:0:0:0:
256,192,221144,5,8,0:0:0:0:
256,192,221223,5,0,0:0:0:0:
256,192,221302,5,8,0:0:0:0:
256,192,221381,5,8,0:0:0:0:
256,192,221460,5,8,0:0:0:0:
256,192,221539,5,0,0:0:0:0:
256,192,221618,5,8,0:0:0:0:
256,192,221697,5,8,0:0:0:0:
256,192,221776,5,0,0:0:0:0:
256,192,221855,5,0,0:0:0:0:
256,192,221934,5,8,0:0:0:0:
256,192,221986,1,0,0:0:0:0:
256,192,222039,5,0,0:0:0:0:
256,192,222092,5,8,0:0:0:0:
256,192,222171,5,0,0:0:0:0:
256,192,222250,5,8,0:0:0:0:
256,192,222302,1,8,0:0:0:0:
256,192,222355,1,8,0:0:0:0:
256,192,222407,5,0,0:0:0:0:
256,192,222486,5,0,0:0:0:0:
256,192,222565,5,8,0:0:0:0:
256,192,222644,5,8,0:0:0:0:
256,192,222723,5,0,0:0:0:0:
256,192,222802,5,0,0:0:0:0:
256,192,222881,5,8,0:0:0:0:
256,192,222960,5,0,0:0:0:0:
256,192,223039,5,8,0:0:0:0:
256,192,223118,5,0,0:0:0:0:
256,192,223197,5,8,0:0:0:0:
256,192,223276,5,8,0:0:0:0:
256,192,223355,5,0,0:0:0:0:
256,192,223434,5,8,0:0:0:0:
256,192,223513,5,8,0:0:0:0:
256,192,223592,5,8,0:0:0:0:
256,192,223671,5,0,0:0:0:0:
256,192,223750,5,0,0:0:0:0:
256,192,223828,5,8,0:0:0:0:
256,192,223907,5,0,0:0:0:0:
256,192,223986,5,8,0:0:0:0:
256,192,224065,5,0,0:0:0:0:
256,192,224144,5,8,0:0:0:0:
256,192,224223,5,8,0:0:0:0:
256,192,224302,5,0,0:0:0:0:
256,192,224381,5,0,0:0:0:0:
256,192,224460,5,8,0:0:0:0:
256,192,224539,5,8,0:0:0:0:
256,192,224618,5,8,0:0:0:0:
256,192,224697,5,8,0:0:0:0:
256,192,224776,5,0,0:0:0:0:
256,192,224855,5,0,0:0:0:0:
256,192,224934,5,0,0:0:0:0:
256,192,225013,5,0,0:0:0:0:
256,192,225092,5,12,0:0:0:0:
256,192,225250,5,8,0:0:0:0:
256,192,225407,5,8,0:0:0:0:
256,192,225565,5,4,0:0:0:0:
256,192,225723,5,8,0:0:0:0:
256,192,225881,5,8,0:0:0:0:
256,192,226039,5,4,0:0:0:0:
256,192,226197,5,8,0:0:0:0:
256,192,226355,5,4,0:0:0:0:
256,192,226513,5,8,0:0:0:0:
256,192,226671,5,8,0:0:0:0:
256,192,226828,5,4,0:0:0:0:
256,192,226986,5,8,0:0:0:0:
256,192,227144,5,8,0:0:0:0:
256,192,227302,5,4,0:0:0:0:
256,192,227460,5,8,0:0:0:0:
256,192,227618,5,4,0:0:0:0:
256,192,228881,5,4,0:0:0:0:
256,192,230144,5,4,0:0:0:0:
256,192,230776,5,8,0:0:0:0:
256,192,231407,5,8,0:0:0:0:
256,192,231723,5,0,0:0:0:0:
256,192,231802,5,0,0:0:0:0:
256,192,231881,5,0,0:0:0:0:
256,192,231960,5,0,0:0:0:0:
256,192,232039,5,8,0:0:0:0:
256,192,232671,5,4,0:0:0:0:
256,192,233302,5,8,0:0:0:0:
256,192,233618,5,0,0:0:0:0:
256,192,233697,5,0,0:0:0:0:
256,192,233776,5,0,0:0:0:0:
256,192,233855,5,0,0:0:0:0:
256,192,233934,5,8,0:0:0:0:
256,192,234250,5,0,0:0:0:0:
256,192,234407,5,8,0:0:0:0:
256,192,234565,5,8,0:0:0:0:
256,192,235197,5,4,0:0:0:0:
256,192,235828,5,8,0:0:0:0:
256,192,236144,5,0,0:0:0:0:
256,192,236302,5,8,0:0:0:0:
256,192,236460,5,8,0:0:0:0:
256,192,236776,5,0,0:0:0:0:
256,192,236934,5,8,0:0:0:0:
256,192,237092,5,12,0:0:0:0:
256,192,237723,5,12,0:0:0:0:
256,192,238355,5,8,0:0:0:0:
256,192,238513,5,0,0:0:0:0:
256,192,238671,5,0,0:0:0:0:
256,192,238750,5,0,0:0:0:0:
256,192,238828,5,0,0:0:0:0:
256,192,238907,5,0,0:0:0:0:
256,192,238986,5,8,0:0:0:0:
256,192,239144,5,8,0:0:0:0:
256,192,239302,5,0,0:0:0:0:
256,192,239460,5,8,0:0:0:0:
256,192,239618,5,8,0:0:0:0:
256,192,239934,5,8,0:0:0:0:
256,192,240250,5,4,0:0:0:0:
256,192,240881,5,8,0:0:0:0:
256,192,241513,5,8,0:0:0:0:
256,192,241986,5,8,0:0:0:0:
256,192,242144,5,8,0:0:0:0:
256,192,242776,5,4,0:0:0:0:
256,192,243407,5,8,0:0:0:0:
256,192,243565,5,8,0:0:0:0:
256,192,243723,5,0,0:0:0:0:
256,192,243802,5,0,0:0:0:0:
256,192,243881,5,0,0:0:0:0:
256,192,243960,5,0,0:0:0:0:
256,192,244039,5,8,0:0:0:0:
256,192,244197,5,8,0:0:0:0:
256,192,244355,5,0,0:0:0:0:
256,192,244513,5,8,0:0:0:0:
256,192,244671,5,8,0:0:0:0:
256,192,244986,5,8,0:0:0:0:
256,192,245302,5,4,0:0:0:0:
256,192,245934,5,8,0:0:0:0:
256,192,246407,5,8,0:0:0:0:
256,192,246565,5,8,0:0:0:0:
256,192,246881,5,0,0:0:0:0:
256,192,247039,5,8,0:0:0:0:
256,192,247197,5,12,0:0:0:0:
256,192,247828,5,12,0:0:0:0:
256,192,248144,5,0,0:0:0:0:
256,192,248302,5,0,0:0:0:0:
256,192,248460,5,8,0:0:0:0:
256,192,248776,5,8,0:0:0:0:
256,192,248934,5,8,0:0:0:0:
256,192,249092,5,4,0:0:0:0:
256,192,249250,5,8,0:0:0:0:
256,192,249328,5,8,0:0:0:0:
256,192,249407,5,8,0:0:0:0:
256,192,249486,5,8,0:0:0:0:
256,192,249565,5,0,0:0:0:0:
256,192,249644,5,0,0:0:0:0:
256,192,249723,5,0,0:0:0:0:
256,192,249802,1,0,0:0:0:0:
256,192,249881,1,8,0:0:0:0:
256,192,249960,1,8,0:0:0:0:
256,192,250039,1,0,0:0:0:0:
256,192,250118,1,8,0:0:0:0:
256,192,250197,1,0,0:0:0:0:
256,192,250276,1,0,0:0:0:0:
256,192,250355,1,8,0:0:0:0:
256,192,250434,5,8,0:0:0:0:
256,192,250513,5,8,0:0:0:0:
256,192,250592,5,8,0:0:0:0:
256,192,250671,5,0,0:0:0:0:
256,192,250750,5,0,0:0:0:0:
256,192,250828,5,0,0:0:0:0:
256,192,250907,5,0,0:0:0:0:
256,192,250986,5,0,0:0:0:0:
256,192,251065,5,0,0:0:0:0:
256,192,251144,5,0,0:0:0:0:
256,192,251223,5,0,0:0:0:0:
256,192,251302,5,8,0:0:0:0:
256,192,251381,5,8,0:0:0:0:
256,192,251460,5,8,0:0:0:0:
256,192,251539,5,0,0:0:0:0:
256,192,251618,5,8,0:0:0:0:
256,192,251697,5,8,0:0:0:0:
256,192,251776,5,8,0:0:0:0:
256,192,251855,5,8,0:0:0:0:
256,192,251934,5,0,0:0:0:0:
256,192,252013,5,0,0:0:0:0:
256,192,252092,5,0,0:0:0:0:
256,192,252171,5,0,0:0:0:0:
256,192,252250,5,8,0:0:0:0:
256,192,252328,5,8,0:0:0:0:
256,192,252407,5,8,0:0:0:0:
256,192,252486,5,8,0:0:0:0:
256,192,252565,5,0,0:0:0:0:
256,192,252644,5,0,0:0:0:0:
256,192,252723,5,0,0:0:0:0:
256,192,252802,5,0,0:0:0:0:
256,192,252881,5,8,0:0:0:0:
256,192,252960,5,8,0:0:0:0:
256,192,253039,5,8,0:0:0:0:
256,192,253118,5,8,0:0:0:0:
256,192,253197,5,8,0:0:0:0:
256,192,253276,5,8,0:0:0:0:
256,192,253355,5,0,0:0:0:0:
256,192,253434,5,0,0:0:0:0:
256,192,253513,5,0,0:0:0:0:
256,192,253592,5,0,0:0:0:0:
256,192,253671,5,0,0:0:0:0:
256,192,253750,5,0,0:0:0:0:
256,192,253828,5,8,0:0:0:0:
256,192,253907,5,8,0:0:0:0:
256,192,253986,5,8,0:0:0:0:
256,192,254065,5,0,0:0:0:0:
256,192,254144,5,8,0:0:0:0:
256,192,254223,5,8,0:0:0:0:
256,192,254302,5,8,0:0:0:0:
256,192,254381,5,0,0:0:0:0:
256,192,254460,5,8,0:0:0:0:
256,192,254539,5,0,0:0:0:0:
256,192,254618,5,0,0:0:0:0:
256,192,254697,5,0,0:0:0:0:
256,192,254776,5,0,0:0:0:0:
256,192,254855,5,0,0:0:0:0:
256,192,254934,5,0,0:0:0:0:
256,192,255013,5,0,0:0:0:0:
256,192,255092,5,8,0:0:0:0:
256,192,255171,5,0,0:0:0:0:
256,192,255250,5,0,0:0:0:0:
256,192,255328,5,0,0:0:0:0:
256,192,255407,5,8,0:0:0:0:
256,192,255486,5,8,0:0:0:0:
256,192,255565,5,8,0:0:0:0:
256,192,255644,5,8,0:0:0:0:
256,192,255723,5,8,0:0:0:0:
256,192,255802,5,8,0:0:0:0:
256,192,255881,5,0,0:0:0:0:
256,192,255960,5,0,0:0:0:0:
256,192,256039,5,0,0:0:0:0:
256,192,256118,5,0,0:0:0:0:
256,192,256197,5,0,0:0:0:0:
256,192,256276,5,0,0:0:0:0:
256,192,256355,5,8,0:0:0:0:
256,192,256434,5,8,0:0:0:0:
256,192,256513,5,0,0:0:0:0:
256,192,256592,5,0,0:0:0:0:
256,192,256671,5,8,0:0:0:0:
256,192,256750,5,8,0:0:0:0:
256,192,256828,5,8,0:0:0:0:
256,192,256907,5,8,0:0:0:0:
256,192,256986,5,0,0:0:0:0:
256,192,257065,5,0,0:0:0:0:
256,192,257144,5,0,0:0:0:0:
256,192,257223,5,0,0:0:0:0:
256,192,257302,5,8,0:0:0:0:
256,192,257381,5,8,0:0:0:0:
256,192,257460,5,8,0:0:0:0:
256,192,257539,5,8,0:0:0:0:
256,192,257618,5,8,0:0:0:0:
256,192,257697,5,8,0:0:0:0:
256,192,257776,5,0,0:0:0:0:
256,192,257855,5,0,0:0:0:0:
256,192,257934,5,8,0:0:0:0:
256,192,258013,5,8,0:0:0:0:
256,192,258092,5,8,0:0:0:0:
256,192,258171,5,8,0:0:0:0:
256,192,258250,5,8,0:0:0:0:
256,192,258328,5,8,0:0:0:0:
256,192,258407,5,0,0:0:0:0:
256,192,258486,5,0,0:0:0:0:
256,192,258565,5,0,0:0:0:0:
256,192,258644,5,0,0:0:0:0:
256,192,258723,5,0,0:0:0:0:
256,192,258802,5,0,0:0:0:0:
256,192,258881,5,8,0:0:0:0:
256,192,258960,5,8,0:0:0:0:
256,192,259039,5,8,0:0:0:0:
256,192,259118,5,0,0:0:0:0:
256,192,259197,5,8,0:0:0:0:
256,192,259276,5,8,0:0:0:0:
256,192,259355,5,8,0:0:0:0:
256,192,259434,5,8,0:0:0:0:
256,192,259513,5,0,0:0:0:0:
256,192,259592,5,0,0:0:0:0:
256,192,259671,5,0,0:0:0:0:
256,192,259750,5,0,0:0:0:0:
256,192,259828,5,8,0:0:0:0:
256,192,259907,5,0,0:0:0:0:
256,192,259986,5,0,0:0:0:0:
256,192,260065,5,8,0:0:0:0:
256,192,260144,5,0,0:0:0:0:
256,192,260223,5,0,0:0:0:0:
256,192,260302,5,8,0:0:0:0:
256,192,260381,5,0,0:0:0:0:
256,192,260460,5,8,0:0:0:0:
256,192,260539,5,8,0:0:0:0:
256,192,260618,5,8,0:0:0:0:
256,192,260697,5,8,0:0:0:0:
256,192,260776,5,0,0:0:0:0:
256,192,260855,5,0,0:0:0:0:
256,192,260934,5,0,0:0:0:0:
256,192,261013,5,0,0:0:0:0:
256,192,261092,5,0,0:0:0:0:
256,192,261171,5,0,0:0:0:0:
256,192,261250,5,0,0:0:0:0:
256,192,261328,5,0,0:0:0:0:
256,192,261407,5,8,0:0:0:0:
256,192,261486,5,8,0:0:0:0:
256,192,261565,5,8,0:0:0:0:
256,192,261644,5,0,0:0:0:0:
256,192,261723,5,8,0:0:0:0:
256,192,261802,5,8,0:0:0:0:
256,192,261881,5,8,0:0:0:0:
256,192,261960,5,8,0:0:0:0:
256,192,262039,5,0,0:0:0:0:
256,192,262118,5,0,0:0:0:0:
256,192,262197,5,0,0:0:0:0:
256,192,262276,5,0,0:0:0:0:
256,192,262355,5,8,0:0:0:0:
256,192,262434,5,8,0:0:0:0:
256,192,262513,5,8,0:0:0:0:
256,192,262592,5,8,0:0:0:0:
256,192,262671,5,0,0:0:0:0:
256,192,262750,5,0,0:0:0:0:
256,192,262828,5,0,0:0:0:0:
256,192,262907,5,0,0:0:0:0:
256,192,262986,5,8,0:0:0:0:
256,192,263065,5,8,0:0:0:0:
256,192,263144,5,8,0:0:0:0:
256,192,263223,5,8,0:0:0:0:
256,192,263302,5,8,0:0:0:0:
256,192,263381,5,8,0:0:0:0:
256,192,263460,5,0,0:0:0:0:
256,192,263539,5,0,0:0:0:0:
256,192,263618,5,0,0:0:0:0:
256,192,263697,5,0,0:0:0:0:
256,192,263776,5,0,0:0:0:0:
256,192,263855,5,0,0:0:0:0:
256,192,263934,5,8,0:0:0:0:
256,192,264013,5,8,0:0:0:0:
256,192,264092,5,8,0:0:0:0:
256,192,264171,5,0,0:0:0:0:
256,192,264250,5,8,0:0:0:0:
256,192,264328,5,8,0:0:0:0:
256,192,264407,5,8,0:0:0:0:
256,192,264486,5,0,0:0:0:0:
256,192,264565,5,8,0:0:0:0:
256,192,264644,5,0,0:0:0:0:
256,192,264723,5,0,0:0:0:0:
256,192,264802,5,0,0:0:0:0:
256,192,264881,5,0,0:0:0:0:
256,192,264960,5,0,0:0:0:0:
256,192,265039,5,0,0:0:0:0:
256,192,265118,5,0,0:0:0:0:
256,192,265197,5,8,0:0:0:0:
256,192,265276,5,0,0:0:0:0:
256,192,265355,5,0,0:0:0:0:
256,192,265434,5,0,0:0:0:0:
256,192,265513,5,8,0:0:0:0:
256,192,265592,5,8,0:0:0:0:
256,192,265671,5,8,0:0:0:0:
256,192,265750,5,8,0:0:0:0:
256,192,265828,5,8,0:0:0:0:
256,192,265907,5,8,0:0:0:0:
256,192,265986,5,0,0:0:0:0:
256,192,266065,5,0,0:0:0:0:
256,192,266144,5,0,0:0:0:0:
256,192,266223,5,0,0:0:0:0:
256,192,266302,5,0,0:0:0:0:
256,192,266381,5,0,0:0:0:0:
256,192,266460,5,8,0:0:0:0:
256,192,266539,5,8,0:0:0:0:
256,192,266618,5,0,0:0:0:0:
256,192,266697,5,0,0:0:0:0:
256,192,266776,5,8,0:0:0:0:
256,192,266855,5,8,0:0:0:0:
256,192,266934,5,8,0:0:0:0:
256,192,267013,5,8,0:0:0:0:
256,192,267092,5,0,0:0:0:0:
256,192,267171,5,0,0:0:0:0:
256,192,267250,5,0,0:0:0:0:
256,192,267328,5,0,0:0:0:0:
256,192,267407,5,8,0:0:0:0:
256,192,267486,5,8,0:0:0:0:
256,192,267565,5,8,0:0:0:0:
256,192,267644,5,8,0:0:0:0:
256,192,267723,5,8,0:0:0:0:
256,192,267802,5,8,0:0:0:0:
256,192,267881,5,0,0:0:0:0:
256,192,267960,5,0,0:0:0:0:
256,192,268039,5,8,0:0:0:0:
256,192,268118,5,8,0:0:0:0:
256,192,268197,5,8,0:0:0:0:
256,192,268276,5,8,0:0:0:0:
256,192,268355,5,8,0:0:0:0:
256,192,268434,5,8,0:0:0:0:
256,192,268513,5,0,0:0:0:0:
256,192,268592,5,0,0:0:0:0:
256,192,268671,5,0,0:0:0:0:
256,192,268750,5,0,0:0:0:0:
256,192,268828,5,0,0:0:0:0:
256,192,268907,5,0,0:0:0:0:
256,192,268986,5,8,0:0:0:0:
256,192,269065,5,8,0:0:0:0:
256,192,269144,5,8,0:0:0:0:
256,192,269223,5,0,0:0:0:0:
256,192,269302,5,8,0:0:0:0:
256,192,269381,5,8,0:0:0:0:
256,192,269460,5,8,0:0:0:0:
256,192,269539,5,8,0:0:0:0:
256,192,269618,5,8,0:0:0:0:
256,192,269697,5,8,0:0:0:0:
256,192,269776,5,0,0:0:0:0:
256,192,269855,5,0,0:0:0:0:
256,192,269934,5,8,0:0:0:0:
256,192,270013,5,8,0:0:0:0:
256,192,270092,5,8,0:0:0:0:
256,192,270171,5,8,0:0:0:0:
256,192,270250,5,0,0:0:0:0:
256,192,270328,5,0,0:0:0:0:
256,192,270407,5,0,0:0:0:0:
256,192,270486,5,0,0:0:0:0:
256,192,270565,5,12,0:0:0:0:
256,192,270723,5,0,0:0:0:0:
256,192,270881,5,8,0:0:0:0:
256,192,271039,5,0,0:0:0:0:
256,192,271197,5,0,0:0:0:0:
256,192,271355,5,0,0:0:0:0:
256,192,271513,5,8,0:0:0:0:
256,192,271671,5,0,0:0:0:0:
256,192,271828,5,8,0:0:0:0:
256,192,271986,5,8,0:0:0:0:
256,192,272144,5,8,0:0:0:0:
256,192,272302,5,0,0:0:0:0:
256,192,272460,5,8,0:0:0:0:
256,192,272618,5,8,0:0:0:0:
256,192,272776,5,8,0:0:0:0:
256,192,272934,5,0,0:0:0:0:
256,192,273092,5,8,0:0:0:0:
256,192,273250,5,0,0:0:0:0:
256,192,273407,5,8,0:0:0:0:
256,192,273565,5,8,0:0:0:0:
256,192,273723,5,0,0:0:0:0:
256,192,273881,5,8,0:0:0:0:
256,192,274039,5,8,0:0:0:0:
256,192,274118,1,8,0:0:0:0:
256,192,274197,1,0,0:0:0:0:
256,192,274276,1,0,0:0:0:0:
256,192,274355,1,8,0:0:0:0:
256,192,274434,1,8,0:0:0:0:
256,192,274513,1,0,0:0:0:0:
256,192,274671,1,0,0:0:0:0:
256,192,274750,1,0,0:0:0:0:
256,192,274828,1,8,0:0:0:0:
256,192,274907,1,8,0:0:0:0:
256,192,274986,1,8,0:0:0:0:
256,192,275065,1,8,0:0:0:0:
256,192,275144,1,0,0:0:0:0:
256,192,275223,1,0,0:0:0:0:
256,192,275302,1,8,0:0:0:0:
256,192,275381,1,8,0:0:0:0:
256,192,275460,1,0,0:0:0:0:
256,192,275618,5,0,0:0:0:0:
256,192,275697,5,0,0:0:0:0:
256,192,275776,5,0,0:0:0:0:
256,192,275855,5,0,0:0:0:0:
256,192,275934,5,8,0:0:0:0:
256,192,276013,5,0,0:0:0:0:
256,192,276092,5,0,0:0:0:0:
256,192,276171,5,0,0:0:0:0:
256,192,276250,5,8,0:0:0:0:
256,192,276328,5,8,0:0:0:0:
256,192,276407,5,8,0:0:0:0:
256,192,276486,5,8,0:0:0:0:
256,192,276565,5,0,0:0:0:0:
256,192,276644,5,0,0:0:0:0:
256,192,276723,5,0,0:0:0:0:
256,192,276802,5,0,0:0:0:0:
256,192,276881,5,8,0:0:0:0:
256,192,276960,5,8,0:0:0:0:
256,192,277039,5,8,0:0:0:0:
256,192,277118,5,8,0:0:0:0:
256,192,277197,5,0,0:0:0:0:
256,192,277276,5,0,0:0:0:0:
256,192,277355,5,0,0:0:0:0:
256,192,277434,5,0,0:0:0:0:
256,192,277513,5,8,0:0:0:0:
256,192,277592,5,8,0:0:0:0:
256,192,277671,5,8,0:0:0:0:
256,192,277750,5,0,0:0:0:0:
256,192,277828,5,8,0:0:0:0:
256,192,277907,5,8,0:0:0:0:
256,192,277986,5,0,0:0:0:0:
256,192,278065,5,0,0:0:0:0:
256,192,278144,5,8,0:0:0:0:
256,192,278223,5,8,0:0:0:0:
256,192,278302,5,8,0:0:0:0:
256,192,278381,5,8,0:0:0:0:
256,192,278460,5,8,0:0:0:0:
256,192,278539,5,8,0:0:0:0:
256,192,278618,5,0,0:0:0:0:
256,192,278697,5,0,0:0:0:0:
256,192,278776,5,0,0:0:0:0:
256,192,278855,5,0,0:0:0:0:
256,192,278934,5,0,0:0:0:0:
256,192,279013,5,0,0:0:0:0:
256,192,279092,5,8,0:0:0:0:
256,192,279171,5,8,0:0:0:0:
256,192,279250,5,0,0:0:0:0:
256,192,279328,5,0,0:0:0:0:
256,192,279407,5,8,0:0:0:0:
256,192,279486,5,8,0:0:0:0:
256,192,279565,5,8,0:0:0:0:
256,192,279644,5,0,0:0:0:0:
256,192,279723,5,8,0:0:0:0:
256,192,279802,5,8,0:0:0:0:
256,192,279881,5,8,0:0:0:0:
256,192,279960,5,8,0:0:0:0:
256,192,280039,5,0,0:0:0:0:
256,192,280118,5,0,0:0:0:0:
256,192,280197,5,0,0:0:0:0:
256,192,280276,5,0,0:0:0:0:
256,192,280355,5,8,0:0:0:0:
256,192,280434,5,8,0:0:0:0:
256,192,280513,5,0,0:0:0:0:
256,192,280592,5,0,0:0:0:0:
256,192,280671,5,8,0:0:0:0:
256,192,280750,5,8,0:0:0:0:
256,192,280828,5,8,0:0:0:0:
256,192,280907,5,8,0:0:0:0:
256,192,280986,5,0,0:0:0:0:
256,192,281065,5,0,0:0:0:0:
256,192,281144,5,0,0:0:0:0:
256,192,281223,5,0,0:0:0:0:
256,192,281302,5,8,0:0:0:0:
256,192,281381,5,8,0:0:0:0:
256,192,281460,5,0,0:0:0:0:
256,192,281539,5,0,0:0:0:0:
256,192,281618,5,0,0:0:0:0:
256,192,281697,5,0,0:0:0:0:
256,192,281776,5,0,0:0:0:0:
256,192,281855,5,0,0:0:0:0:
256,192,281934,5,8,0:0:0:0:
256,192,282013,5,8,0:0:0:0:
256,192,282092,5,8,0:0:0:0:
256,192,282171,5,8,0:0:0:0:
256,192,282250,5,0,0:0:0:0:
256,192,282328,5,0,0:0:0:0:
256,192,282407,5,0,0:0:0:0:
256,192,282486,5,0,0:0:0:0:
256,192,282565,5,8,0:0:0:0:
256,192,282644,5,0,0:0:0:0:
256,192,282723,5,0,0:0:0:0:
256,192,282802,5,0,0:0:0:0:
256,192,282881,5,8,0:0:0:0:
256,192,282960,5,8,0:0:0:0:
256,192,283039,5,0,0:0:0:0:
256,192,283118,5,0,0:0:0:0:
256,192,283197,5,8,0:0:0:0:
256,192,283276,5,8,0:0:0:0:
256,192,283355,5,8,0:0:0:0:
256,192,283434,5,0,0:0:0:0:
256,192,283513,5,8,0:0:0:0:
256,192,283592,5,8,0:0:0:0:
256,192,283671,5,0,0:0:0:0:
256,192,283750,5,0,0:0:0:0:
256,192,283828,5,0,0:0:0:0:
256,192,283907,5,0,0:0:0:0:
256,192,283986,5,0,0:0:0:0:
256,192,284065,5,0,0:0:0:0:
256,192,284144,5,8,0:0:0:0:
256,192,284223,5,8,0:0:0:0:
256,192,284302,5,0,0:0:0:0:
256,192,284381,5,0,0:0:0:0:
256,192,284460,5,8,0:0:0:0:
256,192,284539,5,0,0:0:0:0:
256,192,284618,5,0,0:0:0:0:
256,192,284697,5,0,0:0:0:0:
256,192,284776,5,8,0:0:0:0:
256,192,284855,5,8,0:0:0:0:
256,192,284934,5,0,0:0:0:0:
256,192,285013,5,0,0:0:0:0:
256,192,285092,5,8,0:0:0:0:
256,192,285171,5,0,0:0:0:0:
256,192,285250,5,8,0:0:0:0:
256,192,285328,5,8,0:0:0:0:
256,192,285407,5,0,0:0:0:0:
256,192,285486,5,0,0:0:0:0:
256,192,285565,5,8,0:0:0:0:
256,192,285644,5,8,0:0:0:0:
256,192,285723,5,0,0:0:0:0:
256,192,285802,5,0,0:0:0:0:
256,192,285881,5,0,0:0:0:0:
256,192,285960,5,0,0:0:0:0:
256,192,286039,5,8,0:0:0:0:
256,192,286118,5,0,0:0:0:0:
256,192,286197,5,0,0:0:0:0:
256,192,286276,5,0,0:0:0:0:
256,192,286355,5,8,0:0:0:0:
256,192,286434,5,8,0:0:0:0:
256,192,286513,5,8,0:0:0:0:
256,192,286592,5,8,0:0:0:0:
256,192,286671,5,0,0:0:0:0:
256,192,286750,5,0,0:0:0:0:
256,192,286828,5,0,0:0:0:0:
256,192,286907,5,0,0:0:0:0:
256,192,286986,5,8,0:0:0:0:
256,192,287065,5,8,0:0:0:0:
256,192,287144,5,8,0:0:0:0:
256,192,287223,5,8,0:0:0:0:
256,192,287302,5,0,0:0:0:0:
256,192,287381,5,0,0:0:0:0:
256,192,287460,5,0,0:0:0:0:
256,192,287539,5,0,0:0:0:0:
256,192,287618,5,8,0:0:0:0:
256,192,287697,5,8,0:0:0:0:
256,192,287776,5,8,0:0:0:0:
256,192,287855,5,0,0:0:0:0:
256,192,287934,5,8,0:0:0:0:
256,192,288013,5,0,0:0:0:0:
256,192,288092,5,8,0:0:0:0:
256,192,288171,5,8,0:0:0:0:
256,192,288250,5,0,0:0:0:0:
256,192,288328,5,0,0:0:0:0:
256,192,288407,5,0,0:0:0:0:
256,192,288486,5,0,0:0:0:0:
256,192,288565,5,8,0:0:0:0:
256,192,288644,5,8,0:0:0:0:
256,192,288723,5,8,0:0:0:0:
256,192,288802,5,0,0:0:0:0:
256,192,288881,5,8,0:0:0:0:
256,192,288960,5,0,0:0:0:0:
256,192,289039,5,0,0:0:0:0:
256,192,289118,5,0,0:0:0:0:
256,192,289197,5,8,0:0:0:0:
256,192,289276,5,8,0:0:0:0:
256,192,289355,5,0,0:0:0:0:
256,192,289434,5,0,0:0:0:0:
256,192,289513,5,8,0:0:0:0:
256,192,289592,5,8,0:0:0:0:
256,192,289671,5,8,0:0:0:0:
256,192,289750,5,8,0:0:0:0:
256,192,289828,5,0,0:0:0:0:
256,192,289907,5,0,0:0:0:0:
256,192,289986,5,0,0:0:0:0:
256,192,290065,5,0,0:0:0:0:
256,192,290144,5,8,0:0:0:0:
256,192,290223,5,8,0:0:0:0:
256,192,290302,5,8,0:0:0:0:
256,192,290381,5,0,0:0:0:0:
256,192,290460,5,8,0:0:0:0:
256,192,290539,5,8,0:0:0:0:
256,192,290618,5,8,0:0:0:0:
256,192,290697,5,0,0:0:0:0:
256,192,290776,5,8,0:0:0:0:
256,192,290855,5,8,0:0:0:0:
256,192,290934,5,0,0:0:0:0:
256,192,291013,5,0,0:0:0:0:
256,192,291092,5,8,0:0:0:0:
256,192,291171,5,8,0:0:0:0:
256,192,291250,5,0,0:0:0:0:
256,192,291328,5,0,0:0:0:0:
256,192,291407,5,0,0:0:0:0:
256,192,291486,5,0,0:0:0:0:
256,192,291565,5,0,0:0:0:0:
256,192,291644,5,0,0:0:0:0:
256,192,291723,5,8,0:0:0:0:
256,192,291802,5,8,0:0:0:0:
256,192,291881,5,0,0:0:0:0:
256,192,291960,5,0,0:0:0:0:
256,192,292039,5,8,0:0:0:0:
256,192,292118,5,8,0:0:0:0:
256,192,292197,5,8,0:0:0:0:
256,192,292276,5,0,0:0:0:0:
256,192,292355,5,8,0:0:0:0:
256,192,292434,5,0,0:0:0:0:
256,192,292513,5,8,0:0:0:0:
256,192,292592,5,8,0:0:0:0:
256,192,292671,5,0,0:0:0:0:
256,192,292750,5,0,0:0:0:0:
256,192,292828,5,0,0:0:0:0:
256,192,292907,5,0,0:0:0:0:
256,192,292986,5,8,0:0:0:0:
256,192,293065,5,8,0:0:0:0:
256,192,293144,5,0,0:0:0:0:
256,192,293223,5,0,0:0:0:0:
256,192,293302,5,8,0:0:0:0:
256,192,293381,5,8,0:0:0:0:
256,192,293460,5,8,0:0:0:0:
256,192,293539,5,0,0:0:0:0:
256,192,293618,5,8,0:0:0:0:
256,192,293697,5,8,0:0:0:0:
256,192,293776,5,0,0:0:0:0:
256,192,293855,5,0,0:0:0:0:
256,192,293934,5,8,0:0:0:0:
256,192,294013,5,0,0:0:0:0:
256,192,294092,5,0,0:0:0:0:
256,192,294171,5,0,0:0:0:0:
256,192,294250,5,8,0:0:0:0:
256,192,294328,5,8,0:0:0:0:
256,192,294407,5,8,0:0:0:0:
256,192,294486,5,8,0:0:0:0:
256,192,294565,5,0,0:0:0:0:
256,192,294644,5,0,0:0:0:0:
256,192,294723,5,0,0:0:0:0:
256,192,294802,5,0,0:0:0:0:
256,192,294881,5,8,0:0:0:0:
256,192,294960,5,0,0:0:0:0:
256,192,295039,5,0,0:0:0:0:
256,192,295118,5,0,0:0:0:0:
256,192,295197,5,8,0:0:0:0:
256,192,295276,1,8,0:0:0:0:
256,192,295355,1,8,0:0:0:0:
256,192,295434,1,8,0:0:0:0:
256,192,295513,1,0,0:0:0:0:
256,192,295592,1,8,0:0:0:0:
256,192,295671,1,0,0:0:0:0:
256,192,295750,1,0,0:0:0:0:
256,192,295828,1,8,0:0:0:0:
256,192,295907,5,8,0:0:0:0:
256,192,295986,5,8,0:0:0:0:
256,192,296065,5,0,0:0:0:0:
256,192,296144,5,8,0:0:0:0:
256,192,296223,5,8,0:0:0:0:
256,192,296302,5,8,0:0:0:0:
256,192,296381,5,8,0:0:0:0:
256,192,296460,5,0,0:0:0:0:
256,192,296539,5,0,0:0:0:0:
256,192,296618,5,0,0:0:0:0:
256,192,296697,5,0,0:0:0:0:
256,192,296776,5,8,0:0:0:0:
256,192,296855,5,8,0:0:0:0:
256,192,296934,5,0,0:0:0:0:
256,192,297013,5,0,0:0:0:0:
256,192,297092,5,8,0:0:0:0:
256,192,297171,5,8,0:0:0:0:
256,192,297250,5,0,0:0:0:0:
256,192,297328,5,0,0:0:0:0:
256,192,297407,5,8,0:0:0:0:
256,192,297486,5,8,0:0:0:0:
256,192,297565,5,8,0:0:0:0:
256,192,297644,5,0,0:0:0:0:
256,192,297723,5,8,0:0:0:0:
256,192,297802,5,8,0:0:0:0:
256,192,297881,5,8,0:0:0:0:
256,192,297960,5,8,0:0:0:0:
256,192,298039,5,0,0:0:0:0:
256,192,298118,5,0,0:0:0:0:
256,192,298197,5,0,0:0:0:0:
256,192,298276,5,0,0:0:0:0:
256,192,298355,5,8,0:0:0:0:
256,192,298434,5,8,0:0:0:0:
256,192,298513,5,8,0:0:0:0:
256,192,298592,5,0,0:0:0:0:
256,192,298671,5,8,0:0:0:0:
256,192,298750,5,0,0:0:0:0:
256,192,298828,5,0,0:0:0:0:
256,192,298907,5,0,0:0:0:0:
256,192,298986,5,8,0:0:0:0:
256,192,299065,5,8,0:0:0:0:
256,192,299144,5,8,0:0:0:0:
256,192,299223,5,0,0:0:0:0:
256,192,299302,5,8,0:0:0:0:
256,192,299381,5,0,0:0:0:0:
256,192,299460,5,0,0:0:0:0:
256,192,299539,5,0,0:0:0:0:
256,192,299618,5,8,0:0:0:0:
256,192,299697,5,8,0:0:0:0:
256,192,299776,5,0,0:0:0:0:
256,192,299855,5,0,0:0:0:0:
256,192,299934,5,8,0:0:0:0:
256,192,300013,5,0,0:0:0:0:
256,192,300092,5,0,0:0:0:0:
256,192,300171,5,0,0:0:0:0:
256,192,300250,5,8,0:0:0:0:
256,192,300328,5,8,0:0:0:0:
256,192,300407,5,8,0:0:0:0:
256,192,300486,5,0,0:0:0:0:
256,192,300565,5,8,0:0:0:0:
256,192,300644,5,8,0:0:0:0:
256,192,300723,5,0,0:0:0:0:
256,192,300802,5,0,0:0:0:0:
256,192,300881,5,8,0:0:0:0:
256,192,300960,1,0,0:0:0:0:
256,192,301039,1,0,0:0:0:0:
256,192,301118,1,0,0:0:0:0:
256,192,301197,5,8,0:0:0:0:
256,192,301276,1,8,0:0:0:0:
256,192,301355,1,8,0:0:0:0:
256,192,301434,1,8,0:0:0:0:
256,192,301513,1,0,0:0:0:0:
256,192,301592,1,0,0:0:0:0:
256,192,301671,1,0,0:0:0:0:
256,192,301750,1,0,0:0:0:0:
256,192,301828,5,8,0:0:0:0:
256,192,301907,1,0,0:0:0:0:
256,192,301986,1,0,0:0:0:0:
256,192,302065,1,0,0:0:0:0:
256,192,302144,5,8,0:0:0:0:
256,192,302223,1,8,0:0:0:0:
256,192,302302,1,8,0:0:0:0:
256,192,302381,1,0,0:0:0:0:
256,192,302460,5,8,0:0:0:0:
256,192,302539,1,8,0:0:0:0:
256,192,302618,1,0,0:0:0:0:
256,192,302697,1,0,0:0:0:0:
256,192,302776,5,8,0:0:0:0:
256,192,302855,1,8,0:0:0:0:
256,192,302934,1,8,0:0:0:0:
256,192,303013,1,0,0:0:0:0:
256,192,303092,5,8,0:0:0:0:
256,192,303171,1,8,0:0:0:0:
256,192,303250,1,0,0:0:0:0:
256,192,303328,1,0,0:0:0:0:
256,192,303407,5,8,0:0:0:0:
256,192,303486,5,8,0:0:0:0:
256,192,303565,5,0,0:0:0:0:
256,192,303644,5,0,0:0:0:0:
256,192,303723,5,8,0:0:0:0:
256,192,303802,5,8,0:0:0:0:
256,192,303881,5,8,0:0:0:0:
256,192,303960,5,8,0:0:0:0:
256,192,304039,5,0,0:0:0:0:
256,192,304118,5,0,0:0:0:0:
256,192,304197,5,0,0:0:0:0:
256,192,304276,5,0,0:0:0:0:
256,192,304355,5,8,0:0:0:0:
256,192,304434,5,0,0:0:0:0:
256,192,304513,5,0,0:0:0:0:
256,192,304592,5,0,0:0:0:0:
256,192,304671,5,8,0:0:0:0:
256,192,304750,5,0,0:0:0:0:
256,192,304828,5,8,0:0:0:0:
256,192,304907,5,8,0:0:0:0:
256,192,304986,5,0,0:0:0:0:
256,192,305065,5,0,0:0:0:0:
256,192,305144,5,8,0:0:0:0:
256,192,305223,5,0,0:0:0:0:
256,192,305302,5,8,0:0:0:0:
256,192,305381,5,8,0:0:0:0:
256,192,305460,5,8,0:0:0:0:
256,192,305539,5,8,0:0:0:0:
256,192,305618,5,0,0:0:0:0:
256,192,305697,5,0,0:0:0:0:
256,192,305776,5,0,0:0:0:0:
256,192,305855,5,0,0:0:0:0:
256,192,305934,5,8,0:0:0:0:
256,192,306013,5,8,0:0:0:0:
256,192,306092,5,0,0:0:0:0:
256,192,306171,5,0,0:0:0:0:
256,192,306250,5,8,0:0:0:0:
256,192,306328,5,8,0:0:0:0:
256,192,306407,5,8,0:0:0:0:
256,192,306486,5,0,0:0:0:0:
256,192,306565,5,8,0:0:0:0:
256,192,306644,5,8,0:0:0:0:
256,192,306723,5,0,0:0:0:0:
256,192,306802,5,0,0:0:0:0:
256,192,306881,5,8,0:0:0:0:
256,192,306960,5,0,0:0:0:0:
256,192,307039,5,8,0:0:0:0:
256,192,307118,5,8,0:0:0:0:
256,192,307197,5,0,0:0:0:0:
256,192,307276,5,0,0:0:0:0:
256,192,307355,5,8,0:0:0:0:
256,192,307434,5,0,0:0:0:0:
256,192,307513,5,8,0:0:0:0:
256,192,307592,5,8,0:0:0:0:
256,192,307671,5,0,0:0:0:0:
256,192,307750,5,8,0:0:0:0:
256,192,307828,5,0,0:0:0:0:
256,192,307881,5,0,0:0:0:0:
256,192,307934,1,0,0:0:0:0:
256,192,307986,5,8,0:0:0:0:
256,192,308065,5,0,0:0:0:0:
256,192,308144,5,8,0:0:0:0:
256,192,308197,5,8,0:0:0:0:
256,192,308250,1,8,0:0:0:0:
256,192,308302,5,0,0:0:0:0:
256,192,308355,5,0,0:0:0:0:
256,192,308407,1,0,0:0:0:0:
256,192,308460,5,8,0:0:0:0:
256,192,308539,5,8,0:0:0:0:
256,192,308618,5,0,0:0:0:0:
256,192,308697,5,8,0:0:0:0:
256,192,308776,5,8,0:0:0:0:
256,192,308855,5,8,0:0:0:0:
256,192,308934,5,0,0:0:0:0:
256,192,309013,5,8,0:0:0:0:
256,192,309092,5,8,0:0:0:0:
256,192,309171,5,8,0:0:0:0:
256,192,309250,5,0,0:0:0:0:
256,192,309328,5,0,0:0:0:0:
256,192,309407,5,8,0:0:0:0:
256,192,309486,5,0,0:0:0:0:
256,192,309565,5,8,0:0:0:0:
256,192,309644,5,8,0:0:0:0:
256,192,309723,5,0,0:0:0:0:
256,192,309802,5,0,0:0:0:0:
256,192,309881,5,8,0:0:0:0:
256,192,309960,5,0,0:0:0:0:
256,192,310039,5,8,0:0:0:0:
256,192,310118,5,8,0:0:0:0:
256,192,310197,5,0,0:0:0:0:
256,192,310276,5,0,0:0:0:0:
256,192,310355,5,8,0:0:0:0:
256,192,310407,5,0,0:0:0:0:
256,192,310460,1,0,0:0:0:0:
256,192,310513,5,8,0:0:0:0:
256,192,310592,5,0,0:0:0:0:
256,192,310671,5,8,0:0:0:0:
256,192,310723,5,8,0:0:0:0:
256,192,310776,1,8,0:0:0:0:
256,192,310828,5,0,0:0:0:0:
256,192,310881,1,0,0:0:0:0:
256,192,310934,5,0,0:0:0:0:
256,192,310986,5,8,0:0:0:0:
256,192,311065,5,8,0:0:0:0:
256,192,311144,5,0,0:0:0:0:
256,192,311223,5,0,0:0:0:0:
256,192,311302,5,8,0:0:0:0:
256,192,311381,5,0,0:0:0:0:
256,192,311460,5,8,0:0:0:0:
256,192,311539,5,0,0:0:0:0:
256,192,311618,5,8,0:0:0:0:
256,192,311697,5,8,0:0:0:0:
256,192,311776,5,0,0:0:0:0:
256,192,311855,5,0,0:0:0:0:
256,192,311934,5,8,0:0:0:0:
256,192,312013,5,0,0:0:0:0:
256,192,312092,5,8,0:0:0:0:
256,192,312171,5,8,0:0:0:0:
256,192,312250,5,0,0:0:0:0:
256,192,312328,5,8,0:0:0:0:
256,192,312407,5,0,0:0:0:0:
256,192,312486,5,0,0:0:0:0:
256,192,312565,5,8,0:0:0:0:
256,192,312644,5,0,0:0:0:0:
256,192,312723,5,8,0:0:0:0:
256,192,312802,5,0,0:0:0:0:
256,192,312881,5,8,0:0:0:0:
256,192,312960,5,8,0:0:0:0:
256,192,313039,5,8,0:0:0:0:
256,192,313118,5,8,0:0:0:0:
256,192,313197,5,0,0:0:0:0:
256,192,313276,5,0,0:0:0:0:
256,192,313355,5,0,0:0:0:0:
256,192,313434,5,0,0:0:0:0:
256,192,313513,5,12,0:0:0:0:
256,192,313671,5,8,0:0:0:0:
256,192,313828,5,8,0:0:0:0:
256,192,313986,5,4,0:0:0:0:
256,192,314144,5,0,0:0:0:0:
256,192,314302,5,8,0:0:0:0:
256,192,314460,5,4,0:0:0:0:
256,192,314618,5,8,0:0:0:0:
256,192,314776,5,4,0:0:0:0:
256,192,314934,5,8,0:0:0:0:
256,192,315013,5,0,0:0:0:0:
256,192,315092,5,8,0:0:0:0:
256,192,315171,5,8,0:0:0:0:
256,192,315250,5,0,0:0:0:0:
256,192,315328,5,0,0:0:0:0:
256,192,315407,5,8,0:0:0:0:
256,192,315486,5,0,0:0:0:0:
256,192,315565,5,8,0:0:0:0:
256,192,315644,5,8,0:0:0:0:
256,192,315723,5,0,0:0:0:0:
256,192,315802,5,0,0:0:0:0:
256,192,315881,5,0,0:0:0:0:
256,192,315960,5,0,0:0:0:0:
256,192,316039,5,8,0:0:0:0:
256,192,316118,5,8,0:0:0:0:
256,192,316197,5,0,0:0:0:0:
256,192,316276,5,0,0:0:0:0:
256,192,316355,5,8,0:0:0:0:
256,192,316434,5,0,0:0:0:0:
256,192,316513,5,8,0:0:0:0:
256,192,316592,5,8,0:0:0:0:
256,192,316671,5,0,0:0:0:0:
256,192,316750,5,8,0:0:0:0:
256,192,316828,5,0,0:0:0:0:
256,192,316907,5,0,0:0:0:0:
256,192,316986,5,8,0:0:0:0:
256,192,317065,5,8,0:0:0:0:
256,192,317144,5,0,0:0:0:0:
256,192,317223,5,0,0:0:0:0:
256,192,317302,5,8,0:0:0:0:
256,192,317381,5,0,0:0:0:0:
256,192,317460,5,8,0:0:0:0:
256,192,317539,5,0,0:0:0:0:
256,192,317618,5,8,0:0:0:0:
256,192,317697,5,8,0:0:0:0:
256,192,317776,5,0,0:0:0:0:
256,192,317855,5,8,0:0:0:0:
256,192,317934,5,0,0:0:0:0:
256,192,317986,5,0,0:0:0:0:
256,192,318039,1,0,0:0:0:0:
256,192,318092,5,8,0:0:0:0:
256,192,318171,5,0,0:0:0:0:
256,192,318250,5,8,0:0:0:0:
256,192,318302,1,8,0:0:0:0:
256,192,318355,5,8,0:0:0:0:
256,192,318407,5,0,0:0:0:0:
256,192,318460,5,0,0:0:0:0:
256,192,318513,1,0,0:0:0:0:
256,192,318565,5,8,0:0:0:0:
256,192,318644,5,8,0:0:0:0:
256,192,318723,5,0,0:0:0:0:
256,192,318802,5,0,0:0:0:0:
256,192,318881,5,8,0:0:0:0:
256,192,318960,5,0,0:0:0:0:
256,192,319039,5,8,0:0:0:0:
256,192,319118,5,0,0:0:0:0:
256,192,319197,5,8,0:0:0:0:
256,192,319276,5,8,0:0:0:0:
256,192,319355,5,0,0:0:0:0:
256,192,319434,5,0,0:0:0:0:
256,192,319513,5,8,0:0:0:0:
256,192,319592,5,0,0:0:0:0:
256,192,319671,5,8,0:0:0:0:
256,192,319750,5,0,0:0:0:0:
256,192,319828,5,8,0:0:0:0:
256,192,319907,5,8,0:0:0:0:
256,192,319986,5,8,0:0:0:0:
256,192,320065,5,0,0:0:0:0:
256,192,320144,5,8,0:0:0:0:
256,192,320223,5,8,0:0:0:0:
256,192,320302,5,0,0:0:0:0:
256,192,320381,5,0,0:0:0:0:
256,192,320460,5,8,0:0:0:0:
256,192,320513,1,8,0:0:0:0:
256,192,320565,1,8,0:0:0:0:
256,192,320618,1,0,0:0:0:0:
256,192,320697,1,0,0:0:0:0:
256,192,320776,1,8,0:0:0:0:
256,192,320828,1,8,0:0:0:0:
256,192,320881,1,8,0:0:0:0:
256,192,320934,1,0,0:0:0:0:
256,192,320986,1,0,0:0:0:0:
256,192,321039,1,0,0:0:0:0:
256,192,321092,1,8,0:0:0:0:
256,192,321171,5,8,0:0:0:0:
256,192,321250,5,0,0:0:0:0:
256,192,321328,5,0,0:0:0:0:
256,192,321407,5,8,0:0:0:0:
256,192,321486,5,0,0:0:0:0:
256,192,321565,5,8,0:0:0:0:
256,192,321644,5,0,0:0:0:0:
256,192,321723,5,8,0:0:0:0:
256,192,321802,5,8,0:0:0:0:
256,192,321881,5,0,0:0:0:0:
256,192,321960,5,0,0:0:0:0:
256,192,322039,5,8,0:0:0:0:
256,192,322118,5,8,0:0:0:0:
256,192,322197,5,0,0:0:0:0:
256,192,322276,5,0,0:0:0:0:
256,192,322355,5,8,0:0:0:0:
256,192,322434,5,0,0:0:0:0:
256,192,322513,5,8,0:0:0:0:
256,192,322592,5,0,0:0:0:0:
256,192,322671,5,8,0:0:0:0:
256,192,322750,5,8,0:0:0:0:
256,192,322828,5,0,0:0:0:0:
256,192,322907,5,0,0:0:0:0:
256,192,322986,5,8,0:0:0:0:
256,192,323065,5,8,0:0:0:0:
256,192,323144,5,8,0:0:0:0:
256,192,323223,5,8,0:0:0:0:
256,192,323302,5,0,0:0:0:0:
256,192,323381,5,0,0:0:0:0:
256,192,323460,5,0,0:0:0:0:
256,192,323539,5,0,0:0:0:0:
256,192,323618,5,12,0:0:0:0:
256,192,323776,5,8,0:0:0:0:
256,192,323934,5,8,0:0:0:0:
256,192,324092,5,4,0:0:0:0:
256,192,324250,5,8,0:0:0:0:
256,192,324407,5,8,0:0:0:0:
256,192,324565,5,4,0:0:0:0:
256,192,324723,5,8,0:0:0:0:
256,192,324881,5,4,0:0:0:0:
256,192,325039,5,8,0:0:0:0:
256,192,325197,5,8,0:0:0:0:
256,192,325355,5,4,0:0:0:0:
256,192,325513,5,8,0:0:0:0:
256,192,325671,5,8,0:0:0:0:
256,192,325828,5,4,0:0:0:0:
256,192,325986,5,8,0:0:0:0:
256,192,326144,5,12,0:0:0:0:
