osu file format v14

[General]
AudioFilename: audio.mp3
AudioLeadIn: 0
PreviewTime: 104530
Countdown: 0
SampleSet: Drum
StackLeniency: 0.7
Mode: 0
LetterboxInBreaks: 0
WidescreenStoryboard: 1

[Editor]
Bookmarks: 52588,53274,74530,76587,82758,83444,85501,104701,114216,115673,120044,120216,121158,123216,123901,147730,148587,158187,159558,181505,214416,233018,234584,239279,241366,247572,248943,268138,285079,296050,299491,299576,299662,312507,317992,319364,320735,322107,323478,328964
DistanceSpacing: 0.7
BeatDivisor: 4
GridSize: 8
TimelineZoom: 2.1

[Metadata]
Title:Warrior Of Ice
TitleUnicode:Warrior Of Ice
Artist:Rhapsody
ArtistUnicode:Rhapsody
Creator:Dcs
Version:Mystic
Source:
Tags:symphonic power metal powermetal english streams rhapsody of fire legendary tales marathon
BeatmapID:3571123
BeatmapSetID:1740038

[Difficulty]
HPDrainRate:4.5
CircleSize:4
OverallDifficulty:9.1
ApproachRate:9.3
SliderMultiplier:1.4
SliderTickRate:1

[Events]
//Background and Video events
0,0,"bg.jpg",0,0
//Break Periods
//Storyboard Layer 0 (Background)
//Storyboard Layer 1 (Fail)
//Storyboard Layer 2 (Pass)
//Storyboard Layer 3 (Foreground)
//Storyboard Layer 4 (Overlay)
//Storyboard Sound Samples

[TimingPoints]
121,600,4,3,1,80,1,0
121,-83.3333333333333,4,3,1,80,0,0
2221,-83.3333333333333,4,3,1,5,0,0
2521,-83.3333333333333,4,3,1,80,0,0
4621,-83.3333333333333,4,3,1,5,0,0
4921,-83.3333333333333,4,3,1,80,0,0
5821,-83.3333333333333,4,3,1,5,0,0
6121,-71.4285714285714,4,2,1,50,0,0
6421,-71.4285714285714,4,2,1,5,0,0
6721,-83.3333333333333,4,3,1,80,0,0
7021,-83.3333333333333,4,3,1,5,0,0
7321,-83.3333333333333,4,3,1,80,0,0
7921,-83.3333333333333,4,3,1,5,0,0
8221,-71.4285714285714,4,2,1,50,0,0
8521,-71.4285714285714,4,2,1,50,0,0
9121,-71.4285714285714,4,2,1,5,0,0
9721,-83.3333333333333,4,3,1,80,0,0
10321,-83.3333333333333,4,3,1,5,0,0
10621,-71.4285714285714,4,2,1,50,0,0
11371,-71.4285714285714,4,2,1,5,0,0
11521,-71.4285714285714,4,2,1,50,0,0
11821,-71.4285714285714,4,2,1,5,0,0
12121,-83.3333333333333,4,3,1,80,0,0
12721,-83.3333333333333,4,3,1,5,0,0
13021,-71.4285714285714,4,2,1,50,0,0
13771,-71.4285714285714,4,2,1,5,0,0
13921,-71.4285714285714,4,2,1,50,0,0
14221,-71.4285714285714,4,2,1,5,0,0
14521,-83.3333333333333,4,3,1,80,0,0
15421,-83.3333333333333,4,3,1,5,0,0
15721,-83.3333333333333,4,3,1,80,0,0
16021,-83.3333333333333,4,3,1,5,0,0
16321,-71.4285714285714,4,2,1,50,0,0
16621,-71.4285714285714,4,2,1,5,0,0
16921,-83.3333333333333,4,3,1,80,0,0
17821,-83.3333333333333,4,3,1,5,0,0
18121,-83.3333333333333,4,3,1,50,0,0
19321,-83.3333333333333,4,3,1,80,0,0
21421,-83.3333333333333,4,3,1,5,0,0
21721,-83.3333333333333,4,3,1,80,0,0
23821,-83.3333333333333,4,3,1,5,0,0
24121,-83.3333333333333,4,3,1,80,0,0
25021,-83.3333333333333,4,3,1,5,0,0
25321,-71.4285714285714,4,2,1,50,0,0
25621,-71.4285714285714,4,2,1,5,0,0
25921,-83.3333333333333,4,3,1,80,0,0
26221,-83.3333333333333,4,3,1,5,0,0
26521,-83.3333333333333,4,3,1,80,0,0
26821,-83.3333333333333,4,3,1,5,0,0
27121,-71.4285714285714,4,2,1,50,0,0
27721,-71.4285714285714,4,2,1,50,0,0
28621,-71.4285714285714,4,2,1,5,0,0
28921,-83.3333333333333,4,3,1,80,0,0
29821,-83.3333333333333,4,3,1,5,0,0
30121,-71.4285714285714,4,2,1,50,0,0
31321,-90.9090909090909,4,3,1,80,0,0
33421,-90.9090909090909,4,3,1,5,0,0
33721,748.129675810474,4,3,1,80,1,0
33721,-100,4,3,1,80,0,0
34843,-100,4,3,1,5,0,0
35217,800,4,3,1,80,1,0
35217,-105.263157894737,4,3,1,80,0,0
35817,-105.263157894737,4,3,1,5,0,0
36017,-105.263157894737,4,3,1,80,0,0
36617,-105.263157894737,4,3,1,5,0,0
36817,857.142857142857,4,3,1,80,1,0
36817,-105.263157894737,4,3,1,80,0,0
38102,-105.263157894737,4,3,1,5,0,0
38531,-117.647058823529,4,3,1,80,0,0
39388,-117.647058823529,4,3,1,80,0,0
40245,-117.647058823529,4,3,1,80,0,0
40352,-117.647058823529,4,2,1,5,0,0
43674,342.857142857143,4,3,1,65,1,0
43845,-66.6666666666667,4,3,1,45,0,0
44874,-66.6666666666667,4,3,1,65,0,0
45216,-66.6666666666667,4,3,1,45,0,0
46245,-66.6666666666667,4,3,1,65,0,0
46588,-66.6666666666667,4,3,1,45,0,0
47616,-66.6666666666667,4,3,1,65,0,0
47959,-66.6666666666667,4,3,1,50,0,0
48474,-66.6666666666667,4,3,1,55,0,0
49159,-66.6666666666667,4,3,1,60,0,0
52588,-58.8235294117647,4,3,1,60,0,0
53274,-66.6666666666667,4,3,1,60,0,0
53531,-66.6666666666667,4,3,1,5,0,0
53616,-66.6666666666667,4,3,1,60,0,0
54216,-66.6666666666667,4,3,1,5,0,0
54302,-66.6666666666667,4,3,1,60,0,0
58074,-58.8235294117647,4,3,1,60,0,0
58759,-66.6666666666667,4,3,1,60,0,0
59016,-66.6666666666667,4,3,1,5,0,0
59102,-66.6666666666667,4,3,1,60,0,0
59702,-66.6666666666667,4,3,1,5,0,0
59788,-66.6666666666667,4,3,1,60,0,0
60131,-88.4955752212389,4,3,1,60,0,0
60474,-66.6666666666667,4,3,1,5,0,0
60645,-66.6666666666667,4,3,1,60,0,0
60816,342.857142857143,4,3,1,60,1,0
60816,-71.4285714285714,4,3,1,60,0,0
74530,-71.4285714285714,4,3,1,45,0,0
76587,-142.857142857143,4,3,1,45,0,0
78644,-111.111111111111,4,3,1,45,0,0
79330,-142.857142857143,4,3,1,45,0,0
81387,-90.9090909090909,4,3,1,55,0,0
82587,-71.4285714285714,4,3,1,60,0,0
104701,-55.5555555555556,4,3,1,70,0,0
104873,-55.5555555555556,4,3,1,5,0,0
106073,-55.5555555555556,4,3,1,70,0,0
106187,-76.9230769230769,4,3,1,70,0,0
107444,-55.5555555555556,4,3,1,70,0,0
107616,-55.5555555555556,4,3,1,5,0,0
108816,-71.4285714285714,4,3,1,70,0,0
110187,-71.4285714285714,4,3,1,70,0,1
115673,-55.5555555555556,4,3,1,70,0,1
115844,-55.5555555555556,4,3,1,5,0,1
116701,-55.5555555555556,4,3,1,70,0,1
116787,-55.5555555555556,4,3,1,5,0,1
116873,-55.5555555555556,4,3,1,70,0,1
116958,-55.5555555555556,4,3,1,5,0,1
117044,-55.5555555555556,4,3,1,70,0,1
117216,-55.5555555555556,4,3,1,40,0,1
117301,-55.5555555555556,4,3,1,40,0,1
117387,-66.6666666666667,4,3,1,40,0,1
118244,-66.6666666666667,4,3,1,40,0,1
118416,-66.6666666666667,4,3,1,70,0,1
121158,-55.5555555555556,4,3,1,70,0,1
121330,-55.5555555555556,4,3,1,5,0,1
122187,-55.5555555555556,4,3,1,70,0,1
122273,-55.5555555555556,4,3,1,5,0,1
122358,-55.5555555555556,4,3,1,70,0,1
122444,-55.5555555555556,4,3,1,5,0,1
122530,-66.6666666666667,4,3,1,70,0,1
123044,-66.6666666666667,4,3,1,40,0,1
123216,-66.6666666666667,4,3,1,70,0,1
126644,-66.6666666666667,4,3,1,60,0,0
130073,-58.8235294117647,4,3,1,60,0,0
130758,-66.6666666666667,4,3,1,60,0,0
131016,-66.6666666666667,4,3,1,5,0,0
131101,-66.6666666666667,4,3,1,60,0,0
131701,-66.6666666666667,4,3,1,5,0,0
131787,-66.6666666666667,4,3,1,60,0,0
134530,-83.3333333333333,4,3,1,60,0,0
134873,-66.6666666666667,4,3,1,60,0,0
135558,-58.8235294117647,4,3,1,60,0,0
136244,-66.6666666666667,4,3,1,60,0,0
136501,-66.6666666666667,4,3,1,5,0,0
136587,-66.6666666666667,4,3,1,60,0,0
137187,-66.6666666666667,4,3,1,5,0,0
137273,-66.6666666666667,4,3,1,60,0,0
137616,-71.4285714285714,4,3,1,60,0,0
147216,-66.6666666666667,4,3,1,60,0,0
148416,-71.4285714285714,4,3,1,60,0,0
157501,-66.6666666666667,4,3,1,60,0,0
159558,-55.5555555555556,4,3,1,70,0,0
159730,-55.5555555555556,4,3,1,5,0,0
160930,-76.9230769230769,4,3,1,70,0,0
162301,-55.5555555555556,4,3,1,70,0,0
162473,-55.5555555555556,4,3,1,5,0,0
163673,-71.4285714285714,4,3,1,70,0,0
164016,-71.4285714285714,4,3,1,70,0,0
165044,-71.4285714285714,4,3,1,70,0,1
170530,-55.5555555555556,4,3,1,70,0,1
170701,-55.5555555555556,4,3,1,5,0,1
171558,-55.5555555555556,4,3,1,70,0,1
171644,-55.5555555555556,4,3,1,5,0,1
171730,-55.5555555555556,4,3,1,70,0,1
171816,-55.5555555555556,4,3,1,5,0,1
171901,-55.5555555555556,4,3,1,70,0,1
172073,-55.5555555555556,4,3,1,40,0,1
172158,-55.5555555555556,4,3,1,40,0,1
172244,-66.6666666666667,4,3,1,40,0,1
173101,-66.6666666666667,4,3,1,40,0,1
173273,-66.6666666666667,4,3,1,70,0,1
176016,-55.5555555555556,4,3,1,70,0,1
176187,-55.5555555555556,4,3,1,5,0,1
177044,-55.5555555555556,4,3,1,70,0,1
177130,-55.5555555555556,4,3,1,5,0,1
177216,-55.5555555555556,4,3,1,70,0,1
177301,-55.5555555555556,4,3,1,5,0,1
177387,-66.6666666666667,4,3,1,70,0,1
177644,-66.6666666666667,4,3,1,5,0,1
177730,-66.6666666666667,4,3,1,70,0,1
181501,-66.6666666666667,4,3,1,60,0,0
184930,-58.8235294117647,4,3,1,60,0,0
185616,-66.6666666666667,4,3,1,60,0,0
185873,-66.6666666666667,4,3,1,5,0,0
185958,-66.6666666666667,4,3,1,60,0,0
186558,-66.6666666666667,4,3,1,5,0,0
186644,-66.6666666666667,4,3,1,60,0,0
189387,-83.3333333333333,4,3,1,60,0,0
189730,-66.6666666666667,4,3,1,60,0,0
190416,-58.8235294117647,4,3,1,60,0,0
191101,-66.6666666666667,4,3,1,60,0,0
191358,-66.6666666666667,4,3,1,5,0,0
191444,-66.6666666666667,4,3,1,60,0,0
192473,-166.666666666667,4,3,1,80,0,0
193673,-166.666666666667,4,3,1,5,0,0
193844,-166.666666666667,4,3,1,80,0,0
194187,-166.666666666667,4,2,1,50,0,0
194530,-111.111111111111,4,2,1,50,0,0
195044,-111.111111111111,4,2,1,5,0,0
195216,-166.666666666667,4,3,1,80,0,0
196416,-166.666666666667,4,3,1,5,0,0
196587,-166.666666666667,4,3,1,80,0,0
196930,-111.111111111111,4,2,1,50,0,0
197958,-166.666666666667,4,3,1,80,0,0
199158,-166.666666666667,4,3,1,5,0,0
199330,-166.666666666667,4,3,1,80,0,0
199844,-166.666666666667,4,3,1,5,0,0
200016,-166.666666666667,4,3,1,80,0,0
200530,-166.666666666667,4,3,1,5,0,0
200701,-166.666666666667,4,3,1,80,0,0
201901,-166.666666666667,4,3,1,5,0,0
202073,-166.666666666667,4,3,1,80,0,0
203273,-166.666666666667,4,3,1,5,0,0
203444,-166.666666666667,4,3,1,80,0,0
204644,-166.666666666667,4,3,1,5,0,0
204816,-166.666666666667,4,3,1,80,0,0
205158,-111.111111111111,4,2,1,50,0,0
205501,-111.111111111111,4,2,1,50,0,0
206016,-111.111111111111,4,2,1,5,0,0
206187,-166.666666666667,4,3,1,80,0,0
207387,-166.666666666667,4,3,1,5,0,0
207558,-166.666666666667,4,3,1,80,0,0
207901,-111.111111111111,4,2,1,50,0,0
208930,-166.666666666667,4,3,1,80,0,0
209444,-166.666666666667,4,3,1,5,0,0
209616,-111.111111111111,4,2,1,50,0,0
210301,-166.666666666667,4,3,1,80,0,0
210816,-166.666666666667,4,3,1,5,0,0
210987,-166.666666666667,4,3,1,80,0,0
211501,-166.666666666667,4,3,1,5,0,0
211673,-166.666666666667,4,3,1,80,0,0
212873,-166.666666666667,4,3,1,5,0,0
213045,-166.666666666667,4,3,1,80,0,0
213901,-166.666666666667,4,3,1,5,0,0
214073,-188.679245283019,4,2,4,40,0,0
214416,689.655172413793,4,2,4,30,1,0
214416,-95.2380952380952,4,2,4,30,0,0
214473,-105.263157894737,4,2,4,30,0,0
215105,645.161290322581,4,2,4,30,1,0
215105,-80,4,2,4,30,0,0
215266,-80,4,2,4,5,0,0
215427,794.701986754967,4,2,4,30,1,0
215427,-80,4,2,4,30,0,0
215625,-80,4,2,4,5,0,0
215824,688.468158347676,4,2,4,30,1,0
215824,-80,4,2,4,30,0,0
216512,-95.2380952380952,4,2,4,30,0,0
216684,-95.2380952380952,4,2,4,5,0,0
216856,-117.647058823529,4,2,4,30,0,0
217028,-95.2380952380952,4,2,4,5,0,0
217200,704.225352112676,4,2,4,30,1,0
217258,-84.7457627118644,4,2,4,30,0,0
217728,-84.7457627118644,4,2,4,5,0,0
217904,-96.1538461538461,4,2,4,30,0,0
218432,-96.1538461538461,4,2,4,5,0,0
218608,697.674418604651,4,2,4,30,1,0
218608,-128.205128205128,4,2,4,30,0,0
219305,612.244897959184,4,2,4,30,1,0
219917,674.157303370787,4,2,4,30,1,0
219917,-105.263157894737,4,2,4,30,0,0
219973,-105.263157894737,4,2,4,30,0,0
220422,-105.263157894737,4,2,4,5,0,0
220591,-105.263157894737,4,2,4,30,0,0
221265,697.674418604651,4,2,4,30,1,0
221265,-117.647058823529,4,2,4,30,0,0
221962,-86.9565217391304,4,2,4,30,0,0
222137,-86.9565217391304,4,2,4,5,0,0
222311,-117.647058823529,4,2,4,30,0,0
222485,-117.647058823529,4,2,4,5,0,0
222660,674.157303370787,4,2,4,30,1,0
222660,-166.666666666667,4,2,4,30,0,0
223165,-166.666666666667,4,2,4,5,0,0
223502,759.493670886076,4,2,4,30,1,0
223502,-181.818181818182,4,2,4,30,0,0
223881,-105.263157894737,4,2,4,5,0,0
224071,666.666666666667,4,2,4,30,1,0
224071,-181.818181818182,4,2,4,30,0,0
224293,-181.818181818182,4,2,4,5,0,0
226071,687.285223367698,4,2,4,30,1,0
226758,521.739130434783,4,3,1,60,1,0
226758,-55.5555555555556,4,3,1,60,0,0
229540,-47.6190476190476,4,3,1,60,0,0
230410,-55.5555555555556,4,3,1,60,0,0
230931,-55.5555555555556,4,3,1,60,0,0
243453,342.857142857143,4,3,1,70,1,1
243453,-66.6666666666667,4,3,1,70,0,1
254081,-58.8235294117647,4,3,1,70,0,1
254424,369.230769230769,4,2,4,50,1,0
254424,-83.3333333333333,4,2,4,50,0,0
254700,-83.3333333333333,4,2,4,5,0,0
254793,-83.3333333333333,4,2,4,50,0,0
254885,-83.3333333333333,4,2,4,5,0,0
254977,-83.3333333333333,4,2,4,50,0,0
255070,-83.3333333333333,4,2,4,5,0,0
255162,333.333333333333,4,2,4,50,1,0
255162,-83.3333333333333,4,2,4,50,0,0
255495,-83.3333333333333,4,2,4,50,0,0
255828,333.333333333333,4,2,2,50,1,0
255828,-76.9230769230769,4,2,2,50,0,0
256161,-83.3333333333333,4,2,2,50,0,0
256494,-90.9090909090909,4,2,2,50,0,0
256828,-100,4,2,2,50,0,0
257161,-83.3333333333333,4,2,4,50,0,0
257216,338.028169014084,4,2,4,50,1,0
257216,-83.3333333333333,4,2,4,50,0,0
257892,-76.9230769230769,4,2,4,50,0,0
258568,349.854227405248,4,2,4,60,1,0
258568,-66.6666666666667,4,2,4,60,0,0
258655,-66.6666666666667,4,2,4,5,0,0
258742,-83.3333333333333,4,2,4,60,0,0
258830,-83.3333333333333,4,2,4,5,0,0
258917,-66.6666666666667,4,2,4,60,0,0
259005,-66.6666666666667,4,2,4,5,0,0
259092,-83.3333333333333,4,2,4,60,0,0
259180,-66.6666666666667,4,2,4,5,0,0
259267,-66.6666666666667,4,2,4,60,0,0
259355,-66.6666666666667,4,2,4,5,0,0
259442,-83.3333333333333,4,2,4,60,0,0
259530,-66.6666666666667,4,2,4,5,0,0
259617,-66.6666666666667,4,2,4,60,0,0
259705,-66.6666666666667,4,2,4,5,0,0
259792,-83.3333333333333,4,2,4,60,0,0
259879,-83.3333333333333,4,2,4,5,0,0
259967,338.028169014084,4,2,4,50,1,0
259967,-83.3333333333333,4,2,4,50,0,0
260643,-66.6666666666667,4,2,4,50,0,0
261319,-76.9230769230769,4,2,2,50,0,0
261657,-83.3333333333333,4,2,2,50,0,0
261995,-90.9090909090909,4,2,2,50,0,0
262333,-100,4,2,2,50,0,0
262673,-83.3333333333333,4,2,4,50,0,0
262755,324.324324324324,4,2,4,50,1,0
262755,-83.3333333333333,4,2,4,50,0,0
263403,328.767123287671,4,2,4,50,1,0
263403,-66.6666666666667,4,2,4,50,0,0
264060,350.36496350365,4,2,4,60,1,0
264060,-66.6666666666667,4,2,4,60,0,0
264147,-66.6666666666667,4,2,4,5,0,0
264235,-83.3333333333333,4,2,4,60,0,0
264322,-83.3333333333333,4,2,4,5,0,0
264410,-66.6666666666667,4,2,4,60,0,0
264497,-66.6666666666667,4,2,4,5,0,0
264585,-83.3333333333333,4,2,4,60,0,0
264673,-83.3333333333333,4,2,4,5,0,0
264760,-66.6666666666667,4,2,4,60,0,0
264848,-66.6666666666667,4,2,4,5,0,0
264935,-83.3333333333333,4,2,4,60,0,0
265020,-83.3333333333333,4,2,4,5,0,0
265111,-66.6666666666667,4,2,4,60,0,0
265198,-66.6666666666667,4,2,4,5,0,0
265286,-83.3333333333333,4,2,4,60,0,0
265373,-83.3333333333333,4,2,4,5,0,0
265461,-66.6666666666667,4,2,4,60,0,0
265549,-66.6666666666667,4,2,4,5,0,0
265636,-83.3333333333333,4,2,4,60,0,0
265724,-83.3333333333333,4,2,4,5,0,0
265811,-66.6666666666667,4,2,4,60,0,0
265899,-66.6666666666667,4,2,4,5,0,0
265987,-83.3333333333333,4,2,4,60,0,0
266074,-83.3333333333333,4,2,4,5,0,0
266162,333.333333333333,4,2,4,60,1,0
266162,-66.6666666666667,4,2,4,60,0,0
266245,-66.6666666666667,4,2,4,5,0,0
266328,-83.3333333333333,4,2,4,60,0,0
266412,-83.3333333333333,4,2,4,5,0,0
266495,-66.6666666666667,4,2,4,60,0,0
266578,-66.6666666666667,4,2,4,5,0,0
266662,-83.3333333333333,4,2,4,60,0,0
266745,-83.3333333333333,4,2,4,5,0,0
266828,705.882352941176,4,2,4,50,1,0
266828,-200,4,2,4,50,0,0
267357,-200,4,2,4,5,0,0
267533,605.296343001261,4,2,4,50,1,0
267533,-76.9230769230769,4,2,4,50,0,0
267684,-76.9230769230769,4,2,4,5,0,0
268138,352.941176470588,4,3,1,60,1,0
268138,-76.9230769230769,4,3,1,60,0,0
273079,-83.3333333333333,4,3,1,60,0,0
273785,-100,4,3,1,60,0,0
276608,-71.4285714285714,4,3,1,60,0,0
278020,-71.4285714285714,4,3,1,60,0,0
280843,-66.6666666666667,4,3,1,60,0,0
282255,-111.111111111111,4,3,1,60,0,0
283314,-111.111111111111,4,3,1,60,0,0
283402,-111.111111111111,4,3,1,5,0,0
283490,-111.111111111111,4,3,1,60,0,0
283579,-111.111111111111,4,3,1,5,0,0
283667,-111.111111111111,4,3,1,60,0,0
284373,-111.111111111111,4,3,1,60,0,0
284549,-111.111111111111,4,3,1,5,0,0
284726,-111.111111111111,4,3,1,60,0,0
285079,342.857142857143,4,3,1,70,1,0
285079,-62.5,4,3,1,70,0,0
285250,-62.5,4,3,1,5,0,0
286450,-62.5,4,3,1,70,0,0
286621,-62.5,4,3,1,5,0,0
287821,-62.5,4,3,1,70,0,0
287993,-62.5,4,3,1,5,0,0
289193,-62.5,4,3,1,70,0,0
289364,-62.5,4,3,1,5,0,0
290221,-166.666666666667,4,3,1,70,0,0
290479,-166.666666666667,4,3,1,5,0,0
290564,-55.5555555555556,4,3,1,70,0,0
290736,-55.5555555555556,4,3,1,5,0,0
291936,-55.5555555555556,4,3,1,70,0,0
292107,-55.5555555555556,4,3,1,5,0,0
293307,-55.5555555555556,4,3,1,70,0,0
293479,-55.5555555555556,4,3,1,5,0,0
294679,-55.5555555555556,4,3,1,70,0,0
294850,-55.5555555555556,4,3,1,5,0,0
295707,-166.666666666667,4,3,1,70,0,0
295964,-166.666666666667,4,3,1,5,0,0
296050,-66.6666666666667,4,3,1,70,0,1
302907,-66.6666666666667,4,3,1,70,0,1
305650,-66.6666666666667,4,3,1,70,0,1
307021,393.44262295082,4,2,1,50,1,0
307021,-125,4,2,1,50,0,0
307217,-125,4,2,1,50,0,0
307414,342.857142857143,4,2,1,50,1,0
307414,-125,4,2,1,50,0,0
307842,-125,4,2,1,5,0,0
308099,-125,4,2,1,50,0,0
308442,336.134453781513,4,2,1,50,1,0
308442,-125,4,2,1,50,0,0
309114,347.826086956522,4,2,1,50,1,0
309114,-125,4,2,1,50,0,0
309374,-125,4,2,1,5,0,0
309461,-125,4,2,1,50,0,0
309548,-125,4,2,1,5,0,0
309809,347.826086956522,4,2,1,50,1,0
309809,-125,4,2,1,50,0,0
310504,315.789473684211,4,2,1,50,1,0
310504,-125,4,2,1,50,0,0
310819,338.028169014084,4,2,1,50,1,0
310819,-125,4,2,1,50,0,0
311157,346.820809248555,4,2,1,50,1,0
311157,-125,4,2,1,50,0,0
311243,-125,4,2,1,5,0,0
311503,-125,4,2,1,50,0,0
311590,-125,4,2,1,5,0,0
311850,-125,4,2,1,50,0,0
312110,-125,4,2,1,5,0,0
312197,310.880829015544,4,2,1,50,1,0
312197,-125,4,2,1,50,0,0
312274,-125,4,2,1,5,0,0
312507,342.857142857143,4,3,1,60,1,0
312507,-83.3333333333333,4,3,1,60,0,0
316621,-111.111111111111,4,3,1,60,0,0
317307,-83.3333333333333,4,3,1,60,0,0
317907,-83.3333333333333,4,3,1,5,0,0
317992,-125,4,3,1,60,0,0
318678,-83.3333333333333,4,3,1,60,0,0
323478,-66.6666666666667,4,3,1,70,0,1
328964,-50,4,3,1,70,0,1
329135,-50,4,3,1,5,0,1
329992,-50,4,3,1,70,0,1
330078,-50,4,3,1,5,0,1
330164,-50,4,3,1,70,0,1
330249,-50,4,3,1,5,0,1
330335,-50,4,3,1,70,0,1
330507,-50,4,3,1,40,0,1
330592,-50,4,3,1,40,0,1
330678,-66.6666666666667,4,3,1,40,0,1
331535,-66.6666666666667,4,3,1,40,0,1
331707,-66.6666666666667,4,3,1,70,0,1
334449,-50,4,3,1,70,0,1
334621,-50,4,3,1,5,0,1
335478,-50,4,3,1,70,0,1
335564,-50,4,3,1,5,0,1
335649,-50,4,3,1,70,0,1
335735,-50,4,3,1,5,0,1
335821,-66.6666666666667,4,3,1,70,0,1
337021,-66.6666666666667,4,3,1,40,0,1
337192,-66.6666666666667,4,3,1,80,0,1
339935,-50,4,3,1,70,0,1
340107,-50,4,3,1,5,0,1
340964,-50,4,3,1,70,0,1
341049,-50,4,3,1,5,0,1
341135,-50,4,3,1,70,0,1
341221,-50,4,3,1,5,0,1
341307,-66.6666666666667,4,3,1,70,0,1
341821,-66.6666666666667,4,3,1,40,0,1
341992,-66.6666666666667,4,3,1,70,0,1
345421,-50,4,3,1,70,0,1
345592,-50,4,3,1,5,0,1
346449,-50,4,3,1,70,0,1
346535,-50,4,3,1,5,0,1
346621,-50,4,3,1,70,0,1
346707,-50,4,3,1,5,0,1
346792,-66.6666666666667,4,3,1,70,0,1
347564,-66.6666666666667,4,3,1,5,0,1
347649,-66.6666666666667,4,3,1,70,0,1
348164,-66.6666666666667,4,3,1,75,0,1
348764,-66.6666666666667,4,3,1,5,0,1
348849,-66.6666666666667,4,3,1,75,0,1
350907,-66.6666666666667,4,3,1,80,0,1
353649,-66.6666666666667,4,3,1,90,0,1
355021,-43.4782608695652,4,3,1,90,0,1
355278,-43.4782608695652,4,3,1,40,0,0

[Colours]
Combo1 : 135,245,245
Combo2 : 7,103,114
Combo3 : 180,211,250

[HitObjects]
13,179,121,6,0,B|-42:99|41:-2|164:47|163:144|118:190|118:190|182:117|259:106|259:106|259:106|259:106|220:137|210:172,1,587.999982055665,6|0,0:0|0:0,0:0:0:0:
443,7,2521,2,0,B|400:-38|328:-2|292:84|423:155|506:83|506:83|506:83|487:152|395:156|399:150|323:169|301:256,1,587.999982055665,6|0,0:0|0:0,0:0:0:0:
499,307,4921,6,0,P|406:337|474:255,1,251.999992309571,6|0,0:0|0:0,0:0:0:0:
327,384,6121,2,0,L|227:375,1,97.9999970092774,2|0,0:0|0:0,0:0:0:0:
16,255,6721,2,0,P|40:291|35:335,1,83.9999974365235,6|0,0:0|0:0,0:0:0:0:
111,87,7321,2,0,P|93:158|-4:143,1,167.999994873047,6|2,0:0|0:0,0:0:0:0:
137,0,8221,5,2,0:0:0:0:
15,66,8371,1,2,0:0:0:0:
137,0,8521,2,0,L|334:25,1,195.999994018555,2|0,0:0|0:0,0:0:0:0:
44,167,9721,6,0,P|24:246|71:312,1,167.999994873047,6|0,0:0|0:0,0:0:0:0:
70,311,10621,2,0,L|63:363,1,48.9999985046387,2|0,0:0|0:0,0:0:0:0:
116,227,10921,2,0,L|273:213,1,146.999995513916,2|0,0:0|0:0,0:0:0:0:
280,212,11521,2,0,L|182:203,1,97.9999970092774,2|0,0:0|0:0,0:0:0:0:
376,301,12121,6,0,P|413:198|384:133,1,167.999994873047,6|0,0:0|0:0,0:0:0:0:
394,147,13021,2,0,L|342:140,1,48.9999985046387,2|0,0:0|0:0,0:0:0:0:
484,73,13321,2,0,L|498:230,1,146.999995513916,2|0,0:0|0:0,0:0:0:0:
497,237,13921,2,0,L|488:336,1,97.9999970092774,2|0,0:0|0:0,0:0:0:0:
234,357,14521,6,0,P|130:306|130:182,1,251.999992309571,6|0,0:0|0:0,0:0:0:0:
413,229,15721,2,0,P|378:255|333:253,1,83.9999974365235,6|0,0:0|0:0,0:0:0:0:
234,144,16321,2,0,L|227:242,1,97.9999970092774,2|0,0:0|0:0,0:0:0:0:
349,101,16921,2,0,P|258:22|144:62,1,251.999992309571,6|0,0:0|0:0,0:0:0:0:
410,4,18121,5,0,0:0:0:0:
234,144,18421,1,0,0:0:0:0:
401,175,18721,5,0,0:0:0:0:
443,109,18871,1,0,0:0:0:0:
476,181,19021,1,0,0:0:0:0:
248,261,19321,6,0,B|277:351|373:399|469:368|516:298|516:298|481:250|415:238|366:269|366:269|415:254|460:276,1,587.999982055665,6|0,0:0|0:0,0:0:0:0:
189,352,21721,2,0,B|132:248|121:132|148:27|148:27|142:101|195:167|256:177|315:160,1,587.999982055665,6|0,0:0|0:0,0:0:0:0:
505,41,24121,6,0,P|387:1|271:42,1,251.999992309571,6|0,0:0|0:0,0:0:0:0:
431,130,25321,2,0,L|439:228,1,97.9999970092774,2|0,0:0|0:0,0:0:0:0:
271,41,25921,2,0,P|236:67|191:65,1,83.9999974365235,6|0,0:0|0:0,0:0:0:0:
0,119,26521,2,0,P|40:136|60:176,1,83.9999974365235,6|0,0:0|0:0,0:0:0:0:
0,286,27121,6,0,L|98:291,1,97.9999970092774,2|0,0:0|0:0,0:0:0:0:
149,213,27571,1,2,0:0:0:0:
137,366,27721,2,0,L|436:381,1,293.999991027832,2|0,0:0|0:0,0:0:0:0:
493,114,28921,6,0,B|469:89|417:65|369:89|348:120|351:145|357:189|413:191|433:180,1,251.999992309571,6|0,0:0|0:0,0:0:0:0:
287,41,30121,2,0,L|190:35,1,97.9999970092774,2|0,0:0|0:0,0:0:0:0:
227,149,30721,2,0,L|129:155,1,97.9999970092774,2|0,0:0|0:0,0:0:0:0:
340,276,31321,2,0,B|184:190|172:319|46:236|46:236|76:293|126:345|246:322,1,539.000016448975,6|0,0:0|0:0,0:0:0:0:
129,155,33721,6,0,P|156:83|271:23,1,210,6|0,0:0|0:0,0:0:0:0:
370,167,35217,6,0,P|321:173|272:168,1,99.7499973363877,6|0,0:0|0:0,0:0:0:0:
324,86,36017,6,0,P|343:40|372:0,1,99.7499973363877,6|0,0:0|0:0,0:0:0:0:
421,89,36817,6,0,P|454:135|391:262,1,199.499994672775,6|0,0:0|0:0,0:0:0:0:
209,234,38531,5,6,0:0:0:0:
295,309,39388,5,6,0:0:0:0:
32,374,40245,5,6,0:0:0:0:
256,192,40352,12,0,42388,0:0:0:0:
381,338,43674,5,4,0:0:0:0:
433,260,43845,1,0,0:0:0:0:
430,243,43931,1,0,0:0:0:0:
428,227,44016,1,0,0:0:0:0:
376,149,44188,1,0,0:0:0:0:
379,132,44274,1,0,0:0:0:0:
381,116,44359,1,0,0:0:0:0:
433,38,44531,1,0,0:0:0:0:
430,21,44616,1,0,0:0:0:0:
428,5,44702,1,0,0:0:0:0:
474,122,44874,5,4,0:0:0:0:
235,44,45045,1,4,0:0:0:0:
287,122,45216,1,0,0:0:0:0:
284,139,45302,1,0,0:0:0:0:
282,155,45388,1,0,0:0:0:0:
193,128,45559,1,0,0:0:0:0:
190,145,45645,1,0,0:0:0:0:
188,161,45731,1,0,0:0:0:0:
99,134,45902,1,0,0:0:0:0:
96,151,45988,1,0,0:0:0:0:
94,167,46074,1,0,0:0:0:0:
141,50,46245,5,4,0:0:0:0:
248,243,46416,1,4,0:0:0:0:
315,161,46588,1,0,0:0:0:0:
299,158,46674,1,0,0:0:0:0:
282,155,46759,1,0,0:0:0:0:
399,175,46931,1,0,0:0:0:0:
415,172,47016,1,0,0:0:0:0:
432,169,47102,1,0,0:0:0:0:
350,273,47274,1,0,0:0:0:0:
347,256,47359,1,0,0:0:0:0:
345,240,47445,1,0,0:0:0:0:
276,324,47616,5,4,0:0:0:0:
85,169,47788,1,4,0:0:0:0:
154,295,47959,1,0,0:0:0:0:
151,278,48045,1,0,0:0:0:0:
149,262,48131,1,0,0:0:0:0:
172,236,48216,1,0,0:0:0:0:
206,226,48302,1,0,0:0:0:0:
239,234,48388,1,0,0:0:0:0:
265,257,48474,6,0,L|271:330,1,52.5000020027161
157,161,48645,2,0,L|161:108,1,52.5000020027161
272,272,48816,2,0,L|278:345,1,52.5000020027161
150,146,48988,2,0,L|154:93,1,52.5000020027161
281,14,49159,5,14,0:0:0:0:
312,14,49245,1,0,0:0:0:0:
342,23,49331,1,0,0:0:0:0:
369,39,49416,1,0,0:0:0:0:
391,61,49502,1,10,0:0:0:0:
388,91,49588,1,0,0:0:0:0:
385,122,49674,1,0,0:0:0:0:
383,154,49759,1,0,0:0:0:0:
381,185,49845,1,8,0:0:0:0:
378,217,49931,1,0,0:0:0:0:
376,247,50016,2,0,L|314:239,1,52.5000020027161,2|0,0:0|0:0,0:0:0:0:
201,193,50188,2,0,L|252:200,1,52.5000020027161,10|0,0:0|0:0,0:0:0:0:
336,321,50359,2,0,L|284:313,1,52.5000020027161,2|0,0:0|0:0,0:0:0:0:
125,251,50531,6,0,P|167:265|210:330,1,105.000004005432,8|0,0:0|0:0,0:0:0:0:
105,359,50788,1,0,0:0:0:0:
94,370,50874,2,0,P|51:355|8:290,1,105.000004005432,8|0,0:0|0:0,0:0:0:0:
16,209,51131,1,0,0:0:0:0:
30,202,51216,5,10,0:0:0:0:
40,179,51302,1,0,0:0:0:0:
45,153,51388,1,0,0:0:0:0:
42,127,51474,1,0,0:0:0:0:
35,102,51559,1,8,0:0:0:0:
28,77,51645,1,0,0:0:0:0:
27,51,51731,1,0,0:0:0:0:
31,25,51816,1,0,0:0:0:0:
41,0,51902,6,0,L|114:6,1,52.5000020027161,10|0,0:0|0:0,0:0:0:0:
60,16,52074,2,0,L|133:22,1,52.5000020027161,2|0,0:0|0:0,0:0:0:0:
202,96,52245,6,0,L|150:101,1,52.5000020027161,10|0,0:0|0:0,0:0:0:0:
184,108,52416,2,0,L|132:113,1,52.5000020027161,2|0,0:0|0:0,0:0:0:0:
304,3,52588,6,0,P|300:45|274:88,1,59.5000011348725,10|0,0:0|0:0,0:0:0:0:
375,84,52759,2,0,P|350:119|306:143,1,59.5000011348725,2|0,0:0|0:0,0:0:0:0:
395,189,52931,2,0,P|356:207|306:206,1,59.5000011348725,10|0,0:0|0:0,0:0:0:0:
359,289,53102,2,0,P|316:285|273:259,1,59.5000011348725,2|0,0:0|0:0,0:0:0:0:
169,225,53274,6,0,P|124:288|114:220,1,157.500006008148,6|0,0:0|0:0,0:0:0:0:
114,177,53616,1,0,0:0:0:0:
114,177,53788,1,0,0:0:0:0:
235,328,53959,6,0,P|282:354|401:363,1,157.500006008148,6|0,0:0|0:0,0:0:0:0:
442,316,54302,1,2,0:0:0:0:
284,173,54474,1,2,0:0:0:0:
474,28,54645,5,14,0:0:0:0:
450,48,54731,1,0,0:0:0:0:
421,60,54816,1,0,0:0:0:0:
390,62,54902,1,0,0:0:0:0:
359,55,54988,1,10,0:0:0:0:
320,39,55074,1,0,0:0:0:0:
278,35,55159,1,0,0:0:0:0:
237,43,55245,1,0,0:0:0:0:
200,63,55331,1,10,0:0:0:0:
171,92,55416,1,0,0:0:0:0:
151,129,55502,2,0,P|149:171|161:207,1,52.5000020027161,2|0,0:0|0:0,0:0:0:0:
285,184,55674,2,0,P|264:168|239:157,1,52.5000020027161,10|0,0:0|0:0,0:0:0:0:
170,272,55845,2,0,P|195:261|216:246,1,52.5000020027161,2|0,0:0|0:0,0:0:0:0:
323,109,56016,6,0,L|432:115,1,105.000004005432,10|0,0:0|0:0,0:0:0:0:
508,185,56274,1,0,0:0:0:0:
512,200,56359,2,0,L|407:205,1,105.000004005432,10|0,0:0|0:0,0:0:0:0:
300,271,56616,1,0,0:0:0:0:
304,287,56702,5,10,0:0:0:0:
329,289,56788,1,0,0:0:0:0:
355,290,56874,1,0,0:0:0:0:
381,291,56959,1,0,0:0:0:0:
407,293,57045,1,8,0:0:0:0:
434,294,57131,1,0,0:0:0:0:
460,294,57216,1,0,0:0:0:0:
486,296,57302,1,0,0:0:0:0:
512,297,57388,6,0,L|506:370,1,52.5000020027161,10|0,0:0|0:0,0:0:0:0:
499,309,57559,2,0,L|493:382,1,52.5000020027161,2|0,0:0|0:0,0:0:0:0:
445,219,57731,6,0,L|439:146,1,52.5000020027161,10|0,0:0|0:0,0:0:0:0:
424,193,57902,2,0,L|418:120,1,52.5000020027161,2|0,0:0|0:0,0:0:0:0:
306,307,58074,6,0,P|314:278|330:253,1,59.5000011348725,10|0,0:0|0:0,0:0:0:0:
255,210,58245,2,0,P|275:189|301:175,1,59.5000011348725,2|0,0:0|0:0,0:0:0:0:
259,104,58416,2,0,P|287:97|317:97,1,59.5000011348725,10|0,0:0|0:0,0:0:0:0:
316,15,58588,2,0,P|344:22|370:37,1,59.5000011348725,2|0,0:0|0:0,0:0:0:0:
199,156,58759,6,0,L|37:166,1,157.500006008148,6|0,0:0|0:0,0:0:0:0:
0,100,59102,1,0,0:0:0:0:
0,100,59274,1,0,0:0:0:0:
141,259,59445,6,0,P|65:243|0:282,1,157.500006008148,6|0,0:0|0:0,0:0:0:0:
83,346,59788,1,2,0:0:0:0:
74,90,59959,1,2,0:0:0:0:
83,346,60131,6,0,P|158:361|224:322,1,158.200000482788,6|0,0:0|0:0,0:0:0:0:
141,259,60645,1,4,0:0:0:0:
377,261,60816,6,0,B|340:257|340:257|317:250|317:250|281:247,1,97.9999970092774,6|0,0:0|0:0,0:0:0:0:
282,248,61073,1,0,0:0:0:0:
282,248,61158,1,8,0:0:0:0:
445,96,61330,2,0,P|449:120|445:146,1,48.9999985046387,2|0,0:0|0:0,0:0:0:0:
342,122,61501,6,0,P|339:74|362:30,1,97.9999970092774,2|0,0:0|0:0,0:0:0:0:
361,30,61758,1,0,0:0:0:0:
361,30,61844,1,10,0:0:0:0:
267,168,62016,1,2,0:0:0:0:
169,10,62187,6,0,P|120:3|76:22,1,97.9999970092774,6|0,0:0|0:0,0:0:0:0:
76,22,62444,1,0,0:0:0:0:
76,22,62530,1,8,0:0:0:0:
0,149,62701,2,0,L|8:83,1,48.9999985046387,2|0,0:0|0:0,0:0:0:0:
135,106,62873,6,0,L|146:203,1,97.9999970092774,2|0,0:0|0:0,0:0:0:0:
71,299,63130,1,0,0:0:0:0:
71,299,63216,2,0,L|76:250,1,48.9999985046387,14|0,0:0|0:0,0:0:0:0:
224,192,63387,2,0,L|229:240,1,48.9999985046387,6|0,0:0|0:0,0:0:0:0:
299,368,63558,6,0,B|257:364|257:364|241:359|241:359|201:356,1,97.9999970092774,6|0,0:0|0:0,0:0:0:0:
203,357,63816,1,0,0:0:0:0:
203,357,63901,1,8,0:0:0:0:
386,295,64073,1,2,0:0:0:0:
401,314,64158,1,2,0:0:0:0:
409,337,64244,5,2,0:0:0:0:
252,206,64416,1,2,0:0:0:0:
435,203,64587,1,10,0:0:0:0:
288,297,64758,1,2,0:0:0:0:
346,120,64930,6,0,P|324:69|289:43,1,97.9999970092774,6|0,0:0|0:0,0:0:0:0:
291,44,65187,1,0,0:0:0:0:
291,44,65273,1,8,0:0:0:0:
155,163,65444,1,0,0:0:0:0:
155,163,65530,1,0,0:0:0:0:
155,163,65616,6,0,P|203:161|245:136,1,97.9999970092774,2|0,0:0|0:0,0:0:0:0:
245,135,65873,1,0,0:0:0:0:
245,135,65958,1,10,0:0:0:0:
69,81,66130,2,0,L|61:133,1,48.9999985046387,4|0,0:0|0:0,0:0:0:0:
134,268,66301,5,6,0:0:0:0:
317,209,66473,1,2,0:0:0:0:
317,209,66558,1,2,0:0:0:0:
317,209,66644,1,10,0:0:0:0:
218,314,66816,1,2,0:0:0:0:
245,135,66987,5,2,0:0:0:0:
245,135,67073,1,2,0:0:0:0:
245,135,67158,1,2,0:0:0:0:
356,286,67330,1,10,0:0:0:0:
156,162,67501,1,2,0:0:0:0:
357,16,67673,6,0,P|404:-1|473:14,1,97.9999970092774,6|0,0:0|0:0,0:0:0:0:
465,99,67930,1,0,0:0:0:0:
465,99,68016,2,0,P|440:100|416:94,1,48.9999985046387,10|0,0:0|0:0,0:0:0:0:
279,73,68187,2,0,P|300:84|318:101,1,48.9999985046387,2|0,0:0|0:0,0:0:0:0:
339,204,68358,6,0,P|271:195|218:151,1,97.9999970092774,2|0,0:0|0:0,0:0:0:0:
246,180,68616,1,0,0:0:0:0:
246,180,68701,1,10,0:0:0:0:
106,124,68873,2,0,L|110:75,1,48.9999985046387,6|0,0:0|0:0,0:0:0:0:
72,269,69044,6,0,L|79:318,1,48.9999985046387,6|0,0:0|0:0,0:0:0:0:
234,362,69216,1,2,0:0:0:0:
238,338,69301,1,2,0:0:0:0:
234,314,69387,1,10,0:0:0:0:
158,203,69558,1,2,0:0:0:0:
34,363,69730,6,0,P|79:345|128:343,1,97.9999970092774,2|0,0:0|0:0,0:0:0:0:
128,343,69987,1,0,0:0:0:0:
128,343,70073,1,10,0:0:0:0:
250,215,70244,1,2,0:0:0:0:
46,251,70416,6,0,P|42:203|43:154,1,97.9999970092774,6|0,0:0|0:0,0:0:0:0:
43,153,70673,1,0,0:0:0:0:
43,153,70758,1,8,0:0:0:0:
175,182,70930,1,2,0:0:0:0:
151,189,71016,1,2,0:0:0:0:
127,187,71101,5,2,0:0:0:0:
137,14,71273,1,2,0:0:0:0:
13,67,71444,1,10,0:0:0:0:
219,94,71616,2,0,L|152:102,1,48.9999985046387,6|0,0:0|0:0,0:0:0:0:
52,241,71787,6,0,P|34:286|39:334,1,97.9999970092774,6|0,0:0|0:0,0:0:0:0:
39,334,72044,1,0,0:0:0:0:
39,334,72130,1,8,0:0:0:0:
200,290,72301,1,0,0:0:0:0:
200,290,72387,1,0,0:0:0:0:
200,290,72473,6,0,L|127:296,1,48.9999985046387,2|0,0:0|0:0,0:0:0:0:
288,332,72644,1,0,0:0:0:0:
288,332,72730,1,0,0:0:0:0:
288,332,72816,2,0,L|361:338,1,48.9999985046387,10|0,0:0|0:0,0:0:0:0:
212,377,72987,1,0,0:0:0:0:
302,200,73158,6,0,P|307:145|290:79,1,97.9999970092774,6|0,0:0|0:0,0:0:0:0:
321,3,73416,1,0,0:0:0:0:
321,3,73501,2,0,P|270:26|222:73,1,97.9999970092774,10|0,0:0|0:0,0:0:0:0:
141,86,73758,1,0,0:0:0:0:
141,86,73844,6,0,P|186:117|251:136,1,97.9999970092774
226,131,74101,1,0,0:0:0:0:
226,131,74187,1,8,0:0:0:0:
171,2,74358,1,4,0:0:0:0:
48,161,74530,5,6,0:0:0:0:
48,161,74701,1,2,0:0:0:0:
144,176,74873,1,2,0:0:0:0:
83,251,75044,1,2,0:0:0:0:
320,218,75216,5,6,0:0:0:0:
320,218,75387,1,2,0:0:0:0:
224,233,75558,1,2,0:0:0:0:
285,308,75730,1,2,0:0:0:0:
335,82,75901,5,6,0:0:0:0:
335,82,76073,1,2,0:0:0:0:
259,142,76244,1,2,0:0:0:0:
244,47,76416,1,2,0:0:0:0:
275,235,76587,6,0,L|285:308,2,65.3333313395183,2|0|0,1:3|1:3|1:3,1:3:0:0:
167,106,77273,5,6,0:0:0:0:
167,106,77444,1,2,0:0:0:0:
153,256,77616,1,2,0:0:0:0:
160,181,77787,1,2,0:0:0:0:
98,374,77958,5,6,0:0:0:0:
98,374,78130,1,2,0:0:0:0:
84,224,78301,1,2,0:0:0:0:
91,299,78473,1,2,0:0:0:0:
177,133,78644,6,0,L|268:141,2,83.9999974365235,14|0|0,1:3|1:3|1:3,1:3:0:0:
389,175,79330,6,0,L|324:181,2,65.3333313395183,10|0|0,1:3|1:3|1:3,1:3:0:0:
188,0,80016,5,6,0:0:0:0:
175,72,80187,1,2,0:0:0:0:
267,17,80358,1,2,0:0:0:0:
280,105,80530,1,2,0:0:0:0:
420,12,80701,5,6,0:0:0:0:
442,118,80873,1,2,0:0:0:0:
345,49,81044,1,2,0:0:0:0:
501,60,81216,1,2,0:0:0:0:
281,191,81387,5,6,0:0:0:0:
411,262,81558,1,2,0:0:0:0:
352,144,81730,1,2,0:0:0:0:
336,303,81901,1,2,0:0:0:0:
99,80,82073,5,6,0:0:0:0:
173,309,82244,1,2,0:0:0:0:
249,158,82416,1,2,0:0:0:0:
22,232,82587,2,0,L|72:215,1,48.9999985046387,2|0,0:0|0:0,0:0:0:0:
249,158,82758,6,0,L|345:127,1,97.9999970092774,6|0,0:0|0:0,0:0:0:0:
342,128,83016,1,0,0:0:0:0:
342,128,83101,1,8,0:0:0:0:
178,85,83273,1,2,0:0:0:0:
223,249,83444,5,2,0:0:0:0:
243,270,83530,1,0,0:0:0:0:
268,285,83616,1,0,0:0:0:0:
296,292,83701,1,0,0:0:0:0:
325,292,83787,2,0,L|331:226,1,48.9999985046387,8|0,0:0|0:0,0:0:0:0:
416,149,83958,1,2,0:0:0:0:
416,149,84044,1,0,0:0:0:0:
416,149,84130,6,0,L|428:279,1,97.9999970092774,2|0,0:0|0:0,0:0:0:0:
494,340,84387,1,0,0:0:0:0:
494,340,84473,2,0,L|500:274,1,48.9999985046387,10|0,0:0|0:0,0:0:0:0:
512,162,84644,1,0,0:0:0:0:
342,210,84816,5,2,0:0:0:0:
476,73,84987,1,0,0:0:0:0:
476,73,85073,1,0,0:0:0:0:
476,73,85158,1,8,0:0:0:0:
288,0,85330,1,2,0:0:0:0:
259,199,85501,6,0,L|255:151,1,48.9999985046387,2|0,0:0|0:0,0:0:0:0:
347,77,85673,1,0,0:0:0:0:
347,77,85758,1,0,0:0:0:0:
347,77,85844,2,0,L|344:125,1,48.9999985046387,10|0,0:0|0:0,0:0:0:0:
176,150,86016,1,0,0:0:0:0:
358,244,86187,6,0,P|329:287|289:309,1,97.9999970092774,2|0,0:0|0:0,0:0:0:0:
290,310,86444,1,0,0:0:0:0:
290,310,86530,1,8,0:0:0:0:
131,219,86701,1,2,0:0:0:0:
212,384,86873,6,0,L|205:277,1,97.9999970092774,2|0,0:0|0:0,0:0:0:0:
205,286,87130,1,0,0:0:0:0:
205,286,87216,1,8,0:0:0:0:
45,180,87387,1,0,0:0:0:0:
45,180,87473,1,0,0:0:0:0:
45,180,87558,6,0,B|55:215|46:251|46:251|57:244|57:244|49:281|56:318,1,146.999995513916,2|0,0:0|0:0,0:0:0:0:
118,350,87901,1,8,0:0:0:0:
156,320,87987,1,0,0:0:0:0:
176,276,88073,1,2,0:0:0:0:
172,227,88158,1,0,0:0:0:0:
146,186,88244,6,0,P|136:132|148:88,1,97.9999970092774,6|0,0:0|0:0,0:0:0:0:
146,91,88501,1,0,0:0:0:0:
146,91,88587,1,8,0:0:0:0:
50,36,88758,1,2,0:0:0:0:
222,10,88930,6,0,P|251:48|261:96,1,97.9999970092774,2|0,0:0|0:0,0:0:0:0:
261,96,89187,1,0,0:0:0:0:
261,96,89273,1,8,0:0:0:0:
130,0,89444,1,2,0:0:0:0:
332,17,89616,6,0,P|364:52|380:99,1,97.9999970092774,2|0,0:0|0:0,0:0:0:0:
448,207,89873,1,0,0:0:0:0:
448,207,89958,2,0,P|463:160|496:124,1,97.9999970092774,10|0,0:0|0:0,0:0:0:0:
265,176,90301,6,0,P|278:222|310:259,1,97.9999970092774,2|0,0:0|0:0,0:0:0:0:
310,259,90558,1,0,0:0:0:0:
310,259,90644,1,8,0:0:0:0:
170,184,90816,1,2,0:0:0:0:
361,168,90987,6,0,L|487:161,1,97.9999970092774,2|0,0:0|0:0,0:0:0:0:
458,162,91244,1,0,0:0:0:0:
458,162,91330,1,10,0:0:0:0:
301,97,91501,1,0,0:0:0:0:
415,244,91673,6,0,P|411:291|361:357,1,97.9999970092774,2|0,0:0|0:0,0:0:0:0:
388,335,91930,1,0,0:0:0:0:
388,335,92016,1,8,0:0:0:0:
503,235,92187,1,2,0:0:0:0:
315,263,92358,6,0,P|267:257|204:203,1,97.9999970092774,2|0,0:0|0:0,0:0:0:0:
191,156,92616,1,0,0:0:0:0:
191,156,92701,2,0,P|190:129|195:107,1,48.9999985046387,10|0,0:0|0:0,0:0:0:0:
230,33,92873,1,0,0:0:0:0:
230,33,92958,1,0,0:0:0:0:
230,33,93044,5,2,0:0:0:0:
255,24,93130,1,0,0:0:0:0:
281,27,93216,1,0,0:0:0:0:
303,41,93301,1,0,0:0:0:0:
319,62,93387,1,10,0:0:0:0:
333,84,93473,1,0,0:0:0:0:
354,100,93558,1,0,0:0:0:0:
379,110,93644,1,0,0:0:0:0:
406,116,93730,6,0,L|509:109,1,97.9999970092774,6|0,0:0|0:0,0:0:0:0:
503,109,93987,1,0,0:0:0:0:
503,109,94073,1,8,0:0:0:0:
418,197,94244,1,2,0:0:0:0:
432,32,94416,5,2,0:0:0:0:
510,205,94587,1,0,0:0:0:0:
510,205,94673,1,0,0:0:0:0:
510,205,94758,1,8,0:0:0:0:
335,192,94930,1,2,0:0:0:0:
410,274,95101,5,2,0:0:0:0:
369,300,95187,1,0,0:0:0:0:
321,306,95273,1,0,0:0:0:0:
276,288,95358,1,0,0:0:0:0:
244,251,95444,2,0,L|242:129,1,97.9999970092774,10|0,0:0|0:0,0:0:0:0:
126,372,95787,5,2,0:0:0:0:
28,257,95958,1,0,0:0:0:0:
28,257,96044,1,0,0:0:0:0:
28,257,96130,2,0,P|5:234|-3:207,1,48.9999985046387,8|0,0:0|0:0,0:0:0:0:
108,259,96301,2,0,P|102:291|84:313,1,48.9999985046387,2|0,0:0|0:0,0:0:0:0:
73,186,96473,6,0,L|180:181,1,97.9999970092774,2|0,0:0|0:0,0:0:0:0:
170,181,96730,1,0,0:0:0:0:
170,181,96816,1,8,0:0:0:0:
129,5,96987,1,0,0:0:0:0:
7,139,97158,5,2,0:0:0:0:
185,101,97330,1,0,0:0:0:0:
185,101,97416,1,0,0:0:0:0:
185,101,97501,1,10,0:0:0:0:
21,33,97673,1,2,0:0:0:0:
170,181,97844,5,2,0:0:0:0:
206,3,98016,1,0,0:0:0:0:
239,0,98101,1,0,0:0:0:0:
272,7,98187,1,8,0:0:0:0:
300,27,98273,1,0,0:0:0:0:
320,55,98358,1,0,0:0:0:0:
328,88,98444,1,0,0:0:0:0:
325,122,98530,6,0,L|320:184,1,48.9999985046387,2|0,0:0|0:0,0:0:0:0:
248,211,98701,2,0,L|253:273,1,48.9999985046387,2|0,0:0|0:0,0:0:0:0:
306,331,98873,1,10,0:0:0:0:
306,331,98958,1,0,0:0:0:0:
306,331,99044,2,0,P|331:338|363:333,1,48.9999985046387,2|0,0:0|0:0,0:0:0:0:
405,188,99216,6,0,P|385:232|343:255,1,97.9999970092774,6|0,0:0|0:0,0:0:0:0:
342,255,99473,1,0,0:0:0:0:
342,255,99558,1,8,0:0:0:0:
415,105,99730,1,2,0:0:0:0:
232,121,99901,6,0,L|133:127,1,97.9999970092774,2|0,0:0|0:0,0:0:0:0:
134,126,100158,1,0,0:0:0:0:
134,126,100244,1,8,0:0:0:0:
239,36,100416,1,0,0:0:0:0:
152,213,100587,5,2,0:0:0:0:
157,40,100758,1,0,0:0:0:0:
157,40,100844,1,0,0:0:0:0:
157,40,100930,1,10,0:0:0:0:
234,209,101101,1,2,0:0:0:0:
320,31,101273,5,2,0:0:0:0:
375,155,101444,1,0,0:0:0:0:
407,164,101530,1,0,0:0:0:0:
441,161,101616,1,8,0:0:0:0:
472,147,101701,1,0,0:0:0:0:
496,122,101787,1,0,0:0:0:0:
510,91,101873,1,0,0:0:0:0:
512,57,101958,6,0,L|393:49,1,97.9999970092774,2|0,0:0|0:0,0:0:0:0:
342,4,102216,1,0,0:0:0:0:
342,4,102301,2,0,L|244:10,1,97.9999970092774,10|0,0:0|0:0,0:0:0:0:
68,70,102644,5,2,0:0:0:0:
49,114,102730,1,0,0:0:0:0:
56,162,102816,1,0,0:0:0:0:
86,200,102901,1,0,0:0:0:0:
132,217,102987,2,0,L|229:210,1,97.9999970092774,10|0,0:0|0:0,0:0:0:0:
416,99,103330,5,6,0:0:0:0:
277,326,103501,1,8,0:0:0:0:
277,326,103587,1,8,0:0:0:0:
277,326,103673,2,0,L|212:322,1,48.9999985046387,8|0,0:0|0:0,0:0:0:0:
275,111,103844,2,0,L|323:107,1,48.9999985046387,8|0,0:0|0:0,0:0:0:0:
407,275,104016,5,0,0:0:0:0:
344,182,104187,1,0,0:0:0:0:
421,197,104358,1,0,0:0:0:0:
329,259,104530,1,0,0:0:0:0:
468,332,104701,6,0,B|441:354|441:354|346:358,1,125.999996154785,6|0,0:0|0:0,0:0:0:0:
349,357,106073,5,6,0:0:0:0:
323,346,106187,2,0,B|293:337|293:337|261:340,1,60.6666638895672
138,380,106416,5,8,0:0:0:0:
160,363,106530,2,0,B|182:341|182:341|195:312,1,60.6666638895672
223,186,106758,5,0,0:0:0:0:
227,213,106873,2,0,B|234:242|234:242|253:269,1,60.6666638895672
349,266,107101,5,12,0:0:0:0:
390,257,107216,1,0,0:0:0:0:
432,250,107330,1,0,0:0:0:0:
474,241,107444,6,0,B|500:233|500:233|507:135,1,125.999996154785,6|0,0:0|0:0,0:0:0:0:
508,111,108816,6,0,B|507:82|507:82|513:45,2,65.3333313395183,6|0|0,0:0|0:0|0:0,0:0:0:0:
454,200,109158,2,0,B|455:229|455:229|449:266,2,65.3333313395183,10|0|0,0:0|0:0|0:0,0:0:0:0:
342,115,109501,6,0,L|293:110,3,48.9999985046387,2|0|0|0,0:0|0:0|0:0|0:0,0:0:0:0:
263,27,109844,1,0,0:0:0:0:
239,29,109930,1,0,0:0:0:0:
214,31,110016,1,0,0:0:0:0:
190,33,110101,1,0,0:0:0:0:
166,36,110187,6,0,L|100:42,3,48.9999985046387,6|0|0|0,0:0|0:0|0:0|0:0,0:0:0:0:
0,75,110530,2,0,L|66:81,3,48.9999985046387,10|0|0|0,0:0|0:0|0:0|0:0,0:0:0:0:
117,121,110873,5,2,0:0:0:0:
113,154,110958,1,0,0:0:0:0:
115,188,111044,1,0,0:0:0:0:
125,220,111130,1,0,0:0:0:0:
142,251,111216,1,10,0:0:0:0:
152,283,111301,1,0,0:0:0:0:
155,317,111387,1,0,0:0:0:0:
149,350,111473,1,0,0:0:0:0:
136,384,111558,5,2,0:0:0:0:
92,361,111644,1,0,0:0:0:0:
62,323,111730,1,0,0:0:0:0:
50,276,111816,1,0,0:0:0:0:
58,228,111901,1,10,0:0:0:0:
85,187,111987,1,0,0:0:0:0:
126,161,112073,1,0,0:0:0:0:
174,154,112158,1,0,0:0:0:0:
220,166,112244,6,0,P|240:180|255:200,3,48.9999985046387
175,285,112587,2,0,P|177:260|186:237,1,48.9999985046387,10|0,0:0|0:0,0:0:0:0:
312,133,112758,1,0,0:0:0:0:
312,133,112844,1,0,0:0:0:0:
312,133,112930,5,2,0:0:0:0:
330,155,113016,1,0,0:0:0:0:
341,182,113101,1,0,0:0:0:0:
342,212,113187,1,0,0:0:0:0:
333,240,113273,1,10,0:0:0:0:
316,263,113358,1,0,0:0:0:0:
292,280,113444,1,0,0:0:0:0:
264,288,113530,1,0,0:0:0:0:
235,287,113616,5,2,0:0:0:0:
277,311,113701,1,0,0:0:0:0:
325,318,113787,1,0,0:0:0:0:
372,308,113873,1,0,0:0:0:0:
413,280,113958,2,0,P|418:257|415:232,1,48.9999985046387,10|0,0:0|0:0,0:0:0:0:
254,199,114130,2,0,P|253:175|260:151,1,48.9999985046387
392,11,114301,5,2,0:0:0:0:
426,4,114387,1,0,0:0:0:0:
458,9,114473,1,0,0:0:0:0:
490,23,114558,1,0,0:0:0:0:
512,50,114644,1,8,0:0:0:0:
481,65,114730,1,0,0:0:0:0:
449,76,114816,1,0,0:0:0:0:
415,83,114901,1,0,0:0:0:0:
381,81,114987,1,0,0:0:0:0:
348,70,115073,1,0,0:0:0:0:
317,56,115158,1,2,0:0:0:0:
285,43,115244,1,0,0:0:0:0:
252,34,115330,1,8,0:0:0:0:
218,41,115416,1,0,0:0:0:0:
184,48,115502,1,0,0:0:0:0:
151,55,115588,1,0,0:0:0:0:
117,62,115673,6,0,B|94:76|94:76|86:186,1,125.999996154785,6|0,0:0|0:0,0:0:0:0:
199,131,116701,6,0,L|204:194,1,62.9999980773926,4|0,0:0|0:0,0:0:0:0:
81,237,116873,2,0,L|86:174,1,62.9999980773926,4|0,0:0|0:0,0:0:0:0:
205,114,117044,6,0,B|215:246,1,125.999996154785,6|0,0:0|0:0,0:0:0:0:
145,299,117301,1,0,0:0:0:0:
145,299,117387,6,0,B|178:340|238:347|283:314|298:276|298:276|307:294|307:294|348:208|419:194|496:221|506:288|457:364|381:310,1,525.000020027161,2|0,0:0|0:0,0:0:0:0:
274,192,118416,5,2,0:0:0:0:
244,170,118501,1,0,0:0:0:0:
210,158,118587,1,0,0:0:0:0:
173,157,118673,1,0,0:0:0:0:
138,166,118758,1,8,0:0:0:0:
107,186,118844,1,0,0:0:0:0:
83,214,118930,1,0,0:0:0:0:
68,247,119016,1,0,0:0:0:0:
64,283,119101,5,2,0:0:0:0:
104,273,119187,1,0,0:0:0:0:
142,255,119273,1,0,0:0:0:0:
173,228,119358,1,0,0:0:0:0:
197,193,119444,1,8,0:0:0:0:
219,157,119530,1,0,0:0:0:0:
247,126,119616,1,0,0:0:0:0:
283,105,119701,1,0,0:0:0:0:
322,91,119787,6,0,L|392:95,1,52.5000020027161,2|0,0:0|0:0,0:0:0:0:
512,130,119958,2,0,L|442:134,1,52.5000020027161
384,225,120130,2,0,L|387:173,1,52.5000020027161,8|0,0:0|0:0,0:0:0:0:
444,0,120301,1,2,0:0:0:0:
444,0,120387,1,0,0:0:0:0:
444,0,120473,6,0,L|447:52,1,52.5000020027161,2|0,0:0|0:0,0:0:0:0:
486,220,120644,1,0,0:0:0:0:
486,220,120730,1,0,0:0:0:0:
486,220,120816,1,10,0:0:0:0:
484,251,120901,1,0,0:0:0:0:
482,283,120987,1,2,0:0:0:0:
481,314,121073,1,0,0:0:0:0:
478,345,121158,6,0,B|470:371|470:371|372:378,1,125.999996154785,6|0,0:0|0:0,0:0:0:0:
255,350,122187,6,0,P|247:317|248:287,1,62.9999980773926,6|0,0:0|0:0,0:0:0:0:
373,315,122358,2,0,P|376:349|370:378,1,62.9999980773926,6|0,0:0|0:0,0:0:0:0:
252,360,122530,6,0,B|222:301|239:231|291:184|360:182|360:182|336:223|294:235,1,315.000012016297,6|2,0:0|0:0,0:0:0:0:
123,225,123216,5,2,0:0:0:0:
97,219,123301,1,0,0:0:0:0:
79,195,123387,1,0,0:0:0:0:
76,164,123473,1,0,0:0:0:0:
91,136,123558,1,8,0:0:0:0:
118,121,123644,1,0,0:0:0:0:
149,122,123730,1,0,0:0:0:0:
174,140,123816,1,0,0:0:0:0:
186,169,123901,5,2,0:0:0:0:
209,137,123987,1,0,0:0:0:0:
241,115,124073,1,0,0:0:0:0:
278,102,124158,1,0,0:0:0:0:
317,100,124244,1,8,0:0:0:0:
355,110,124330,1,0,0:0:0:0:
388,130,124416,1,0,0:0:0:0:
414,159,124501,1,0,0:0:0:0:
431,194,124587,6,0,L|436:268,3,52.5000020027161,2|0|0|0,0:0|0:0|0:0|0:0,0:0:0:0:
456,80,124930,2,0,L|459:27,3,52.5000020027161,8|0|0|0,0:0|0:0|0:0|0:0,0:0:0:0:
357,227,125273,5,2,0:0:0:0:
316,243,125358,1,0,0:0:0:0:
274,235,125444,1,0,0:0:0:0:
244,204,125530,1,0,0:0:0:0:
236,161,125616,1,8,0:0:0:0:
254,122,125701,1,0,0:0:0:0:
291,99,125787,1,0,0:0:0:0:
334,101,125873,1,0,0:0:0:0:
369,128,125958,5,2,0:0:0:0:
348,177,126044,1,0,0:0:0:0:
305,208,126130,1,0,0:0:0:0:
252,211,126216,1,0,0:0:0:0:
205,186,126301,1,8,0:0:0:0:
179,139,126387,1,0,0:0:0:0:
181,86,126473,1,0,0:0:0:0:
211,42,126558,1,0,0:0:0:0:
260,21,126644,5,6,0:0:0:0:
273,49,126730,1,0,0:0:0:0:
278,80,126816,1,2,0:0:0:0:
275,111,126901,1,0,0:0:0:0:
263,140,126987,1,10,0:0:0:0:
239,174,127073,1,0,0:0:0:0:
202,194,127158,1,0,0:0:0:0:
160,195,127244,1,0,0:0:0:0:
122,179,127330,6,0,P|96:173|70:173,1,52.5000020027161,2|0,0:0|0:0,0:0:0:0:
29,266,127501,2,0,P|54:271|80:272,1,52.5000020027161,2|0,0:0|0:0,0:0:0:0:
237,280,127673,2,0,P|211:274|185:273,1,52.5000020027161,10|0,0:0|0:0,0:0:0:0:
144,366,127844,2,0,P|169:371|195:371,1,52.5000020027161,2|0,0:0|0:0,0:0:0:0:
396,316,128016,6,0,B|413:302|413:302|420:384,1,105.000004005432,2|0,0:0|0:0,0:0:0:0:
320,217,128273,1,0,0:0:0:0:
314,203,128358,2,0,B|334:192|334:192|325:273,1,105.000004005432,10|0,0:0|0:0,0:0:0:0:
475,258,128616,1,0,0:0:0:0:
484,245,128701,5,2,0:0:0:0:
480,213,128787,1,0,0:0:0:0:
477,183,128873,1,0,0:0:0:0:
474,152,128958,1,0,0:0:0:0:
471,122,129044,1,8,0:0:0:0:
468,92,129130,1,0,0:0:0:0:
466,61,129216,1,0,0:0:0:0:
463,30,129301,1,0,0:0:0:0:
461,0,129387,6,0,L|402:7,1,52.5000020027161,2|0,0:0|0:0,0:0:0:0:
447,14,129558,2,0,L|394:20,1,52.5000020027161,2|0,0:0|0:0,0:0:0:0:
362,132,129730,6,0,L|310:124,1,52.5000020027161,10|0,0:0|0:0,0:0:0:0:
337,116,129901,2,0,L|285:108,1,52.5000020027161,2|0,0:0|0:0,0:0:0:0:
137,7,130073,6,0,P|155:44|195:75,1,59.5000011348725,2|0,0:0|0:0,0:0:0:0:
96,110,130244,2,0,P|131:133|181:140,1,59.5000011348725,2|0,0:0|0:0,0:0:0:0:
118,212,130416,2,0,P|160:214|207:195,1,59.5000011348725,10|0,0:0|0:0,0:0:0:0:
187,293,130587,2,0,P|225:273|256:234,1,59.5000011348725,2|0,0:0|0:0,0:0:0:0:
356,319,130758,6,0,B|474:327|474:327|531:315,1,157.500006008148,6|0,0:0|0:0,0:0:0:0:
467,246,131101,1,2,0:0:0:0:
467,246,131273,1,2,0:0:0:0:
265,290,131444,6,0,B|199:295|199:295|165:290|165:290|96:295,1,157.500006008148,6|0,0:0|0:0,0:0:0:0:
140,375,131787,1,2,0:0:0:0:
217,202,131958,1,2,0:0:0:0:
36,247,132130,5,6,0:0:0:0:
16,222,132216,1,0,0:0:0:0:
4,193,132301,1,0,0:0:0:0:
0,162,132387,1,0,0:0:0:0:
4,131,132473,1,10,0:0:0:0:
45,137,132558,1,0,0:0:0:0:
87,142,132644,1,0,0:0:0:0:
129,145,132730,1,0,0:0:0:0:
170,146,132816,1,0,0:0:0:0:
212,145,132901,1,0,0:0:0:0:
254,142,132987,2,0,L|305:135,1,52.5000020027161,2|0,0:0|0:0,0:0:0:0:
426,180,133158,2,0,L|374:173,1,52.5000020027161,10|0,0:0|0:0,0:0:0:0:
302,264,133330,2,0,L|308:212,1,52.5000020027161,2|0,0:0|0:0,0:0:0:0:
329,56,133501,6,0,P|297:15|247:0,1,105.000004005432,2|0,0:0|0:0,0:0:0:0:
415,94,133758,1,0,0:0:0:0:
422,80,133844,2,0,P|453:39|503:23,1,105.000004005432,10|0,0:0|0:0,0:0:0:0:
411,175,134101,1,0,0:0:0:0:
426,180,134187,6,0,L|430:238,1,52.5000020027161,2|0,0:0|0:0,0:0:0:0:
507,229,134358,2,0,L|511:287,1,52.5000020027161,2|0,0:0|0:0,0:0:0:0:
422,319,134530,2,0,L|419:360,1,41.9999987182618,10|0,0:0|0:0,0:0:0:0:
347,337,134701,2,0,L|345:378,1,41.9999987182618,2|0,0:0|0:0,0:0:0:0:
298,277,134873,6,0,L|295:224,1,52.5000020027161,2|0,0:0|0:0,0:0:0:0:
290,264,135044,2,0,L|287:212,1,52.5000020027161,2|0,0:0|0:0,0:0:0:0:
199,298,135216,6,0,L|196:351,1,52.5000020027161,10|0,0:0|0:0,0:0:0:0:
190,315,135387,2,0,L|187:367,1,52.5000020027161,2|0,0:0|0:0,0:0:0:0:
83,371,135558,6,0,P|55:377|25:376,1,59.5000011348725,2|0,0:0|0:0,0:0:0:0:
56,287,135730,2,0,P|26:282|0:269,1,59.5000011348725,2|0,0:0|0:0,0:0:0:0:
57,195,135901,2,0,P|31:181|10:161,1,59.5000011348725,10|0,0:0|0:0,0:0:0:0:
89,110,136073,2,0,P|69:87|56:61,1,59.5000011348725,2|0,0:0|0:0,0:0:0:0:
162,22,136244,6,0,L|321:29,1,157.500006008148,4|0,0:0|0:0,0:0:0:0:
422,86,136587,1,10,0:0:0:0:
422,96,136673,1,8,0:0:0:0:
423,107,136758,1,10,0:0:0:0:
423,117,136844,1,8,0:0:0:0:
423,127,136930,6,0,L|264:134,1,157.500006008148,6|0,0:0|0:0,0:0:0:0:
151,162,137273,1,10,0:0:0:0:
151,190,137358,1,8,0:0:0:0:
153,220,137444,1,10,0:0:0:0:
154,250,137530,1,8,0:0:0:0:
156,280,137616,6,0,L|265:284,1,97.9999970092774,14|0,0:0|0:0,0:0:0:0:
253,284,137873,1,0,0:0:0:0:
253,284,137958,1,8,0:0:0:0:
326,150,138130,1,0,0:0:0:0:
421,270,138301,6,0,P|429:317|413:363,1,97.9999970092774,2|2,0:0|0:0,0:0:0:0:
412,363,138558,1,0,0:0:0:0:
412,363,138644,1,8,0:0:0:0:
334,237,138816,1,0,0:0:0:0:
222,336,138987,5,2,0:0:0:0:
204,312,139073,1,0,0:0:0:0:
194,284,139158,1,0,0:0:0:0:
193,255,139244,1,0,0:0:0:0:
200,227,139330,2,0,P|205:177|191:127,1,97.9999970092774,10|0,0:0|0:0,0:0:0:0:
59,40,139673,6,0,P|46:87|52:135,1,97.9999970092774,2|0,0:0|0:0,0:0:0:0:
52,135,139930,1,0,0:0:0:0:
52,135,140016,1,8,0:0:0:0:
170,24,140187,1,2,0:0:0:0:
324,154,140358,6,0,P|322:202|305:247,1,97.9999970092774,2|0,0:0|0:0,0:0:0:0:
216,294,140616,1,2,0:0:0:0:
216,294,140701,2,0,P|215:326|228:357,1,48.9999985046387,8|0,0:0|0:0,0:0:0:0:
346,350,140873,2,0,P|318:333|285:328,1,48.9999985046387,2|0,0:0|0:0,0:0:0:0:
112,357,141044,6,0,B|116:316|116:316|121:297|121:297|125:260,1,97.9999970092774,2|0,0:0|0:0,0:0:0:0:
55,169,141301,1,0,0:0:0:0:
55,169,141387,2,0,B|51:205|51:205|46:224|46:224|41:265,1,97.9999970092774,10|0,0:0|0:0,0:0:0:0:
226,206,141730,6,0,B|262:202|262:202|281:197|281:197|322:193,1,97.9999970092774,2|0,0:0|0:0,0:0:0:0:
322,193,141987,1,0,0:0:0:0:
322,193,142073,1,8,0:0:0:0:
225,67,142244,1,0,0:0:0:0:
225,67,142330,1,0,0:0:0:0:
225,67,142416,6,0,B|190:55|154:62|154:62|161:51|161:51|124:57|87:48,1,146.999995513916,2|0,0:0|0:0,0:0:0:0:
33,91,142758,1,8,0:0:0:0:
54,133,142844,1,0,0:0:0:0:
94,160,142930,1,0,0:0:0:0:
142,166,143016,1,0,0:0:0:0:
186,147,143101,6,0,P|234:163|274:207,1,97.9999970092774,6|0,0:0|0:0,0:0:0:0:
267,195,143358,1,0,0:0:0:0:
267,195,143444,1,8,0:0:0:0:
185,244,143616,1,2,0:0:0:0:
288,107,143787,6,0,P|334:86|394:93,1,97.9999970092774,2|0,0:0|0:0,0:0:0:0:
380,88,144044,1,0,0:0:0:0:
380,88,144130,1,8,0:0:0:0:
351,180,144301,1,0,0:0:0:0:
186,147,144473,6,0,P|179:96|202:40,1,97.9999970092774,2|0,0:0|0:0,0:0:0:0:
193,52,144730,1,0,0:0:0:0:
193,52,144816,1,10,0:0:0:0:
289,108,144987,1,0,0:0:0:0:
382,0,145158,6,0,B|345:1|345:1|330:-1|330:-1|284:0,1,97.9999970092774,2|0,0:0|0:0,0:0:0:0:
284,0,145416,1,0,0:0:0:0:
284,0,145501,1,8,0:0:0:0:
460,39,145673,1,0,0:0:0:0:
308,100,145844,6,0,B|289:108|289:108|281:184,1,97.9999970092774,2|0,0:0|0:0,0:0:0:0:
353,240,146101,1,0,0:0:0:0:
353,240,146187,2,0,B|372:248|372:248|379:324,1,97.9999970092774,10|0,0:0|0:0,0:0:0:0:
216,222,146530,6,0,B|197:214|197:214|189:137,1,97.9999970092774,2|0,0:0|0:0,0:0:0:0:
189,137,146787,1,0,0:0:0:0:
189,137,146873,1,10,0:0:0:0:
45,233,147044,1,0,0:0:0:0:
205,309,147216,6,0,P|229:310|281:288,1,52.5000020027161,2|0,0:0|0:0,0:0:0:0:
137,256,147387,2,0,P|123:276|116:332,1,52.5000020027161
217,223,147558,2,0,P|206:201|160:167,1,52.5000020027161,10|0,0:0|0:0,0:0:0:0:
58,122,147730,1,0,0:0:0:0:
64,139,147816,1,0,0:0:0:0:
78,151,147901,5,0,0:0:0:0:
117,137,147987,1,0,0:0:0:0:
148,109,148073,1,0,0:0:0:0:
171,74,148158,1,0,0:0:0:0:
202,45,148244,1,8,0:0:0:0:
240,30,148330,1,0,0:0:0:0:
282,23,148416,2,0,L|347:27,1,48.9999985046387,6|0,0:0|0:0,0:0:0:0:
402,110,148587,6,0,L|267:118,1,97.9999970092774,6|0,0:0|0:0,0:0:0:0:
305,116,148844,1,0,0:0:0:0:
305,116,148930,1,8,0:0:0:0:
399,0,149101,1,2,0:0:0:0:
512,100,149273,5,2,0:0:0:0:
512,134,149358,1,0,0:0:0:0:
502,166,149444,1,0,0:0:0:0:
481,193,149530,1,0,0:0:0:0:
452,212,149616,1,8,0:0:0:0:
466,40,149787,1,2,0:0:0:0:
452,212,149958,6,0,L|445:313,1,97.9999970092774,2|0,0:0|0:0,0:0:0:0:
364,378,150216,1,0,0:0:0:0:
364,378,150301,2,0,L|357:280,1,97.9999970092774,10|0,0:0|0:0,0:0:0:0:
255,121,150644,6,0,L|249:219,2,97.9999970092774,2|0|8,0:0|0:0|0:0,0:0:0:0:
256,122,151073,1,0,0:0:0:0:
256,122,151158,1,0,0:0:0:0:
148,231,151330,6,0,P|101:238|39:220,1,97.9999970092774,2|0,0:0|0:0,0:0:0:0:
53,227,151587,1,0,0:0:0:0:
53,227,151673,1,8,0:0:0:0:
208,295,151844,1,0,0:0:0:0:
103,119,152016,6,0,P|120:74|167:30,1,97.9999970092774,2|0,0:0|0:0,0:0:0:0:
154,39,152273,1,0,0:0:0:0:
154,39,152358,1,8,0:0:0:0:
249,196,152530,1,2,0:0:0:0:
97,315,152701,6,0,L|-6:309,1,97.9999970092774,2|0,0:0|0:0,0:0:0:0:
0,310,152958,1,0,0:0:0:0:
0,310,153044,1,8,0:0:0:0:
168,378,153216,1,0,0:0:0:0:
168,378,153301,1,0,0:0:0:0:
168,378,153387,6,0,B|229:373|229:373|263:379|263:379|328:372,1,146.999995513916,2|0,0:0|0:0,0:0:0:0:
385,320,153730,1,12,0:0:0:0:
252,218,153901,1,6,0:0:0:0:
447,187,154073,6,0,P|467:142|464:90,1,97.9999970092774,6|0,0:0|0:0,0:0:0:0:
465,94,154330,1,0,0:0:0:0:
465,94,154416,1,12,0:0:0:0:
455,272,154587,1,2,0:0:0:0:
303,145,154758,6,0,P|257:130|209:138,1,97.9999970092774,2|0,0:0|0:0,0:0:0:0:
208,138,155016,1,0,0:0:0:0:
208,138,155101,1,8,0:0:0:0:
308,282,155273,1,0,0:0:0:0:
385,124,155444,5,2,0:0:0:0:
377,100,155530,1,0,0:0:0:0:
363,80,155616,1,0,0:0:0:0:
342,65,155701,1,0,0:0:0:0:
320,58,155787,2,0,L|263:55,1,48.9999985046387,10|0,0:0|0:0,0:0:0:0:
193,51,155958,2,0,L|136:48,1,48.9999985046387,2|0,0:0|0:0,0:0:0:0:
66,43,156130,5,2,0:0:0:0:
231,135,156301,1,0,0:0:0:0:
240,172,156387,1,0,0:0:0:0:
235,211,156473,1,8,0:0:0:0:
215,244,156558,1,0,0:0:0:0:
184,268,156644,1,0,0:0:0:0:
146,278,156730,1,0,0:0:0:0:
108,272,156816,6,0,P|60:245|43:198,1,97.9999970092774,2|0,0:0|0:0,0:0:0:0:
134,177,157073,1,0,0:0:0:0:
134,177,157158,2,0,P|133:121|165:83,1,97.9999970092774,10|0,0:0|0:0,0:0:0:0:
332,159,157501,6,0,B|279:163|279:163|228:155,1,105.000004005432,2|0,0:0|0:0,0:0:0:0:
108,0,157844,2,0,B|161:-4|161:-4|212:4,1,105.000004005432,10|0,0:0|0:0,0:0:0:0:
251,243,158187,5,0,0:0:0:0:
57,154,158358,1,0,0:0:0:0:
274,82,158530,1,2,0:0:0:0:
164,275,158701,1,0,0:0:0:0:
47,71,158873,5,0,0:0:0:0:
281,165,159044,1,0,0:0:0:0:
95,228,159216,1,0,0:0:0:0:
230,323,159387,1,0,0:0:0:0:
8,342,159558,6,0,B|93:374|93:374|127:365,1,125.999996154785,6|0,0:0|0:0,0:0:0:0:
2,281,160930,6,0,L|8:345,2,60.6666638895672,6|0|0,0:0|0:0|0:0,0:0:0:0:
45,158,161273,2,0,L|50:218,2,60.6666638895672,14|0|0,0:0|0:0|0:0,0:0:0:0:
112,116,161616,5,10,0:0:0:0:
143,135,161730,1,0,0:0:0:0:
178,141,161844,1,0,0:0:0:0:
213,131,161958,1,8,0:0:0:0:
242,109,162073,1,0,0:0:0:0:
259,77,162187,1,0,0:0:0:0:
263,42,162301,6,0,B|254:16|254:16|156:9,1,125.999996154785,6|10,0:0|0:0,0:0:0:0:
158,74,163673,6,0,L|153:6,2,65.3333313395183,6|0|0,0:0|0:0|0:0,0:0:0:0:
213,166,164016,2,0,L|207:237,2,65.3333313395183,10|0|0,0:0|0:0|0:0,0:0:0:0:
256,65,164358,5,10,0:0:0:0:
294,14,164473,1,8,0:0:0:0:
355,2,164587,1,8,0:0:0:0:
409,35,164701,1,8,0:0:0:0:
427,95,164816,1,8,0:0:0:0:
400,152,164930,1,8,0:0:0:0:
342,176,165044,6,0,L|294:173,3,48.9999985046387,6|0|0|0,0:0|0:0|0:0|0:0,0:0:0:0:
452,213,165387,2,0,L|500:210,3,48.9999985046387,10|0|0|0,0:0|0:0|0:0|0:0,0:0:0:0:
361,276,165730,5,2,0:0:0:0:
326,278,165816,1,0,0:0:0:0:
292,277,165901,1,0,0:0:0:0:
259,267,165987,1,0,0:0:0:0:
228,251,166073,1,10,0:0:0:0:
196,241,166158,1,0,0:0:0:0:
162,238,166244,1,0,0:0:0:0:
130,246,166330,1,0,0:0:0:0:
104,268,166416,5,2,0:0:0:0:
124,311,166501,1,0,0:0:0:0:
163,341,166587,1,0,0:0:0:0:
211,350,166673,1,0,0:0:0:0:
257,336,166758,1,8,0:0:0:0:
293,303,166844,1,0,0:0:0:0:
309,257,166930,1,0,0:0:0:0:
303,209,167016,1,0,0:0:0:0:
276,169,167101,2,0,P|255:154|232:146,3,48.9999985046387,2|0|0|0,0:0|0:0|0:0|0:0,0:0:0:0:
263,60,167444,5,10,0:0:0:0:
229,54,167530,1,0,0:0:0:0:
196,62,167616,1,0,0:0:0:0:
167,81,167701,1,0,0:0:0:0:
148,109,167787,5,2,0:0:0:0:
147,133,167873,1,0,0:0:0:0:
147,157,167958,1,0,0:0:0:0:
147,182,168044,1,0,0:0:0:0:
147,206,168130,5,10,0:0:0:0:
184,218,168216,1,0,0:0:0:0:
223,224,168301,1,0,0:0:0:0:
262,223,168387,1,0,0:0:0:0:
299,212,168473,1,2,0:0:0:0:
335,197,168558,1,0,0:0:0:0:
373,188,168644,1,0,0:0:0:0:
412,191,168730,1,0,0:0:0:0:
450,200,168816,2,0,L|444:264,1,48.9999985046387,10|0,0:0|0:0,0:0:0:0:
357,337,168987,2,0,L|351:273,1,48.9999985046387
293,136,169158,5,2,0:0:0:0:
303,88,169244,1,0,0:0:0:0:
334,51,169330,1,0,0:0:0:0:
379,32,169416,1,0,0:0:0:0:
427,37,169501,1,8,0:0:0:0:
467,64,169587,1,0,0:0:0:0:
491,106,169673,1,0,0:0:0:0:
492,155,169758,1,0,0:0:0:0:
470,198,169844,1,0,0:0:0:0:
431,226,169930,1,0,0:0:0:0:
383,233,170016,1,2,0:0:0:0:
332,220,170101,1,0,0:0:0:0:
281,207,170187,1,8,0:0:0:0:
230,195,170273,1,0,0:0:0:0:
179,182,170358,1,0,0:0:0:0:
128,170,170444,1,0,0:0:0:0:
77,158,170530,6,0,B|56:140|56:140|64:41,1,125.999996154785,6|0,0:0|0:0,0:0:0:0:
177,0,171558,6,0,L|182:61,1,62.9999980773926,4|0,0:0|0:0,0:0:0:0:
59,104,171730,2,0,L|64:41,1,62.9999980773926,4|0,0:0|0:0,0:0:0:0:
186,8,171901,6,0,L|195:134,1,125.999996154785,6|0,0:0|0:0,0:0:0:0:
128,195,172158,1,0,0:0:0:0:
128,195,172244,6,0,B|157:229|205:237|245:220|266:187|266:187|278:164|296:156|315:155|315:155|392:153|435:276|290:339|230:236|271:179,1,525.000020027161,2|2,0:0|0:0,0:0:0:0:
388,91,173273,5,6,0:0:0:0:
419,118,173358,1,0,0:0:0:0:
441,153,173444,1,0,0:0:0:0:
452,194,173530,1,0,0:0:0:0:
451,236,173616,1,8,0:0:0:0:
437,275,173701,1,0,0:0:0:0:
412,309,173787,1,0,0:0:0:0:
378,333,173873,1,0,0:0:0:0:
339,347,173958,5,2,0:0:0:0:
315,312,174044,1,0,0:0:0:0:
303,272,174130,1,0,0:0:0:0:
306,230,174216,1,0,0:0:0:0:
325,193,174301,1,8,0:0:0:0:
347,158,174387,1,0,0:0:0:0:
355,117,174473,1,0,0:0:0:0:
346,76,174558,1,0,0:0:0:0:
318,37,174644,6,0,L|258:33,1,52.5000020027161,2|0,0:0|0:0,0:0:0:0:
176,26,174816,2,0,L|116:22,1,52.5000020027161
60,103,174987,2,0,L|112:106,1,52.5000020027161,8|0,0:0|0:0,0:0:0:0:
201,113,175158,1,2,0:0:0:0:
201,113,175244,1,0,0:0:0:0:
201,113,175330,6,0,L|254:117,1,52.5000020027161,2|0,0:0|0:0,0:0:0:0:
319,15,175501,1,0,0:0:0:0:
319,15,175587,1,0,0:0:0:0:
319,15,175673,1,10,0:0:0:0:
277,12,175758,1,0,0:0:0:0:
235,9,175844,1,2,0:0:0:0:
193,6,175930,1,0,0:0:0:0:
151,3,176016,6,0,B|124:8|124:8|111:106,1,125.999996154785,6|0,0:0|0:0,0:0:0:0:
253,159,177044,6,0,P|256:190|250:221,1,62.9999980773926,6|0,0:0|0:0,0:0:0:0:
108,167,177216,2,0,P|105:135|111:105,1,62.9999980773926,6|0,0:0|0:0,0:0:0:0:
260,151,177387,6,0,P|243:255|168:319,1,157.500006008148,6|0,0:0|0:0,0:0:0:0:
116,318,177730,5,0,0:0:0:0:
122,275,177816,1,0,0:0:0:0:
145,240,177901,1,2,0:0:0:0:
180,218,177987,1,0,0:0:0:0:
217,210,178073,6,0,P|247:217|273:234,1,52.5000020027161,10|0,0:0|0:0,0:0:0:0:
356,335,178244,1,10,0:0:0:0:
412,344,178330,1,8,0:0:0:0:
463,320,178416,1,8,0:0:0:0:
492,271,178501,1,0,0:0:0:0:
488,214,178587,1,0,0:0:0:0:
453,169,178673,1,0,0:0:0:0:
399,151,178758,6,0,L|340:155,3,52.5000020027161,6|0|0|0,0:0|0:0|0:0|0:0,0:0:0:0:
245,92,179101,2,0,L|192:88,3,52.5000020027161,8|0|0|0,0:0|0:0|0:0|0:0,0:0:0:0:
68,116,179444,5,2,0:0:0:0:
43,149,179530,1,0,0:0:0:0:
34,190,179616,1,0,0:0:0:0:
45,230,179701,1,0,0:0:0:0:
71,262,179787,1,8,0:0:0:0:
109,280,179873,1,0,0:0:0:0:
150,280,179958,1,0,0:0:0:0:
188,262,180044,1,0,0:0:0:0:
214,230,180130,5,2,0:0:0:0:
259,205,180216,1,0,0:0:0:0:
311,209,180301,1,0,0:0:0:0:
352,240,180387,1,0,0:0:0:0:
369,289,180473,1,8,0:0:0:0:
356,339,180558,1,0,0:0:0:0:
318,375,180644,1,0,0:0:0:0:
267,384,180730,1,0,0:0:0:0:
220,363,180816,5,2,0:0:0:0:
189,306,180901,1,0,0:0:0:0:
203,243,180987,1,0,0:0:0:0:
254,206,181073,1,0,0:0:0:0:
318,211,181158,1,8,0:0:0:0:
363,257,181244,1,0,0:0:0:0:
427,262,181330,1,0,0:0:0:0:
478,225,181416,1,0,0:0:0:0:
492,162,181501,5,6,0:0:0:0:
467,142,181587,1,0,0:0:0:0:
435,136,181673,1,0,0:0:0:0:
405,145,181758,1,0,0:0:0:0:
385,170,181844,1,10,0:0:0:0:
426,163,181930,1,0,0:0:0:0:
460,140,182016,1,0,0:0:0:0:
461,98,182101,1,0,0:0:0:0:
451,57,182187,2,0,P|434:36|412:22,1,52.5000020027161,2|0,0:0|0:0,0:0:0:0:
292,32,182358,2,0,P|315:52|329:77,1,52.5000020027161,2|0,0:0|0:0,0:0:0:0:
296,200,182530,2,0,P|272:211|246:215,1,52.5000020027161,10|0,0:0|0:0,0:0:0:0:
189,119,182701,2,0,P|214:114|240:116,1,52.5000020027161,2|0,0:0|0:0,0:0:0:0:
321,281,182873,6,0,P|322:343|307:398,1,105.000004005432,2|0,0:0|0:0,0:0:0:0:
447,349,183130,1,0,0:0:0:0:
432,347,183216,2,0,P|431:285|446:230,1,105.000004005432,10|0,0:0|0:0,0:0:0:0:
217,326,183473,1,0,0:0:0:0:
201,328,183558,5,2,0:0:0:0:
215,299,183644,1,0,0:0:0:0:
218,267,183730,1,0,0:0:0:0:
215,236,183816,1,0,0:0:0:0:
204,207,183901,1,8,0:0:0:0:
187,180,183987,1,0,0:0:0:0:
164,159,184073,1,0,0:0:0:0:
137,143,184158,1,0,0:0:0:0:
107,134,184244,6,0,L|36:139,1,52.5000020027161,2|0,0:0|0:0,0:0:0:0:
87,147,184416,2,0,L|35:151,1,52.5000020027161,2|0,0:0|0:0,0:0:0:0:
125,50,184587,6,0,L|176:54,1,52.5000020027161,10|0,0:0|0:0,0:0:0:0:
156,63,184758,2,0,L|207:67,1,52.5000020027161,2|0,0:0|0:0,0:0:0:0:
252,170,184930,6,0,P|293:160|342:170,1,59.5000011348725,2|0,0:0|0:0,0:0:0:0:
305,74,185101,2,0,P|346:86|383:120,1,59.5000011348725,2|0,0:0|0:0,0:0:0:0:
396,25,185273,2,0,P|425:56|441:103,1,59.5000011348725,10|0,0:0|0:0,0:0:0:0:
503,26,185444,2,0,P|513:67|502:117,1,59.5000011348725,2|0,0:0|0:0,0:0:0:0:
512,235,185616,6,0,P|523:295|480:386,1,157.500006008148,6|0,0:0|0:0,0:0:0:0:
390,359,185958,1,2,0:0:0:0:
390,359,186130,1,2,0:0:0:0:
261,344,186301,6,0,B|283:348|296:362|296:362|270:321|268:280|280:251,1,157.500006008148,6|0,0:0|0:0,0:0:0:0:
353,192,186644,1,2,0:0:0:0:
211,48,186816,1,2,0:0:0:0:
168,236,186987,5,2,0:0:0:0:
156,265,187073,1,0,0:0:0:0:
152,296,187158,1,0,0:0:0:0:
154,327,187244,1,0,0:0:0:0:
162,358,187330,1,10,0:0:0:0:
123,373,187416,1,0,0:0:0:0:
82,379,187501,1,0,0:0:0:0:
41,376,187587,1,0,0:0:0:0:
0,365,187673,2,0,L|4:305,1,52.5000020027161,2|0,0:0|0:0,0:0:0:0:
14,170,187844,2,0,L|11:223,1,52.5000020027161,2|0,0:0|0:0,0:0:0:0:
80,299,188016,2,0,L|83:246,1,52.5000020027161,10|0,0:0|0:0,0:0:0:0:
91,157,188187,2,0,L|94:104,1,52.5000020027161,2|0,0:0|0:0,0:0:0:0:
78,12,188358,6,0,B|118:7|149:22|135:28|167:38|201:30,1,105.000004005432,2|0,0:0|0:0,0:0:0:0:
203,172,188616,1,0,0:0:0:0:
206,188,188701,6,0,B|246:193|277:178|263:172|295:162|329:170,1,105.000004005432,10|0,0:0|0:0,0:0:0:0:
340,29,188958,1,0,0:0:0:0:
343,13,189044,6,0,L|395:15,1,52.5000020027161,2|0,0:0|0:0,0:0:0:0:
389,96,189216,2,0,L|441:98,1,52.5000020027161,2|0,0:0|0:0,0:0:0:0:
512,199,189387,6,0,L|459:201,1,41.9999987182618,10|0,0:0|0:0,0:0:0:0:
486,274,189558,2,0,L|433:276,1,41.9999987182618,2|0,0:0|0:0,0:0:0:0:
289,314,189730,6,0,L|291:251,1,52.5000020027161,2|0,0:0|0:0,0:0:0:0:
398,215,189901,2,0,L|345:212,1,52.5000020027161,2|0,0:0|0:0,0:0:0:0:
191,204,190073,2,0,L|267:206,1,52.5000020027161,10|0,0:0|0:0,0:0:0:0:
301,106,190244,2,0,L|298:158,1,52.5000020027161,2|0,0:0|0:0,0:0:0:0:
111,202,190416,6,0,P|80:171|65:131,1,59.5000011348725,2|0,0:0|0:0,0:0:0:0:
89,1,190587,2,0,P|111:20|127:44,1,59.5000011348725,2|0,0:0|0:0,0:0:0:0:
200,87,190758,2,0,P|181:109|156:125,1,59.5000011348725,10|0,0:0|0:0,0:0:0:0:
0,112,190930,2,0,P|31:81|71:66,1,59.5000011348725,2|0,0:0|0:0,0:0:0:0:
196,0,191101,6,0,P|265:32|283:111,1,157.500006008148,6|0,0:0|0:0,0:0:0:0:
290,209,191444,1,8,0:0:0:0:
303,236,191530,1,8,0:0:0:0:
326,257,191616,1,8,0:0:0:0:
356,268,191701,1,8,0:0:0:0:
388,269,191787,6,0,L|439:265,1,52.5000020027161,14|0,0:0|0:0,0:0:0:0:
512,150,191958,2,0,L|460:146,1,52.5000020027161,2|0,0:0|0:0,0:0:0:0:
285,105,192130,1,8,0:0:0:0:
235,119,192216,1,8,0:0:0:0:
200,158,192301,1,8,0:0:0:0:
192,210,192387,1,8,0:0:0:0:
212,258,192473,6,0,B|250:305|317:311|363:276|363:276|321:303|306:337|305:381,1,293.999991027832,14|0,0:0|0:0,0:0:0:0:
434,382,193844,1,6,0:0:0:0:
212,258,194187,5,2,0:0:0:0:
297,184,194358,1,2,0:0:0:0:
212,258,194530,2,0,P|172:193|181:67,1,188.999994232178,2|0,0:0|0:0,0:0:0:0:
104,249,195216,6,0,B|49:172|30:231|-28:151|-28:151|-4:117|40:105|78:123|96:154,1,293.999991027832,6|0,0:0|0:0,0:0:0:0:
18,298,196587,1,6,0:0:0:0:
169,131,196930,5,2,0:0:0:0:
130,49,197101,1,2,0:0:0:0:
41,41,197273,1,2,0:0:0:0:
219,58,197616,1,2,0:0:0:0:
396,40,197958,6,0,B|413:84|381:134|325:135|294:104|294:104|273:146|278:193|300:229,1,293.999991027832,6|0,0:0|0:0,0:0:0:0:
106,259,199330,2,0,L|231:274,1,125.999996154785,6|0,0:0|0:0,0:0:0:0:
328,364,200016,2,0,L|202:349,1,125.999996154785,6|0,0:0|0:0,0:0:0:0:
307,282,200701,6,0,B|473:302|473:302|421:298|375:263|362:215,1,293.999991027832,6|0,0:0|0:0,0:0:0:0:
414,96,202073,2,0,B|482:86|543:115|556:147|557:193|529:222|480:230|451:209|439:183,1,293.999991027832,6|0,0:0|0:0,0:0:0:0:
346,28,203444,6,0,B|316:49|304:102|328:144|328:144|274:157|214:128|192:72,1,293.999991027832,6|0,0:0|0:0,0:0:0:0:
251,229,204816,1,6,0:0:0:0:
106,69,205158,5,2,0:0:0:0:
251,13,205330,1,2,0:0:0:0:
106,69,205501,2,0,P|66:134|75:260,1,188.999994232178,2|0,0:0|0:0,0:0:0:0:
214,155,206187,6,0,B|182:126|124:153|136:219|184:232|211:211|211:211|190:233|179:253|177:285|177:285|166:253|144:237,1,293.999991027832,4|0,0:0|0:0,0:0:0:0:
225,367,207558,1,6,0:0:0:0:
359,253,207901,5,2,0:0:0:0:
276,286,208073,1,2,0:0:0:0:
347,338,208244,1,2,0:0:0:0:
205,234,208587,1,2,0:0:0:0:
298,84,208930,6,0,P|314:142|286:200,1,125.999996154785,6|0,0:0|0:0,0:0:0:0:
159,139,209616,6,0,L|222:136,1,62.9999980773926,2|0,0:0|0:0,0:0:0:0:
80,95,209958,2,0,L|17:93,1,62.9999980773926,2|0,0:0|0:0,0:0:0:0:
155,46,210301,6,0,B|210:43|210:43|224:37|224:37|281:34,1,125.999996154785,6|0,0:0|0:0,0:0:0:0:
299,129,210987,2,0,B|354:132|354:132|369:138|369:138|423:141,1,125.999996154785,6|0,0:0|0:0,0:0:0:0:
468,241,211673,6,0,B|499:260|501:296|480:325|438:341|398:305|398:305|370:322|343:323|313:305|313:305|339:313|355:307,1,293.999991027832,6|0,0:0|0:0,0:0:0:0:
234,324,213044,2,0,P|172:262|257:259,1,209.999993591309,6|0,0:0|0:0,0:0:0:0:
260,163,214073,6,0,L|254:118,1,37.1000000566101,2|0,0:0|0:0,0:0:0:0:
162,80,214416,5,2,0:0:0:0:
162,80,214473,2,0,L|152:171,1,88.6666642990113
239,49,215105,6,0,L|288:45,1,43.75,2|0,0:0|0:0,0:0:0:0:
392,2,215427,2,0,L|349:0,1,43.75,2|0,0:0|0:0,0:0:0:0:
459,95,215824,5,2,0:0:0:0:
459,95,215881,2,0,P|503:30|502:-15,1,116.666666666667
370,94,216512,6,0,L|367:137,1,36.749998878479
511,165,216856,2,0,L|513:195,1,29.7500005674362,2|0,0:0|0:0,0:0:0:0:
403,258,217200,5,2,0:0:0:0:
403,258,217258,2,0,P|339:267|290:247,1,110.13332946818
162,345,217904,2,0,P|184:288|223:258,1,109.199999333496,2|0,0:0|0:0,0:0:0:0:
207,92,218608,2,0,P|244:139|251:188,1,109.200003665772,2|0,0:0|0:0,0:0:0:0:
211,4,219917,5,2,0:0:0:0:
211,4,219973,2,0,P|214:49|205:94,1,88.6666642990113
150,177,220591,1,2,0:0:0:0:
40,244,220928,1,2,0:0:0:0:
67,374,221265,2,0,L|161:381,1,89.2500017023087,2|0,0:0|0:0,0:0:0:0:
249,272,221962,6,0,L|247:226,1,40.2500007677078
324,303,222311,2,0,L|322:343,1,29.7500005674362
399,263,222660,5,2,0:0:0:0:
399,263,222716,2,0,P|434:266|457:260,1,55.9999982910157
418,179,223502,2,0,P|399:176|376:175,1,38.5000011749268,2|0,0:0|0:0,0:0:0:0:
313,229,224071,6,0,L|311:239,2,6.4166668624878,2|0|0,0:0|0:0|0:0,0:0:0:0:
256,192,224293,12,0,225404,0:0:0:0:
372,89,226758,6,0,L|204:97,1,168,2|0,0:0|0:0,0:0:0:0:
426,167,227279,1,8,0:0:0:0:
465,83,227453,1,0,0:0:0:0:
411,5,227627,1,0,0:0:0:0:
426,167,227801,6,0,L|434:334,1,167.999994873047,2|0,0:0|0:0,0:0:0:0:
212,279,228323,2,0,L|220:111,1,167.999994873047,10|0,0:0|0:0,0:0:0:0:
296,240,228844,5,2,0:0:0:0:
206,372,229018,1,0,0:0:0:0:
134,225,229192,1,0,0:0:0:0:
306,149,229366,5,10,0:0:0:0:
197,64,229540,2,0,L|131:58,1,48.9999985046387,2|0,0:0|0:0,0:0:0:0:
181,203,229714,2,0,L|247:197,1,48.9999985046387,2|0,0:0|0:0,0:0:0:0:
274,53,229888,5,2,0:0:0:0:
132,140,230062,1,2,0:0:0:0:
132,140,230149,1,2,0:0:0:0:
132,140,230236,1,2,0:0:0:0:
306,149,230410,6,0,L|389:153,1,83.9999974365235,10|0,0:0|0:0,0:0:0:0:
270,60,230758,1,2,0:0:0:0:
334,243,230931,6,0,L|338:326,2,83.9999974365235,2|0|0,0:0|0:0|0:0,0:0:0:0:
447,83,231453,2,0,L|451:0,2,83.9999974365235,10|0|0,0:0|0:0|0:0,0:0:0:0:
512,280,231975,5,2,0:0:0:0:
512,280,232062,1,2,0:0:0:0:
512,280,232149,2,0,L|508:238,1,41.9999987182618,2|0,0:0|0:0,0:0:0:0:
418,158,232323,1,0,0:0:0:0:
407,355,232497,1,10,0:0:0:0:
303,244,232671,2,0,P|282:202|274:137,1,83.9999974365235
140,15,233018,5,2,0:0:0:0:
153,103,233192,1,0,0:0:0:0:
167,191,233366,1,0,0:0:0:0:
224,335,233540,5,8,0:0:0:0:
237,247,233714,1,0,0:0:0:0:
251,159,233888,1,0,0:0:0:0:
308,15,234062,5,0,0:0:0:0:
321,103,234236,1,0,0:0:0:0:
335,191,234410,1,0,0:0:0:0:
200,28,234584,6,0,B|125:31|125:31|98:23|98:23|34:26,1,167.999994873047,10|0,0:0|0:0,0:0:0:0:
308,15,235105,6,0,P|388:46|406:137,1,167.999994873047,2|0,0:0|0:0,0:0:0:0:
200,28,235627,1,8,0:0:0:0:
161,156,235801,2,0,L|78:160,1,83.9999974365235
204,369,236149,5,2,0:0:0:0:
228,274,236323,2,0,L|311:278,1,83.9999974365235
204,369,236671,2,0,P|129:296|155:212,1,167.999994873047,10|0,0:0|0:0,0:0:0:0:
337,105,237192,6,0,L|341:22,2,83.9999974365235,2|2|0,0:0|0:0|0:0,0:0:0:0:
249,119,237714,5,8,0:0:0:0:
161,133,237888,1,0,0:0:0:0:
73,146,238062,1,2,0:0:0:0:
217,203,238236,5,2,0:0:0:0:
305,217,238410,1,0,0:0:0:0:
393,230,238584,1,0,0:0:0:0:
249,287,238758,5,8,0:0:0:0:
161,301,238931,1,0,0:0:0:0:
73,314,239105,1,2,0:0:0:0:
305,357,239279,6,0,L|413:375,1,83.9999974365235,2|0,0:0|0:0,0:0:0:0:
476,290,239627,1,0,0:0:0:0:
305,223,239801,2,0,L|387:209,2,83.9999974365235,10|0|0,0:0|0:0|0:0,0:0:0:0:
158,63,240323,6,0,L|75:50,2,83.9999974365235,2|0|0,0:0|0:0|0:0,0:0:0:0:
334,141,240844,1,10,0:0:0:0:
422,126,241018,2,0,L|504:112,1,83.9999974365235
231,3,241366,5,2,0:0:0:0:
246,102,241540,1,0,0:0:0:0:
261,201,241714,1,0,0:0:0:0:
137,362,241888,5,8,0:0:0:0:
152,263,242062,1,0,0:0:0:0:
167,164,242236,1,0,0:0:0:0:
41,224,242410,5,0,0:0:0:0:
61,87,242584,1,0,0:0:0:0:
41,224,242758,1,0,0:0:0:0:
158,63,242931,5,12,0:0:0:0:
186,252,243105,1,2,0:0:0:0:
158,63,243279,1,0,0:0:0:0:
321,284,243453,5,14,0:0:0:0:
358,30,243624,1,0,0:0:0:0:
358,30,243710,1,0,0:0:0:0:
358,30,243795,1,8,0:0:0:0:
416,203,243967,1,0,0:0:0:0:
380,213,244053,1,0,0:0:0:0:
344,215,244138,1,10,0:0:0:0:
308,208,244224,1,0,0:0:0:0:
275,192,244310,2,0,L|269:121,1,52.5000020027161
273,0,244481,5,10,0:0:0:0:
183,295,244653,1,0,0:0:0:0:
158,63,244824,5,10,0:0:0:0:
271,322,244995,1,0,0:0:0:0:
65,127,245167,5,10,0:0:0:0:
0,293,245338,1,0,0:0:0:0:
189,171,245510,5,8,0:0:0:0:
189,171,245595,1,0,0:0:0:0:
189,171,245681,2,0,L|123:175,1,52.5000020027161
88,272,245853,1,8,0:0:0:0:
88,272,245938,1,0,0:0:0:0:
88,272,246024,2,0,L|154:276,1,52.5000020027161,2|0,0:0|0:0,0:0:0:0:
320,113,246195,5,10,0:0:0:0:
321,123,246281,1,0,0:0:0:0:
322,134,246367,2,0,L|325:186,1,52.5000020027161
224,359,246538,5,10,0:0:0:0:
225,349,246624,1,0,0:0:0:0:
226,338,246709,2,0,L|231:270,1,52.5000020027161
174,163,246882,5,10,0:0:0:0:
184,164,246968,1,0,0:0:0:0:
195,165,247053,2,0,L|263:170,1,52.5000020027161
420,259,247224,5,10,0:0:0:0:
410,260,247310,1,0,0:0:0:0:
399,261,247396,2,0,L|346:264,1,52.5000020027161
167,285,247567,5,10,0:0:0:0:
129,266,247653,1,0,0:0:0:0:
100,236,247738,1,0,0:0:0:0:
82,198,247824,1,0,0:0:0:0:
76,157,247910,1,8,0:0:0:0:
85,116,247995,1,0,0:0:0:0:
105,80,248081,1,0,0:0:0:0:
137,52,248167,1,0,0:0:0:0:
175,36,248253,6,0,P|201:37|226:43,3,52.5000020027161,8|0|0|0,0:0|0:0|0:0|0:0,0:0:0:0:
307,33,248595,2,0,P|328:47|347:65,3,52.5000020027161,10|0|0|0,0:0|0:0|0:0|0:0,0:0:0:0:
430,78,248938,5,10,0:0:0:0:
330,246,249110,1,0,0:0:0:0:
509,170,249281,1,8,0:0:0:0:
509,170,249367,1,0,0:0:0:0:
509,170,249453,1,0,0:0:0:0:
319,125,249624,5,10,0:0:0:0:
448,274,249795,1,0,0:0:0:0:
227,209,249967,1,10,0:0:0:0:
227,209,250053,1,0,0:0:0:0:
227,209,250138,1,0,0:0:0:0:
330,246,250310,5,10,0:0:0:0:
142,199,250481,1,0,0:0:0:0:
358,91,250653,5,8,0:0:0:0:
99,131,250824,1,0,0:0:0:0:
237,326,250995,5,10,0:0:0:0:
378,175,251167,1,0,0:0:0:0:
185,136,251338,1,8,0:0:0:0:
185,136,251424,1,0,0:0:0:0:
185,136,251510,1,0,0:0:0:0:
308,230,251681,5,10,0:0:0:0:
361,0,251853,1,8,0:0:0:0:
136,62,252024,1,8,0:0:0:0:
315,106,252195,1,8,0:0:0:0:
360,115,252281,1,0,0:0:0:0:
406,105,252367,1,8,0:0:0:0:
444,78,252453,1,0,0:0:0:0:
468,37,252538,1,8,0:0:0:0:
397,215,252710,1,8,0:0:0:0:
397,215,252795,1,0,0:0:0:0:
397,215,252881,1,8,0:0:0:0:
255,50,253053,5,10,0:0:0:0:
494,180,253224,1,8,0:0:0:0:
494,180,253310,1,0,0:0:0:0:
494,180,253395,1,8,0:0:0:0:
357,355,253567,1,8,0:0:0:0:
310,378,253653,1,0,0:0:0:0:
258,384,253738,1,8,0:0:0:0:
208,370,253824,1,0,0:0:0:0:
165,340,253910,1,8,0:0:0:0:
270,228,254081,6,0,L|265:287,1,59.5000011348725,8|0,0:0|0:0,0:0:0:0:
51,335,254253,2,0,L|45:266,1,59.5000011348725
169,109,254424,5,6,0:0:0:0:
179,102,254516,2,0,P|221:94|270:94,1,83.9999974365235,2|0,0:0|0:0,0:0:0:0:
328,142,254793,2,0,P|355:146|390:146,1,41.9999987182618,2|0,0:0|0:0,0:0:0:0:
443,112,254977,2,0,P|462:110|484:109,1,41.9999987182618,2|0,0:0|0:0,0:0:0:0:
441,235,255162,6,0,P|447:282|449:336,1,83.9999974365235,2|0,0:0|0:0,0:0:0:0:
308,267,255495,2,0,P|304:317|303:369,1,83.9999974365235,2|0,0:0|0:0,0:0:0:0:
141,101,255828,6,0,P|94:99|50:93,1,90.9999958343508,2|2,0:0|0:0,0:0:0:0:
235,198,256161,2,0,P|191:201|144:212,1,83.9999974365235,2|2,0:0|0:0,0:0:0:0:
296,66,256494,2,0,P|249:59|207:42,1,77.0000023498536,2|2,0:0|0:0,0:0:0:0:
386,150,256828,2,0,P|339:156|299:180,1,70,2|2,0:0|0:0,0:0:0:0:
386,371,257161,5,0,0:0:0:0:
392,359,257216,2,0,P|388:314|380:269,1,83.9999974365235,2|0,0:0|0:0,0:0:0:0:
301,328,257554,2,0,P|293:274|283:234,1,83.9999974365235,2|0,0:0|0:0,0:0:0:0:
48,280,257892,2,0,P|52:235|67:189,1,90.9999958343508,2|0,0:0|0:0,0:0:0:0:
142,255,258230,2,0,P|150:201|175:164,1,90.9999958343508
271,105,258568,6,0,P|280:80|295:59,1,52.5000020027161
380,140,258742,2,0,P|374:120|365:102,1,41.9999987182618
266,142,258917,2,0,P|273:117|287:95,1,52.5000020027161,2|0,0:0|0:0,0:0:0:0:
376,179,259092,2,0,P|372:158|364:138,1,41.9999987182618,2|0,0:0|0:0,0:0:0:0:
286,263,259267,6,0,P|292:233|310:204,1,52.5000020027161
395,299,259442,2,0,P|393:278|387:258,1,41.9999987182618
282,301,259617,2,0,P|286:271|301:241,1,52.5000020027161
391,337,259792,2,0,P|391:316|386:295,1,41.9999987182618
207,382,259967,6,0,P|204:341|196:292,1,83.9999974365235,2|0,0:0|0:0,0:0:0:0:
107,357,260305,2,0,P|102:317|90:265,1,83.9999974365235,2|0,0:0|0:0,0:0:0:0:
9,123,260643,2,0,P|13:70|37:18,1,105.000004005432
114,99,260981,2,0,P|128:38|162:-2,1,105.000004005432,2|0,0:0|0:0,0:0:0:0:
378,115,261319,6,0,P|425:113|469:107,1,90.9999958343508,2|2,0:0|0:0,0:0:0:0:
224,206,261657,2,0,P|267:209|314:220,1,83.9999974365235,2|2,0:0|0:0,0:0:0:0:
153,45,261995,2,0,P|200:38|241:21,1,77.0000023498536,2|2,0:0|0:0,0:0:0:0:
83,139,262333,2,0,P|130:145|169:169,1,70,2|2,0:0|0:0,0:0:0:0:
88,346,262671,5,0,0:0:0:0:
83,333,262755,2,0,P|82:286|91:242,1,83.9999974365235,2|0,0:0|0:0,0:0:0:0:
182,314,263079,2,0,P|182:272|197:225,1,83.9999974365235,2|0,0:0|0:0,0:0:0:0:
445,176,263403,2,0,P|443:129|414:62,1,105.000004005432
341,146,263731,2,0,P|333:91|293:42,1,105.000004005432
129,15,264060,6,0,P|120:39|105:61,1,52.5000020027161
91,153,264235,2,0,P|84:133|74:114,1,41.9999987182618
93,10,264410,2,0,P|85:35|71:57,1,52.5000020027161
53,149,264585,2,0,P|48:128|40:108,1,41.9999987182618
179,99,264760,6,0,P|180:125|190:149,1,52.5000020027161
208,212,264935,2,0,P|208:191|212:170,1,41.9999987182618
217,95,265111,2,0,P|216:121|224:146,1,52.5000020027161
246,207,265286,2,0,P|244:186|247:165,1,41.9999987182618
283,0,265461,6,0,P|291:24|306:46,1,52.5000020027161
321,138,265636,2,0,P|327:118|337:99,1,41.9999987182618
323,0,265811,2,0,P|330:25|344:47,1,52.5000020027161
359,134,265987,2,0,P|363:113|371:93,1,41.9999987182618
512,76,266162,6,0,P|510:102|500:126,1,52.5000020027161
483,189,266328,2,0,P|472:170|458:155,1,41.9999987182618
339,261,266495,6,0,P|340:235|350:211,1,52.5000020027161,2|0,0:0|0:0,0:0:0:0:
457,266,266662,2,0,P|438:255|418:250,1,41.9999987182618
290,337,266828,6,0,P|313:347|340:349,1,52.5,2|0,0:0|0:0,0:0:0:0:
417,341,267533,6,0,P|443:346|475:364,1,45.4999979171754,2|0,0:0|0:0,0:0:0:0:
175,315,268138,6,0,B|178:269|178:269|199:230,1,90.9999958343508,6|0,0:0|0:0,0:0:0:0:
322,125,268490,2,0,B|318:170|318:170|297:209,1,90.9999958343508,8|0,0:0|0:0,0:0:0:0:
270,45,268843,1,2,0:0:0:0:
222,143,269020,1,0,0:0:0:0:
369,30,269196,1,8,0:0:0:0:
172,58,269373,1,0,0:0:0:0:
411,117,269549,6,0,L|402:207,1,90.9999958343508,2|0,0:0|0:0,0:0:0:0:
167,216,269902,1,8,0:0:0:0:
325,155,270079,1,2,0:0:0:0:
119,135,270255,2,0,B|63:165|63:165|88:305,1,181.999991668702,2|8,0:0|0:0,0:0:0:0:
286,369,270785,1,2,0:0:0:0:
167,216,270961,5,2,0:0:0:0:
202,381,271138,1,0,0:0:0:0:
249,224,271314,1,8,0:0:0:0:
121,358,271490,1,0,0:0:0:0:
250,144,271667,2,0,B|256:99|256:99|243:55,1,90.9999958343508,2|0,0:0|0:0,0:0:0:0:
51,111,272020,2,0,B|95:117|95:117|139:104,1,90.9999958343508,8|0,0:0|0:0,0:0:0:0:
354,28,272373,6,0,L|470:32,1,90.9999958343508,2|0,0:0|0:0,0:0:0:0:
392,210,272726,2,0,L|301:213,1,90.9999958343508,8|0,0:0|0:0,0:0:0:0:
485,171,273079,2,0,L|481:261,1,83.9999974365235,2|0,0:0|0:0,0:0:0:0:
366,384,273432,2,0,L|362:293,1,83.9999974365235,8|0,0:0|0:0,0:0:0:0:
240,146,273785,6,0,P|219:174|211:207,2,70,6|0|0,0:0|0:0|0:0,0:0:0:0:
316,97,274314,1,0,0:0:0:0:
148,139,274490,2,0,P|119:158|100:187,2,70,10|0|0,0:0|0:0|0:0,0:0:0:0:
331,95,275020,1,2,0:0:0:0:
108,61,275196,5,2,0:0:0:0:
172,1,275373,1,8,0:0:0:0:
249,41,275549,1,0,0:0:0:0:
234,127,275726,1,2,0:0:0:0:
148,139,275902,1,10,0:0:0:0:
133,225,276079,2,0,L|121:294,2,70,0|0|8,0:0|0:0|0:0,0:0:0:0:
315,181,276608,5,6,0:0:0:0:
219,314,276785,1,0,0:0:0:0:
375,263,276961,1,0,0:0:0:0:
219,213,277138,1,0,0:0:0:0:
315,346,277314,2,0,B|361:362|361:362|410:358,1,97.9999970092774,2|0,0:0|0:0,0:0:0:0:
219,213,277667,2,0,B|172:229|172:229|123:225,1,97.9999970092774
219,59,278020,5,2,0:0:0:0:
43,251,278196,1,0,0:0:0:0:
252,136,278373,1,0,0:0:0:0:
61,168,278549,1,0,0:0:0:0:
219,213,278726,2,0,B|224:252|224:252|222:275|222:275|226:310,1,97.9999970092774,2|0,0:0|0:0,0:0:0:0:
168,145,279079,1,8,0:0:0:0:
303,204,279255,1,0,0:0:0:0:
136,292,279432,6,0,B|114:334|114:334|111:384,1,97.9999970092774,2|0,0:0|0:0,0:0:0:0:
316,210,279785,2,0,B|337:252|337:252|340:302,1,97.9999970092774,8|0,0:0|0:0,0:0:0:0:
197,91,280138,1,2,0:0:0:0:
204,270,280314,1,0,0:0:0:0:
288,105,280490,1,8,0:0:0:0:
129,211,280667,1,0,0:0:0:0:
255,20,280843,6,0,B|290:13|290:13|360:29,1,105.000004005432,2|0,0:0|0:0,0:0:0:0:
321,271,281196,1,8,0:0:0:0:
210,87,281373,1,0,0:0:0:0:
423,145,281549,1,2,0:0:0:0:
265,344,281726,1,0,0:0:0:0:
291,92,281902,1,10,0:0:0:0:
357,356,282079,1,2,0:0:0:0:
218,129,282255,6,0,P|145:118|93:138,1,125.999996154785,6|0,0:0|0:0,0:0:0:0:
164,235,282785,1,0,0:0:0:0:
164,235,282961,1,8,0:0:0:0:
75,264,283314,6,0,L|69:295,1,31.4999990386963,2|0,0:0|0:0,0:0:0:0:
145,321,283490,2,0,L|139:352,1,31.4999990386963,2|0,0:0|0:0,0:0:0:0:
296,299,283667,1,6,0:0:0:0:
313,384,283843,2,0,L|375:380,2,62.9999980773926,8|0|0,0:0|0:0|0:0,0:0:0:0:
450,335,284373,2,0,L|513:339,1,62.9999980773926,10|0,0:0|0:0,0:0:0:0:
466,241,284726,1,8,0:0:0:0:
381,270,284902,1,0,0:0:0:0:
330,83,285079,6,0,B|322:139|322:139|341:191,1,112,4|0,0:0|0:0,0:0:0:0:
406,130,286450,2,0,B|415:73|415:73|397:22,1,112,4|0,0:0|0:0,0:0:0:0:
2,108,287821,6,0,B|-6:52|-6:52|12:1,1,112,4|0,0:0|0:0,0:0:0:0:
79,62,289193,2,0,B|87:118|87:118|68:170,1,112,4|0,0:0|0:0,0:0:0:0:
242,93,290221,6,0,L|238:157,1,62.9999980773926,6|0,0:0|0:0,0:0:0:0:
290,282,290564,6,0,B|261:264|261:264|266:172,1,125.999996154785,4|0,0:0|0:0,0:0:0:0:
108,290,291936,2,0,B|137:273|137:273|228:334,1,125.999996154785,4|0,0:0|0:0,0:0:0:0:
192,128,293307,6,0,B|190:161|190:161|93:210,1,125.999996154785,4|0,0:0|0:0,0:0:0:0:
31,246,294679,2,0,B|2:228|2:228|8:119,1,125.999996154785,4|0,0:0|0:0,0:0:0:0:
39,90,295707,6,0,L|36:153,1,62.9999980773926,6|0,0:0|0:0,0:0:0:0:
59,236,296050,5,6,0:0:0:0:
97,252,296136,1,0,0:0:0:0:
135,260,296221,1,0,0:0:0:0:
171,253,296307,1,0,0:0:0:0:
202,240,296393,1,10,0:0:0:0:
231,233,296479,1,0,0:0:0:0:
258,232,296564,1,0,0:0:0:0:
281,234,296650,1,0,0:0:0:0:
301,238,296736,5,2,0:0:0:0:
309,288,296821,1,0,0:0:0:0:
282,332,296907,1,2,0:0:0:0:
232,345,296993,1,0,0:0:0:0:
186,322,297079,2,0,L|190:260,1,52.5000020027161,10|2,0:0|0:0,0:0:0:0:
254,183,297250,2,0,L|255:235,1,52.5000020027161,2|0,0:0|0:0,0:0:0:0:
121,359,297421,5,2,0:0:0:0:
59,341,297507,1,0,0:0:0:0:
26,293,297593,1,2,0:0:0:0:
28,240,297679,1,0,0:0:0:0:
56,202,297764,1,10,0:0:0:0:
93,183,297850,1,0,0:0:0:0:
131,184,297936,1,2,0:0:0:0:
159,199,298021,1,0,0:0:0:0:
168,224,298107,5,2,0:0:0:0:
201,266,298193,1,0,0:0:0:0:
254,279,298279,1,0,0:0:0:0:
303,258,298364,1,0,0:0:0:0:
330,211,298450,1,8,0:0:0:0:
323,157,298536,1,0,0:0:0:0:
284,119,298621,1,0,0:0:0:0:
231,112,298707,1,0,0:0:0:0:
184,139,298793,6,0,P|171:171|173:203,1,52.5000020027161,2|0,0:0|0:0,0:0:0:0:
174,65,298964,2,0,P|151:37|123:24,1,52.5000020027161,2|0,0:0|0:0,0:0:0:0:
113,111,299136,1,10,0:0:0:0:
82,115,299221,1,0,0:0:0:0:
51,120,299307,2,0,L|-17:130,1,52.5000020027161,2|0,0:0|0:0,0:0:0:0:
97,259,299479,5,2,0:0:0:0:
143,266,299564,1,0,0:0:0:0:
189,273,299650,2,0,L|268:285,1,52.5000020027161,2|0,0:0|0:0,0:0:0:0:
83,337,299821,2,0,L|4:349,1,52.5000020027161,10|0,0:0|0:0,0:0:0:0:
177,197,299993,1,2,0:0:0:0:
182,166,300079,1,2,0:0:0:0:
186,135,300164,6,0,L|196:67,3,52.5000020027161,2|0|2|0,0:0|0:0|0:0|0:0,0:0:0:0:
79,89,300507,2,0,L|72:37,3,52.5000020027161,10|0|2|0,0:0|0:0|0:0|0:0,0:0:0:0:
213,0,300850,5,2,0:0:0:0:
264,23,300936,1,2,0:0:0:0:
286,79,301021,1,2,0:0:0:0:
264,135,301107,1,0,0:0:0:0:
206,160,301193,5,10,0:0:0:0:
222,131,301279,1,0,0:0:0:0:
253,116,301364,1,0,0:0:0:0:
287,121,301450,1,0,0:0:0:0:
314,143,301536,6,0,L|317:197,1,52.5000020027161,2|0,0:0|0:0,0:0:0:0:
268,368,301707,2,0,L|265:315,1,52.5000020027161,2|0,0:0|0:0,0:0:0:0:
301,158,301879,2,0,L|304:212,1,52.5000020027161,10|0,0:0|0:0,0:0:0:0:
257,384,302050,2,0,L|254:331,1,52.5000020027161,2|0,0:0|0:0,0:0:0:0:
171,224,302221,5,2,0:0:0:0:
124,222,302307,1,0,0:0:0:0:
77,219,302393,2,0,L|24:216,1,52.5000020027161,2|0,0:0|0:0,0:0:0:0:
258,138,302564,2,0,L|336:133,1,52.5000020027161,10|0,0:0|0:0,0:0:0:0:
402,127,302736,1,0,0:0:0:0:
171,62,302907,6,0,P|146:86|135:116,1,52.5000020027161,2|0,0:0|0:0,0:0:0:0:
242,249,303079,2,0,P|267:258|293:257,1,52.5000020027161,2|0,0:0|0:0,0:0:0:0:
280,21,303250,2,0,P|255:13|229:14,1,52.5000020027161,10|0,0:0|0:0,0:0:0:0:
152,176,303421,2,0,P|158:202|171:224,1,52.5000020027161,2|0,0:0|0:0,0:0:0:0:
349,194,303593,5,2,0:0:0:0:
405,194,303679,1,0,0:0:0:0:
452,226,303764,1,2,0:0:0:0:
473,279,303850,1,0,0:0:0:0:
460,335,303936,1,10,0:0:0:0:
419,374,304021,1,0,0:0:0:0:
362,382,304107,1,0,0:0:0:0:
311,358,304193,1,0,0:0:0:0:
282,309,304279,6,0,L|278:244,1,52.5000020027161,2|0,0:0|0:0,0:0:0:0:
264,51,304450,2,0,L|260:103,1,52.5000020027161,2|0,0:0|0:0,0:0:0:0:
179,334,304621,2,0,L|183:269,1,52.5000020027161,10|0,0:0|0:0,0:0:0:0:
174,29,304793,2,0,L|177:81,1,52.5000020027161,2|0,0:0|0:0,0:0:0:0:
395,161,304964,5,2,0:0:0:0:
364,165,305050,1,0,0:0:0:0:
333,170,305136,2,0,L|281:177,1,52.5000020027161,2|0,0:0|0:0,0:0:0:0:
96,190,305307,2,0,B|67:181|53:178|53:178|32:152|0:125,1,105.000004005432,10|0,0:0|0:0,0:0:0:0:
444,37,305650,6,0,B|417:44|384:46|384:46|375:55|350:75,2,105.000004005432,2|0|8,0:0|0:0|0:0,0:0:0:0:
253,236,306164,1,2,0:0:0:0:
210,247,306250,1,2,0:0:0:0:
167,231,306336,5,2,0:0:0:0:
198,174,306421,1,2,0:0:0:0:
252,144,306507,1,2,0:0:0:0:
313,148,306593,1,2,0:0:0:0:
365,183,306679,1,14,0:0:0:0:
390,241,306764,1,2,0:0:0:0:
382,302,306850,1,2,0:0:0:0:
342,349,306936,1,2,0:0:0:0:
283,370,307021,6,0,L|213:367,1,56,6|0,0:0|0:0,0:0:0:0:
161,313,307414,2,0,L|98:315,1,56,2|0,0:0|0:0,0:0:0:0:
31,361,307756,2,0,L|-7:359,1,28,2|0,0:0|0:0,0:0:0:0:
153,218,308099,6,0,P|181:220|208:229,1,56,2|0,0:0|0:0,0:0:0:0:
285,192,308442,6,0,P|316:191|346:181,2,56,2|0|2,0:0|0:0|0:0,0:0:0:0:
218,143,308946,1,0,0:0:0:0:
309,85,309114,2,0,P|351:81|392:89,1,84,2|0,0:0|0:0,0:0:0:0:
410,106,309461,2,0,L|414:154,1,28,2|0,0:0|0:0,0:0:0:0:
252,20,309809,6,0,P|211:21|175:26,1,56,2|0,0:0|0:0,0:0:0:0:
59,79,310156,2,0,P|99:83|135:91,1,56,2|0,0:0|0:0,0:0:0:0:
260,114,310504,2,0,P|219:122|185:133,1,56,2|0,0:0|0:0,0:0:0:0:
67,173,310819,2,0,P|106:184|139:198,1,56,2|0,0:0|0:0,0:0:0:0:
198,291,311157,6,0,L|160:309,1,28,2|0,0:0|0:0,0:0:0:0:
291,297,311503,2,0,L|325:320,1,28,2|0,0:0|0:0,0:0:0:0:
250,214,311850,2,0,P|252:172|260:131,1,84,2|0,0:0|0:0,0:0:0:0:
268,109,312197,2,0,L|316:105,1,28,2|0,0:0|0:0,0:0:0:0:
453,171,312507,6,0,L|369:175,1,83.9999974365235,6|0,0:0|0:0,0:0:0:0:
357,6,312849,2,0,L|233:-1,1,83.9999974365235,6|0,0:0|0:0,0:0:0:0:
149,153,313192,1,10,0:0:0:0:
149,153,313535,2,0,L|65:157,1,83.9999974365235,6|0,0:0|0:0,0:0:0:0:
272,211,313878,6,0,P|256:252|228:280,2,83.9999974365235,2|0|6,0:0|0:0|0:0,0:0:0:0:
211,77,314392,1,0,0:0:0:0:
401,158,314564,1,10,0:0:0:0:
401,158,314907,2,0,L|485:162,1,83.9999974365235,6|0,0:0|0:0,0:0:0:0:
451,337,315249,6,0,L|368:342,1,83.9999974365235,2|0,0:0|0:0,0:0:0:0:
281,242,315592,2,0,L|365:246,1,83.9999974365235,6|0,0:0|0:0,0:0:0:0:
277,379,315935,2,0,L|194:384,1,83.9999974365235,10|0,0:0|0:0,0:0:0:0:
107,284,316278,2,0,L|191:288,1,83.9999974365235,6|0,0:0|0:0,0:0:0:0:
358,139,316621,6,0,L|484:133,1,125.999996154785,6|0,0:0|0:0,0:0:0:0:
419,49,317135,1,0,0:0:0:0:
280,196,317307,2,0,B|170:190|170:190|103:146|103:146|-1:141,1,293.999991027832,10|0,0:0|0:0,0:0:0:0:
5,58,317992,6,0,L|3:19,7,28,6|0|2|0|2|0|2|0,0:0|0:0|0:0|0:0|0:0|0:0|0:0|0:0,0:0:0:0:
95,0,318678,2,0,P|95:20|94:41,7,41.9999987182618,2|0|2|0|2|0|2|0,0:0|0:0|0:0|0:0|0:0|0:0|0:0|0:0,0:0:0:0:
169,106,319364,5,10,0:0:0:0:
195,125,319449,1,0,0:0:0:0:
230,128,319535,1,2,0:0:0:0:
261,113,319621,1,0,0:0:0:0:
268,79,319707,5,10,0:0:0:0:
299,64,319792,1,0,0:0:0:0:
334,67,319878,1,2,0:0:0:0:
362,87,319964,1,0,0:0:0:0:
354,122,320049,5,10,0:0:0:0:
339,152,320135,1,0,0:0:0:0:
341,187,320221,1,2,0:0:0:0:
361,214,320307,1,0,0:0:0:0:
394,227,320392,5,10,0:0:0:0:
409,257,320478,1,0,0:0:0:0:
406,292,320564,1,2,0:0:0:0:
387,320,320649,1,0,0:0:0:0:
346,327,320735,6,0,P|328:315|312:303,3,41.9999987182618,6|0|2|0,0:0|0:0|0:0|0:0,0:0:0:0:
223,346,321078,2,0,P|213:327|206:309,3,41.9999987182618,2|0|2|0,0:0|0:0|0:0|0:0,0:0:0:0:
240,137,321421,2,0,P|249:155|257:174,3,41.9999987182618,2|0|2|0,0:0|0:0|0:0|0:0,0:0:0:0:
356,170,321764,2,0,P|355:191|352:210,3,41.9999987182618,2|0|2|0,0:0|0:0|0:0|0:0,0:0:0:0:
195,228,322107,5,14,0:0:0:0:
165,226,322192,1,0,0:0:0:0:
136,224,322278,1,0,0:0:0:0:
106,222,322364,1,0,0:0:0:0:
77,220,322449,2,0,L|21:216,1,41.9999987182618,8|0,0:0|0:0,0:0:0:0:
126,71,322621,1,2,0:0:0:0:
133,110,322707,1,2,0:0:0:0:
114,144,322792,5,10,0:0:0:0:
86,103,322878,1,0,0:0:0:0:
88,53,322964,1,0,0:0:0:0:
118,14,323049,1,0,0:0:0:0:
166,2,323135,1,8,0:0:0:0:
212,20,323221,1,0,0:0:0:0:
238,62,323307,1,0,0:0:0:0:
284,80,323392,1,0,0:0:0:0:
331,66,323478,5,14,0:0:0:0:
288,36,323564,1,0,0:0:0:0:
236,29,323649,1,0,0:0:0:0:
188,48,323735,1,0,0:0:0:0:
154,87,323821,1,10,0:0:0:0:
142,138,323907,1,0,0:0:0:0:
155,188,323992,1,0,0:0:0:0:
190,226,324078,1,0,0:0:0:0:
239,243,324164,5,10,0:0:0:0:
218,207,324249,1,0,0:0:0:0:
181,188,324335,1,0,0:0:0:0:
140,194,324421,1,0,0:0:0:0:
109,222,324507,5,10,0:0:0:0:
140,217,324592,1,0,0:0:0:0:
168,202,324678,1,0,0:0:0:0:
189,179,324764,1,0,0:0:0:0:
201,150,324849,6,0,L|198:97,3,52.5000020027161,14|0|0|0,0:0|0:0|0:0|0:0,0:0:0:0:
275,232,325192,2,0,L|272:284,3,52.5000020027161,10|0|0|0,0:0|0:0|0:0|0:0,0:0:0:0:
349,150,325535,5,10,0:0:0:0:
390,136,325621,1,0,0:0:0:0:
433,144,325707,1,0,0:0:0:0:
468,171,325792,1,0,0:0:0:0:
486,211,325878,5,10,0:0:0:0:
447,189,325964,1,0,0:0:0:0:
424,151,326049,1,0,0:0:0:0:
421,107,326135,1,0,0:0:0:0:
439,68,326221,5,14,0:0:0:0:
462,124,326307,1,0,0:0:0:0:
451,186,326392,1,2,0:0:0:0:
408,232,326478,1,0,0:0:0:0:
349,247,326564,1,10,0:0:0:0:
289,228,326649,1,0,0:0:0:0:
250,180,326735,1,2,0:0:0:0:
244,118,326821,1,0,0:0:0:0:
207,65,326907,6,0,P|175:47|135:39,3,52.5000020027161,10|0|2|0,0:0|0:0|0:0|0:0,0:0:0:0:
129,151,327249,2,0,P|93:158|58:177,3,52.5000020027161,10|0|2|0,0:0|0:0|0:0|0:0,0:0:0:0:
142,289,327592,5,14,0:0:0:0:
198,319,327678,1,0,0:0:0:0:
259,301,327764,1,2,0:0:0:0:
289,244,327849,1,0,0:0:0:0:
269,183,327935,1,14,0:0:0:0:
212,154,328021,1,0,0:0:0:0:
189,95,328107,1,2,0:0:0:0:
218,37,328192,1,0,0:0:0:0:
279,17,328278,5,14,0:0:0:0:
314,80,328364,1,2,0:0:0:0:
309,152,328449,1,2,0:0:0:0:
264,209,328535,1,2,0:0:0:0:
196,232,328621,1,14,0:0:0:0:
126,214,328707,1,2,0:0:0:0:
78,160,328792,1,2,0:0:0:0:
67,88,328878,1,2,0:0:0:0:
99,23,328964,6,0,B|140:5|140:5|246:18,1,140,6|0,0:0|0:0,0:0:0:0:
234,16,329992,6,0,L|240:90,1,70,4|0,0:0|0:0,0:0:0:0:
116,120,330164,2,0,L|122:42,1,70,4|0,0:0|0:0,0:0:0:0:
243,5,330335,6,0,L|253:145,1,140,6|0,0:0|0:0,0:0:0:0:
180,233,330592,1,0,0:0:0:0:
180,233,330678,6,0,B|256:295|347:242|319:217|393:164|496:230|496:230|488:285|441:325|385:327|343:303,1,525.000020027161,2|2,0:0|0:0,0:0:0:0:
252,144,331707,5,6,0:0:0:0:
244,103,331792,1,0,0:0:0:0:
255,62,331878,1,0,0:0:0:0:
282,31,331964,1,0,0:0:0:0:
320,15,332049,1,8,0:0:0:0:
362,17,332135,1,0,0:0:0:0:
398,38,332221,1,0,0:0:0:0:
436,39,332307,1,0,0:0:0:0:
477,24,332392,5,2,0:0:0:0:
428,5,332478,1,0,0:0:0:0:
377,12,332564,1,0,0:0:0:0:
336,44,332649,1,0,0:0:0:0:
315,92,332735,1,8,0:0:0:0:
322,143,332821,1,0,0:0:0:0:
352,185,332907,1,0,0:0:0:0:
399,206,332992,1,0,0:0:0:0:
451,202,333078,5,2,0:0:0:0:
419,173,333164,1,0,0:0:0:0:
381,162,333249,1,0,0:0:0:0:
344,164,333335,1,0,0:0:0:0:
313,179,333421,1,8,0:0:0:0:
290,201,333507,1,0,0:0:0:0:
278,227,333592,1,2,0:0:0:0:
279,242,333678,1,0,0:0:0:0:
280,257,333764,2,0,L|285:333,3,52.5000020027161,2|0|0|0,0:0|0:0|0:0|0:0,0:0:0:0:
170,158,334107,6,0,L|217:180,1,52.5000020027161,10|0,0:0|0:0,0:0:0:0:
401,249,334278,2,0,L|357:278,1,52.5000020027161,2|0,0:0|0:0,0:0:0:0:
222,362,334449,6,0,B|196:382|196:382|72:373,1,140,6|0,0:0|0:0,0:0:0:0:
102,362,335478,6,0,L|176:368,1,70,6|0,0:0|0:0,0:0:0:0:
206,244,335649,2,0,L|128:250,1,70,6|0,0:0|0:0,0:0:0:0:
89,374,335821,6,0,B|219:383|219:383|235:371|251:353|251:353|281:321|291:277|282:243|282:243|291:251|299:257|299:257|276:177|325:111|364:66|426:53|501:120|476:173|442:221|373:216,1,735.000012016297,6|0,0:0|0:0,0:0:0:0:
214,196,337192,5,6,0:0:0:0:
184,170,337278,1,0,0:0:0:0:
168,138,337364,1,0,0:0:0:0:
171,102,337449,1,0,0:0:0:0:
187,69,337535,1,8,0:0:0:0:
217,48,337621,1,0,0:0:0:0:
252,43,337707,1,0,0:0:0:0:
288,52,337792,1,0,0:0:0:0:
315,76,337878,5,2,0:0:0:0:
284,104,337964,1,0,0:0:0:0:
246,121,338049,1,0,0:0:0:0:
204,125,338135,1,0,0:0:0:0:
164,113,338221,1,8,0:0:0:0:
130,89,338307,1,0,0:0:0:0:
90,77,338392,1,0,0:0:0:0:
48,81,338478,1,0,0:0:0:0:
10,98,338564,5,2,0:0:0:0:
25,142,338649,1,0,0:0:0:0:
59,174,338735,1,0,0:0:0:0:
104,187,338821,1,0,0:0:0:0:
156,187,338907,1,8,0:0:0:0:
199,200,338992,1,0,0:0:0:0:
231,236,339078,1,0,0:0:0:0:
245,280,339164,1,0,0:0:0:0:
234,326,339249,5,2,0:0:0:0:
183,289,339335,1,0,0:0:0:0:
162,230,339421,1,0,0:0:0:0:
178,170,339507,1,0,0:0:0:0:
224,129,339592,1,8,0:0:0:0:
286,121,339678,1,0,0:0:0:0:
341,149,339764,1,0,0:0:0:0:
372,203,339849,1,0,0:0:0:0:
366,265,339935,6,0,B|353:301|353:301|230:310,1,140,6|0,0:0|0:0,0:0:0:0:
251,308,340964,6,0,P|258:277|254:236,1,70,4|0,0:0|0:0,0:0:0:0:
87,181,341135,2,0,P|80:212|84:253,1,70,4|0,0:0|0:0,0:0:0:0:
260,318,341307,6,0,B|286:247|267:176|237:156|188:146|153:170|134:219|150:254|194:275,1,315.000012016297,6|0,0:0|0:0,0:0:0:0:
322,153,341992,5,8,0:0:0:0:
243,97,342164,1,0,0:0:0:0:
79,275,342335,5,0,0:0:0:0:
147,99,342507,1,0,0:0:0:0:
154,338,342678,5,2,0:0:0:0:
192,353,342764,1,0,0:0:0:0:
233,346,342849,1,0,0:0:0:0:
264,319,342935,1,0,0:0:0:0:
277,280,343021,1,8,0:0:0:0:
266,239,343107,1,0,0:0:0:0:
237,210,343192,1,0,0:0:0:0:
196,201,343278,1,0,0:0:0:0:
157,215,343364,5,2,0:0:0:0:
178,261,343449,1,0,0:0:0:0:
220,290,343535,1,0,0:0:0:0:
272,293,343621,1,0,0:0:0:0:
318,269,343707,1,8,0:0:0:0:
345,225,343792,1,0,0:0:0:0:
345,173,343878,1,0,0:0:0:0:
320,128,343964,1,0,0:0:0:0:
273,103,344049,5,2,0:0:0:0:
252,140,344135,1,0,0:0:0:0:
253,178,344221,1,0,0:0:0:0:
265,214,344307,1,0,0:0:0:0:
288,239,344392,1,8,0:0:0:0:
315,257,344478,1,0,0:0:0:0:
343,260,344564,1,2,0:0:0:0:
358,258,344649,1,0,0:0:0:0:
373,257,344735,2,0,L|448:250,3,52.5000020027161,2|0|0|0,0:0|0:0|0:0|0:0,0:0:0:0:
470,138,345078,5,10,0:0:0:0:
465,111,345164,1,0,0:0:0:0:
462,85,345249,1,2,0:0:0:0:
458,59,345335,1,0,0:0:0:0:
455,33,345421,6,0,B|426:5|426:5|320:-1,1,140,6|0,0:0|0:0,0:0:0:0:
166,165,346449,6,0,P|160:129|165:90,1,70,6|0,0:0|0:0,0:0:0:0:
326,0,346621,2,0,P|341:30|351:69,1,70,6|0,0:0|0:0,0:0:0:0:
162,187,346792,6,0,B|135:127|153:60|199:19|199:19|264:83|273:182|209:289,1,472.500018024445,6|0,0:0|0:0,0:0:0:0:
63,294,347649,5,8,0:0:0:0:
77,285,347735,1,8,0:0:0:0:
103,288,347821,1,8,0:0:0:0:
126,318,347907,1,8,0:0:0:0:
157,357,347992,1,8,0:0:0:0:
217,374,348078,1,8,0:0:0:0:
281,340,348164,6,0,P|336:323|402:346,1,105.000004005432,14|0,0:0|0:0,0:0:0:0:
172,199,348507,2,0,B|138:189|97:204|97:204|101:193|101:193|69:205|31:203,1,157.500006008148,10|0,0:0|0:0,0:0:0:0:
44,107,348849,5,2,0:0:0:0:
145,292,349021,1,0,0:0:0:0:
272,119,349192,2,0,P|286:71|279:6,1,105.000004005432,12|0,0:0|0:0,0:0:0:0:
145,74,349535,5,2,0:0:0:0:
139,307,349707,1,0,0:0:0:0:
356,210,349878,2,0,P|395:172|424:106,1,105.000004005432,12|0,0:0|0:0,0:0:0:0:
271,99,350221,5,2,0:0:0:0:
133,322,350392,1,0,0:0:0:0:
400,351,350564,2,0,P|460:336|526:288,1,105.000004005432,10|0,0:0|0:0,0:0:0:0:
345,35,350907,5,10,0:0:0:0:
295,6,350992,1,0,0:0:0:0:
238,11,351078,1,0,0:0:0:0:
193,46,351164,1,0,0:0:0:0:
175,100,351249,1,0,0:0:0:0:
190,154,351335,1,0,0:0:0:0:
233,192,351421,1,0,0:0:0:0:
259,242,351507,1,0,0:0:0:0:
252,299,351592,1,8,0:0:0:0:
213,341,351678,1,0,0:0:0:0:
158,354,351764,1,0,0:0:0:0:
105,333,351849,1,0,0:0:0:0:
74,285,351935,1,4,0:0:0:0:
75,228,352021,1,0,0:0:0:0:
108,182,352107,1,0,0:0:0:0:
162,164,352192,1,0,0:0:0:0:
218,176,352278,5,8,0:0:0:0:
260,217,352364,1,0,0:0:0:0:
272,273,352449,1,0,0:0:0:0:
289,327,352535,1,0,0:0:0:0:
329,368,352621,1,4,0:0:0:0:
384,384,352707,1,0,0:0:0:0:
440,375,352792,1,0,0:0:0:0:
485,339,352878,1,0,0:0:0:0:
509,287,352964,1,8,0:0:0:0:
506,230,353049,1,0,0:0:0:0:
476,181,353135,1,0,0:0:0:0:
428,151,353221,1,0,0:0:0:0:
371,147,353307,1,4,0:0:0:0:
319,169,353392,1,0,0:0:0:0:
283,214,353478,1,0,0:0:0:0:
271,269,353564,1,0,0:0:0:0:
287,324,353649,5,10,0:0:0:0:
348,287,353735,1,0,0:0:0:0:
367,218,353821,1,2,0:0:0:0:
331,155,353907,1,0,0:0:0:0:
263,136,353992,1,6,0:0:0:0:
200,170,354078,1,0,0:0:0:0:
183,239,354164,1,2,0:0:0:0:
123,278,354249,1,0,0:0:0:0:
52,264,354335,1,10,0:0:0:0:
13,205,354421,1,0,0:0:0:0:
26,134,354507,1,2,0:0:0:0:
85,94,354592,1,0,0:0:0:0:
155,109,354678,1,6,0:0:0:0:
195,169,354764,1,2,0:0:0:0:
177,238,354849,1,6,0:0:0:0:
212,300,354935,1,2,0:0:0:0:
282,321,355021,6,0,B|400:328|370:238|531:281,1,241.500004606247,14|2,0:0|0:0,0:0:0:0:
