osu file format v14

[General]
AudioFilename: audio.mp3
AudioLeadIn: 0
PreviewTime: 314943
Countdown: 0
SampleSet: Soft
StackLeniency: 0.7
Mode: 0
LetterboxInBreaks: 0
WidescreenStoryboard: 1

[Editor]
DistanceSpacing: 1
BeatDivisor: 3
GridSize: 32
TimelineZoom: 2.4

[Metadata]
Title:Unholy Warcry
TitleUnicode:Unholy Warcry
Artist:Rhapsody
ArtistUnicode:Rhapsody
Creator:Nymphe
Version:Personification of Death; the "Grim Reaper"
Source:
Tags:Symphony Of Enchanted Lands II -The Dark Secret- 2 Symphonic Power Neoclassical Metal Fire Fabio Lione Christopher Lee English rock kang sae-byeok kiyoshi guarden Rhapsody Of Fire seiioh fantasy stream
BeatmapID:3644656
BeatmapSetID:1779623

[Difficulty]
HPDrainRate:5.5
CircleSize:4.2
OverallDifficulty:9.5
ApproachRate:9.7
SliderMultiplier:1.85
SliderTickRate:1

[Events]
//Background and Video events
0,0,"thecandleswentout.jpg",0,0
//Break Periods
2,59080,63713
2,64713,67718
2,144243,162076
//Storyboard Layer 0 (Background)
//Storyboard Layer 1 (Fail)
//Storyboard Layer 2 (Pass)
//Storyboard Layer 3 (Foreground)
//Storyboard Layer 4 (Overlay)
//Storyboard Sound Samples

[TimingPoints]
214,333.333333333333,4,2,10,40,1,0
214,-250,4,2,10,40,0,0
2880,-217.391304347826,4,2,10,40,0,0
5547,-303.030303030303,4,2,10,40,0,0
8213,-400,4,2,10,40,0,0
10880,-153.846153846154,4,2,10,40,0,0
12213,-142.857142857143,4,2,10,40,0,0
12797,-142.857142857143,4,2,10,5,0,0
12880,-142.857142857143,4,2,10,40,0,0
13047,-117.647058823529,4,2,10,40,0,0
13547,-322.58064516129,4,2,10,40,0,0
16213,-294.117647058824,4,2,10,40,0,0
21547,-200,4,2,10,40,0,0
24213,-153.846153846154,4,2,10,50,0,0
25547,-117.64705882353,4,2,10,50,0,0
26880,-153.846153846155,4,2,10,50,0,0
28213,-95.2380952380956,4,2,10,55,0,0
28880,-117.647058823529,4,2,10,60,0,0
29547,-79.9999999999998,4,2,10,70,0,0
40213,-133.333333333333,4,2,10,70,0,0
42880,-80,4,2,10,70,0,0
53547,-117.647058823529,4,2,10,60,0,0
54213,-133.333333333333,4,2,10,60,0,0
54880,-95.238095238095,4,2,10,60,0,0
55547,-133.333333333333,4,2,10,60,0,0
56213,-95.2380952380954,4,2,10,60,0,0
57547,-80,4,2,10,70,0,0
58880,-80,4,2,10,80,0,0
68213,-64.5161290322581,4,2,10,70,0,0
69547,-142.857142857143,4,2,10,75,0,0
70130,-142.857142857143,4,2,10,5,0,0
70213,-142.857142857143,4,2,10,75,0,0
70797,-142.857142857143,4,2,10,5,0,0
70880,-95.2380952380952,4,2,10,65,0,0
71213,-74.0740740740741,4,2,10,60,0,0
72213,-64.5161290322581,4,2,10,70,0,1
80213,-222.222222222221,4,2,10,80,0,0
82880,-153.846153846155,4,2,10,40,0,0
83130,-153.846153846155,4,2,10,5,0,0
83213,-153.846153846155,4,2,10,40,0,0
84463,-153.846153846155,4,2,10,5,0,0
84546,-153.846153846155,4,2,10,40,0,0
85547,-133.333333333333,4,2,10,40,0,0
85797,-133.333333333333,4,2,10,5,0,0
85880,-133.333333333333,4,2,10,40,0,0
87130,-133.333333333333,4,2,10,5,0,0
87213,-133.333333333333,4,2,10,40,0,0
88213,-133.333333333333,4,2,10,55,0,0
90213,-133.333333333333,4,2,10,60,0,0
90880,-105.263157894737,4,2,10,70,0,0
94880,-80.0000000000001,4,2,10,75,0,0
95130,-80.0000000000001,4,2,10,5,0,0
95213,-80.0000000000001,4,2,10,75,0,0
95463,-80.0000000000001,4,2,10,5,0,0
95547,-80.0000000000001,4,2,10,75,0,0
95797,-80.0000000000001,4,2,10,5,0,0
95880,-105.263157894737,4,2,10,70,0,0
100213,-80.0000000000001,4,2,10,75,0,0
100463,-80.0000000000001,4,2,10,5,0,0
100546,-80.0000000000001,4,2,10,75,0,0
100797,-80.0000000000001,4,2,10,5,0,0
100880,-80.0000000000001,4,2,10,75,0,0
101547,-142.857142857143,4,2,10,70,0,0
102130,-142.857142857143,4,2,10,5,0,0
102213,-142.857142857143,4,2,10,70,0,0
102797,-142.857142857143,4,2,10,5,0,0
102880,-142.857142857143,4,2,10,70,0,0
103463,-142.857142857143,4,2,10,5,0,0
103547,-100,4,2,10,60,0,0
104213,-64.5161290322581,4,2,10,70,0,1
112213,-222.222222222222,4,2,10,70,0,0
114880,-153.846153846154,4,2,10,55,0,0
115130,-153.846153846155,4,2,10,5,0,0
115213,-153.846153846155,4,2,10,40,0,0
116463,-153.846153846155,4,2,10,5,0,0
116546,-153.846153846155,4,2,10,40,0,0
117547,-133.333333333334,4,2,10,55,0,0
117797,-133.333333333333,4,2,10,5,0,0
117880,-133.333333333333,4,2,10,40,0,0
119130,-133.333333333333,4,2,10,5,0,0
119213,-133.333333333333,4,2,10,40,0,0
120213,-133.333333333334,4,2,10,60,0,0
122880,-105.263157894737,4,2,10,70,0,0
133547,668.523676880223,4,2,10,80,1,0
133547,-166.666666666667,4,2,10,80,0,0
140900,-166.666666666667,4,2,10,80,0,0
144243,666.666666666667,4,2,10,70,1,0
144243,-1000,4,2,10,70,0,0
162909,662.983425414365,4,2,10,70,1,0
165395,-100,4,2,10,70,0,0
165560,666.666666666667,4,2,10,50,1,0
165560,-142.857142857143,4,2,10,50,0,0
168226,662.983425414365,4,2,10,50,1,0
169386,-100,4,2,10,5,0,0
169551,-333.333333333333,4,2,10,50,0,0
170877,666.666666666667,4,2,10,50,1,0
170877,-166.666666666667,4,2,10,50,0,0
173543,-117.647058823529,4,2,10,50,0,0
174877,-200,4,2,10,50,0,0
176210,-285.714285714287,4,2,10,40,0,0
178877,-153.846153846154,4,2,10,50,0,0
181377,-153.846153846154,4,2,10,5,0,0
181543,333.333333333333,4,2,10,60,1,0
181543,-153.846153846154,4,2,10,60,0,0
182876,-200,4,2,10,60,0,0
184209,-285.714285714286,4,2,10,60,0,0
186209,-60.6060606060606,4,2,10,65,0,0
186876,-60.6060606060606,4,2,10,70,0,1
192209,-86.9565217391304,4,2,10,70,0,1
193209,-60.6060606060606,4,2,10,70,0,1
196209,-62.5,4,2,10,70,0,1
197542,-60.6060606060606,4,2,10,70,0,1
199376,-86.9565217391304,4,2,10,70,0,1
199542,-60.6060606060606,4,2,10,70,0,1
200209,-86.9565217391304,4,2,10,70,0,1
200876,-60.6060606060606,4,2,10,70,0,1
201542,-60.6060606060606,4,2,10,70,0,1
202042,-86.9565217391304,4,2,10,70,0,1
202876,-60.6060606060606,4,2,10,70,0,1
204709,-86.9565217391304,4,2,10,70,0,1
204876,-60.6060606060606,4,2,10,70,0,1
205542,-86.9565217391304,4,2,10,70,0,1
206209,-60.6060606060606,4,2,10,70,0,1
206876,-60.6060606060606,4,2,10,70,0,1
207209,-86.9565217391304,4,2,10,70,0,1
207792,-86.9565217391304,4,2,10,5,0,1
207876,-86.9565217391304,4,2,10,70,0,1
208209,315.789473684211,4,2,10,60,1,1
208209,-90.9090909090909,4,2,10,60,0,0
210419,-111.111111111111,4,2,10,60,0,0
210735,-90.9090909090909,4,2,10,60,0,0
212314,-111.111111111111,4,2,10,60,0,0
212630,-90.9090909090909,4,2,10,60,0,0
212945,-111.111111111111,4,2,10,60,0,0
213261,-86.9565217391304,4,2,10,60,0,0
216735,-105.263157894737,4,2,10,60,0,0
217051,-86.9565217391304,4,2,10,60,0,0
217682,315.789473684211,4,2,10,60,1,0
217682,-86.9565217391304,4,2,10,60,0,0
227155,-153.846153846154,4,2,10,60,0,0
227787,-133.333333333334,4,2,10,70,0,0
228418,-181.818181818183,4,2,10,72,0,0
229050,-86.9565217391307,4,2,10,74,0,0
229287,-86.9565217391307,4,2,10,5,0,0
229366,-86.9565217391307,4,2,10,74,0,0
229603,-86.9565217391307,4,2,10,5,0,0
229682,-222.222222222222,4,2,10,76,0,0
230234,-222.222222222222,4,2,10,5,0,0
230313,-200,4,2,10,80,0,0
230550,-200,4,2,10,5,0,0
230628,-100,4,2,10,65,0,0
230945,333.333333333333,4,2,10,70,1,0
230945,-64.5161290322581,4,2,10,70,0,1
241278,-95.2380952380952,4,2,10,70,0,0
241945,333.333333333333,4,2,10,70,1,0
242611,-250,4,2,10,70,0,0
243278,-100,4,2,10,70,0,0
243945,-250,4,2,10,70,0,0
244611,-100,4,2,10,70,0,0
245945,-200,4,2,10,70,0,0
246611,-250,4,2,10,70,0,0
247278,-100,4,2,10,70,0,0
247945,-250,4,2,10,70,0,0
248611,-142.857142857143,4,2,10,70,0,0
249278,-250,4,2,10,70,0,0
249945,-100,4,2,10,70,0,0
252278,-71.4285714285714,4,2,10,70,0,0
252611,-80,4,2,10,70,0,1
262611,-105.263157894737,4,2,10,80,0,0
263611,-105.263157894737,4,2,10,60,0,0
263945,333.333333333333,4,2,10,70,1,0
263945,-64.5161290322581,4,2,10,70,0,1
274278,-105.263157894737,4,2,10,70,0,0
274611,-105.263157894737,4,2,10,70,0,0
274944,333.333333333333,4,2,10,50,1,0
274944,-175.438596491228,4,2,10,50,0,0
277610,-250,4,2,10,50,0,0
279277,-95.2380952380952,4,2,10,50,0,0
280277,-285.714285714286,4,2,10,50,0,0
284944,-95.2380952380952,4,2,10,60,0,0
285610,-80,4,2,10,70,0,0
296277,-133.333333333333,4,2,10,70,0,0
301610,-105.263157894737,4,2,10,70,0,0
305610,-80.0000000000001,4,2,10,75,0,0
305860,-80.0000000000001,4,2,10,5,0,0
305943,-80.0000000000001,4,2,10,75,0,0
306193,-80.0000000000001,4,2,10,5,0,0
306276,-80.0000000000001,4,2,10,75,0,0
306527,-80.0000000000001,4,2,10,5,0,0
306610,-105.263157894737,4,2,10,70,0,0
310943,-80.0000000000001,4,2,10,75,0,0
311193,-80.0000000000001,4,2,10,5,0,0
311276,-80.0000000000001,4,2,10,75,0,0
311527,-80.0000000000001,4,2,10,5,0,0
311610,-80.0000000000001,4,2,10,75,0,0
311860,-80.0000000000001,4,2,10,5,0,0
311943,-105.263157894737,4,2,10,70,0,0
312277,-153.846153846154,4,2,10,70,0,0
312860,-153.846153846154,4,2,10,5,0,0
312943,-153.846153846154,4,2,10,70,0,0
313527,-153.846153846154,4,2,10,5,0,0
313610,-153.846153846154,4,2,10,70,0,0
314610,-153.846153846154,4,2,10,60,0,0
314943,-60.6060606060606,4,2,10,70,0,1
322943,-222.222222222222,4,2,10,80,0,0
324277,-153.846153846154,4,2,10,80,0,0
324943,-153.846153846154,4,2,10,60,0,0
325610,-60.6060606060606,4,2,10,70,0,1
333610,-222.222222222222,4,2,10,80,0,0
336277,-153.846153846154,4,2,10,55,0,0
336527,-153.846153846154,4,2,10,5,0,0
336610,-153.846153846154,4,2,10,55,0,0
337860,-153.846153846154,4,2,10,5,0,0
337943,-153.846153846154,4,2,10,55,0,0
338943,-133.333333333334,4,2,10,55,0,0
339193,-133.333333333334,4,2,10,5,0,0
339277,-133.333333333334,4,2,10,55,0,0
340527,-133.333333333334,4,2,10,5,0,0
340611,-133.333333333334,4,2,10,55,0,0
341610,-181.818181818182,4,2,10,60,0,0
344277,-181.818181818182,4,2,10,65,0,0
346277,-181.818181818182,4,2,10,70,0,0
346943,-64.5161290322581,4,2,10,80,0,0
347277,-64.5161290322581,4,2,10,80,0,0

[Colours]
Combo1 : 150,150,150
Combo2 : 136,15,18
Combo3 : 170,113,113
Combo4 : 115,153,117
Combo5 : 46,101,55
Combo6 : 195,195,195

[HitObjects]
93,83,214,6,0,B|77:53|43:43|43:43|81:-4|170:-6|187:62|176:107|176:107|134:90|68:103|37:150|37:150|97:141|120:192,1,518,4|0,0:0|1:0,0:0:0:0:
120,358,2880,6,0,B|176:367|236:293|236:293|251:285|275:268|290:233|281:157|180:132|102:223|161:298|202:297|237:293|237:293|251:285|298:251|361:271|369:330,1,595.699980002747,4|0,0:0|1:0,0:0:0:0:
471,16,5547,6,0,B|529:45|519:102|472:127|472:127|425:63|366:50|301:86|301:86|359:106|359:157,1,427.349998695831,4|0,0:0|1:0,0:0:0:0:
45,73,8213,6,0,B|15:63|13:31|23:3|23:3|-5:34|-8:84|41:124|38:88|92:94|122:148|93:199,1,323.75,4|0,0:0|1:0,0:0:0:0:
8,340,10880,38,0,B|25:310|63:301|94:324|94:324|111:375|165:364,1,180.374991743088,4|0,0:0|1:0,0:0:0:0:
239,262,11547,6,0,B|249:241|276:237|276:237|238:214|167:229|173:299,1,180.374991743088,4|0,0:0|1:0,0:0:0:0:
380,327,12213,6,0,B|390:368|445:363|445:363|480:313|450:250|394:244,1,226.624993083954,4|0,0:0|1:0,0:0:0:0:
333,188,12880,5,4,0:0:0:0:
325,175,12963,1,0,0:0:0:0:
327,159,13047,2,0,P|344:150|372:153,1,39.3125007498264
400,84,13213,2,0,P|416:95|427:120,3,39.3125007498264
130,24,13547,38,0,B|51:11|26:103|91:168|175:151|193:76|187:72|181:63|213:7|265:-1|317:43,1,401.449984073334,4|0,0:0|1:0,0:0:0:0:
506,312,16213,6,0,B|480:395|380:379|334:310|339:239|408:193|472:218|472:218|411:218|399:274,1,440.300002687378,4|0,0:0|1:0,0:0:0:0:
13,320,18880,6,0,B|49:337|93:321|109:271|87:233|87:233|123:229|148:209|148:209|204:242|191:300|191:300|218:331|270:327|285:286,1,440.300002687378,4|0,0:0|1:0,0:0:0:0:
445,132,21547,6,0,B|504:116|513:192|513:192|486:218|414:209|406:160|418:166|417:131|371:105|331:117|331:117|367:72|357:10|357:10|402:46|480:42|480:42|437:43|423:-2,1,647.5,4|0,0:0|1:0,0:0:0:0:
334,203,24213,38,0,B|280:225|251:181|269:163|230:120|174:155,1,180.374991743088,4|0,0:0|1:0,0:0:0:0:
114,329,24880,6,0,P|196:353|240:272,1,180.374991743088,4|0,0:0|1:0,0:0:0:0:
116,92,25547,6,0,B|102:47|47:55|47:55|11:106|42:158|110:170,1,235.875004498959,4|0,0:0|1:0,0:0:0:0:
297,111,26213,6,0,B|342:121|363:69|363:69|337:13|276:13|232:66,1,235.875004498959,4|0,0:0|1:0,0:0:0:0:
331,217,26880,38,0,B|387:248|415:192|402:180|433:135|498:170,1,180.374991743088,4|0,0:0|1:0,0:0:0:0:
223,157,27547,6,0,P|235:233|252:359,1,180.374991743088,4|0,0:0|1:0,0:0:0:0:
139,36,28213,6,0,P|159:12|196:10,3,48.5624985179902,4|0|0|0,3:2|3:0|3:0|3:0,0:0:0:0:
69,70,28547,2,0,P|58:40|74:7,3,48.5624985179902,0|0|0|0,3:0|3:0|3:0|3:0,3:0:0:0:
0,186,28880,5,0,3:0:0:0:
20,169,28963,1,0,3:0:0:0:
48,167,29047,1,0,3:0:0:0:
71,179,29130,1,0,3:0:0:0:
86,200,29213,1,0,3:0:0:0:
117,215,29297,1,0,3:0:0:0:
147,211,29380,1,0,3:0:0:0:
170,191,29463,1,0,3:0:0:0:
177,174,29547,37,4,0:0:0:0:
139,130,29630,1,0,0:0:0:0:
85,151,29713,1,0,0:0:0:0:
72,207,29797,1,0,0:0:0:0:
107,252,29880,1,8,0:0:0:0:
164,248,29963,1,0,0:0:0:0:
211,281,30047,1,0,0:0:0:0:
217,338,30130,1,0,0:0:0:0:
182,384,30213,5,2,0:0:0:0:
171,363,30297,1,0,0:0:0:0:
172,340,30380,1,0,0:0:0:0:
180,318,30463,1,0,0:0:0:0:
198,303,30547,1,8,0:0:0:0:
220,296,30630,1,0,0:0:0:0:
242,292,30713,2,0,P|261:259|253:229,1,57.8125,2|0,0:0|0:0,0:0:0:0:
139,28,30880,5,2,0:0:0:0:
104,81,30963,1,0,0:0:0:0:
121,142,31047,1,0,0:0:0:0:
178,167,31130,1,0,0:0:0:0:
238,149,31213,1,8,0:0:0:0:
269,93,31297,1,0,0:0:0:0:
321,58,31380,1,0,0:0:0:0:
382,72,31463,1,0,0:0:0:0:
412,128,31547,1,0,0:0:0:0:
401,184,31630,1,0,0:0:0:0:
356,210,31713,1,0,0:0:0:0:
309,203,31797,1,0,0:0:0:0:
280,174,31880,1,8,0:0:0:0:
272,140,31963,1,0,0:0:0:0:
285,114,32047,1,0,0:0:0:0:
304,100,32130,1,0,0:0:0:0:
326,93,32213,6,0,L|383:110,3,57.8125
486,247,32547,2,0,L|430:263,3,57.8125,8|0|0|0,0:0|0:0|0:0|0:0,0:0:0:0:
261,369,32880,37,2,0:0:0:0:
239,360,32963,1,0,0:0:0:0:
224,341,33047,1,0,0:0:0:0:
221,318,33130,1,0,0:0:0:0:
230,296,33213,1,8,0:0:0:0:
246,279,33297,1,0,0:0:0:0:
268,274,33380,2,0,P|302:282|320:310,1,57.8125,2|0,0:0|0:0,0:0:0:0:
73,285,33547,5,2,0:0:0:0:
43,231,33630,1,0,0:0:0:0:
70,175,33713,1,0,0:0:0:0:
130,156,33797,1,0,0:0:0:0:
190,162,33880,1,8,0:0:0:0:
239,125,33963,1,0,0:0:0:0:
233,61,34047,1,0,0:0:0:0:
177,34,34130,1,0,0:0:0:0:
122,56,34213,5,2,0:0:0:0:
126,119,34297,1,0,0:0:0:0:
173,152,34380,1,0,0:0:0:0:
222,137,34463,1,0,0:0:0:0:
267,123,34547,1,8,0:0:0:0:
306,126,34630,1,0,0:0:0:0:
332,148,34713,1,0,0:0:0:0:
340,169,34797,1,0,0:0:0:0:
340,191,34880,5,4,0:0:0:0:
292,224,34963,1,0,0:0:0:0:
246,190,35046,1,0,0:0:0:0:
248,132,35130,1,0,0:0:0:0:
293,98,35213,1,8,0:0:0:0:
347,117,35296,1,0,0:0:0:0:
401,97,35380,1,0,0:0:0:0:
421,44,35463,1,0,0:0:0:0:
382,1,35547,37,2,0:0:0:0:
361,11,35630,1,0,0:0:0:0:
348,30,35713,1,0,0:0:0:0:
339,51,35797,1,0,0:0:0:0:
337,74,35880,1,8,0:0:0:0:
342,96,35963,1,0,0:0:0:0:
354,115,36047,2,0,L|426:136,1,57.8125,2|0,0:0|0:0,0:0:0:0:
495,326,36213,5,2,0:0:0:0:
443,287,36297,1,0,0:0:0:0:
379,287,36380,1,0,0:0:0:0:
328,325,36463,1,0,0:0:0:0:
289,376,36547,1,8,0:0:0:0:
225,374,36630,1,0,0:0:0:0:
187,322,36713,1,0,0:0:0:0:
198,258,36797,1,0,0:0:0:0:
254,229,36880,5,2,0:0:0:0:
307,250,36963,1,0,0:0:0:0:
327,298,37047,1,0,0:0:0:0:
312,341,37130,1,0,0:0:0:0:
275,357,37213,1,8,0:0:0:0:
240,352,37297,1,0,0:0:0:0:
221,337,37380,1,0,0:0:0:0:
214,321,37463,1,0,0:0:0:0:
214,303,37547,6,0,P|224:267|234:232,3,57.8125
70,144,37880,2,0,P|80:180|90:215,3,57.8125,8|0|0|0,0:0|0:0|0:0|0:0,0:0:0:0:
251,24,38213,37,2,0:0:0:0:
266,41,38297,1,0,0:0:0:0:
267,63,38380,1,0,0:0:0:0:
258,84,38463,1,0,0:0:0:0:
242,100,38547,1,8,0:0:0:0:
220,107,38630,1,0,0:0:0:0:
197,100,38713,2,0,L|120:85,1,57.8125,2|0,0:0|0:0,0:0:0:0:
411,366,38880,5,2,0:0:0:0:
475,346,38963,1,0,0:0:0:0:
510,300,39046,1,0,0:0:0:0:
512,240,39130,1,0,0:0:0:0:
482,191,39213,1,8,0:0:0:0:
430,165,39296,1,0,0:0:0:0:
374,183,39380,1,0,0:0:0:0:
349,233,39463,1,0,0:0:0:0:
375,285,39547,5,2,0:0:0:0:
434,260,39630,1,0,0:0:0:0:
444,203,39713,1,0,0:0:0:0:
424,155,39797,1,0,0:0:0:0:
382,135,39880,1,8,0:0:0:0:
354,106,39963,1,0,0:0:0:0:
343,74,40047,1,0,0:0:0:0:
345,50,40130,1,0,0:0:0:0:
357,38,40213,6,0,P|369:141|380:271,1,208.125007939339,6|0,0:0|1:0,0:0:0:0:
149,323,40880,38,0,B|134:296|107:287|107:287|136:245|186:235|231:262|239:311,1,208.125007939339,6|0,0:0|1:0,0:0:0:0:
512,322,41547,6,0,B|497:286|449:281|419:315|419:315|394:377|335:360,1,208.125007939339,6|0,0:0|1:0,0:0:0:0:
448,35,42213,6,0,B|482:50|515:67|515:67|493:130|471:208,1,208.125007939339,6|0,0:0|1:0,0:0:0:0:
32,187,42880,5,6,0:0:0:0:
80,218,42963,1,0,0:0:0:0:
137,209,43047,1,0,0:0:0:0:
170,162,43130,1,0,0:0:0:0:
168,104,43213,1,8,0:0:0:0:
203,57,43297,1,0,0:0:0:0:
260,61,43380,1,0,0:0:0:0:
294,107,43463,1,0,0:0:0:0:
262,155,43547,37,2,0:0:0:0:
238,148,43630,1,0,0:0:0:0:
221,132,43713,1,0,0:0:0:0:
215,110,43797,1,0,0:0:0:0:
214,85,43880,1,8,0:0:0:0:
222,64,43963,1,0,0:0:0:0:
236,45,44047,2,0,P|266:30|304:37,1,57.8125,2|0,0:0|0:0,0:0:0:0:
477,201,44213,5,2,0:0:0:0:
512,254,44296,1,0,0:0:0:0:
494,315,44380,1,0,0:0:0:0:
437,340,44463,1,0,0:0:0:0:
378,322,44546,1,8,0:0:0:0:
346,266,44630,1,0,0:0:0:0:
294,231,44713,1,0,0:0:0:0:
233,245,44796,1,0,0:0:0:0:
203,301,44880,1,0,0:0:0:0:
214,357,44963,1,0,0:0:0:0:
259,383,45046,1,0,0:0:0:0:
306,377,45130,1,0,0:0:0:0:
336,347,45213,1,8,0:0:0:0:
343,313,45296,1,0,0:0:0:0:
330,287,45380,1,0,0:0:0:0:
311,273,45463,1,0,0:0:0:0:
287,270,45547,6,0,L|297:340,3,57.8125,2|0|0|0,0:0|0:0|0:0|0:0,0:0:0:0:
99,217,45880,2,0,L|113:161,3,57.8125,8|0|0|0,0:0|0:0|0:0|0:0,0:0:0:0:
313,0,46213,5,2,0:0:0:0:
327,18,46297,1,0,0:0:0:0:
332,40,46380,1,0,0:0:0:0:
328,62,46463,1,0,0:0:0:0:
314,81,46547,1,8,0:0:0:0:
294,92,46630,1,0,0:0:0:0:
271,96,46713,2,0,L|193:83,1,57.8125,2|0,0:0|0:0,0:0:0:0:
188,351,46880,37,2,0:0:0:0:
226,297,46963,1,0,0:0:0:0:
219,234,47047,1,0,0:0:0:0:
163,205,47130,1,0,0:0:0:0:
102,220,47213,1,8,0:0:0:0:
43,197,47297,1,0,0:0:0:0:
26,137,47380,1,0,0:0:0:0:
62,85,47463,1,0,0:0:0:0:
115,69,47547,5,2,0:0:0:0:
161,111,47630,1,0,0:0:0:0:
210,126,47713,1,0,0:0:0:0:
250,103,47797,1,0,0:0:0:0:
271,68,47880,1,8,0:0:0:0:
264,34,47963,1,0,0:0:0:0:
238,19,48047,1,0,0:0:0:0:
214,19,48130,1,0,0:0:0:0:
195,32,48213,5,0,0:0:0:0:
186,89,48297,1,0,0:0:0:0:
231,123,48380,1,0,0:0:0:0:
287,132,48463,1,0,0:0:0:0:
329,171,48547,1,8,0:0:0:0:
342,226,48630,1,0,0:0:0:0:
317,278,48713,1,0,0:0:0:0:
261,295,48797,1,0,0:0:0:0:
216,258,48880,5,2,0:0:0:0:
226,237,48963,1,0,0:0:0:0:
245,225,49047,1,0,0:0:0:0:
267,221,49130,1,0,0:0:0:0:
289,225,49213,1,8,0:0:0:0:
308,238,49297,1,0,0:0:0:0:
326,252,49380,2,0,P|344:272|389:276,1,57.8125,2|0,0:0|0:0,0:0:0:0:
483,55,49547,37,2,0:0:0:0:
429,20,49630,1,0,0:0:0:0:
366,29,49713,1,0,0:0:0:0:
338,86,49797,1,0,0:0:0:0:
347,148,49880,1,8,0:0:0:0:
401,179,49963,1,0,0:0:0:0:
463,191,50047,1,0,0:0:0:0:
496,244,50130,1,0,0:0:0:0:
475,303,50213,1,0,0:0:0:0:
422,327,50297,1,0,0:0:0:0:
375,304,50380,1,0,0:0:0:0:
359,260,50463,1,0,0:0:0:0:
372,221,50547,1,8,0:0:0:0:
402,204,50630,1,0,0:0:0:0:
430,209,50713,1,0,0:0:0:0:
447,224,50797,1,0,0:0:0:0:
452,246,50880,6,0,L|391:266,3,57.8125,2|0|0|0,0:0|0:0|0:0|0:0,0:0:0:0:
225,135,51213,2,0,L|279:153,3,57.8125,8|0|0|0,0:0|0:0|0:0|0:0,0:0:0:0:
94,358,51547,5,2,0:0:0:0:
111,373,51630,1,0,0:0:0:0:
133,376,51713,1,0,0:0:0:0:
155,368,51797,1,0,0:0:0:0:
173,353,51880,1,8,0:0:0:0:
182,332,51963,1,0,0:0:0:0:
177,309,52047,2,0,L|161:246,1,57.8125,2|0,0:0|0:0,0:0:0:0:
121,30,52213,5,2,0:0:0:0:
57,54,52297,1,0,0:0:0:0:
48,119,52380,1,0,0:0:0:0:
93,167,52463,1,0,0:0:0:0:
160,173,52547,1,8,0:0:0:0:
217,138,52630,1,0,0:0:0:0:
226,71,52713,1,0,0:0:0:0:
275,25,52797,1,0,0:0:0:0:
334,31,52880,37,2,0:0:0:0:
355,84,52963,1,0,0:0:0:0:
339,127,53047,1,0,0:0:0:0:
309,145,53130,1,0,0:0:0:0:
294,163,53213,5,12,0:0:0:0:
268,234,53297,1,0,0:0:0:0:
304,299,53380,1,0,0:0:0:0:
378,308,53463,1,0,0:0:0:0:
430,248,53547,6,0,B|327:268|327:268|318:275|318:275|187:301,1,235.875004498959,6|0,0:0|1:0,0:0:0:0:
0,326,54213,6,0,B|13:353|5:381|5:381|56:381|93:346|97:293|61:259,1,208.125007939339,6|0,0:0|1:0,0:0:0:0:
96,26,54880,38,0,B|80:-25|15:-6|15:-6|-15:48|33:127|134:110,1,291.374991107941,6|0,0:0|1:0,0:0:0:0:
289,42,55547,6,0,B|300:15|329:12|329:12|277:-3|251:35|266:30|254:66|212:77|169:58,1,208.125007939339,6|0,0:0|1:0,0:0:0:0:
467,71,56213,6,0,B|474:29|516:17|516:17|459:8|409:54|400:116|433:175,1,291.374991107941,6|0,0:0|1:0,0:0:0:0:
469,319,56880,6,0,B|488:298|525:279|525:279|422:253|422:253|411:256|411:256|294:226,1,291.374991107941,6|0,0:0|1:0,0:0:0:0:
230,140,57547,38,0,P|210:164|212:202,1,57.8125,4|0,0:0|0:0,0:0:0:0:
293,368,57713,2,0,P|313:344|311:306,1,57.8125
123,236,57880,5,0,3:0:0:0:
101,223,57963,1,0,3:0:0:0:
77,220,58046,1,0,3:0:0:0:
51,225,58130,1,0,3:0:0:0:
30,243,58213,5,0,3:0:0:0:
36,298,58296,1,0,3:0:0:0:
80,335,58380,1,0,3:0:0:0:
134,330,58463,1,0,3:0:0:0:
181,298,58546,5,0,3:0:0:0:
221,235,58630,1,0,3:0:0:0:
301,230,58713,1,0,3:0:0:0:
349,291,58796,1,0,3:0:0:0:
324,365,58880,37,4,0:0:0:0:
255,191,64213,5,8,0:0:0:0:
336,28,68213,5,2,3:2:0:0:
386,18,68297,1,0,3:0:0:0:
422,54,68380,2,0,P|431:89|415:124,1,71.6875005469322,0|0,3:0|3:0,3:0:0:0:
327,158,68547,1,10,3:2:0:0:
314,168,68630,2,0,P|301:201|310:235,1,71.6875005469322,0|0,3:0|3:0,3:0:0:0:
413,357,68797,5,8,3:0:0:0:
413,341,68880,37,2,3:2:0:0:
378,318,68963,1,0,3:0:0:0:
335,314,69047,1,0,3:0:0:0:
302,341,69130,1,0,3:0:0:0:
253,370,69213,1,2,3:0:0:0:
190,358,69297,1,0,3:0:0:0:
156,296,69380,1,0,3:0:0:0:
196,228,69463,1,0,3:0:0:0:
269,200,69547,6,2,B|196:225|165:166|188:151|142:83|81:123,1,226.624993083954,6|0,0:0|1:0,0:0:0:0:
20,165,70213,2,2,P|111:139|263:98,1,226.624993083954,6|0,0:0|1:0,0:0:0:0:
302,62,70880,6,2,P|267:28|210:37,1,97.1249970359803,6|0,0:0|1:0,0:0:0:0:
370,310,71213,5,0,3:0:0:0:
404,337,71297,1,0,3:0:0:0:
448,334,71380,1,0,3:0:0:0:
474,299,71463,1,0,3:0:0:0:
483,257,71547,2,0,P|475:229|446:213,1,62.4375002381802,0|0,3:0|3:0,3:0:0:0:
252,293,71713,37,0,3:0:0:0:
243,312,71797,1,0,3:0:0:0:
238,324,71880,2,0,L|255:396,3,62.4375002381802,0|0|0|0,3:0|3:0|3:0|3:0,3:0:0:0:
143,296,72213,5,10,0:0:0:0:
106,260,72297,1,0,0:0:0:0:
109,210,72380,2,0,P|117:175|156:155,1,71.6875005469322
380,55,72547,5,10,0:0:0:0:
368,105,72631,1,0,0:0:0:0:
323,128,72714,2,0,P|288:138|251:114,1,71.6875005469322,2|0,0:0|0:0,0:0:0:0:
125,14,72880,5,10,0:0:0:0:
76,20,72963,1,0,0:0:0:0:
48,61,73047,1,0,0:0:0:0:
57,110,73130,1,0,0:0:0:0:
101,134,73213,1,10,0:0:0:0:
133,173,73297,1,0,0:0:0:0:
137,222,73380,1,0,0:0:0:0:
106,260,73463,1,0,0:0:0:0:
57,272,73547,37,10,0:0:0:0:
41,209,73630,1,0,0:0:0:0:
81,160,73713,1,0,0:0:0:0:
144,153,73797,1,0,0:0:0:0:
201,180,73880,1,10,0:0:0:0:
226,237,73963,1,0,0:0:0:0:
223,300,74047,1,2,0:0:0:0:
255,354,74130,1,0,0:0:0:0:
317,365,74213,1,10,0:0:0:0:
373,333,74297,1,0,0:0:0:0:
394,273,74380,1,0,0:0:0:0:
363,216,74463,1,0,0:0:0:0:
321,177,74547,1,10,0:0:0:0:
325,109,74630,1,0,0:0:0:0:
377,74,74713,1,0,0:0:0:0:
438,92,74797,1,0,0:0:0:0:
467,141,74880,5,10,0:0:0:0:
440,215,74963,1,0,0:0:0:0:
376,263,75046,1,0,0:0:0:0:
297,266,75129,1,0,0:0:0:0:
229,224,75213,1,8,0:0:0:0:
194,152,75296,1,0,0:0:0:0:
213,74,75379,1,0,0:0:0:0:
269,18,75463,1,0,0:0:0:0:
346,37,75547,5,10,0:0:0:0:
339,86,75630,1,0,0:0:0:0:
299,115,75713,2,0,P|264:130|221:109,1,71.6875005469322
40,256,75880,5,10,0:0:0:0:
84,235,75963,1,0,0:0:0:0:
131,251,76046,2,0,P|163:271|169:319,1,71.6875005469322
418,372,76213,37,10,0:0:0:0:
347,377,76297,1,0,0:0:0:0:
289,338,76380,1,0,0:0:0:0:
275,269,76463,1,0,0:0:0:0:
302,204,76547,1,8,0:0:0:0:
367,180,76630,1,0,0:0:0:0:
432,205,76713,1,0,0:0:0:0:
500,187,76797,1,0,0:0:0:0:
510,126,76880,1,10,0:0:0:0:
488,80,76963,1,0,0:0:0:0:
439,65,77047,1,0,0:0:0:0:
391,81,77130,1,0,0:0:0:0:
370,110,77213,2,0,P|376:136|416:164,3,71.6875005469322,8|0|0|0,0:0|0:0|0:0|0:0,0:0:0:0:
256,28,77547,5,10,0:0:0:0:
202,6,77630,1,0,0:0:0:0:
162,28,77713,2,0,P|136:43|127:104,1,71.6875005469322
224,324,77880,5,10,0:0:0:0:
263,292,77963,1,0,0:0:0:0:
270,242,78046,2,0,P|270:211|221:173,1,71.6875005469322,2|0,0:0|0:0,0:0:0:0:
1,172,78213,5,10,0:0:0:0:
32,211,78297,1,0,0:0:0:0:
81,212,78380,1,0,0:0:0:0:
116,176,78463,1,0,0:0:0:0:
135,129,78547,1,10,0:0:0:0:
179,105,78630,1,0,0:0:0:0:
227,115,78713,1,0,0:0:0:0:
262,150,78797,1,0,0:0:0:0:
265,206,78880,37,10,0:0:0:0:
224,255,78963,1,0,0:0:0:0:
160,262,79047,1,0,0:0:0:0:
102,234,79130,1,0,0:0:0:0:
74,177,79213,2,0,P|65:134|99:94,1,71.6875005469322,10|0,0:0|0:0,0:0:0:0:
334,260,79380,2,0,P|342:302|308:342,1,71.6875005469322,2|0,0:0|0:0,0:0:0:0:
263,47,79547,5,10,3:2:0:0:
305,0,79630,1,0,3:0:0:0:
365,16,79713,1,0,3:0:0:0:
387,76,79797,1,0,3:0:0:0:
367,120,79880,1,2,3:2:0:0:
387,159,79963,1,0,3:0:0:0:
421,171,80047,1,0,3:0:0:0:
447,160,80130,1,0,3:0:0:0:
452,142,80213,6,0,B|428:117|368:116|351:168|358:175|367:183|356:234|295:249|260:205,1,249.749992378235,6|0,0:0|1:0,0:0:0:0:
86,308,81547,6,0,B|41:274|41:274|149:296|149:296|159:347|221:349,1,249.749992378235,6|0,0:0|1:0,0:0:0:0:
506,333,82880,38,0,P|483:295|426:301,1,90.1874958715441,6|0,0:0|1:0,0:0:0:0:
414,324,83213,2,0,P|386:345|343:330,1,60.1249972476961,2|0,0:0|1:0,0:0:0:0:
291,277,83547,2,0,B|285:238|315:226|319:231|351:213|337:171,1,120.249994495392,2|2,0:0|0:0,0:0:0:0:
512,8,84213,6,0,P|494:49|488:107,1,90.1874958715441,2|0,0:0|1:0,0:0:0:0:
495,133,84547,2,0,P|466:149|417:141,1,60.1249972476961,2|0,0:0|1:0,0:0:0:0:
366,84,84880,2,0,B|308:74|308:74|306:75|306:75|244:66,1,120.249994495392,2|2,0:0|0:0,0:0:0:0:
30,23,85547,6,0,P|83:39|91:94,1,104.06250396967,6|0,0:0|1:0,0:0:0:0:
88,116,85880,2,0,P|48:126|17:105,1,69.3750026464463,2|0,0:0|1:0,0:0:0:0:
103,254,86213,2,0,P|121:193|192:188,1,138.750005292893,2|2,0:0|0:0,0:0:0:0:
372,189,86880,6,0,P|382:136|397:64,1,104.06250396967,2|0,0:0|1:0,0:0:0:0:
415,64,87213,2,0,P|458:86|467:108,1,69.3750026464463,2|0,0:0|1:0,0:0:0:0:
410,266,87547,2,0,B|369:277|369:277|324:249|324:249|273:261,1,138.750005292893,2|2,0:0|0:0,0:0:0:0:
255,38,88213,37,4,0:0:0:0:
256,192,88297,12,0,90047,0:0:0:0:
314,43,90213,5,8,3:0:0:0:
456,171,90380,1,0,3:0:0:0:
239,120,90547,5,10,3:2:0:0:
421,4,90713,1,2,3:2:0:0:
283,199,90880,5,2,0:0:0:0:
257,216,90963,1,0,0:0:0:0:
226,218,91047,1,0,0:0:0:0:
198,203,91130,1,0,0:0:0:0:
178,179,91213,1,10,0:0:0:0:
149,165,91297,1,0,0:0:0:0:
118,166,91380,1,0,0:0:0:0:
93,184,91463,1,0,0:0:0:0:
76,210,91547,37,2,0:0:0:0:
76,210,91630,1,0,0:0:0:0:
76,210,91713,2,0,L|62:150,1,43.9374988267422,2|0,0:0|0:0,0:0:0:0:
156,286,91880,1,10,0:0:0:0:
156,286,91963,1,0,0:0:0:0:
156,286,92046,2,0,L|142:346,1,43.9374988267422,2|0,0:0|0:0,0:0:0:0:
287,361,92213,5,2,0:0:0:0:
315,373,92297,1,0,0:0:0:0:
345,368,92380,1,0,0:0:0:0:
370,351,92463,1,0,0:0:0:0:
385,324,92547,1,10,0:0:0:0:
386,293,92630,1,0,0:0:0:0:
371,265,92713,1,0,0:0:0:0:
343,250,92797,1,0,0:0:0:0:
321,228,92880,1,2,0:0:0:0:
310,199,92963,1,0,0:0:0:0:
314,168,93047,1,0,0:0:0:0:
335,145,93130,1,0,0:0:0:0:
364,137,93213,1,8,0:0:0:0:
393,145,93297,1,0,0:0:0:0:
414,166,93380,1,0,0:0:0:0:
418,196,93463,1,0,0:0:0:0:
408,225,93547,6,0,L|357:250,3,43.9374988267422,2|0|2|0,0:0|0:0|0:0|0:0,0:0:0:0:
473,109,93880,2,0,L|524:134,3,43.9374988267422,10|0|0|0,0:0|0:0|0:0|0:0,0:0:0:0:
383,15,94213,5,2,0:0:0:0:
383,15,94297,1,0,0:0:0:0:
383,15,94380,2,0,L|375:70,1,43.9374988267422,2|0,0:0|0:0,0:0:0:0:
263,126,94547,1,10,0:0:0:0:
263,126,94631,1,0,0:0:0:0:
263,126,94714,2,0,L|255:71,1,43.9374988267422,2|0,0:0|0:0,0:0:0:0:
6,253,94880,38,0,B|25:222|59:217|87:230|87:230|96:284|170:288,1,173.4375,6|0,0:0|1:0,0:0:0:0:
238,326,95213,2,0,P|162:293|163:211,1,173.4375,10|0,0:0|1:0,0:0:0:0:
100,14,95547,2,0,B|121:28|149:44|149:44|124:109|108:164,1,173.4375,6|0,0:0|1:0,0:0:0:0:
259,230,95880,5,8,0:0:0:0:
312,207,95963,1,0,0:0:0:0:
330,151,96047,1,0,0:0:0:0:
304,99,96130,1,0,0:0:0:0:
247,88,96213,5,2,0:0:0:0:
265,113,96297,1,0,0:0:0:0:
294,119,96380,1,2,0:0:0:0:
321,104,96463,1,0,0:0:0:0:
340,80,96547,1,10,0:0:0:0:
366,64,96630,1,0,0:0:0:0:
396,64,96713,1,2,0:0:0:0:
423,78,96797,1,0,0:0:0:0:
453,104,96880,5,2,0:0:0:0:
453,104,96963,1,0,0:0:0:0:
453,104,97047,2,0,L|442:154,1,43.9374988267422
512,244,97213,1,8,0:0:0:0:
512,244,97296,1,0,0:0:0:0:
512,244,97380,2,0,L|501:194,1,43.9374988267422
398,328,97547,37,2,0:0:0:0:
370,342,97630,1,0,0:0:0:0:
340,334,97713,1,0,0:0:0:0:
314,316,97797,1,0,0:0:0:0:
304,286,97880,1,10,0:0:0:0:
281,265,97963,1,0,0:0:0:0:
250,258,98047,1,0,0:0:0:0:
221,268,98130,1,0,0:0:0:0:
206,294,98213,1,2,0:0:0:0:
205,324,98297,1,0,0:0:0:0:
220,350,98380,1,0,0:0:0:0:
246,365,98463,1,0,0:0:0:0:
276,362,98547,1,10,0:0:0:0:
302,346,98630,1,0,0:0:0:0:
314,316,98713,1,2,0:0:0:0:
315,285,98797,1,0,0:0:0:0:
298,258,98880,6,0,P|275:248|243:252,3,43.9374988267422,2|0|0|0,0:0|0:0|0:0|0:0,0:0:0:0:
394,367,99213,2,0,P|417:377|449:373,3,43.9374988267422,10|0|0|0,0:0|0:0|0:0|0:0,0:0:0:0:
407,185,99547,5,2,0:0:0:0:
407,185,99630,1,0,0:0:0:0:
407,185,99713,2,0,L|393:256,1,43.9374988267422
292,135,99880,2,0,L|278:64,3,43.9374988267422,10|0|0|0,0:0|0:0|0:0|0:0,0:0:0:0:
250,257,100213,6,0,B|206:222|167:263|167:263|164:271|164:271|154:316|84:316,1,173.4375,6|0,0:0|1:0,0:0:0:0:
25,218,100547,2,0,B|14:193|-15:190|-15:190|31:165|87:203|87:247,1,173.4375,10|0,0:0|1:0,0:0:0:0:
150,180,100880,2,0,P|170:96|190:12,1,173.4375,6|0,0:0|1:0,0:0:0:0:
276,100,101213,37,8,0:0:0:0:
331,131,101297,1,0,0:0:0:0:
387,102,101380,1,0,0:0:0:0:
402,40,101463,1,0,0:0:0:0:
360,0,101547,6,0,B|310:29|310:29|467:106,1,226.624993083954,6|0,0:0|1:0,0:0:0:0:
512,41,102213,2,0,B|471:165|471:165|473:169|473:169|436:275,1,226.624993083954,6|0,0:0|1:0,0:0:0:0:
439,334,102880,6,0,B|485:305|485:305|405:281|405:281|398:284|398:284|292:255,1,226.624993083954,6|0,0:0|1:0,0:0:0:0:
274,200,103547,5,0,3:0:0:0:
223,177,103630,1,8,3:0:0:0:
173,202,103713,1,0,3:0:0:0:
149,242,103797,1,0,3:0:0:0:
124,269,103880,1,0,3:0:0:0:
97,275,103963,1,0,3:0:0:0:
79,269,104047,1,0,3:0:0:0:
72,262,104130,1,0,3:0:0:0:
67,254,104213,37,6,0:0:0:0:
93,210,104297,1,0,0:0:0:0:
142,209,104380,2,0,P|185:223|201:262,1,71.6875005469322
424,283,104547,5,10,0:0:0:0:
398,327,104631,1,0,0:0:0:0:
349,328,104714,2,0,P|306:314|290:275,1,71.6875005469322,2|0,0:0|0:0,0:0:0:0:
386,6,104880,5,10,0:0:0:0:
413,48,104963,1,0,0:0:0:0:
395,95,105047,1,0,0:0:0:0:
351,119,105130,1,0,0:0:0:0:
301,109,105213,1,10,0:0:0:0:
263,75,105297,1,0,0:0:0:0:
213,70,105380,1,0,0:0:0:0:
177,104,105463,1,0,0:0:0:0:
181,154,105547,5,10,0:0:0:0:
241,174,105630,1,0,0:0:0:0:
296,141,105713,1,0,0:0:0:0:
310,77,105797,1,0,0:0:0:0:
279,20,105880,1,10,0:0:0:0:
217,0,105963,1,0,0:0:0:0:
155,22,106047,1,2,0:0:0:0:
132,82,106130,1,0,0:0:0:0:
151,143,106213,1,10,0:0:0:0:
201,184,106297,1,0,0:0:0:0:
265,185,106380,1,0,0:0:0:0:
317,221,106463,1,0,0:0:0:0:
331,284,106547,1,10,0:0:0:0:
296,338,106630,1,0,0:0:0:0:
231,341,106713,1,0,0:0:0:0:
184,295,106797,1,0,0:0:0:0:
189,230,106880,37,10,0:0:0:0:
237,168,106963,1,0,0:0:0:0:
316,169,107047,1,0,0:0:0:0:
380,214,107130,1,0,0:0:0:0:
458,207,107213,1,8,0:0:0:0:
493,135,107297,1,0,0:0:0:0:
466,61,107380,1,0,0:0:0:0:
391,35,107463,1,0,0:0:0:0:
321,73,107547,5,10,0:0:0:0:
272,86,107630,1,0,0:0:0:0:
228,61,107713,2,0,P|205:29|213:-10,1,71.6875005469322
0,178,107880,5,10,0:0:0:0:
32,139,107963,1,0,0:0:0:0:
83,134,108046,2,0,P|120:147|136:183,1,71.6875005469322
261,384,108213,5,10,0:0:0:0:
214,330,108297,1,0,0:0:0:0:
230,263,108380,1,0,0:0:0:0:
285,225,108463,1,0,0:0:0:0:
352,240,108547,1,8,0:0:0:0:
390,296,108630,1,0,0:0:0:0:
457,303,108713,1,0,0:0:0:0:
501,248,108797,1,0,0:0:0:0:
486,180,108880,1,10,0:0:0:0:
435,174,108963,1,0,0:0:0:0:
397,140,109047,1,0,0:0:0:0:
399,90,109130,1,0,0:0:0:0:
437,58,109213,2,0,P|472:49|503:76,3,71.6875005469322,8|0|0|0,0:0|0:0|0:0|0:0,0:0:0:0:
285,225,109547,37,14,0:0:0:0:
243,252,109630,1,0,0:0:0:0:
194,238,109713,2,0,P|167:195|173:162,1,71.6875005469322
65,0,109880,5,10,0:0:0:0:
109,22,109963,1,0,0:0:0:0:
121,72,110046,2,0,P|97:116|65:128,1,71.6875005469322,2|0,0:0|0:0,0:0:0:0:
0,291,110213,5,10,0:0:0:0:
36,255,110297,1,0,0:0:0:0:
85,258,110380,1,0,0:0:0:0:
120,293,110463,1,0,0:0:0:0:
127,343,110547,1,10,0:0:0:0:
159,380,110630,1,0,0:0:0:0:
208,384,110713,1,0,0:0:0:0:
249,355,110797,1,0,0:0:0:0:
257,305,110880,5,10,0:0:0:0:
201,272,110963,1,0,0:0:0:0:
142,300,111047,1,0,0:0:0:0:
108,354,111130,1,0,0:0:0:0:
47,375,111213,2,0,P|14:346|20:308,1,71.6875005469322,10|0,0:0|0:0,0:0:0:0:
241,154,111380,2,0,P|274:183|268:221,1,71.6875005469322,2|0,0:0|0:0,0:0:0:0:
69,71,111547,37,10,0:0:0:0:
5,102,111630,1,0,0:0:0:0:
7,174,111713,1,0,0:0:0:0:
67,213,111797,1,0,0:0:0:0:
121,204,111880,1,10,0:0:0:0:
156,235,111963,1,0,0:0:0:0:
162,275,112047,1,0,0:0:0:0:
142,300,112130,1,0,0:0:0:0:
125,297,112213,6,0,B|160:264|211:282|220:329|213:335|208:338|217:393|281:405|321:364,1,249.749992378235,6|0,0:0|1:0,0:0:0:0:
509,152,113547,6,0,B|539:100|489:59|421:71|384:157|454:216,1,249.749992378235,6|0,0:0|1:0,0:0:0:0:
317,64,114880,6,0,P|284:28|234:42,1,90.1874958715441,6|0,0:0|1:0,0:0:0:0:
217,57,115213,2,0,P|184:39|177:7,1,60.1249972476961,2|0,0:0|1:0,0:0:0:0:
103,68,115547,2,0,P|90:137|75:208,1,120.249994495392,2|2,0:0|0:0,0:0:0:0:
192,378,116213,38,0,P|242:367|252:316,1,90.1874958715441,2|0,0:0|1:0,0:0:0:0:
234,301,116547,2,0,P|216:269|223:232,1,60.1249972476961,2|0,0:0|1:0,0:0:0:0:
344,126,116880,2,0,P|312:176|244:162,1,120.249994495392,2|2,0:0|0:0,0:0:0:0:
181,23,117547,6,0,P|123:32|61:39,1,104.06250396967,6|0,0:0|1:0,0:0:0:0:
56,37,117880,2,0,B|38:72|38:72|57:105,1,69.3750026464463,2|0,0:0|1:0,0:0:0:0:
128,157,118213,2,0,B|116:216|116:216|117:220|117:220|97:306,1,138.750005292893,2|2,0:0|0:0,0:0:0:0:
212,378,118880,6,0,P|231:330|295:337,1,104.06250396967,2|0,0:0|1:0,0:0:0:0:
300,323,119213,2,0,P|330:346|366:339,1,69.3750026464463,2|0,0:0|1:0,0:0:0:0:
452,277,119547,2,0,B|470:231|435:211|424:219|391:199|406:148,1,138.750005292893,2|2,0:0|0:0,0:0:0:0:
256,192,120213,5,6,0:0:0:0:
256,192,120297,12,0,122047,0:0:0:0:
98,251,122213,37,0,3:0:0:0:
208,97,122380,1,0,3:0:0:0:
233,229,122546,5,0,3:0:0:0:
147,19,122713,1,0,3:0:0:0:
329,177,122880,5,6,0:0:0:0:
368,180,122963,1,0,0:0:0:0:
401,158,123047,1,0,0:0:0:0:
411,120,123130,1,0,0:0:0:0:
401,81,123213,1,10,0:0:0:0:
371,54,123297,1,0,0:0:0:0:
332,48,123380,1,0,0:0:0:0:
296,64,123463,1,0,0:0:0:0:
271,95,123547,1,2,0:0:0:0:
239,119,123630,1,0,0:0:0:0:
200,125,123713,1,0,0:0:0:0:
164,106,123797,1,0,0:0:0:0:
144,71,123880,1,10,0:0:0:0:
152,32,123963,1,0,0:0:0:0:
186,11,124047,1,0,0:0:0:0:
225,13,124130,1,2,0:0:0:0:
254,39,124213,6,0,P|262:66|256:90,1,43.9374988267422,2|0,0:0|0:0,0:0:0:0:
95,170,124380,1,0,0:0:0:0:
95,170,124463,1,2,0:0:0:0:
95,170,124547,2,0,P|87:143|93:119,3,43.9374988267422,10|0|0|2,0:0|0:0|0:0|0:0,0:0:0:0:
191,274,124880,37,2,0:0:0:0:
226,291,124963,1,0,0:0:0:0:
264,282,125047,1,0,0:0:0:0:
290,253,125130,1,0,0:0:0:0:
311,220,125213,1,8,0:0:0:0:
347,203,125297,1,0,0:0:0:0:
386,207,125380,1,0,0:0:0:0:
415,233,125463,1,0,0:0:0:0:
423,271,125547,5,2,0:0:0:0:
384,263,125630,1,0,0:0:0:0:
368,227,125713,1,0,0:0:0:0:
375,187,125797,1,0,0:0:0:0:
403,160,125880,1,10,0:0:0:0:
439,144,125963,1,0,0:0:0:0:
459,109,126047,1,0,0:0:0:0:
453,69,126130,1,0,0:0:0:0:
419,47,126213,5,2,0:0:0:0:
419,47,126297,1,0,0:0:0:0:
419,47,126380,2,0,P|389:47|363:67,1,43.9374988267422
284,138,126547,1,10,0:0:0:0:
284,138,126631,1,0,0:0:0:0:
284,138,126714,2,0,P|314:138|340:118,1,43.9374988267422,2|0,0:0|0:0,0:0:0:0:
185,113,126880,5,0,0:0:0:0:
160,90,126963,1,0,0:0:0:0:
148,58,127047,1,0,0:0:0:0:
161,26,127130,1,2,0:0:0:0:
186,12,127213,37,10,0:0:0:0:
189,51,127297,1,0,0:0:0:0:
170,85,127380,1,0,0:0:0:0:
135,103,127463,1,0,0:0:0:0:
106,130,127547,1,0,0:0:0:0:
94,167,127630,1,0,0:0:0:0:
99,205,127713,1,0,0:0:0:0:
126,233,127797,1,0,0:0:0:0:
162,247,127880,1,8,0:0:0:0:
200,237,127963,1,0,0:0:0:0:
228,208,128047,1,0,0:0:0:0:
236,169,128130,1,0,0:0:0:0:
216,134,128213,5,2,0:0:0:0:
198,170,128297,1,0,0:0:0:0:
219,203,128380,1,0,0:0:0:0:
252,224,128463,1,0,0:0:0:0:
290,234,128547,1,10,0:0:0:0:
318,260,128630,1,0,0:0:0:0:
329,297,128713,1,0,0:0:0:0:
317,335,128797,1,0,0:0:0:0:
289,363,128880,1,2,0:0:0:0:
249,367,128963,1,0,0:0:0:0:
215,345,129047,1,0,0:0:0:0:
202,307,129130,1,0,0:0:0:0:
216,270,129213,1,10,0:0:0:0:
249,248,129297,1,0,0:0:0:0:
286,259,129380,1,0,0:0:0:0:
307,292,129463,1,2,0:0:0:0:
297,330,129547,6,0,P|277:346|252:348,1,43.9374988267422,2|0,0:0|0:0,0:0:0:0:
390,223,129713,1,0,0:0:0:0:
390,223,129797,1,2,0:0:0:0:
390,223,129880,2,0,P|411:227|427:241,3,43.9374988267422,10|0|0|2,0:0|0:0|0:0|0:0,0:0:0:0:
288,151,130213,5,2,0:0:0:0:
262,120,130297,1,0,0:0:0:0:
264,80,130380,1,0,0:0:0:0:
289,49,130463,1,0,0:0:0:0:
326,36,130547,1,8,0:0:0:0:
363,47,130630,1,0,0:0:0:0:
387,77,130713,1,0,0:0:0:0:
388,116,130797,1,0,0:0:0:0:
378,154,130880,37,2,0:0:0:0:
352,185,130964,1,0,0:0:0:0:
354,225,131047,1,2,0:0:0:0:
379,256,131130,1,0,0:0:0:0:
416,269,131214,1,8,0:0:0:0:
453,258,131297,1,0,0:0:0:0:
474,228,131380,1,2,0:0:0:0:
478,189,131463,1,0,0:0:0:0:
460,153,131547,5,2,0:0:0:0:
460,153,131630,1,0,0:0:0:0:
460,153,131713,2,0,L|471:96,1,43.9374988267422,0|2,0:0|0:0,0:0:0:0:
289,49,131880,1,10,0:0:0:0:
289,49,131963,1,0,0:0:0:0:
289,49,132046,2,0,L|300:106,1,43.9374988267422,2|0,0:0|0:0,0:0:0:0:
143,294,132213,5,2,0:0:0:0:
98,323,132297,1,0,0:0:0:0:
47,308,132380,1,0,0:0:0:0:
17,264,132463,1,0,0:0:0:0:
22,211,132547,1,8,0:0:0:0:
67,183,132630,1,0,0:0:0:0:
119,185,132713,1,0,0:0:0:0:
167,207,132797,1,0,0:0:0:0:
214,185,132880,1,2,0:0:0:0:
238,138,132963,1,0,0:0:0:0:
215,89,133047,1,0,0:0:0:0:
164,73,133130,1,0,0:0:0:0:
118,99,133213,1,8,0:0:0:0:
108,151,133297,1,0,0:0:0:0:
132,197,133380,1,0,0:0:0:0:
165,237,133463,1,0,0:0:0:0:
131,279,133547,6,0,B|98:211|150:149|205:148|205:148|207:168|207:168|276:170|312:117|286:45|286:45|266:32|249:33|249:33|240:20|240:20|273:17|291:37|291:37|310:-12|310:-12|313:-7|313:-7|296:39|296:39|426:10|477:66|520:161|526:204|517:232|517:232|480:144|390:112|361:127|361:127|338:76|293:75,1,1220.99996273804,6|0,0:0|1:0,0:0:0:0:
256,192,162909,12,0,165395,0:0:0:0:
127,90,165560,38,0,B|108:52|135:38|135:48|169:32|161:-14|161:-14|202:38|173:102|120:106|120:106|78:101|37:122|43:182,1,388.499988143921,4|0,0:0|0:0,0:0:0:0:
195,278,168226,6,0,B|213:333|286:317|286:317|300:212|215:164|141:209,1,323.75,4|0,0:0|1:0,0:0:0:0:
117,261,169551,6,0,P|80:287|38:273,1,83.2499974594117
301,72,170877,6,0,B|253:59|256:10|256:10|215:79|310:113|310:82|394:95|373:198,1,332.999989837647,4|0,0:0|0:0,0:0:0:0:
442,356,173543,38,0,B|491:310|491:310|416:291|416:291|400:293|400:293|314:267,1,235.875004498959,4|0,0:0|0:0,0:0:0:0:
209,296,174877,6,0,P|212:345|266:365,1,92.5
254,207,176210,6,0,P|256:173|242:140,1,64.7499980239869
162,102,177210,1,0,0:0:0:0:
162,102,177543,2,0,P|154:64|169:30,1,64.7499980239869
259,151,178877,6,0,B|302:157|348:100|348:100|360:94|379:81|390:54|383:-4|305:-24|245:46|290:104|322:103|349:100|349:100|360:94|396:68|438:81|453:120,1,450.93747935772,0|0,0:0|1:0,0:0:0:0:
472,232,181543,38,0,B|503:239|518:281|499:314|499:314|446:232|336:239|336:239|387:254|388:305,1,360.749983486176,4|0,0:0|0:0,0:0:0:0:
178,383,182876,6,0,B|163:367|112:365|112:365|220:338|220:338|226:333|226:333|324:307,1,277.5,4|0,0:0|1:0,0:0:0:0:
151,184,184209,6,0,B|98:185|82:125|82:125|100:194|53:255|-16:233|-35:162|16:141,1,323.749990119934,4|0,0:0|1:0,0:0:0:0:
438,67,186209,5,2,3:2:0:0:
485,106,186293,1,0,3:0:0:0:
477,166,186376,1,0,3:0:0:0:
421,190,186459,1,0,3:0:0:0:
374,162,186543,1,0,3:0:0:0:
349,123,186626,1,0,3:0:0:0:
312,113,186709,1,0,3:0:0:0:
284,126,186793,1,0,3:0:0:0:
270,144,186876,37,6,0:0:0:0:
319,164,186959,1,0,0:0:0:0:
358,127,187043,1,0,0:0:0:0:
367,74,187126,1,0,0:0:0:0:
335,31,187209,1,10,0:0:0:0:
281,23,187293,1,0,0:0:0:0:
238,55,187376,1,0,0:0:0:0:
211,101,187459,1,0,0:0:0:0:
160,120,187543,1,2,0:0:0:0:
110,101,187626,1,0,0:0:0:0:
87,52,187709,1,0,0:0:0:0:
116,6,187793,1,0,0:0:0:0:
169,1,187876,1,10,0:0:0:0:
203,41,187959,1,0,0:0:0:0:
185,91,188043,1,0,0:0:0:0:
135,110,188126,1,0,0:0:0:0:
104,153,188209,5,2,0:0:0:0:
111,214,188293,1,0,0:0:0:0:
159,250,188376,1,0,0:0:0:0:
219,240,188459,1,0,0:0:0:0:
257,191,188543,1,10,0:0:0:0:
259,130,188626,1,0,0:0:0:0:
292,79,188709,1,2,0:0:0:0:
353,71,188793,1,0,0:0:0:0:
406,100,188876,1,2,0:0:0:0:
420,159,188959,1,0,0:0:0:0:
397,216,189043,1,0,0:0:0:0:
341,241,189126,1,0,0:0:0:0:
307,291,189209,1,10,0:0:0:0:
322,350,189293,1,0,0:0:0:0:
376,376,189376,1,0,0:0:0:0:
433,356,189459,1,0,0:0:0:0:
454,298,189543,5,2,0:0:0:0:
406,249,189626,1,0,0:0:0:0:
338,261,189709,1,0,0:0:0:0:
306,322,189793,1,0,0:0:0:0:
253,365,189876,1,10,0:0:0:0:
188,341,189959,1,0,0:0:0:0:
162,276,190043,1,0,0:0:0:0:
203,221,190126,1,0,0:0:0:0:
271,221,190209,1,2,0:0:0:0:
313,275,190293,1,0,0:0:0:0:
365,319,190376,1,0,0:0:0:0:
432,305,190459,1,0,0:0:0:0:
472,248,190543,1,10,0:0:0:0:
460,180,190626,1,0,0:0:0:0:
398,149,190709,1,0,0:0:0:0:
329,158,190793,1,0,0:0:0:0:
274,116,190876,5,2,0:0:0:0:
275,55,190959,1,0,0:0:0:0:
323,17,191043,1,0,0:0:0:0:
382,28,191126,1,0,0:0:0:0:
417,77,191209,1,10,0:0:0:0:
417,138,191293,1,0,0:0:0:0:
372,178,191376,1,2,0:0:0:0:
313,195,191459,1,0,0:0:0:0:
273,242,191543,1,2,0:0:0:0:
274,302,191626,1,0,0:0:0:0:
310,350,191709,1,0,0:0:0:0:
370,360,191793,1,0,0:0:0:0:
420,326,191876,1,10,0:0:0:0:
435,267,191959,1,0,0:0:0:0:
402,214,192043,1,0,0:0:0:0:
341,213,192126,1,0,0:0:0:0:
310,248,192209,38,0,L|238:223,3,53.1875010144711,6|0|0|0,0:0|0:0|0:0|0:0,0:0:0:0:
455,110,192543,2,0,L|469:184,3,53.1875010144711,10|0|0|0,0:0|0:0|0:0|0:0,0:0:0:0:
265,56,192876,2,0,L|322:6,3,53.1875010144711,2|0|2|0,0:0|0:0|0:0|0:0,0:0:0:0:
136,129,193209,1,10,0:0:0:0:
89,122,193293,1,0,0:0:0:0:
47,141,193376,1,0,0:0:0:0:
31,188,193459,1,0,0:0:0:0:
35,230,193543,5,2,0:0:0:0:
75,273,193626,1,0,0:0:0:0:
136,274,193709,1,0,0:0:0:0:
180,230,193793,1,0,0:0:0:0:
201,173,193876,1,10,0:0:0:0:
252,137,193959,1,0,0:0:0:0:
313,145,194043,1,2,0:0:0:0:
358,186,194126,1,0,0:0:0:0:
358,238,194209,5,2,0:0:0:0:
323,279,194293,1,0,0:0:0:0:
275,281,194376,1,0,0:0:0:0:
232,248,194459,1,0,0:0:0:0:
229,194,194543,1,10,0:0:0:0:
269,136,194626,1,0,0:0:0:0:
323,92,194709,1,0,0:0:0:0:
301,26,194793,1,0,0:0:0:0:
235,4,194876,5,0,0:0:0:0:
214,14,194959,1,0,0:0:0:0:
193,23,195043,1,0,0:0:0:0:
173,34,195126,1,0,0:0:0:0:
154,47,195209,37,10,0:0:0:0:
146,115,195293,1,0,0:0:0:0:
197,160,195376,1,0,0:0:0:0:
265,158,195459,1,0,0:0:0:0:
320,116,195543,1,2,0:0:0:0:
388,116,195626,1,0,0:0:0:0:
433,166,195709,1,0,0:0:0:0:
429,235,195793,1,0,0:0:0:0:
376,279,195876,1,10,0:0:0:0:
309,263,195959,1,0,0:0:0:0:
245,238,196042,1,0,0:0:0:0:
185,272,196126,1,0,0:0:0:0:
169,340,196209,5,2,0:0:0:0:
242,330,196292,1,0,0:0:0:0:
292,269,196376,1,0,0:0:0:0:
290,192,196459,1,0,0:0:0:0:
242,130,196542,1,8,0:0:0:0:
163,131,196626,1,0,0:0:0:0:
105,182,196709,1,0,0:0:0:0:
28,164,196792,1,0,0:0:0:0:
2,88,196876,1,2,0:0:0:0:
45,24,196959,1,0,0:0:0:0:
121,19,197042,1,0,0:0:0:0:
174,78,197126,1,0,0:0:0:0:
201,150,197209,1,10,0:0:0:0:
271,184,197292,1,0,0:0:0:0:
344,157,197376,1,0,0:0:0:0:
378,87,197459,1,0,0:0:0:0:
325,32,197542,5,6,0:0:0:0:
289,89,197625,1,0,0:0:0:0:
293,156,197708,1,0,0:0:0:0:
336,208,197792,1,0,0:0:0:0:
401,226,197875,1,10,0:0:0:0:
464,202,197958,1,0,0:0:0:0:
502,146,198042,1,2,0:0:0:0:
499,79,198125,1,0,0:0:0:0:
468,35,198209,5,2,0:0:0:0:
434,65,198292,1,0,0:0:0:0:
429,110,198376,1,0,0:0:0:0:
449,150,198459,1,0,0:0:0:0:
482,180,198542,1,10,0:0:0:0:
499,222,198626,1,0,0:0:0:0:
490,266,198709,1,0,0:0:0:0:
455,295,198792,1,0,0:0:0:0:
408,297,198876,37,2,0:0:0:0:
372,267,198959,1,0,0:0:0:0:
365,221,199042,1,0,0:0:0:0:
390,182,199126,1,0,0:0:0:0:
434,172,199209,1,8,0:0:0:0:
475,195,199292,1,0,0:0:0:0:
483,242,199376,2,0,P|481:272|461:292,1,53.1875010144711,2|0,0:0|0:0,0:0:0:0:
305,336,199542,5,2,0:0:0:0:
265,359,199626,1,0,0:0:0:0:
220,347,199709,1,0,0:0:0:0:
193,310,199792,1,0,0:0:0:0:
201,264,199876,1,8,0:0:0:0:
179,223,199959,1,0,0:0:0:0:
135,208,200042,1,0,0:0:0:0:
91,224,200126,1,0,0:0:0:0:
67,263,200209,5,2,0:0:0:0:
84,293,200292,1,0,0:0:0:0:
114,299,200376,2,0,P|150:296|179:265,1,53.1875010144711
255,77,200542,5,10,0:0:0:0:
220,77,200625,1,0,0:0:0:0:
200,99,200709,2,0,P|186:128|194:168,1,53.1875010144711,2|0,0:0|0:0,0:0:0:0:
307,255,200876,37,2,0:0:0:0:
344,281,200959,1,0,0:0:0:0:
388,269,201042,1,0,0:0:0:0:
414,231,201126,1,0,0:0:0:0:
410,185,201209,1,10,0:0:0:0:
376,153,201292,1,0,0:0:0:0:
356,111,201376,1,0,0:0:0:0:
368,67,201459,1,0,0:0:0:0:
412,56,201542,5,2,0:0:0:0:
401,100,201626,1,0,0:0:0:0:
365,128,201709,1,0,0:0:0:0:
320,138,201792,1,0,0:0:0:0:
275,126,201876,1,10,0:0:0:0:
239,97,201959,1,0,0:0:0:0:
226,67,202042,2,0,P|221:34|246:12,1,53.1875010144711,2|0,0:0|0:0,0:0:0:0:
31,184,202209,5,2,0:0:0:0:
54,168,202292,1,0,0:0:0:0:
75,167,202376,2,0,P|110:179|124:199,1,53.1875010144711
250,290,202542,5,10,0:0:0:0:
224,278,202625,1,0,0:0:0:0:
213,260,202709,2,0,P|205:223|216:201,1,53.1875010144711
333,50,202876,37,6,0:0:0:0:
378,53,202959,1,0,0:0:0:0:
407,88,203042,1,0,0:0:0:0:
409,134,203126,1,0,0:0:0:0:
386,173,203209,1,10,0:0:0:0:
350,201,203292,1,0,0:0:0:0:
341,246,203376,1,2,0:0:0:0:
362,285,203459,1,0,0:0:0:0:
402,305,203542,1,2,0:0:0:0:
446,294,203626,1,0,0:0:0:0:
473,257,203709,1,0,0:0:0:0:
471,211,203792,1,0,0:0:0:0:
439,177,203876,1,10,0:0:0:0:
393,176,203959,1,0,0:0:0:0:
349,161,204042,1,2,0:0:0:0:
322,123,204126,1,0,0:0:0:0:
330,78,204209,5,2,0:0:0:0:
356,114,204292,1,0,0:0:0:0:
356,160,204376,1,0,0:0:0:0:
328,196,204459,1,0,0:0:0:0:
284,208,204542,1,8,0:0:0:0:
240,193,204626,1,0,0:0:0:0:
213,175,204709,2,0,P|181:172|151:197,1,53.1875010144711,2|0,0:0|0:0,0:0:0:0:
42,333,204876,5,2,0:0:0:0:
10,300,204959,1,0,0:0:0:0:
7,254,205042,1,0,0:0:0:0:
34,217,205126,1,0,0:0:0:0:
73,194,205209,1,8,0:0:0:0:
94,153,205292,1,0,0:0:0:0:
82,108,205376,1,0,0:0:0:0:
46,79,205459,1,0,0:0:0:0:
0,85,205542,5,2,0:0:0:0:
23,106,205626,1,0,0:0:0:0:
53,114,205709,2,0,L|128:90,1,53.1875010144711
215,29,205876,37,10,0:0:0:0:
238,8,205960,1,0,0:0:0:0:
268,0,206043,2,0,L|343:24,1,53.1875010144711,2|0,0:0|0:0,0:0:0:0:
456,89,206209,5,2,0:0:0:0:
476,129,206292,1,0,0:0:0:0:
459,171,206376,1,0,0:0:0:0:
417,189,206459,1,0,0:0:0:0:
372,177,206542,1,10,0:0:0:0:
337,145,206626,1,0,0:0:0:0:
291,146,206709,1,0,0:0:0:0:
253,172,206792,1,0,0:0:0:0:
242,216,206876,5,0,3:0:0:0:
317,226,206959,1,0,3:0:0:0:
359,162,207042,1,0,3:0:0:0:
335,88,207126,1,0,3:0:0:0:
271,54,207209,6,0,P|211:62|154:67,1,106.375002028942,0|0,3:0|0:0,0:0:0:0:
9,327,207542,2,2,B|67:333|72:281|56:274|84:218|158:251,1,159.562503043413,2|0,0:0|1:0,0:0:0:0:
194,282,207876,37,0,3:0:0:0:
191,303,207959,1,0,3:0:0:0:
188,324,208042,1,0,3:0:0:0:
186,345,208126,1,0,3:0:0:0:
186,362,208209,70,2,P|231:371|259:359,2,67.8333354034424,6|2|2,0:0|0:0|0:0,0:0:0:0:
292,284,208524,2,2,P|337:275|365:287,2,67.8333354034424,0|0|0,0:0|0:0|0:0,0:0:0:0:
498,107,208840,69,6,0:0:0:0:
453,166,208945,1,2,0:0:0:0:
378,158,209051,1,2,0:0:0:0:
343,108,209156,1,2,0:0:0:0:
355,62,209261,1,2,0:0:0:0:
385,47,209366,1,2,0:0:0:0:
404,51,209472,5,6,0:0:0:0:
438,116,209577,1,2,0:0:0:0:
400,179,209682,1,2,0:0:0:0:
347,209,209787,1,2,0:0:0:0:
342,256,209893,1,2,0:0:0:0:
358,285,209998,1,2,0:0:0:0:
374,298,210103,70,0,P|418:302|447:268,2,67.8333354034424,6|2|2,0:0|0:0|0:0,0:0:0:0:
297,335,210419,2,2,P|315:363|348:374,2,55.4999983062745,0|0|0,0:0|0:0|0:0,0:0:0:0:
189,306,210735,5,6,0:0:0:0:
117,284,210840,1,2,0:0:0:0:
101,211,210945,1,2,0:0:0:0:
138,162,211051,1,2,0:0:0:0:
185,163,211156,1,2,0:0:0:0:
208,187,211261,1,2,0:0:0:0:
209,207,211366,69,6,0:0:0:0:
265,257,211472,1,2,0:0:0:0:
332,225,211577,1,2,0:0:0:0:
339,164,211682,1,2,0:0:0:0:
300,106,211787,1,2,0:0:0:0:
343,48,211893,1,2,0:0:0:0:
419,67,211998,6,0,P|440:94|431:138,2,67.8333354034424,6|2|2,0:0|0:0|0:0,0:0:0:0:
478,187,212314,2,2,P|504:166|509:132,2,55.4999983062745,0|0|0,0:0|0:0|0:0,0:0:0:0:
422,343,212630,69,6,0:0:0:0:
404,271,212735,1,2,0:0:0:0:
333,250,212840,1,2,0:0:0:0:
287,267,212945,1,2,0:0:0:0:
271,303,213051,1,2,0:0:0:0:
271,330,213156,1,2,0:0:0:0:
286,358,213261,5,6,0:0:0:0:
210,376,213366,1,2,0:0:0:0:
155,319,213472,1,2,0:0:0:0:
182,254,213577,1,2,0:0:0:0:
223,217,213682,1,2,0:0:0:0:
251,144,213787,1,2,0:0:0:0:
195,83,213893,69,6,0:0:0:0:
116,99,213998,1,2,0:0:0:0:
88,173,214103,1,2,0:0:0:0:
121,227,214209,1,2,0:0:0:0:
164,249,214314,1,2,0:0:0:0:
197,237,214419,1,2,0:0:0:0:
207,218,214524,6,0,L|281:235,2,70.9166680192948,6|2|2,0:0|0:0|0:0,0:0:0:0:
155,319,214840,2,2,L|81:336,2,70.9166680192948,0|0|0,0:0|0:0|0:0,0:0:0:0:
264,384,215156,69,6,0:0:0:0:
334,351,215261,1,2,0:0:0:0:
337,273,215366,1,2,0:0:0:0:
288,230,215472,1,2,0:0:0:0:
238,234,215577,1,2,0:0:0:0:
214,260,215682,1,2,0:0:0:0:
211,282,215787,5,6,0:0:0:0:
287,301,215893,1,2,0:0:0:0:
338,242,215998,1,2,0:0:0:0:
337,178,216103,1,2,0:0:0:0:
352,130,216209,1,2,0:0:0:0:
421,110,216314,1,2,0:0:0:0:
490,141,216419,70,0,P|511:112|503:67,2,70.9166680192948,6|2|2,0:0|0:0|0:0,0:0:0:0:
279,35,216735,2,2,P|263:62|268:97,2,58.5833317689896,0|0|0,0:0|0:0|0:0,0:0:0:0:
170,337,217051,5,6,0:0:0:0:
121,275,217156,1,2,0:0:0:0:
153,205,217261,1,2,0:0:0:0:
215,193,217366,1,2,0:0:0:0:
254,223,217472,1,2,0:0:0:0:
271,254,217577,1,2,0:0:0:0:
276,281,217682,69,6,0:0:0:0:
331,325,217787,1,2,0:0:0:0:
396,298,217892,1,2,0:0:0:0:
423,232,217997,1,2,0:0:0:0:
391,167,218103,1,2,0:0:0:0:
321,151,218208,1,2,0:0:0:0:
290,87,218313,6,0,P|293:48|325:27,1,70.9166680192948,2|2,0:0|0:0,0:0:0:0:
418,23,218524,1,2,0:0:0:0:
432,37,218629,2,2,P|429:76|397:97,2,70.9166680192948,0|0|0,0:0|0:0|0:0,0:0:0:0:
250,232,218945,69,2,0:0:0:0:
195,259,219050,1,2,0:0:0:0:
145,224,219155,1,2,0:0:0:0:
131,164,219260,1,2,0:0:0:0:
75,140,219366,1,2,0:0:0:0:
25,173,219471,1,2,0:0:0:0:
17,224,219576,6,0,P|44:259|88:256,1,70.9166680192948,2|2,0:0|0:0,0:0:0:0:
62,340,219787,1,2,0:0:0:0:
76,348,219892,2,2,P|119:342|139:302,2,70.9166680192948,0|0|0,0:0|0:0|0:0,0:0:0:0:
251,356,220208,69,6,0:0:0:0:
280,303,220313,1,2,0:0:0:0:
340,301,220418,1,2,0:0:0:0:
389,335,220524,1,2,0:0:0:0:
446,316,220629,1,2,0:0:0:0:
472,262,220734,1,2,0:0:0:0:
451,206,220839,6,0,P|422:186|375:196,1,70.9166680192948,2|2,0:0|0:0,0:0:0:0:
364,115,221050,1,2,0:0:0:0:
348,103,221155,2,2,P|313:121|300:162,2,70.9166680192948,0|0|0,0:0|0:0|0:0,0:0:0:0:
179,222,221471,69,2,0:0:0:0:
121,239,221576,1,2,0:0:0:0:
75,200,221682,1,2,0:0:0:0:
76,140,221787,1,2,0:0:0:0:
129,111,221892,1,2,0:0:0:0:
185,130,221997,1,2,0:0:0:0:
230,103,222103,6,0,P|246:67|227:31,1,70.9166680192948,2|2,0:0|0:0,0:0:0:0:
328,181,222313,1,2,0:0:0:0:
337,195,222418,2,2,L|319:281,2,70.9166680192948,0|0|0,0:0|0:0|0:0,0:0:0:0:
482,351,222734,69,6,0:0:0:0:
450,298,222839,1,2,0:0:0:0:
390,302,222945,1,2,0:0:0:0:
357,353,223050,1,2,0:0:0:0:
297,361,223155,1,2,0:0:0:0:
260,313,223260,1,2,0:0:0:0:
273,259,223366,6,0,P|306:233|341:239,1,70.9166680192948,2|2,0:0|0:0,0:0:0:0:
239,179,223576,1,2,0:0:0:0:
231,169,223682,2,2,L|218:87,2,70.9166680192948,0|0|0,0:0|0:0|0:0,0:0:0:0:
102,246,223997,69,2,0:0:0:0:
42,259,224103,1,2,0:0:0:0:
5,212,224208,1,2,0:0:0:0:
16,152,224313,1,2,0:0:0:0:
70,127,224418,1,2,0:0:0:0:
93,70,224524,1,2,0:0:0:0:
68,23,224629,6,0,P|27:28|2:56,1,70.9166680192948,2|2,0:0|0:0,0:0:0:0:
178,76,224839,1,2,0:0:0:0:
169,92,224945,2,2,L|155:172,2,70.9166680192948,0|0|0,0:0|0:0|0:0,0:0:0:0:
302,66,225260,69,6,0:0:0:0:
359,49,225366,1,2,0:0:0:0:
404,88,225471,1,2,0:0:0:0:
401,147,225576,1,2,0:0:0:0:
347,176,225682,1,2,0:0:0:0:
316,227,225787,1,2,0:0:0:0:
340,281,225892,6,0,P|369:305|413:295,1,70.9166680192948,2|2,0:0|0:0,0:0:0:0:
494,220,226103,1,2,0:0:0:0:
486,237,226208,2,2,L|505:329,2,70.9166680192948,0|0|0,0:0|0:0|0:0,0:0:0:0:
510,31,226524,70,0,B|477:56|477:56|354:33,1,141.83333603859,2|2,0:0|0:0,0:0:0:0:
251,66,226839,2,0,B|284:41|284:41|407:64,1,141.83333603859,2|2,0:0|0:0,0:0:0:0:
416,260,227155,6,2,B|387:231|353:241|340:259|340:259|335:270|335:270|316:298|292:299|252:279,1,180.374991743088,0|0,0:0|0:0,0:0:0:0:
26,315,227787,69,6,0:0:0:0:
40,332,227892,2,2,P|90:319|137:304,1,92.5000035285951,0|0,0:0|0:0,0:0:0:0:
159,123,228260,21,2,0:0:0:0:
85,153,228418,2,2,P|140:161|251:175,1,152.625004657746,6|2,0:0|0:0,0:0:0:0:
498,96,229050,6,2,B|474:144|426:128|432:112|375:98|353:157,1,159.562503043413,6|2,0:0|0:0,0:0:0:0:
377,216,229366,2,2,B|347:171|385:137|396:150|436:108|396:59,1,159.562503043413,6|2,0:0|0:0,0:0:0:0:
340,45,229682,6,2,B|387:42|396:85|381:88|395:137|450:128,1,145.68749555397,6|2,0:0|0:0,0:0:0:0:
512,187,230313,6,2,L|509:261,1,69.375,6|2,0:0|0:0,0:0:0:0:
389,320,230628,38,2,P|393:345|400:372,3,46.25,0|0|0|0,0:0|0:0|0:0|0:0,0:0:0:0:
433,246,230945,5,6,0:0:0:0:
383,217,231028,1,2,0:0:0:0:
327,229,231111,1,2,0:0:0:0:
301,280,231195,1,2,0:0:0:0:
271,328,231278,1,10,0:0:0:0:
216,344,231361,1,2,0:0:0:0:
163,320,231445,1,2,0:0:0:0:
152,263,231528,1,2,0:0:0:0:
190,220,231611,6,0,P|214:192|211:157,1,71.6875005469322,2|0,0:0|0:0,0:0:0:0:
104,24,231778,2,0,P|102:58|125:85,1,71.6875005469322,2|0,0:0|0:0,0:0:0:0:
271,52,231945,1,10,0:0:0:0:
65,176,232111,1,2,0:0:0:0:
345,359,232278,5,2,0:0:0:0:
401,350,232361,1,2,0:0:0:0:
438,306,232445,1,2,0:0:0:0:
437,248,232528,1,2,0:0:0:0:
400,204,232611,1,10,0:0:0:0:
342,209,232695,1,2,0:0:0:0:
289,187,232778,1,2,0:0:0:0:
268,133,232861,1,2,0:0:0:0:
293,80,232945,38,0,P|317:55|371:61,1,71.6875005469322,2|0,0:0|0:0,0:0:0:0:
189,214,233111,2,0,P|154:210|129:185,1,71.6875005469322,2|0,0:0|0:0,0:0:0:0:
185,15,233278,1,10,0:0:0:0:
386,130,233445,1,2,0:0:0:0:
193,327,233611,5,2,0:0:0:0:
141,349,233694,1,2,0:0:0:0:
88,331,233777,1,2,0:0:0:0:
61,282,233861,1,2,0:0:0:0:
75,227,233944,1,10,0:0:0:0:
121,196,234027,1,2,0:0:0:0:
176,205,234111,1,2,0:0:0:0:
222,240,234195,1,2,0:0:0:0:
278,246,234278,6,0,P|316:239|340:197,1,71.6875005469322,2|0,0:0|0:0,0:0:0:0:
380,43,234445,2,0,P|342:50|318:92,1,71.6875005469322,2|0,0:0|0:0,0:0:0:0:
449,272,234611,1,10,0:0:0:0:
189,126,234778,1,2,0:0:0:0:
508,27,234945,5,2,0:0:0:0:
508,84,235028,1,2,0:0:0:0:
467,124,235111,1,2,0:0:0:0:
410,127,235195,1,2,0:0:0:0:
366,167,235278,1,10,0:0:0:0:
366,224,235361,1,2,0:0:0:0:
407,264,235445,1,2,0:0:0:0:
464,263,235528,1,2,0:0:0:0:
502,220,235611,38,0,P|512:182|480:147,1,71.6875005469322,2|0,0:0|0:0,0:0:0:0:
301,291,235778,2,0,P|291:329|323:364,1,71.6875005469322,2|0,0:0|0:0,0:0:0:0:
216,103,235945,1,10,0:0:0:0:
50,309,236111,1,0,3:0:0:0:
55,329,236195,1,0,3:0:0:0:
58,343,236278,5,6,0:0:0:0:
126,364,236361,1,2,0:0:0:0:
180,315,236445,1,2,0:0:0:0:
180,243,236528,1,2,0:0:0:0:
121,202,236611,1,10,0:0:0:0:
48,203,236695,1,2,0:0:0:0:
5,145,236778,1,2,0:0:0:0:
31,78,236861,1,2,0:0:0:0:
100,58,236945,6,0,P|153:70|169:96,1,71.6875005469322,2|0,0:0|0:0,0:0:0:0:
290,199,237111,2,0,P|237:187|221:161,1,71.6875005469322,2|0,0:0|0:0,0:0:0:0:
265,32,237278,1,10,0:0:0:0:
457,210,237445,1,2,3:2:0:0:
462,231,237528,1,0,3:0:0:0:
468,251,237611,5,6,0:0:0:0:
441,318,237695,1,2,0:0:0:0:
377,350,237778,1,2,0:0:0:0:
308,331,237861,1,2,0:0:0:0:
271,268,237945,1,10,0:0:0:0:
291,199,238028,1,2,0:0:0:0:
348,156,238111,1,2,0:0:0:0:
377,90,238195,1,2,0:0:0:0:
343,26,238278,38,0,P|308:6|269:10,1,71.6875005469322,2|0,0:0|0:0,0:0:0:0:
388,267,238445,2,0,P|423:266|453:247,1,71.6875005469322,2|0,0:0|0:0,0:0:0:0:
512,58,238611,1,10,0:0:0:0:
212,208,238778,1,2,3:2:0:0:
193,203,238861,1,2,3:2:0:0:
173,197,238945,5,6,0:0:0:0:
136,152,239028,1,2,0:0:0:0:
159,100,239111,1,2,0:0:0:0:
216,91,239195,1,2,0:0:0:0:
266,118,239278,1,10,0:0:0:0:
286,171,239361,1,2,0:0:0:0:
337,198,239445,1,2,0:0:0:0:
390,176,239528,1,2,0:0:0:0:
411,123,239611,6,0,P|405:89|395:42,1,71.6875005469322,2|0,0:0|0:0,0:0:0:0:
271,268,239778,2,0,P|277:302|287:349,1,71.6875005469322,2|0,0:0|0:0,0:0:0:0:
288,37,239945,1,10,0:0:0:0:
493,229,240111,1,2,0:0:0:0:
198,358,240278,5,6,0:0:0:0:
141,366,240361,1,2,0:0:0:0:
97,327,240445,1,2,0:0:0:0:
99,269,240528,1,2,0:0:0:0:
143,233,240611,1,10,0:0:0:0:
200,241,240695,1,2,0:0:0:0:
250,214,240778,1,2,0:0:0:0:
268,159,240861,1,2,0:0:0:0:
240,108,240945,38,0,P|202:88|159:101,1,71.6875005469322,2|0,0:0|0:0,0:0:0:0:
355,293,241111,2,0,P|393:313|436:300,1,71.6875005469322,2|0,0:0|0:0,0:0:0:0:
381,42,241278,2,0,P|367:92|353:146,1,97.1249970359803,10|0,0:0|0:0,0:0:0:0:
493,241,241611,5,2,0:0:0:0:
493,241,241694,1,0,0:0:0:0:
493,241,241778,2,0,L|485:184,1,48.5624985179902
275,308,241945,6,2,P|288:350|340:364,3,92.5,6|0|0|0,0:0|0:0|0:0|0:0,0:0:0:0:
207,252,242611,2,2,P|216:198|207:139,1,111,0|0,0:0|0:0,0:0:0:0:
67,75,243278,6,2,P|78:32|125:14,3,92.5,0|0|0|0,0:0|0:0|0:0|0:0,0:0:0:0:
201,58,243945,2,2,P|259:70|315:83,1,111,0|0,0:0|0:0,0:0:0:0:
486,81,244611,38,2,P|479:36|426:21,3,92.5,6|2|2|2,0:0|0:0|0:0|0:0,0:0:0:0:
412,134,245278,2,2,P|372:115|366:72,1,92.5,0|0,0:0|0:0,0:0:0:0:
494,183,245611,5,2,0:0:0:0:
503,205,245778,1,2,0:0:0:0:
449,269,245945,6,2,P|458:305|463:328,3,46.25,0|0|0|0,0:0|0:0|0:0|0:0,0:0:0:0:
370,252,246611,2,2,P|378:298|391:364,1,111,0|0,0:0|0:0,0:0:0:0:
157,202,247278,6,2,P|167:162|217:148,3,92.5,6|2|2|2,0:0|0:0|0:0|0:0,0:0:0:0:
164,289,247945,2,2,P|111:274|53:259,1,111,0|0,0:0|0:0,0:0:0:0:
290,373,248611,38,2,P|248:356|240:326,3,64.7499980239869,0|0|0|0,0:0|0:0|0:0|0:0,0:0:0:0:
299,277,249278,2,2,P|311:219|324:165,1,111,0|0,0:0|0:0,0:0:0:0:
490,81,249945,6,0,P|472:127|420:132,1,92.5,4|0,0:0|0:0,0:0:0:0:
405,117,250195,1,2,0:0:0:0:
405,117,250278,2,0,P|394:55|390:12,1,92.5,2|0,0:0|0:0,0:0:0:0:
295,0,250611,2,0,P|252:13|238:55,1,92.5,2|2,0:0|0:0,0:0:0:0:
245,83,250861,1,2,0:0:0:0:
245,83,250945,5,2,0:0:0:0:
323,168,251111,1,2,0:0:0:0:
124,80,251278,5,10,0:0:0:0:
338,318,251445,1,10,0:0:0:0:
295,20,251611,1,10,0:0:0:0:
128,283,251778,1,10,0:0:0:0:
448,150,251945,37,10,0:0:0:0:
103,66,252111,1,10,0:0:0:0:
356,353,252278,2,0,L|341:253,1,64.7499980239869,10|0,0:0|1:0,0:0:0:0:
307,0,252445,1,10,0:0:0:0:
104,302,252611,5,6,0:0:0:0:
246,124,252778,1,2,0:0:0:0:
55,163,252945,1,10,0:0:0:0:
259,264,253111,1,2,0:0:0:0:
54,384,253278,6,2,P|10:335|25:283,1,115.625,0|0,0:0|0:0,0:0:0:0:
111,85,253611,2,2,P|155:134|140:186,1,115.625,10|2,0:0|0:0,0:0:0:0:
317,380,253945,5,2,0:0:0:0:
159,262,254111,1,2,0:0:0:0:
332,166,254278,1,10,0:0:0:0:
332,166,254361,1,2,0:0:0:0:
332,166,254445,1,2,0:0:0:0:
202,362,254611,38,2,B|148:368|148:368|146:371|146:371|65:378,1,115.625,0|0,0:0|0:0,0:0:0:0:
361,244,254945,2,2,B|415:250|415:250|417:253|417:253|498:260,1,115.625,10|2,0:0|0:0,0:0:0:0:
63,109,255278,5,2,0:0:0:0:
128,267,255445,1,2,0:0:0:0:
197,56,255611,1,10,0:0:0:0:
262,214,255778,1,2,0:0:0:0:
65,341,255945,6,2,B|15:296|15:296|36:232,1,115.625,0|0,0:0|0:0,0:0:0:0:
326,153,256278,2,2,B|376:198|376:198|355:262,1,115.625,10|2,0:0|0:0,0:0:0:0:
115,171,256611,5,2,0:0:0:0:
331,56,256778,1,2,0:0:0:0:
230,293,256944,1,10,0:0:0:0:
230,293,257028,1,2,0:0:0:0:
230,293,257111,1,2,0:0:0:0:
206,10,257278,2,2,B|224:62|224:62|224:68|224:68|242:119,1,115.625,0|0,0:0|0:0,0:0:0:0:
427,262,257611,1,10,0:0:0:0:
262,214,257778,1,2,0:0:0:0:
512,118,257944,37,6,0:0:0:0:
435,380,258111,1,2,0:0:0:0:
346,80,258278,1,10,0:0:0:0:
261,345,258445,1,2,0:0:0:0:
512,281,258611,6,2,B|452:260|452:260|443:259|443:259|390:240,1,115.625,0|0,0:0|0:0,0:0:0:0:
145,124,258944,2,2,B|205:145|205:145|214:146|214:146|267:165,1,115.625,10|2,0:0|0:0,0:0:0:0:
42,217,259278,5,2,0:0:0:0:
42,217,259361,1,2,0:0:0:0:
42,217,259444,1,2,0:0:0:0:
230,21,259611,1,10,0:0:0:0:
217,295,259778,1,2,0:0:0:0:
38,97,259944,6,2,P|17:37|58:-5,1,115.625,0|0,0:0|0:0,0:0:0:0:
292,251,260278,2,2,P|313:311|272:353,1,115.625,10|2,0:0|0:0,0:0:0:0:
104,254,260611,37,6,0:0:0:0:
353,108,260778,1,2,0:0:0:0:
116,18,260944,1,10,0:0:0:0:
200,285,261111,1,2,0:0:0:0:
310,39,261278,6,2,B|369:22|369:22|374:24|374:24|446:7,1,115.625,0|0,0:0|0:0,0:0:0:0:
265,221,261611,1,10,0:0:0:0:
198,9,261778,1,2,0:0:0:0:
120,320,261944,5,6,0:0:0:0:
415,172,262111,1,2,0:0:0:0:
111,100,262278,1,10,0:0:0:0:
111,100,262361,1,2,0:0:0:0:
111,100,262445,1,2,0:0:0:0:
380,318,262611,6,2,B|392:355|437:364|480:352|499:287|477:230|413:215|367:245|348:298|351:300|354:305|329:358|261:372|210:318,1,395.43748944068,6|0,0:0|1:0,0:0:0:0:
39,296,263611,38,2,L|32:339,3,43.9374988267422,2|2|0|0,0:0|0:0|0:0|0:0,0:0:0:0:
31,204,263945,5,6,0:0:0:0:
87,198,264028,1,2,0:0:0:0:
135,227,264111,1,2,0:0:0:0:
151,282,264195,1,2,0:0:0:0:
192,321,264278,1,10,0:0:0:0:
247,315,264361,1,2,0:0:0:0:
280,264,264445,1,2,0:0:0:0:
271,207,264528,1,2,0:0:0:0:
219,181,264611,6,0,P|186:158|189:120,1,71.6875005469322,2|0,0:0|0:0,0:0:0:0:
339,2,264778,2,0,P|325:37|297:52,1,71.6875005469322,2|0,0:0|0:0,0:0:0:0:
147,5,264945,1,10,0:0:0:0:
362,143,265111,1,2,0:0:0:0:
106,259,265278,5,2,0:0:0:0:
57,229,265361,1,2,0:0:0:0:
50,171,265445,1,2,0:0:0:0:
93,134,265528,1,2,0:0:0:0:
150,136,265611,1,10,0:0:0:0:
185,181,265695,1,2,0:0:0:0:
241,185,265778,1,2,0:0:0:0:
277,140,265861,1,2,0:0:0:0:
256,85,265945,38,0,P|227:58|183:66,1,71.6875005469322,2|0,0:0|0:0,0:0:0:0:
324,268,266111,2,0,P|353:295|397:287,1,71.6875005469322,2|0,0:0|0:0,0:0:0:0:
343,52,266278,1,10,0:0:0:0:
214,325,266445,1,2,0:0:0:0:
496,194,266611,5,2,0:0:0:0:
512,138,266695,1,2,0:0:0:0:
474,94,266778,1,2,0:0:0:0:
417,88,266861,1,2,0:0:0:0:
378,131,266945,1,10,0:0:0:0:
381,188,267028,1,2,0:0:0:0:
419,230,267111,1,2,0:0:0:0:
450,278,267195,1,2,0:0:0:0:
431,332,267278,6,0,P|408:355|354:353,1,71.6875005469322,2|0,0:0|0:0,0:0:0:0:
239,176,267445,2,0,P|274:179|299:203,1,71.6875005469322,2|0,0:0|0:0,0:0:0:0:
104,354,267611,1,10,0:0:0:0:
225,99,267778,1,2,0:0:0:0:
273,318,267945,5,2,0:0:0:0:
227,345,268028,1,2,0:0:0:0:
178,327,268111,1,2,0:0:0:0:
156,277,268195,1,2,0:0:0:0:
176,228,268278,1,10,0:0:0:0:
148,183,268361,1,2,0:0:0:0:
96,174,268445,1,2,0:0:0:0:
58,211,268528,1,2,0:0:0:0:
69,247,268611,38,0,L|89:152,1,71.6875005469322,2|0,0:0|0:0,0:0:0:0:
210,28,268778,2,0,L|230:123,1,71.6875005469322,2|0,0:0|0:0,0:0:0:0:
326,284,268945,1,10,0:0:0:0:
472,121,269111,1,0,3:0:0:0:
476,104,269195,1,0,3:0:0:0:
480,85,269278,5,6,0:0:0:0:
421,43,269361,1,2,0:0:0:0:
353,67,269445,1,2,0:0:0:0:
334,133,269528,1,2,0:0:0:0:
362,199,269611,1,10,0:0:0:0:
432,216,269695,1,2,0:0:0:0:
471,275,269778,1,2,0:0:0:0:
435,337,269861,1,2,0:0:0:0:
362,338,269945,6,0,P|329:310|327:275,1,71.6875005469322,2|0,0:0|0:0,0:0:0:0:
228,128,270111,2,0,P|219:162|191:182,1,71.6875005469322,2|0,0:0|0:0,0:0:0:0:
117,341,270278,1,10,0:0:0:0:
27,98,270445,1,0,3:0:0:0:
31,84,270528,1,0,3:0:0:0:
34,68,270611,5,6,0:0:0:0:
91,24,270695,1,2,0:0:0:0:
161,33,270778,1,2,0:0:0:0:
208,86,270861,1,2,0:0:0:0:
205,158,270945,1,10,0:0:0:0:
253,210,271028,1,2,0:0:0:0:
323,219,271111,1,2,0:0:0:0:
377,170,271195,1,2,0:0:0:0:
379,98,271278,38,0,P|365:62|325:46,1,71.6875005469322,2|0,0:0|0:0,0:0:0:0:
121,177,271445,2,0,P|101:210|114:258,1,71.6875005469322,2|0,0:0|0:0,0:0:0:0:
230,377,271611,1,10,0:0:0:0:
292,123,271778,1,2,0:0:0:0:
495,248,271945,5,6,0:0:0:0:
473,301,272028,1,2,0:0:0:0:
416,308,272111,1,2,0:0:0:0:
365,280,272195,1,2,0:0:0:0:
356,223,272278,1,10,0:0:0:0:
377,170,272361,1,2,0:0:0:0:
432,155,272445,1,2,0:0:0:0:
463,107,272528,1,2,0:0:0:0:
444,52,272611,6,0,P|416:24|379:25,1,71.6875005469322,2|0,0:0|0:0,0:0:0:0:
227,197,272778,2,0,P|261:193|285:167,1,71.6875005469322,2|0,0:0|0:0,0:0:0:0:
66,74,272945,1,10,0:0:0:0:
219,288,273111,1,2,0:0:0:0:
148,49,273278,5,2,0:0:0:0:
176,97,273361,1,2,0:0:0:0:
149,148,273445,1,2,0:0:0:0:
92,158,273528,1,2,0:0:0:0:
36,169,273611,1,10,0:0:0:0:
9,219,273695,1,2,0:0:0:0:
24,273,273778,1,2,0:0:0:0:
76,296,273861,1,2,0:0:0:0:
128,272,273945,38,0,P|144:234|130:194,1,71.6875005469322,2|0,0:0|0:0,0:0:0:0:
22,31,274111,2,0,P|6:69|20:109,1,71.6875005469322,2|0,0:0|0:0,0:0:0:0:
263,152,274278,2,0,B|309:127|348:170|326:189|360:238|440:208,1,175.749995306969,10|0,0:0|1:0,0:0:0:0:
76,296,274944,6,0,B|41:313|37:367|37:367|-32:341|-31:235|93:198|93:198|78:185|46:191|46:191|127:175|205:124|162:35|162:35|55:35|65:121,1,738.14999098938,6|0,0:0|1:0,0:0:0:0:
236,307,277610,6,0,B|213:266|162:272|162:272|231:227|288:307|251:290|298:375|383:319,1,333,6|0,0:0|1:0,0:0:0:0:
454,255,279277,5,2,3:2:0:0:
466,241,279360,1,2,3:2:0:0:
466,223,279444,2,2,P|449:209|406:209,3,48.5624985179902,2|2|2|2,3:2|3:2|3:2|3:2,3:2:0:0:
403,133,279777,2,0,P|382:140|360:177,1,48.5624985179902,2|2,3:2|3:2,0:0:0:0:
292,145,279944,2,2,P|288:166|309:203,3,48.5624985179902,2|2|2|2,3:2|3:2|3:2|3:2,3:2:0:0:
86,63,280277,38,0,B|106:0|190:26|190:26|196:129|104:134|104:134|128:141|128:141|28:152|44:242,1,453.249986167908,6|0,0:0|1:0,0:0:0:0:
140,377,282944,6,0,B|112:323|150:264|219:235|291:297|291:297|238:311|227:348,1,323.749990119934,6|0,0:0|1:0,0:0:0:0:
431,235,284944,5,0,3:0:0:0:
443,220,285027,1,0,3:0:0:0:
446,196,285110,1,0,3:0:0:0:
433,169,285194,1,0,3:0:0:0:
406,147,285277,1,0,3:0:0:0:
384,114,285360,1,0,3:0:0:0:
385,69,285444,1,0,3:0:0:0:
413,30,285527,1,0,3:0:0:0:
466,29,285610,5,6,0:0:0:0:
446,84,285694,1,0,0:0:0:0:
389,97,285777,1,0,0:0:0:0:
334,79,285860,1,0,0:0:0:0:
301,30,285944,1,10,0:0:0:0:
243,23,286027,1,0,0:0:0:0:
195,56,286110,1,0,0:0:0:0:
199,114,286194,1,0,0:0:0:0:
245,147,286277,37,2,0:0:0:0:
251,124,286360,1,0,0:0:0:0:
239,103,286444,1,0,0:0:0:0:
225,84,286527,1,0,0:0:0:0:
202,78,286610,1,8,0:0:0:0:
178,77,286694,1,0,0:0:0:0:
155,81,286777,2,0,P|124:95|107:128,1,57.8125,2|0,0:0|0:0,0:0:0:0:
37,315,286944,5,2,0:0:0:0:
80,361,287027,1,0,0:0:0:0:
142,348,287110,1,0,0:0:0:0:
173,292,287194,1,0,0:0:0:0:
171,228,287277,1,8,0:0:0:0:
122,187,287360,1,0,0:0:0:0:
58,194,287444,1,0,0:0:0:0:
14,147,287527,1,0,0:0:0:0:
31,85,287610,1,0,0:0:0:0:
83,60,287694,1,0,0:0:0:0:
133,72,287777,1,0,0:0:0:0:
157,111,287860,1,0,0:0:0:0:
195,124,287944,1,8,0:0:0:0:
229,118,288027,1,0,0:0:0:0:
251,99,288110,1,0,0:0:0:0:
258,76,288194,1,0,0:0:0:0:
251,53,288277,6,0,P|228:29|196:24,3,57.8125,4|0|0|0,0:0|0:0|0:0|0:0,0:0:0:0:
377,177,288610,2,0,P|404:168|423:147,3,57.8125,8|0|0|0,0:0|0:0|0:0|0:0,0:0:0:0:
289,351,288944,5,2,0:0:0:0:
266,344,289027,1,0,0:0:0:0:
249,327,289110,1,0,0:0:0:0:
242,304,289194,1,0,0:0:0:0:
243,281,289277,1,8,0:0:0:0:
257,263,289360,1,0,0:0:0:0:
278,253,289444,2,0,P|321:262|347:269,1,57.8125,2|0,0:0|0:0,0:0:0:0:
228,31,289610,37,2,0:0:0:0:
166,12,289694,1,0,0:0:0:0:
111,43,289777,1,0,0:0:0:0:
105,106,289860,1,0,0:0:0:0:
150,150,289944,1,8,0:0:0:0:
213,148,290027,1,0,0:0:0:0:
262,108,290110,1,0,0:0:0:0:
326,106,290194,1,0,0:0:0:0:
370,151,290277,5,2,0:0:0:0:
368,208,290360,1,0,0:0:0:0:
328,242,290444,1,0,0:0:0:0:
282,237,290527,1,0,0:0:0:0:
251,211,290610,1,8,0:0:0:0:
247,176,290694,1,0,0:0:0:0:
260,150,290777,1,0,0:0:0:0:
279,138,290860,1,0,0:0:0:0:
296,137,290944,5,4,0:0:0:0:
348,160,291027,1,0,0:0:0:0:
398,131,291110,1,0,0:0:0:0:
407,73,291194,1,0,0:0:0:0:
367,30,291277,1,8,0:0:0:0:
309,22,291360,1,0,0:0:0:0:
263,57,291444,1,0,0:0:0:0:
205,60,291527,1,0,0:0:0:0:
157,28,291610,5,2,0:0:0:0:
180,25,291694,1,0,0:0:0:0:
199,37,291777,1,0,0:0:0:0:
215,52,291860,1,0,0:0:0:0:
223,73,291944,1,8,0:0:0:0:
221,96,292027,1,0,0:0:0:0:
210,116,292110,2,0,P|176:137|142:132,1,57.8125,2|0,0:0|0:0,0:0:0:0:
1,260,292277,37,2,0:0:0:0:
57,230,292360,1,0,0:0:0:0:
115,255,292444,1,0,0:0:0:0:
147,309,292527,1,0,0:0:0:0:
167,368,292610,1,8,0:0:0:0:
229,382,292694,1,0,0:0:0:0:
286,354,292777,1,0,0:0:0:0:
294,291,292860,1,0,0:0:0:0:
253,241,292944,1,0,0:0:0:0:
253,183,293027,1,0,0:0:0:0:
290,147,293110,1,0,0:0:0:0:
336,151,293194,1,0,0:0:0:0:
367,176,293277,1,8,0:0:0:0:
373,209,293360,1,0,0:0:0:0:
358,234,293444,1,0,0:0:0:0:
338,245,293527,1,0,0:0:0:0:
320,244,293610,6,0,P|291:229|255:222,3,57.8125,4|0|0|0,0:0|0:0|0:0|0:0,0:0:0:0:
166,73,293944,2,0,P|191:59|219:52,3,57.8125,8|0|0|0,0:0|0:0|0:0|0:0,0:0:0:0:
27,213,294277,5,2,0:0:0:0:
23,235,294360,1,0,0:0:0:0:
36,254,294444,1,0,0:0:0:0:
56,265,294527,1,0,0:0:0:0:
78,266,294610,1,8,0:0:0:0:
100,258,294694,1,0,0:0:0:0:
116,242,294777,2,0,P|134:213|129:182,1,57.8125,2|0,0:0|0:0,0:0:0:0:
312,368,294944,5,2,0:0:0:0:
260,331,295027,1,0,0:0:0:0:
263,267,295110,1,0,0:0:0:0:
313,227,295194,1,0,0:0:0:0:
374,244,295277,1,8,0:0:0:0:
437,240,295360,1,0,0:0:0:0:
480,193,295444,1,0,0:0:0:0:
484,129,295527,1,0,0:0:0:0:
441,81,295610,37,2,0:0:0:0:
365,70,295694,1,0,0:0:0:0:
321,126,295777,1,0,0:0:0:0:
336,203,295860,1,0,0:0:0:0:
410,218,295944,1,8,0:0:0:0:
465,276,296027,1,0,0:0:0:0:
440,352,296110,1,0,0:0:0:0:
366,384,296194,1,0,0:0:0:0:
297,337,296277,6,0,B|271:303|219:300|192:334|202:348|186:377|140:381|104:341,1,208.125007939339,6|0,0:0|0:0,0:0:0:0:
189,43,296944,6,0,B|222:55|254:68|254:68|235:139|210:225,1,208.125007939339,6|0,0:0|0:0,0:0:0:0:
0,335,297610,6,0,P|22:243|127:238,1,208.125007939339,6|0,0:0|0:0,0:0:0:0:
361,280,298277,38,0,B|394:288|395:338|395:338|347:376|278:344|269:286,1,208.125007939339,6|0,0:0|0:0,0:0:0:0:
45,105,298944,6,0,B|22:112|-11:120|-11:120|82:135|82:135|84:138|84:138|150:146,1,208.125007939339,6|0,0:0|0:0,0:0:0:0:
409,102,299610,6,0,B|343:129|313:69|332:52|313:-6|230:20,1,208.125007939339,6|0,0:0|0:0,0:0:0:0:
403,310,300277,6,0,P|474:301|451:184,1,208.125007939339,6|0,0:0|0:0,0:0:0:0:
236,309,300944,38,0,B|230:267|273:227|345:244|345:244|311:265|317:318,1,208.125007939339,6|0,0:0|0:0,0:0:0:0:
95,290,301610,5,2,0:0:0:0:
69,272,301694,1,0,0:0:0:0:
60,242,301777,1,2,0:0:0:0:
68,212,301860,1,0,0:0:0:0:
91,191,301944,1,10,0:0:0:0:
120,182,302027,1,0,0:0:0:0:
137,157,302110,1,2,0:0:0:0:
133,126,302194,1,0,0:0:0:0:
113,102,302277,5,2,0:0:0:0:
113,102,302360,1,0,0:0:0:0:
113,102,302444,2,0,L|56:87,1,43.9374988267422
187,23,302610,1,10,0:0:0:0:
187,23,302693,1,0,0:0:0:0:
187,23,302777,2,0,L|244:8,1,43.9374988267422
341,229,302944,5,2,0:0:0:0:
315,246,303027,1,0,0:0:0:0:
284,240,303110,1,0,0:0:0:0:
262,217,303194,1,0,0:0:0:0:
250,188,303277,1,8,0:0:0:0:
258,158,303360,1,0,0:0:0:0:
280,136,303444,1,2,0:0:0:0:
308,124,303527,1,0,0:0:0:0:
338,126,303610,1,2,0:0:0:0:
365,139,303693,1,0,0:0:0:0:
387,159,303777,1,0,0:0:0:0:
416,166,303860,1,0,0:0:0:0:
445,158,303943,1,8,0:0:0:0:
467,136,304027,1,0,0:0:0:0:
472,105,304110,1,0,0:0:0:0:
457,77,304193,1,2,0:0:0:0:
426,73,304277,37,2,0:0:0:0:
426,73,304360,1,2,0:0:0:0:
426,73,304443,2,0,L|441:13,1,43.9374988267422
502,226,304610,1,10,0:0:0:0:
502,226,304693,1,0,0:0:0:0:
502,226,304776,2,0,L|517:286,1,43.9374988267422,2|0,0:0|0:0,0:0:0:0:
323,202,304943,6,0,L|314:248,3,43.9374988267422,2|0|0|0,0:0|0:0|0:0|0:0,0:0:0:0:
432,369,305277,2,0,L|423:323,3,43.9374988267422,8|0|0|0,0:0|0:0|0:0|0:0,0:0:0:0:
230,280,305610,6,0,B|188:251|146:292|146:292|138:344|85:344,1,173.4375,6|0,3:2|0:0,0:0:0:0:
0,335,305943,2,0,B|11:353|8:386|8:386|51:376|80:326|49:274,1,173.4375,14|0,0:0|0:0,0:0:0:0:
28,147,306277,2,0,B|-16:174|-16:174|122:200,1,173.4375,6|0,3:2|0:0,0:0:0:0:
250,225,306610,5,0,0:0:0:0:
297,193,306693,1,0,0:0:0:0:
294,136,306777,1,0,0:0:0:0:
252,99,306860,1,0,0:0:0:0:
195,103,306943,37,2,0:0:0:0:
219,122,307027,1,0,0:0:0:0:
248,115,307110,1,2,0:0:0:0:
269,93,307193,1,0,0:0:0:0:
281,64,307277,1,10,0:0:0:0:
304,44,307360,1,0,0:0:0:0:
334,40,307443,1,2,0:0:0:0:
363,48,307527,1,0,0:0:0:0:
384,70,307610,5,2,0:0:0:0:
384,70,307693,1,0,0:0:0:0:
384,70,307777,2,0,L|372:121,1,43.9374988267422
495,205,307943,1,10,0:0:0:0:
495,205,308026,1,0,0:0:0:0:
495,205,308110,2,0,L|483:154,1,43.9374988267422
306,186,308277,5,2,0:0:0:0:
277,230,308360,1,0,0:0:0:0:
296,278,308443,1,0,0:0:0:0:
345,298,308527,1,0,0:0:0:0:
394,280,308610,1,8,0:0:0:0:
444,294,308693,1,0,0:0:0:0:
471,339,308777,2,0,P|468:361|448:388,1,43.9374988267422,2|0,0:0|0:0,0:0:0:0:
374,129,308943,5,2,0:0:0:0:
401,179,309027,1,0,0:0:0:0:
376,230,309110,1,0,0:0:0:0:
320,244,309193,1,0,0:0:0:0:
268,218,309277,1,8,0:0:0:0:
212,229,309360,1,0,0:0:0:0:
175,272,309443,1,0,0:0:0:0:
186,328,309527,1,0,0:0:0:0:
232,360,309610,37,2,0:0:0:0:
232,360,309693,1,0,0:0:0:0:
232,360,309777,2,0,L|298:349,1,43.9374988267422,2|0,0:0|0:0,0:0:0:0:
118,205,309943,1,10,0:0:0:0:
118,205,310026,1,0,0:0:0:0:
118,205,310110,2,0,L|52:194,1,43.9374988267422,2|0,0:0|0:0,0:0:0:0:
273,69,310277,6,0,L|326:57,3,43.9374988267422,2|0|0|0,0:0|0:0|0:0|0:0,0:0:0:0:
233,152,310610,2,0,L|190:142,3,43.9374988267422,10|0|0|0,0:0|0:0|0:0|0:0,0:0:0:0:
411,352,310943,6,0,P|397:284|298:270,1,173.4375,6|0,3:2|1:0,0:0:0:0:
230,237,311277,2,0,P|295:258|357:180,1,173.4375,10|0,0:0|1:0,0:0:0:0:
421,138,311610,2,0,P|369:184|406:276,1,173.4375,2|0,3:2|1:0,0:0:0:0:
344,62,311943,5,8,0:0:0:0:
292,19,312027,1,8,0:0:0:0:
230,42,312110,1,8,0:0:0:0:
215,105,312193,1,8,0:0:0:0:
259,154,312277,38,0,B|155:124|155:124|151:127|151:127|55:99,1,210.437490366936,6|0,0:0|1:0,0:0:0:0:
0,0,312943,2,0,B|40:42|40:42|2:199,1,210.437490366936,6|0,0:0|1:0,0:0:0:0:
1,271,313610,6,0,B|60:267|78:216|78:216|200:262|200:262|162:258|133:283,1,300.62498623848,6|0,0:0|1:0,0:0:0:0:
190,342,314610,2,0,L|195:378,3,30.062498623848,0|0|0|0,3:0|3:0|3:0|3:0,3:0:0:0:
276,303,314943,5,4,0:0:0:0:
329,308,315027,1,0,0:0:0:0:
362,266,315110,2,0,P|377:222|354:191,1,76.3125007277727
127,44,315277,5,10,0:0:0:0:
96,87,315361,1,0,0:0:0:0:
116,136,315444,2,0,P|146:170|184:166,1,76.3125007277727,2|0,0:0|0:0,0:0:0:0:
359,15,315610,37,10,0:0:0:0:
407,37,315693,1,0,0:0:0:0:
419,89,315777,1,0,0:0:0:0:
387,131,315860,1,0,0:0:0:0:
338,153,315943,1,10,0:0:0:0:
288,132,316027,1,0,0:0:0:0:
240,155,316110,1,0,0:0:0:0:
226,206,316193,1,0,0:0:0:0:
254,251,316277,5,10,0:0:0:0:
309,210,316360,1,0,0:0:0:0:
310,141,316443,1,0,0:0:0:0:
256,97,316527,1,0,0:0:0:0:
187,101,316610,1,10,0:0:0:0:
146,155,316693,1,0,0:0:0:0:
159,222,316777,1,2,0:0:0:0:
124,281,316860,1,0,0:0:0:0:
55,280,316943,1,10,0:0:0:0:
11,225,317027,1,0,0:0:0:0:
33,160,317110,1,0,0:0:0:0:
100,148,317193,1,0,0:0:0:0:
152,192,317277,1,10,0:0:0:0:
220,193,317360,1,0,0:0:0:0:
272,148,317443,1,0,0:0:0:0:
277,78,317527,1,0,0:0:0:0:
217,45,317610,5,10,0:0:0:0:
179,119,317693,1,0,0:0:0:0:
201,200,317777,1,0,0:0:0:0:
269,247,317860,1,0,0:0:0:0:
352,242,317943,1,8,0:0:0:0:
420,192,318027,1,0,0:0:0:0:
438,110,318110,1,0,0:0:0:0:
405,32,318193,1,0,0:0:0:0:
324,6,318277,5,10,0:0:0:0:
315,58,318360,1,0,0:0:0:0:
353,94,318443,2,0,P|386:115|439:108,1,76.3125007277727
307,381,318610,37,10,0:0:0:0:
356,362,318693,1,0,0:0:0:0:
368,312,318776,2,0,P|369:272|337:230,1,76.3125007277727
102,61,318943,5,10,0:0:0:0:
44,111,319027,1,0,0:0:0:0:
60,185,319110,1,0,0:0:0:0:
125,223,319193,1,0,0:0:0:0:
200,210,319277,1,8,0:0:0:0:
227,138,319360,1,0,0:0:0:0:
285,89,319443,1,0,0:0:0:0:
361,99,319527,1,0,0:0:0:0:
398,165,319610,1,10,0:0:0:0:
381,215,319693,1,0,0:0:0:0:
337,246,319777,1,0,0:0:0:0:
284,240,319860,1,0,0:0:0:0:
244,204,319943,2,0,P|232:166|254:130,3,76.3125007277727,8|0|0|0,0:0|0:0|0:0|0:0,0:0:0:0:
150,332,320277,5,10,0:0:0:0:
110,367,320360,1,0,0:0:0:0:
57,355,320443,2,0,P|31:317|44:281,1,76.3125007277727
318,165,320610,5,10,0:0:0:0:
362,194,320693,1,0,0:0:0:0:
364,248,320776,2,0,P|334:282|295:279,1,76.3125007277727,2|0,0:0|0:0,0:0:0:0:
0,113,320943,37,10,0:0:0:0:
49,86,321027,1,0,0:0:0:0:
96,109,321110,1,0,0:0:0:0:
115,158,321193,1,0,0:0:0:0:
154,194,321277,1,10,0:0:0:0:
207,196,321360,1,0,0:0:0:0:
250,165,321443,1,0,0:0:0:0:
257,111,321527,1,0,0:0:0:0:
226,67,321610,5,10,0:0:0:0:
174,111,321693,1,0,0:0:0:0:
173,180,321777,1,0,0:0:0:0:
222,226,321860,1,0,0:0:0:0:
289,234,321943,2,0,P|326:223|348:189,1,76.3125007277727,10|0,0:0|0:0,0:0:0:0:
412,26,322110,2,0,P|375:37|353:71,1,76.3125007277727,2|0,0:0|0:0,0:0:0:0:
508,371,322277,5,10,3:2:0:0:
512,294,322360,1,0,3:0:0:0:
444,257,322443,1,0,3:0:0:0:
375,291,322527,1,0,3:0:0:0:
355,347,322610,1,2,3:2:0:0:
306,363,322693,1,0,3:0:0:0:
266,346,322777,1,0,3:0:0:0:
253,314,322860,1,0,3:0:0:0:
263,299,322943,6,0,B|288:275|289:215|237:198|230:205|222:214|171:203|156:142|200:107,1,249.749992378235,6|0,0:0|0:0,0:0:0:0:
464,245,324277,38,0,P|455:286|395:297,1,90.1874958715441,4|0,0:0|1:0,0:0:0:0:
344,335,324610,2,0,P|338:354|334:371,3,30.062498623848,0|0|0|0,3:0|3:0|3:0|3:0,3:0:0:0:
212,255,324943,5,0,3:0:0:0:
168,269,325027,1,0,3:0:0:0:
124,256,325110,1,0,3:0:0:0:
100,217,325193,1,0,3:0:0:0:
104,171,325277,1,0,3:0:0:0:
136,139,325360,1,0,3:0:0:0:
180,129,325443,1,0,3:0:0:0:
222,146,325527,1,0,3:0:0:0:
251,181,325610,5,6,0:0:0:0:
197,177,325693,1,0,0:0:0:0:
161,136,325777,2,0,P|146:89|172:54,1,76.3125007277727
448,136,325943,5,10,0:0:0:0:
472,185,326026,1,0,0:0:0:0:
454,237,326110,2,0,P|420:273|377:268,1,76.3125007277727
136,378,326277,37,10,0:0:0:0:
96,341,326360,1,0,0:0:0:0:
104,288,326443,1,0,0:0:0:0:
146,255,326527,1,0,0:0:0:0:
199,253,326610,1,10,0:0:0:0:
234,292,326693,1,0,0:0:0:0:
287,292,326777,1,0,0:0:0:0:
327,257,326860,1,0,0:0:0:0:
337,204,326943,5,10,0:0:0:0:
295,256,327026,1,0,0:0:0:0:
298,323,327109,1,0,0:0:0:0:
345,371,327192,1,0,0:0:0:0:
412,375,327276,1,8,0:0:0:0:
465,334,327359,1,0,0:0:0:0:
478,268,327442,1,2,0:0:0:0:
448,205,327527,1,0,0:0:0:0:
385,176,327610,1,10,0:0:0:0:
317,185,327693,1,0,0:0:0:0:
267,233,327777,1,0,0:0:0:0:
198,237,327860,1,0,0:0:0:0:
143,196,327943,1,10,0:0:0:0:
125,128,328027,1,0,0:0:0:0:
165,72,328110,1,0,0:0:0:0:
232,63,328193,1,0,0:0:0:0:
287,104,328277,5,10,0:0:0:0:
353,53,328360,1,0,0:0:0:0:
434,72,328443,1,0,0:0:0:0:
476,144,328527,1,0,0:0:0:0:
453,224,328610,1,8,0:0:0:0:
380,265,328693,1,0,0:0:0:0:
299,239,328777,1,0,0:0:0:0:
242,177,328860,1,0,0:0:0:0:
157,183,328943,5,10,0:0:0:0:
111,211,329027,1,0,0:0:0:0:
108,264,329110,2,0,P|128:299|179:308,1,76.3125007277727
388,44,329277,37,10,0:0:0:0:
434,72,329361,1,0,0:0:0:0:
437,125,329443,2,0,P|417:160|366:169,1,76.3125007277727
301,380,329610,5,10,0:0:0:0:
240,334,329693,1,0,0:0:0:0:
242,257,329777,1,0,0:0:0:0:
294,202,329860,1,0,0:0:0:0:
312,128,329943,1,8,0:0:0:0:
266,65,330027,1,0,0:0:0:0:
190,54,330110,1,0,0:0:0:0:
138,109,330193,1,0,0:0:0:0:
157,183,330277,1,10,0:0:0:0:
204,206,330360,1,0,0:0:0:0:
254,189,330443,1,0,0:0:0:0:
279,141,330527,1,0,0:0:0:0:
251,89,330610,2,0,P|220:71|179:72,3,76.3125007277727,8|0|0|0,0:0|0:0|0:0|0:0,0:0:0:0:
338,207,330943,5,6,0:0:0:0:
387,229,331027,1,0,0:0:0:0:
428,195,331110,2,0,P|441:152|426:121,1,76.3125007277727
128,200,331277,5,10,0:0:0:0:
84,231,331361,1,0,0:0:0:0:
93,284,331444,2,0,P|123:316|158:319,1,76.3125007277727
320,65,331610,37,10,0:0:0:0:
270,46,331693,1,0,0:0:0:0:
220,66,331777,1,0,0:0:0:0:
194,112,331860,1,0,0:0:0:0:
146,135,331943,1,8,0:0:0:0:
92,127,332027,1,0,0:0:0:0:
58,85,332110,1,0,0:0:0:0:
70,33,332193,1,0,0:0:0:0:
118,10,332277,5,10,0:0:0:0:
162,61,332360,1,0,0:0:0:0:
201,116,332443,1,0,0:0:0:0:
237,174,332527,1,0,0:0:0:0:
286,220,332610,2,0,P|331:215|349:167,1,76.3125007277727,10|0,0:0|0:0,0:0:0:0:
460,30,332777,2,0,P|415:35|397:83,1,76.3125007277727,2|0,0:0|0:0,0:0:0:0:
486,365,332943,5,10,3:2:0:0:
468,295,333027,1,0,3:0:0:0:
405,269,333110,1,0,3:0:0:0:
343,298,333193,1,0,3:0:0:0:
309,360,333277,5,0,3:0:0:0:
231,378,333360,1,0,0:0:0:0:
176,320,333443,1,0,0:0:0:0:
208,249,333527,1,0,0:0:0:0:
286,220,333610,38,0,B|265:247|205:256|182:206|188:198|196:189|179:140|117:132|87:180,1,249.749992378235,6|0,0:0|0:0,0:0:0:0:
410,384,334943,6,0,B|395:364|342:333|342:333|383:257|412:173,1,249.749992378235,6|0,0:0|0:0,0:0:0:0:
39,199,336277,6,0,P|94:205|109:249,1,90.1874958715441,6|0,0:0|1:0,0:0:0:0:
127,250,336610,2,0,P|109:284|108:316,1,60.1249972476961,2|0,0:0|0:0,0:0:0:0:
159,145,336943,2,0,P|152:88|139:15,1,120.249994495392,2|2,0:0|0:0,0:0:0:0:
257,211,337610,6,0,P|281:246|334:248,1,90.1874958715441,2|0,0:0|0:0,0:0:0:0:
345,264,337943,2,0,P|374:246|411:254,1,60.1249972476961,2|0,0:0|0:0,0:0:0:0:
494,346,338277,2,0,P|504:294|517:227,1,120.249994495392,2|2,0:0|0:0,0:0:0:0:
499,24,338943,38,0,P|453:23|428:82,1,104.06250396967,6|0,0:0|0:0,0:0:0:0:
432,83,339277,2,0,P|405:109|360:100,1,69.3750026464463,2|0,0:0|0:0,0:0:0:0:
300,8,339610,2,0,B|260:-14|228:17|241:31|218:66|170:51,1,138.750005292893,2|2,0:0|0:0,0:0:0:0:
0,1,340277,6,0,P|16:53|29:122,1,104.06250396967,2|0,0:0|0:0,0:0:0:0:
50,109,340610,2,0,P|41:148|34:188,1,69.3750026464463,2|0,0:0|0:0,0:0:0:0:
32,317,340943,2,0,P|54:266|136:268,1,138.750005292893,2|2,0:0|0:0,0:0:0:0:
409,341,341610,5,6,0:0:0:0:
256,192,341693,12,0,344110,0:0:0:0:
256,192,344277,5,6,0:0:0:0:
256,192,344360,12,0,346110,0:0:0:0:
69,120,346277,37,0,3:0:0:0:
111,92,346360,1,0,3:0:0:0:
160,100,346443,1,0,3:0:0:0:
190,140,346527,1,0,3:0:0:0:
201,189,346610,1,0,3:0:0:0:
218,217,346693,1,0,3:0:0:0:
245,226,346777,1,0,3:0:0:0:
269,222,346860,1,0,3:0:0:0:
316,167,346943,6,0,L|21:251,1,286.750002187729,4|0,0:0|1:0,0:0:0:0:
