osu file format v14

[General]
AudioFilename: audio1.mp3
AudioLeadIn: 0
PreviewTime: 182838
Countdown: 0
SampleSet: Drum
StackLeniency: 0.3
Mode: 0
LetterboxInBreaks: 0
WidescreenStoryboard: 0

[Editor]
Bookmarks: 54734,75340,85339,96673,107339,128673,150339,171672,183672,204338,226338,237005,255006,288339,309672
DistanceSpacing: 0.7
BeatDivisor: 8
GridSize: 32
TimelineZoom: 4.899999

[Metadata]
Title:Epicus Furor / Emerald Sword
TitleUnicode:Epicus Furor / Emerald Sword
Artist:Rhapsody
ArtistUnicode:Rhapsody
Creator:byAlexNick
Version:Paladin
Source:
Tags:Rhapsody of Fire Symphony of Enchanted Lands Neoclassical Power Metal english marathon itswinter silence player
BeatmapID:1727798
BeatmapSetID:824494

[Difficulty]
HPDrainRate:5
CircleSize:4.2
OverallDifficulty:9.2
ApproachRate:9.5
SliderMultiplier:1.8
SliderTickRate:1

[Events]
//Background and Video events
0,0,"1306200-diablo-iii-reaper-of-souls.jpg",0,0
//Break Periods
//Storyboard Layer 0 (Background)
//Storyboard Layer 1 (Fail)
//Storyboard Layer 2 (Pass)
//Storyboard Layer 3 (Foreground)
//Storyboard Layer 4 (Overlay)
//Storyboard Sound Samples

[TimingPoints]
78,666.666666666667,4,3,1,80,1,0
10744,-125,4,3,1,80,0,0
10786,-125,4,3,1,40,0,0
11411,-125,4,2,1,5,0,0
11453,-125,4,2,1,40,0,0
12078,-125,4,2,1,80,0,0
12119,-125,4,2,1,40,0,0
12744,-125,4,2,1,80,0,0
12786,-125,4,2,1,40,0,0
13244,-125,4,2,1,5,0,0
13411,-125,4,3,1,80,0,0
13453,-125,4,2,1,40,0,0
14078,-125,4,2,1,5,0,0
14119,-125,4,2,1,40,0,0
14744,-125,4,2,1,80,0,0
14786,-125,4,2,1,40,0,0
15411,-125,4,2,1,80,0,0
15453,-125,4,2,1,40,0,0
15911,-125,4,2,1,5,0,0
16078,-125,4,3,1,80,0,0
16119,-125,4,2,1,40,0,0
16744,-125,4,2,1,5,0,0
16786,-125,4,2,1,40,0,0
17411,-125,4,2,1,80,0,0
17453,-125,4,2,1,40,0,0
18078,-125,4,2,1,5,0,0
18119,-125,4,2,1,40,0,0
18578,-125,4,2,1,5,0,0
18744,-149.253731343284,4,3,1,80,0,0
19411,-149.253731343284,4,2,1,48,0,0
20078,-149.253731343284,4,3,1,80,0,0
20744,-149.253731343284,4,2,1,64,0,0
20911,-149.253731343284,4,2,1,5,0,0
21078,-149.253731343284,4,2,1,64,0,0
21244,-149.253731343284,4,2,1,5,0,0
21411,-125,4,3,1,80,0,0
21453,-125,4,2,1,40,0,0
22078,-125,4,2,1,5,0,0
22119,-125,4,2,1,40,0,0
22744,-125,4,2,1,80,0,0
22786,-125,4,2,1,40,0,0
23411,-125,4,2,1,80,0,0
23453,-125,4,2,1,40,0,0
23911,-125,4,2,1,5,0,0
24078,-125,4,3,1,80,0,0
24119,-125,4,2,1,40,0,0
24744,-125,4,2,1,5,0,0
24786,-125,4,2,1,40,0,0
25411,-125,4,2,1,80,0,0
25453,-125,4,2,1,40,0,0
26078,-125,4,2,1,80,0,0
26119,-125,4,2,1,40,0,0
26578,-125,4,2,1,5,0,0
26744,-125,4,3,1,80,0,0
26786,-125,4,2,1,40,0,0
27411,-125,4,2,1,5,0,0
27453,-125,4,2,1,40,0,0
28078,-125,4,2,1,80,0,0
28119,-125,4,2,1,40,0,0
28744,-125,4,2,1,5,0,0
28786,-125,4,2,1,40,0,0
29244,-125,4,2,1,5,0,0
29411,-149.253731343284,4,3,1,80,0,0
30078,-149.253731343284,4,2,1,48,0,0
30744,-149.253731343284,4,3,1,80,0,0
31411,-149.253731343284,4,2,1,40,0,0
31494,-149.253731343284,4,2,1,45,0,0
31578,-149.253731343284,4,2,1,50,0,0
31661,-149.253731343284,4,2,1,55,0,0
31744,-149.253731343284,4,2,1,60,0,0
31828,-149.253731343284,4,2,1,65,0,0
31911,-149.253731343284,4,2,1,70,0,0
31994,-149.253731343284,4,2,1,75,0,0
32078,-133.333333333333,4,2,1,80,0,0
32744,-133.333333333333,4,2,1,90,0,0
33411,-133.333333333333,4,2,1,80,0,0
34078,-133.333333333333,4,2,1,80,0,0
34744,-133.333333333333,4,2,1,80,0,0
35078,-133.333333333333,4,2,1,75,0,0
35411,-133.333333333333,4,2,1,70,0,0
35744,-133.333333333333,4,2,1,65,0,0
36078,-133.333333333333,4,2,1,75,0,0
36411,-133.333333333333,4,2,1,70,0,0
36744,-133.333333333333,4,2,1,65,0,0
37078,-133.333333333333,4,2,1,60,0,0
37411,-133.333333333333,4,2,1,60,0,0
38078,-133.333333333333,4,2,1,60,0,0
38744,-133.333333333333,4,2,1,60,0,0
39411,-133.333333333333,4,2,1,60,0,0
40078,-133.333333333333,4,2,1,60,0,0
40161,-133.333333333333,4,2,1,5,0,0
41411,-133.333333333333,4,2,1,40,0,0
42078,-133.333333333333,4,2,1,52,0,0
42411,-133.333333333333,4,2,1,5,0,0
42734,461.538461538462,4,3,1,80,1,0
42734,-149.253731343284,4,3,1,80,0,0
43080,-149.253731343284,4,3,1,5,0,0
43195,-100,4,3,1,80,0,0
43426,-100,4,3,1,5,0,0
43657,-149.253731343284,4,3,1,80,0,0
44003,-149.253731343284,4,3,1,5,0,0
44118,-100,4,3,1,80,0,0
44349,-100,4,3,1,5,0,0
44580,-149.253731343284,4,3,1,80,0,0
44926,-149.253731343284,4,3,1,5,0,0
45041,-100,4,3,1,80,0,0
45272,-100,4,3,1,5,0,0
45503,-149.253731343284,4,3,1,80,0,0
45849,-149.253731343284,4,3,1,5,0,0
45964,-100,4,3,1,80,0,0
46195,-100,4,3,1,5,0,0
46426,-149.253731343284,4,3,1,80,0,0
46772,-149.253731343284,4,3,1,5,0,0
46887,-100,4,3,1,80,0,0
47118,-100,4,3,1,5,0,0
47349,-149.253731343284,4,3,1,80,0,0
47695,-100,4,3,1,5,0,0
47810,-100,4,3,1,80,0,0
48041,-100,4,3,1,5,0,0
48272,-200,4,3,1,80,0,0
48330,-200,4,2,1,80,0,0
48734,-200,4,2,1,60,0,0
49195,-200,4,2,1,40,0,0
49657,-200,4,2,1,20,0,0
50003,-200,4,2,1,5,0,0
50118,-149.253731343284,4,3,1,80,0,0
50464,-149.253731343284,4,3,1,5,0,0
50580,-100,4,3,1,80,0,0
50810,-100,4,3,1,5,0,0
51041,-149.253731343284,4,3,1,80,0,0
51387,-149.253731343284,4,3,1,5,0,0
51503,-100,4,3,1,80,0,0
51734,-100,4,3,1,5,0,0
51964,-149.253731343284,4,3,1,85,0,0
52310,-149.253731343284,4,3,1,5,0,0
52426,-100,4,3,1,80,0,0
52657,-100,4,3,1,5,0,0
52887,-149.253731343284,4,3,1,80,0,0
53234,-149.253731343284,4,3,1,5,0,0
53349,-100,4,3,1,90,0,0
53580,-100,4,3,1,5,0,0
53810,-149.253731343284,4,3,1,80,0,0
54157,-149.253731343284,4,3,1,5,0,0
54272,-100,4,3,1,80,0,0
54503,-100,4,3,1,5,0,0
54734,-149.253731343284,4,3,1,80,0,0
55080,-149.253731343284,4,3,1,5,0,0
55195,-100,4,3,1,80,0,0
55426,-100,4,3,1,5,0,0
55657,-200,4,3,1,80,0,0
55714,-200,4,2,1,80,0,0
56118,-200,4,2,1,60,0,0
56580,-200,4,2,1,40,0,0
57041,-200,4,2,1,20,0,0
57387,-166.666666666667,4,2,1,5,0,0
57503,-100,4,3,1,80,0,0
57734,-100,4,3,1,5,0,0
57964,-100,4,3,1,80,0,0
58195,-100,4,3,1,5,0,0
58426,-100,4,3,1,80,0,0
58657,-100,4,3,1,5,0,0
58887,-100,4,3,1,70,0,0
59349,-100,4,3,1,90,0,0
59810,-250,4,3,1,80,0,0
60157,-250,4,3,1,5,0,0
60272,-100,4,3,1,80,0,0
62118,-166.666666666667,4,3,1,70,0,0
62464,-166.666666666667,4,3,1,5,0,0
62580,-125,4,3,1,55,0,0
62926,-125,4,3,1,5,0,0
63041,500,4,3,1,40,1,0
63041,-142.857142857143,4,3,1,40,0,0
63072,-142.857142857143,4,3,1,20,0,0
63541,-142.857142857143,4,2,1,5,0,0
63572,-142.857142857143,4,2,1,20,0,0
64041,521.739130434783,4,3,1,80,1,8
64562,-100,4,3,1,80,0,8
65084,545.454545454546,4,3,1,80,1,0
65084,-166.666666666667,4,3,1,80,0,0
65118,-166.666666666667,4,2,1,5,0,0
66038,-166.666666666667,4,3,1,5,0,0
66174,600,4,3,1,80,1,8
66174,-166.666666666667,4,3,1,80,0,8
66211,-166.666666666667,4,3,1,5,0,8
67224,-166.666666666667,4,3,1,5,0,8
67374,666.666666666667,4,3,1,80,1,0
67374,-200,4,3,1,80,0,0
67415,-200,4,3,1,5,0,0
71207,-200,4,3,1,5,0,0
71374,-200,4,3,1,80,0,0
71415,-200,4,3,1,5,0,0
75207,-200,4,3,1,5,0,0
75340,333.333333333333,4,2,1,80,1,0
75340,-100,4,2,1,80,0,0
75673,-142.857142857143,4,2,1,50,0,0
77673,-200,4,2,1,50,0,0
77756,-133.333333333333,4,2,1,5,0,0
78006,-100,4,2,1,80,0,0
78340,-142.857142857143,4,2,1,50,0,0
78423,-142.857142857143,4,2,1,5,0,0
78506,-142.857142857143,4,2,1,50,0,0
78590,-142.857142857143,4,2,1,5,0,0
78673,-142.857142857143,4,2,1,50,0,0
78756,-142.857142857143,4,2,1,5,0,0
78840,-142.857142857143,4,2,1,50,0,0
80340,-66.6666666666667,4,3,1,80,0,0
81006,-142.857142857143,4,2,1,50,0,0
83006,-200,4,2,1,50,0,0
83089,-133.333333333333,4,2,1,5,0,0
83339,-125,4,2,1,80,0,0
83673,-142.857142857143,4,2,1,50,0,0
83756,-142.857142857143,4,2,1,5,0,0
83839,-142.857142857143,4,2,1,50,0,0
83923,-142.857142857143,4,2,1,5,0,0
84006,-142.857142857143,4,2,1,50,0,0
84089,-142.857142857143,4,2,1,5,0,0
84173,-142.857142857143,4,2,1,50,0,0
85339,-133.333333333333,4,3,1,85,0,0
86006,-100,4,3,1,65,0,0
94006,-100,4,3,1,65,0,0
96339,-166.666666666667,4,3,1,65,0,0
96673,-100,4,3,1,65,0,0
97423,-100,4,2,1,5,0,0
97506,-100,4,3,1,65,0,0
97589,-100,4,2,1,5,0,0
97673,-100,4,3,1,65,0,0
98423,-100,4,2,1,30,0,0
98506,-100,4,2,1,65,0,0
98589,-100,4,2,1,30,0,0
98673,-100,4,3,1,65,0,0
98923,-100,4,3,1,5,0,0
99006,-100,4,3,1,65,0,0
99256,-100,4,2,1,5,0,0
99339,-100,4,3,1,65,0,0
101089,-100,4,2,1,5,0,0
101173,-100,4,3,1,65,0,0
101256,-100,4,2,1,5,0,0
101339,-100,4,3,1,65,0,0
101589,-100,4,3,1,5,0,0
101673,-100,4,3,1,65,0,0
101923,-100,4,3,1,5,0,0
102006,-100,4,3,1,65,0,0
103173,-200,4,3,1,72,0,0
103256,-200,4,3,1,5,0,0
103339,-100,4,3,1,65,0,0
103756,-100,4,2,1,5,0,0
103839,-100,4,2,1,65,0,0
103923,-100,4,2,1,5,0,0
104006,-100,4,3,1,65,0,0
104256,-100,4,3,1,5,0,0
104339,-100,4,3,1,65,0,0
104589,-100,4,3,1,5,0,0
104673,-100,4,3,1,65,0,0
105089,-100,4,2,1,5,0,0
105173,-100,4,3,1,65,0,0
105256,-100,4,2,1,5,0,0
105339,-200,4,3,1,72,0,0
105423,-200,4,3,1,5,0,0
105506,-200,4,3,1,72,0,0
105589,-200,4,3,1,5,0,0
105673,-200,4,3,1,72,0,0
105756,-200,4,3,1,5,0,0
105839,-200,4,3,1,72,0,0
105923,-200,4,3,1,5,0,0
106006,-100,4,3,1,65,0,0
106423,-100,4,2,1,5,0,0
106506,-100,4,3,1,65,0,0
106589,-100,4,2,1,5,0,0
106673,-80,4,3,1,65,0,0
106923,-80,4,2,1,5,0,0
107006,-66.6666666666667,4,3,1,65,0,0
107339,-100,4,3,1,65,0,0
111339,-83.3333333333333,4,3,1,65,0,0
112673,-100,4,3,1,65,0,0
117339,-50,4,3,1,65,0,0
117506,-66.6666666666667,4,3,1,30,0,0
117589,-66.6666666666667,4,3,1,65,0,0
117839,-80,4,3,1,65,0,0
118006,-100,4,3,1,65,0,0
122006,-83.3333333333333,4,3,1,65,0,0
123339,-100,4,3,1,65,0,0
124673,-83.3333333333333,4,3,1,65,0,0
127339,-100,4,3,1,65,0,0
128673,-83.3333333333333,4,3,1,65,0,0
130006,-133.333333333333,4,3,1,80,0,0
130089,-133.333333333333,4,3,1,5,0,0
130589,-133.333333333333,4,3,1,5,0,0
130673,-166.666666666667,4,3,1,80,0,0
130923,-166.666666666667,4,3,1,5,0,0
131006,-166.666666666667,4,3,1,80,0,0
131256,-166.666666666667,4,3,1,5,0,0
131339,-166.666666666667,4,3,1,80,0,0
131562,-100,4,3,8,80,0,0
132006,-100,4,3,9,80,0,0
132339,-100,4,3,10,80,0,0
132673,-125,4,3,1,80,0,0
132694,-125,4,3,1,5,0,0
133089,-125,4,3,1,5,0,0
133173,-125,4,3,1,80,0,0
133673,-200,4,3,1,80,0,0
133923,-200,4,3,1,5,0,0
134006,-83.3333333333333,4,3,1,80,0,0
135339,-133.333333333333,4,3,1,80,0,0
135381,-133.333333333333,4,3,1,5,0,0
136006,-133.333333333333,4,3,1,80,0,0
136339,-200,4,3,1,80,0,0
136589,-200,4,3,1,5,0,0
136673,-100,4,3,8,80,0,0
137339,-100,4,3,9,80,0,0
137673,-100,4,3,10,80,0,0
138006,-133.333333333333,4,3,1,80,0,0
138117,-133.333333333333,4,3,1,5,0,0
138228,-133.333333333333,4,3,1,80,0,0
138339,-133.333333333333,4,3,1,5,0,0
138451,-100,4,3,8,80,0,0
138673,-100,4,3,9,80,0,0
139006,-100,4,3,10,80,0,0
139339,-111.111111111111,4,3,1,80,0,0
139361,-111.111111111111,4,3,1,5,0,0
140006,-111.111111111111,4,3,1,5,0,0
140173,-111.111111111111,4,3,1,80,0,0
140339,-111.111111111111,4,3,8,80,0,0
140506,-111.111111111111,4,3,10,80,0,0
140673,-111.111111111111,4,3,1,80,0,0
140694,-111.111111111111,4,3,1,5,0,0
141339,-111.111111111111,4,3,1,80,0,0
141673,-100,4,3,8,80,0,0
141756,-100,4,3,8,5,0,0
141839,-100,4,3,10,80,0,0
141923,-100,4,3,10,5,0,0
142006,-111.111111111111,4,3,1,80,0,0
142173,-111.111111111111,4,3,1,5,0,0
142339,-111.111111111111,4,3,1,80,0,0
142506,-111.111111111111,4,3,1,5,0,0
142673,-100,4,3,1,80,0,0
142839,-100,4,3,8,80,0,0
142881,-100,4,3,8,5,0,0
143006,-100,4,3,9,80,0,0
143048,-100,4,3,9,5,0,0
143173,-100,4,3,10,80,0,0
143214,-100,4,3,10,5,0,0
143339,-100,4,3,1,80,0,0
143381,-100,4,2,1,5,0,0
144006,-100,4,3,1,80,0,0
144089,-100,4,3,10,80,0,0
144173,-100,4,3,1,80,0,0
144339,-250,4,3,1,80,0,0
144589,-250,4,3,1,5,0,0
144673,-100,4,3,1,80,0,0
145117,-100,4,3,1,80,0,0
145506,-100,4,3,8,80,0,0
145589,-100,4,3,8,5,0,0
145673,-100,4,3,8,80,0,0
145756,-100,4,3,8,5,0,0
145839,-100,4,3,10,80,0,0
146006,-100,4,3,1,60,0,0
146173,-100,4,3,1,30,0,0
146339,-100,4,3,10,35,0,0
146506,-100,4,3,10,40,0,0
146673,-100,4,3,10,45,0,0
146839,-100,4,3,10,50,0,0
147006,-100,4,3,10,60,0,0
147339,-83.3333333333333,4,3,1,60,0,0
147673,-100,4,3,1,60,0,0
147756,-100,4,3,1,5,0,0
147839,-100,4,3,1,60,0,0
147923,-100,4,3,1,5,0,0
148006,-100,4,3,1,60,0,0
148173,-100,4,3,8,60,0,0
148214,-100,4,3,8,5,0,0
148339,-100,4,3,9,60,0,0
148381,-100,4,3,9,5,0,0
148506,-100,4,3,10,60,0,0
148548,-100,4,3,10,5,0,0
148673,-100,4,3,1,80,0,0
148839,-100,4,3,9,80,0,0
149339,-100,4,3,1,80,0,0
149423,-100,4,3,10,80,0,0
149506,-100,4,3,1,80,0,0
149673,-200,4,3,1,80,0,0
150006,-250,4,3,1,5,0,0
150339,333.333333333333,4,3,1,100,1,0
150339,-100,4,3,1,65,0,0
154339,-80,4,3,1,65,0,0
155672,-100,4,3,1,65,0,0
160339,-50,4,3,1,65,0,0
160505,-66.6666666666667,4,3,1,30,0,0
160589,-66.6666666666667,4,3,1,65,0,0
160839,-80,4,3,1,65,0,0
161005,-100,4,3,1,65,0,0
165005,-83.3333333333333,4,3,1,65,0,0
166338,-100,4,3,1,65,0,0
167672,-83.3333333333333,4,3,1,65,0,0
170005,-100,4,3,1,65,0,0
171672,-83.3333333333333,4,3,1,65,0,0
173005,-133.333333333333,4,3,1,65,0,0
173026,-133.333333333333,4,3,1,5,0,0
173588,-133.333333333333,4,3,1,5,0,0
173672,-166.666666666667,4,3,1,80,0,0
173922,-166.666666666667,4,3,1,5,0,0
174005,-166.666666666667,4,3,1,80,0,0
174255,-166.666666666667,4,3,1,5,0,0
174338,-100,4,3,1,80,0,0
174561,-100,4,3,8,80,0,0
175005,-100,4,3,9,80,0,0
175338,-100,4,3,10,80,0,0
175672,-133.333333333333,4,3,1,80,0,0
175693,-133.333333333333,4,3,1,5,0,0
176088,-133.333333333333,4,3,1,5,0,0
176172,-133.333333333333,4,3,1,80,0,0
176672,-200,4,3,1,80,0,0
176922,-200,4,3,1,5,0,0
177005,-83.3333333333333,4,3,1,80,0,0
178338,-133.333333333333,4,3,1,80,0,0
178359,-133.333333333333,4,3,1,5,0,0
179005,-133.333333333333,4,3,1,80,0,0
179338,-200,4,3,1,80,0,0
179588,-200,4,3,1,5,0,0
179672,-83.3333333333333,4,3,1,80,0,0
179894,-83.3333333333333,4,3,8,80,0,0
180338,-83.3333333333333,4,3,9,80,0,0
180561,-83.3333333333333,4,3,10,80,0,0
181005,-133.333333333333,4,3,1,80,0,0
181026,-133.333333333333,4,3,1,5,0,0
181422,-133.333333333333,4,3,1,5,0,0
181505,-133.333333333333,4,3,8,80,0,0
181672,-133.333333333333,4,3,10,80,0,0
181693,-133.333333333333,4,2,1,5,0,0
182338,-133.333333333333,4,3,10,80,0,0
183005,-200,4,2,1,80,0,0
183255,-200,4,2,1,5,0,0
183338,-133.333333333333,4,2,1,80,0,0
183588,-133.333333333333,4,2,1,5,0,0
183672,-100,4,3,1,60,0,1
193672,-50,4,3,1,60,0,1
193922,-50,4,3,1,30,0,1
194005,-50,4,3,1,60,0,1
194255,-50,4,3,1,30,0,1
194338,-100,4,3,1,60,0,1
204005,-133.333333333333,4,3,1,60,0,1
204338,-133.333333333333,4,3,1,60,0,0
204672,-133.333333333333,4,3,8,60,0,0
205005,-200,4,2,1,60,0,0
205255,-200,4,2,1,30,0,0
205338,-125,4,2,1,60,0,0
205422,-125,4,2,1,5,0,0
205505,-125,4,2,1,60,0,0
205588,-125,4,2,1,5,0,0
205672,-125,4,2,1,60,0,0
205755,-125,4,2,1,5,0,0
205838,-125,4,2,1,60,0,0
205922,-125,4,2,1,5,0,0
206005,-125,4,2,1,60,0,0
206255,-125,4,2,1,30,0,0
206338,-100,4,2,1,60,0,0
206588,-100,4,2,1,30,0,0
206672,-125,4,2,1,60,0,0
206755,-125,4,2,1,5,0,0
206838,-125,4,2,1,60,0,0
206922,-125,4,2,1,5,0,0
207005,-125,4,2,1,60,0,0
207088,-125,4,2,1,5,0,0
207172,-125,4,2,1,60,0,0
207255,-125,4,2,1,5,0,0
207338,-125,4,2,1,60,0,0
207588,-125,4,2,1,30,0,0
207672,-200,4,2,1,60,0,0
208005,-125,4,2,1,30,0,0
208088,-125,4,2,1,5,0,0
208172,-125,4,2,1,45,0,0
208255,-125,4,2,1,5,0,0
208338,-200,4,2,1,60,0,0
208588,-200,4,2,1,30,0,0
208672,-125,4,2,1,60,0,0
208922,-125,4,2,1,30,0,0
209005,-100,4,2,1,60,0,0
209255,-100,4,2,1,30,0,0
209338,-125,4,2,1,60,0,0
209588,-125,4,2,1,30,0,0
209672,-125,4,2,1,60,0,0
209755,-125,4,2,1,5,0,0
209838,-111.111111111111,4,2,1,60,0,0
209922,-111.111111111111,4,2,1,5,0,0
210005,-100,4,2,1,60,0,0
210338,-100,4,2,1,60,0,0
210672,-125,4,2,1,60,0,0
210755,-125,4,2,1,5,0,0
210838,-125,4,2,1,60,0,0
210922,-125,4,2,1,5,0,0
211005,-125,4,2,1,60,0,0
211088,-125,4,2,1,5,0,0
211172,-125,4,2,1,60,0,0
211255,-125,4,2,1,5,0,0
211338,-125,4,2,1,60,0,0
211588,-100,4,2,1,30,0,0
211672,-100,4,2,1,60,0,0
211922,-100,4,2,1,30,0,0
212005,-100,4,2,1,60,0,0
212088,-100,4,2,1,5,0,0
212172,-100,4,2,1,60,0,0
212255,-100,4,2,1,5,0,0
212338,-100,4,2,1,60,0,0
212422,-100,4,2,1,5,0,0
212505,-100,4,2,1,60,0,0
212588,-100,4,2,1,5,0,0
212672,-100,4,2,1,60,0,0
212922,-100,4,2,1,30,0,0
213005,-100,4,2,1,60,0,0
213338,-125,4,2,1,30,0,0
213422,-125,4,2,1,5,0,0
213505,-125,4,2,1,45,0,0
213588,-125,4,2,1,5,0,0
213672,-200,4,2,1,60,0,0
213922,-200,4,2,1,30,0,0
214005,-125,4,2,1,60,0,0
214255,-125,4,2,1,30,0,0
214338,-100,4,2,1,60,0,0
214588,-100,4,2,1,30,0,0
214672,-83.3333333333333,4,2,1,60,0,0
214922,-83.3333333333333,4,2,1,30,0,0
215005,-100,4,2,1,60,0,0
215088,-100,4,2,1,5,0,0
215172,-100,4,2,1,60,0,0
215255,-100,4,2,1,5,0,0
215338,-100,4,2,1,60,0,0
215422,-100,4,2,1,5,0,0
215505,-100,4,2,1,60,0,0
215588,-100,4,2,1,5,0,0
215672,-100,4,3,1,50,0,0
218005,-200,4,3,1,50,0,0
218255,-200,4,3,1,50,0,0
218338,-100,4,3,1,50,0,0
219672,-83.3333333333333,4,3,1,50,0,0
220005,-90.9090909090909,4,3,1,50,0,0
220338,-100,4,3,1,50,0,0
221005,-100,4,3,1,50,0,0
223338,-200,4,3,1,50,0,0
223588,-200,4,3,1,50,0,0
223672,-100,4,3,1,50,0,0
225005,-83.3333333333333,4,3,1,50,0,0
225338,-76.9230769230769,4,3,1,50,0,0
225672,-90.9090909090909,4,3,1,50,0,0
226338,-100,4,3,1,60,0,0
230172,-100,4,2,1,30,0,0
230338,-83.3333333333333,4,3,1,60,0,0
230422,-83.3333333333333,4,3,1,5,0,0
230505,-83.3333333333333,4,3,1,60,0,0
230588,-83.3333333333333,4,3,1,5,0,0
230672,-83.3333333333333,4,3,1,60,0,0
230755,-83.3333333333333,4,3,1,5,0,0
230838,-83.3333333333333,4,3,1,60,0,0
230922,-83.3333333333333,4,3,1,5,0,0
231005,-83.3333333333333,4,3,1,60,0,0
231672,-100,4,3,1,60,0,0
232922,-100,4,3,1,30,0,0
233005,-83.3333333333333,4,3,1,60,0,0
233088,-83.3333333333333,4,3,1,5,0,0
233172,-83.3333333333333,4,3,1,60,0,0
233255,-83.3333333333333,4,3,1,5,0,0
233338,-83.3333333333333,4,3,1,60,0,0
233422,-83.3333333333333,4,3,1,5,0,0
233505,-83.3333333333333,4,3,1,60,0,0
233588,-83.3333333333333,4,3,1,5,0,0
233672,-100,4,3,1,60,0,0
233922,-100,4,3,1,5,0,0
234005,-100,4,3,1,60,0,0
234088,-100,4,3,1,5,0,0
234172,-100,4,3,1,60,0,0
234255,-100,4,3,1,5,0,0
234338,-100,4,3,1,60,0,0
235672,-71.4285714285714,4,3,1,60,0,0
236338,-100,4,3,1,60,0,0
236838,-125,4,3,1,60,0,0
236922,-125,4,3,1,30,0,0
237005,-90.9090909090909,4,3,1,60,0,0
239005,-71.4285714285714,4,3,1,60,0,0
239672,-100,4,3,1,60,0,0
241005,-90.9090909090909,4,3,1,60,0,0
243672,-90.9090909090909,4,3,1,60,0,0
244005,-76.9230769230769,4,3,1,60,0,0
244338,-66.6666666666667,4,3,1,60,0,0
244672,-83.3333333333333,4,3,1,60,0,0
245005,-80,4,3,1,60,0,0
246338,-133.333333333334,4,3,1,60,0,0
247005,-111.111111111111,4,3,1,60,0,0
247672,-75.7575757575758,4,3,1,60,0,0
250588,-75.7575757575758,4,3,1,5,0,0
250672,-75.7575757575758,4,3,1,80,0,0
250755,-75.7575757575758,4,3,1,5,0,0
250838,-75.7575757575758,4,3,1,80,0,0
250922,-75.7575757575758,4,3,1,5,0,0
251005,-75.7575757575758,4,3,1,80,0,0
251255,-75.7575757575758,4,3,1,5,0,0
251338,-75.7575757575758,4,3,1,80,0,0
251422,-75.7575757575758,4,3,1,5,0,0
251505,-75.7575757575758,4,3,1,80,0,0
251588,-75.7575757575758,4,3,1,5,0,0
251672,-75.7575757575758,4,3,1,80,0,0
251922,-75.7575757575758,4,3,1,5,0,0
252005,-75.7575757575758,4,3,1,80,0,0
252088,-75.7575757575758,4,3,1,5,0,0
252172,-75.7575757575758,4,3,1,80,0,0
252255,-75.7575757575758,4,3,1,5,0,0
252338,-111.111111111111,4,3,1,80,0,0
252359,-111.111111111111,4,3,1,5,0,0
252922,-111.111111111111,4,3,1,5,0,0
253005,666.666666666667,4,3,1,80,1,0
253005,-125,4,3,1,80,0,0
253046,-125,4,2,1,5,0,0
253671,-125,4,2,1,80,0,0
253713,-125,4,2,1,5,0,0
254838,-125,4,2,1,5,0,0
255006,333.333333333333,4,3,1,80,1,0
255006,-100,4,3,1,60,0,0
259006,-83.3333333333333,4,3,1,60,0,0
260339,-100,4,3,1,60,0,0
265006,-66.6666666666667,4,3,1,60,0,0
265256,-66.6666666666667,4,3,1,30,0,0
265339,-66.6666666666667,4,3,1,60,0,0
265589,-66.6666666666667,4,3,1,30,0,0
265672,-100,4,3,1,60,0,0
269672,-83.3333333333333,4,3,1,60,0,0
271006,-100,4,3,1,60,0,0
272339,-83.3333333333333,4,3,1,60,0,0
275006,-100,4,3,1,60,0,0
276339,-83.3333333333333,4,3,1,60,0,0
277672,-133.333333333333,4,3,1,60,0,0
277693,-133.333333333333,4,3,1,5,0,0
278256,-133.333333333333,4,3,1,5,0,0
278339,-166.666666666667,4,3,1,60,0,0
278589,-166.666666666667,4,3,1,5,0,0
278672,-166.666666666667,4,3,1,60,0,0
278922,-166.666666666667,4,3,1,5,0,0
279006,-125,4,3,1,60,0,0
279026,-125,4,3,1,5,0,0
279589,-125,4,3,1,5,0,0
279672,-133.333333333333,4,3,1,60,0,0
279922,-133.333333333333,4,3,1,5,0,0
280006,-133.333333333333,4,3,1,60,0,0
280256,-133.333333333333,4,3,1,5,0,0
280339,-125,4,3,1,60,0,0
280360,-125,4,3,1,5,0,0
280756,-125,4,3,1,5,0,0
280839,-125,4,3,1,60,0,0
281339,-200,4,3,1,60,0,0
281589,-200,4,3,1,5,0,0
281672,-83.3333333333333,4,3,1,60,0,0
283006,-133.333333333333,4,3,1,60,0,0
283026,-133.333333333333,4,3,1,5,0,0
284005,-200,4,3,1,60,0,0
284255,-200,4,3,1,5,0,0
284339,-125,4,3,1,60,0,0
284360,-125,4,3,1,5,0,0
284922,-125,4,3,1,5,0,0
285005,-133.333333333333,4,3,1,60,0,0
285255,-133.333333333333,4,3,1,5,0,0
285339,-133.333333333333,4,3,1,60,0,0
285589,-133.333333333333,4,3,1,5,0,0
285672,-133.333333333333,4,3,1,60,0,0
285693,-133.333333333333,4,3,1,5,0,0
286089,-133.333333333333,4,3,1,5,0,0
286172,-133.333333333333,4,3,8,60,0,0
286339,-166.666666666667,4,3,10,60,0,0
286360,-166.666666666667,4,3,10,5,0,0
287005,-166.666666666667,4,3,10,60,0,0
287672,-200,4,2,1,80,0,0
287922,-200,4,2,1,5,0,0
288005,-133.333333333333,4,2,1,80,0,0
288255,-133.333333333333,4,2,1,5,0,0
288339,-100,4,3,1,60,0,1
298339,-50,4,3,1,60,0,1
298589,-50,4,3,1,30,0,1
298672,-50,4,3,1,60,0,1
298922,-50,4,3,1,30,0,1
299005,-100,4,3,1,60,0,1
308505,-83.3333333333333,4,3,1,60,0,0
308672,-83.3333333333333,4,3,8,40,0,0
309005,-125,4,3,1,60,0,0
309255,-125,4,3,1,5,0,0
309339,-133.333333333333,4,3,1,70,0,0
309505,-133.333333333333,4,3,1,75,0,0
309589,-133.333333333333,4,3,1,20,0,0
309672,-100,4,3,1,60,0,1
319672,-50,4,3,1,60,0,1
319922,-50,4,3,1,30,0,1
320005,-50,4,3,1,60,0,1
320255,-50,4,3,1,30,0,1
320339,-100,4,3,1,60,0,1
325339,-83.3333333333333,4,3,1,60,0,1
325422,-83.3333333333333,4,3,1,20,0,1
325505,-83.3333333333333,4,3,1,50,0,1
325672,-133.333333333333,4,3,1,50,0,0
326255,-133.333333333333,4,3,1,5,0,0
326339,-153.846153846153,4,3,1,50,0,0
326589,-133.333333333333,4,3,1,5,0,0
326672,-133.333333333333,4,3,1,50,0,0
327005,-185.185185185185,4,3,1,50,0,0
327026,-185.185185185185,4,3,1,5,0,0
327589,-185.185185185185,4,3,1,5,0,0
327672,-200,4,3,1,50,0,0
327693,-200,4,3,1,5,0,0
328339,-185.185185185185,4,3,1,50,0,0
328360,-185.185185185185,4,3,1,5,0,0
329339,-185.185185185185,4,3,1,15,0,0
329422,-185.185185185185,4,3,1,20,0,0
329505,-185.185185185185,4,3,1,25,0,0
329589,-185.185185185185,4,3,1,30,0,0
329672,-125,4,3,1,60,0,0
330005,-125,4,3,1,20,0,0

[Colours]
Combo1 : 192,192,192
Combo2 : 255,128,0
Combo3 : 239,55,10
Combo4 : 128,128,128

[HitObjects]
82,133,10744,6,0,B|55:107|54:58|75:18|123:0|178:11|204:55|202:99|181:127|181:127|226:74|309:70|309:70|253:109|271:177,1,540,4|0,0:0|0:0,0:0:0:0:
358,148,13411,2,0,B|383:118|434:111|469:151|461:221|415:253|358:256|306:240|306:240|375:274|365:359|365:359|405:301|469:308,1,540,4|0,0:0|0:0,0:0:0:0:
274,329,16078,2,0,B|231:287|118:293|161:360|57:375|6:330|6:330|72:328|116:277|114:203|51:178|5:213|12:259,1,540,4|0,0:0|0:0,0:0:0:0:
218,214,18744,5,4,0:0:0:0:
90,81,19078,1,4,0:0:0:0:
222,221,19411,6,0,L|160:214,1,60.2999971476747,0|0,0:0|0:0,0:0:0:0:
293,116,20078,5,4,0:0:0:0:
353,338,20411,1,4,0:0:0:0:
459,206,20744,6,0,L|403:199,1,30.1499985738374,0|0,0:0|0:0,0:0:0:0:
280,256,21078,2,0,L|309:252,1,30.1499985738374,0|0,0:0|0:0,0:0:0:0:
62,260,21411,6,0,B|24:280|18:326|39:358|77:372|125:357|158:309|160:261|145:221|145:221|206:274|213:220|280:256|280:256|226:224|222:160,1,540,4|0,0:0|0:0,0:0:0:0:
210,87,24078,2,0,B|195:42|213:1|254:-27|309:-23|347:6|361:65|327:107|327:107|383:54|393:100|457:52|457:52|416:104|442:171,1,540,4|0,0:0|0:0,0:0:0:0:
484,279,26744,2,0,B|430:237|330:234|279:276|240:345|240:345|262:293|277:240|267:197|231:178|188:186|166:223|184:266,1,540,4|0,0:0|0:0,0:0:0:0:
312,157,29411,5,4,0:0:0:0:
90,280,29744,1,4,0:0:0:0:
319,154,30078,6,0,L|302:229,1,60.2999971476747,0|0,0:0|0:0,0:0:0:0:
47,103,30744,5,4,0:0:0:0:
327,54,31078,1,4,0:0:0:0:
115,188,31411,5,0,0:0:0:0:
117,192,31494,1,0,0:0:0:0:
119,197,31578,1,0,0:0:0:0:
122,202,31661,1,0,0:0:0:0:
124,207,31744,1,0,0:0:0:0:
126,212,31828,1,0,0:0:0:0:
129,217,31911,1,0,0:0:0:0:
131,222,31994,1,0,0:0:0:0:
133,227,32078,6,0,P|187:187|198:119,1,135.000005149842,2|4,3:0|3:0,0:0:0:0:
52,31,33411,2,0,P|59:96|109:140,1,135.000005149842,2|4,3:0|3:0,0:0:0:0:
269,35,34744,5,4,3:0:0:0:
303,129,35078,1,0,0:0:0:0:
275,225,35411,1,0,0:0:0:0:
195,286,35744,1,0,0:0:0:0:
205,152,36078,5,0,0:0:0:0:
303,129,36411,1,0,0:0:0:0:
388,182,36744,1,0,0:0:0:0:
410,279,37078,1,0,0:0:0:0:
357,364,37411,6,0,P|311:300|319:237,1,135.000005149842,2|4,3:0|3:0,0:0:0:0:
155,364,38744,2,0,P|201:300|193:237,1,135.000005149842,2|4,3:0|3:0,0:0:0:0:
209,56,40078,2,0,P|256:153|299:54,1,270.000010299683,4|0,3:0|0:0,0:0:0:0:
222,228,42078,2,0,P|256:234|289:229,1,67.5000025749208,0|0,0:0|0:0,0:0:0:0:
127,194,42734,6,0,B|123:227|123:227|112:249|112:249|108:281,1,90.4499957215121,4|0,0:0|0:0,0:0:0:0:
114,312,43195,2,0,B|141:329|141:329|200:317,1,90,2|0,0:0|0:0,0:0:0:0:
385,194,43657,6,0,B|388:227|388:227|399:249|399:249|403:281,1,90.4499957215121,4|0,0:0|0:0,0:0:0:0:
398,312,44118,2,0,B|370:329|370:329|311:317,1,90,2|0,0:0|0:0,0:0:0:0:
143,203,44580,6,0,P|120:226|109:286,1,90.4499957215121,4|0,0:0|0:0,0:0:0:0:
114,312,45041,2,0,P|143:325|203:315,1,90,2|0,0:0|0:0,0:0:0:0:
369,203,45503,6,0,P|392:226|403:286,1,90.4499957215121,4|0,0:0|0:0,0:0:0:0:
398,312,45964,2,0,P|368:325|308:315,1,90,2|0,0:0|0:0,0:0:0:0:
160,240,46426,6,0,L|150:149,1,90.4499957215121,4|0,0:0|0:0,0:0:0:0:
135,122,46887,2,0,B|117:142|117:142|123:204,1,90,2|0,0:0|0:0,0:0:0:0:
352,240,47349,6,0,L|361:149,1,90.4499957215121,4|0,0:0|0:0,0:0:0:0:
377,122,47810,2,0,B|394:142|394:142|388:204,1,90,2|0,0:0|0:0,0:0:0:0:
416,275,48272,6,0,B|256:199|256:351|92:277,1,337.5,4|0,0:0|0:0,0:0:0:0:
172,102,50118,6,0,P|131:87|86:90,1,90.4499957215121,4|0,0:0|0:0,0:0:0:0:
31,189,50580,2,0,P|75:193|117:178,1,90,2|0,0:0|0:0,0:0:0:0:
339,102,51041,6,0,P|380:87|425:90,1,90.4499957215121,4|0,0:0|0:0,0:0:0:0:
480,189,51503,2,0,P|436:193|394:178,1,90,2|0,0:0|0:0,0:0:0:0:
151,124,51964,6,0,L|138:213,1,90.4499957215121,4|0,0:0|0:0,0:0:0:0:
102,43,52426,2,0,B|143:29|143:29|189:36,1,90,2|0,0:0|0:0,0:0:0:0:
361,124,52887,6,0,L|373:213,1,90.4499957215121,4|0,0:0|0:0,0:0:0:0:
410,43,53349,2,0,B|368:29|368:29|322:36,1,90,2|0,0:0|0:0,0:0:0:0:
180,180,53810,6,0,B|153:193|153:193|90:184,1,90.4499957215121,4|0,0:0|0:0,0:0:0:0:
50,109,54272,2,0,B|76:95|76:95|136:104,1,90,2|0,0:0|0:0,0:0:0:0:
332,180,54734,6,0,B|358:193|358:193|421:184,1,90.4499957215121,4|0,0:0|0:0,0:0:0:0:
462,109,55195,2,0,B|435:95|435:95|375:104,1,90,2|0,0:0|0:0,0:0:0:0:
142,122,55657,6,0,P|167:251|238:140,1,337.5,4|0,0:0|0:0,0:0:0:0:
90,260,57503,6,0,P|69:299|72:343,1,90,4|0,0:0|0:0,0:0:0:0:
212,370,57964,2,0,P|232:330|229:286,1,90,0|0,0:0|0:0,0:0:0:0:
188,138,58426,2,0,L|169:226,1,90,4|0,0:0|0:0,0:0:0:0:
150,314,58887,5,4,0:0:0:0:
102,165,59118,1,0,0:0:0:0:
255,197,59349,1,4,0:0:0:0:
41,231,59580,1,0,0:0:0:0:
286,283,59810,6,0,L|339:265,1,54,4|0,0:0|0:0,0:0:0:0:
470,211,60272,2,0,B|341:169|341:169|394:152,1,180,4|4,0:0|0:0,0:0:0:0:
337,348,61195,2,0,B|465:306|465:306|412:289,1,180,4|4,0:0|0:0,0:0:0:0:
175,205,62118,6,0,P|160:242|160:282,1,80.9999975280763,4|0,0:0|0:0,0:0:0:0:
148,354,62580,2,0,P|127:304|84:272,1,108,0|0,0:0|0:0,0:0:0:0:
14,235,63041,6,0,B|64:271|158:241|102:208|198:183|250:218,1,251.999992309571,0|4,0:0|0:0,0:0:0:0:
195,358,64562,1,2,0:0:0:0:
93,109,64823,1,2,0:0:0:0:
330,75,65084,6,0,P|325:166|249:217,1,188.999994232178,4|0,0:0|0:0,0:0:0:0:
167,255,66174,6,0,P|250:218|329:263,1,188.999994232178,4|0,0:0|0:0,0:0:0:0:
391,347,67374,6,0,B|411:387|454:397|499:387|529:345|523:282|478:254|430:263|430:263|488:205|491:142|443:159|443:79|500:42,1,517.5,4|0,0:0|0:0,0:0:0:0:
383,179,71374,6,0,B|341:226|251:222|282:152|185:149|133:191|133:191|179:195|204:232|204:285|168:318|119:324|84:296|75:263,1,517.5,4|0,0:0|0:0,0:0:0:0:
162,139,75340,6,0,P|205:129|249:138,1,90,6|2,3:0|0:0,0:0:0:0:
270,278,75673,2,0,L|258:358,2,62.9999980773926,2|2|2,0:0|0:0|0:0,0:0:0:0:
359,110,76173,2,0,P|377:169|359:228,1,125.999996154785,2|2,0:0|0:0,0:0:0:0:
276,169,76673,5,2,0:0:0:0:
452,271,76840,2,0,P|409:316|349:330,1,125.999996154785,2|2,0:0|0:0,0:0:0:0:
235,243,77340,1,2,0:0:0:0:
206,231,77423,1,2,0:0:0:0:
175,229,77506,1,2,0:0:0:0:
145,237,77590,1,2,0:0:0:0:
120,256,77673,2,0,P|107:223|104:181,1,67.5,2|0,0:0|0:0,0:0:0:0:
63,357,78006,6,0,L|152:346,1,90,6|2,3:0|0:0,0:0:0:0:
303,328,78340,2,0,L|308:370,1,31.4999990386963,2|0,0:0|0:0,0:0:0:0:
236,242,78506,2,0,L|206:230,1,31.4999990386963,2|0,0:0|0:0,0:0:0:0:
343,227,78673,2,0,L|367:207,1,31.4999990386963,2|0,0:0|0:0,0:0:0:0:
276,141,78840,2,0,L|256:1,1,125.999996154785,2|2,0:0|0:0,0:0:0:0:
154,114,79340,5,2,0:0:0:0:
385,82,79506,2,0,L|367:206,1,125.999996154785,2|2,0:0|0:0,0:0:0:0:
280,281,80006,2,0,L|275:249,1,31.4999990386963,2|0,0:0|0:0,0:0:0:0:
258,124,80173,2,0,L|262:155,1,31.4999990386963,2|0,0:0|0:0,0:0:0:0:
181,201,80340,6,0,P|148:143|158:77,1,135.000005149842,6|0,3:0|0:0,0:0:0:0:
386,119,80673,2,0,B|348:139|348:139|258:124,1,135.000005149842,6|0,3:0|0:0,0:0:0:0:
78,199,81006,6,0,B|85:266,2,62.9999980773926,2|2|2,0:0|0:0|0:0,0:0:0:0:
180,249,81506,2,0,P|239:267|298:249,1,125.999996154785,2|2,0:0|0:0,0:0:0:0:
239,166,82006,5,2,0:0:0:0:
144,344,82173,2,0,P|84:362|25:344,1,125.999996154785,2|2,0:0|0:0,0:0:0:0:
5,172,82673,1,2,0:0:0:0:
34,183,82756,1,2,0:0:0:0:
59,203,82839,1,2,0:0:0:0:
76,229,82923,1,2,0:0:0:0:
84,260,83006,2,0,P|96:223|121:197,1,67.5,2|0,0:0|0:0,0:0:0:0:
245,328,83339,6,0,B|267:338|267:338|314:332,1,72,6|2,3:0|0:0,0:0:0:0:
379,234,83673,2,0,L|339:190,1,31.4999990386963,2|0,0:0|0:0,0:0:0:0:
417,116,83839,2,0,L|408:147,1,31.4999990386963,2|0,0:0|0:0,0:0:0:0:
295,142,84006,2,0,L|325:136,1,31.4999990386963,2|0,0:0|0:0,0:0:0:0:
471,217,84173,2,0,L|509:97,1,125.999996154785,2|2,0:0|0:0,0:0:0:0:
442,303,84673,5,2,0:0:0:0:
294,140,84839,2,0,L|379:234,1,125.999996154785,2|2,0:0|0:0,0:0:0:0:
417,116,85339,5,8,0:0:0:0:
382,57,85422,1,8,0:0:0:0:
324,25,85505,1,8,0:0:0:0:
258,26,85588,1,8,0:0:0:0:
202,62,85672,5,8,0:0:0:0:
346,244,86006,5,14,0:0:0:0:
324,266,86089,1,0,0:0:0:0:
297,283,86173,1,2,0:0:0:0:
268,294,86256,1,0,0:0:0:0:
236,297,86339,1,10,0:0:0:0:
205,294,86423,1,0,0:0:0:0:
176,284,86506,1,2,0:0:0:0:
149,267,86589,1,0,0:0:0:0:
127,244,86673,5,10,0:0:0:0:
124,259,86756,1,0,0:0:0:0:
121,275,86839,1,2,0:0:0:0:
118,291,86923,1,0,0:0:0:0:
115,307,87006,1,10,0:0:0:0:
112,323,87089,1,0,0:0:0:0:
110,339,87173,1,2,0:0:0:0:
107,355,87256,1,0,0:0:0:0:
103,370,87339,5,10,0:0:0:0:
74,356,87423,1,0,0:0:0:0:
50,336,87506,1,2,0:0:0:0:
33,310,87589,1,0,0:0:0:0:
23,280,87673,1,10,0:0:0:0:
21,249,87756,1,0,0:0:0:0:
29,218,87839,1,2,0:0:0:0:
44,191,87923,1,0,0:0:0:0:
66,168,88006,6,0,L|137:156,3,45,10|0|2|0,0:0|0:0|0:0|0:0,0:0:0:0:
228,231,88339,2,0,L|199:195,1,45,10|0,0:0|0:0,0:0:0:0:
201,59,88506,2,0,L|184:100,1,45,2|0,0:0|0:0,0:0:0:0:
228,231,88673,5,14,0:0:0:0:
259,228,88756,1,0,0:0:0:0:
290,223,88839,1,2,0:0:0:0:
321,218,88923,1,0,0:0:0:0:
352,214,89006,1,10,0:0:0:0:
384,209,89089,1,0,0:0:0:0:
415,205,89173,1,2,0:0:0:0:
446,201,89256,1,0,0:0:0:0:
477,196,89339,6,0,P|493:224|499:254,1,45,10|0,0:0|0:0,0:0:0:0:
369,116,89506,2,0,P|376:94|388:75,1,45,2|0,0:0|0:0,0:0:0:0:
427,296,89673,1,10,0:0:0:0:
401,314,89756,1,0,0:0:0:0:
372,326,89839,1,2,0:0:0:0:
341,328,89923,1,0,0:0:0:0:
310,322,90006,6,0,P|288:319|268:310,1,45,10|0,0:0|0:0,0:0:0:0:
183,214,90173,2,0,P|161:217|141:226,1,45,2|0,0:0|0:0,0:0:0:0:
342,171,90339,5,10,0:0:0:0:
360,146,90423,1,0,0:0:0:0:
369,116,90506,1,2,0:0:0:0:
368,84,90589,1,0,0:0:0:0:
356,55,90673,6,0,L|312:42,3,45,10|0|2|0,0:0|0:0|0:0|0:0,0:0:0:0:
449,125,91006,2,0,L|481:94,1,45,10|0,0:0|0:0,0:0:0:0:
342,171,91173,2,0,L|352:214,1,45,2|0,0:0|0:0,0:0:0:0:
249,101,91339,5,14,0:0:0:0:
222,84,91422,1,0,0:0:0:0:
192,75,91506,1,2,0:0:0:0:
160,74,91589,1,0,0:0:0:0:
130,81,91673,1,10,0:0:0:0:
102,96,91756,1,0,0:0:0:0:
80,118,91839,1,2,0:0:0:0:
63,145,91922,1,0,0:0:0:0:
55,175,92006,5,10,0:0:0:0:
62,190,92089,1,0,0:0:0:0:
67,206,92173,1,2,0:0:0:0:
70,222,92256,1,0,0:0:0:0:
70,238,92339,1,10,0:0:0:0:
68,254,92423,1,0,0:0:0:0:
64,269,92506,1,2,0:0:0:0:
58,284,92589,1,0,0:0:0:0:
50,298,92673,5,10,0:0:0:0:
80,310,92756,1,0,0:0:0:0:
111,311,92839,1,2,0:0:0:0:
141,301,92923,1,0,0:0:0:0:
165,281,93006,1,10,0:0:0:0:
182,255,93089,1,0,0:0:0:0:
189,224,93173,1,2,0:0:0:0:
185,193,93256,1,0,0:0:0:0:
170,165,93339,6,0,L|107:151,3,45,10|0|2|0,0:0|0:0|0:0|0:0,0:0:0:0:
339,103,93673,2,0,L|383:93,1,45,10|0,0:0|0:0,0:0:0:0:
170,41,93839,2,0,L|125:31,1,45,2|0,0:0|0:0,0:0:0:0:
245,92,94006,5,14,0:0:0:0:
251,122,94089,1,0,0:0:0:0:
258,153,94173,1,2,0:0:0:0:
264,184,94256,1,0,0:0:0:0:
271,215,94339,1,10,0:0:0:0:
277,246,94423,1,0,0:0:0:0:
284,276,94506,1,2,0:0:0:0:
290,307,94589,1,0,0:0:0:0:
296,338,94673,6,0,L|363:308,1,45,10|0,0:0|0:0,0:0:0:0:
437,231,94839,2,0,L|370:201,1,45,2|0,0:0|0:0,0:0:0:0:
140,246,95006,1,10,0:0:0:0:
162,268,95089,1,0,0:0:0:0:
190,281,95173,1,2,0:0:0:0:
221,283,95256,1,0,0:0:0:0:
250,274,95339,6,0,L|259:229,1,45,10|0,0:0|0:0,0:0:0:0:
337,117,95506,2,0,L|327:72,1,45,2|0,0:0|0:0,0:0:0:0:
187,26,95673,1,10,0:0:0:0:
181,57,95756,1,0,0:0:0:0:
174,88,95839,1,2,0:0:0:0:
168,119,95923,1,0,0:0:0:0:
161,150,96006,6,0,L|107:144,3,45,10|0|2|0,0:0|0:0|0:0|0:0,0:0:0:0:
1,240,96339,2,0,L|81:231,1,80.9999975280763,10|0,0:0|0:0,0:0:0:0:
59,71,96673,5,6,0:0:0:0:
59,71,96756,1,0,0:0:0:0:
59,71,96839,1,0,0:0:0:0:
154,180,97006,1,10,0:0:0:0:
229,0,97173,1,0,0:0:0:0:
295,180,97339,2,0,P|307:200|323:216,1,45,2|0,0:0|0:0,0:0:0:0:
364,90,97506,2,0,P|343:79|321:73,1,45,0|0,0:0|0:0,0:0:0:0:
228,267,97673,1,10,0:0:0:0:
228,267,98006,5,2,0:0:0:0:
189,210,98089,1,0,0:0:0:0:
231,157,98173,1,0,0:0:0:0:
295,180,98256,1,0,0:0:0:0:
292,247,98339,2,0,L|308:314,1,45,10|0,0:0|0:0,0:0:0:0:
400,376,98506,2,0,L|409:331,1,45,0|0,0:0|0:0,0:0:0:0:
512,191,98673,2,0,B|422:200|422:200|378:172,1,135,2|0,0:0|0:0,0:0:0:0:
208,234,99006,2,0,B|298:225|298:225|342:253,1,135,10|0,0:0|0:0,0:0:0:0:
249,125,99339,5,2,0:0:0:0:
241,90,99423,1,0,0:0:0:0:
251,55,99506,1,0,0:0:0:0:
274,28,99589,1,0,0:0:0:0:
307,15,99673,1,10,0:0:0:0:
116,106,99839,1,0,0:0:0:0:
319,92,100006,2,0,L|419:84,1,90,2|0,0:0|0:0,0:0:0:0:
189,210,100339,1,10,0:0:0:0:
189,210,100673,5,2,0:0:0:0:
158,149,100756,1,0,0:0:0:0:
90,159,100839,1,0,0:0:0:0:
80,226,100923,1,0,0:0:0:0:
141,256,101006,2,0,L|207:247,1,45,10|0,0:0|0:0,0:0:0:0:
278,150,101173,2,0,L|233:143,1,45,0|0,0:0|0:0,0:0:0:0:
92,342,101339,2,0,L|232:322,1,135,2|0,0:0|0:0,0:0:0:0:
144,176,101673,2,0,P|82:201|60:260,1,135,10|0,0:0|0:0,0:0:0:0:
51,70,102006,5,2,0:0:0:0:
51,70,102089,1,0,0:0:0:0:
51,70,102173,1,0,0:0:0:0:
141,256,102339,1,10,0:0:0:0:
5,147,102506,1,0,0:0:0:0:
233,101,102673,1,2,0:0:0:0:
187,179,102839,1,0,0:0:0:0:
171,38,103006,1,10,0:0:0:0:
249,243,103173,2,0,L|260:277,1,22.5,0|0,2:0|0:0,0:0:0:0:
295,166,103339,5,2,0:0:0:0:
351,127,103423,1,0,0:0:0:0:
419,125,103506,1,0,0:0:0:0:
477,160,103589,1,0,0:0:0:0:
507,221,103673,2,0,L|493:287,1,45,10|0,0:0|0:0,0:0:0:0:
479,353,103839,2,0,L|428:307,1,45,0|0,0:0|0:0,0:0:0:0:
292,260,104006,2,0,B|336:275|336:275|421:248,1,135,2|0,0:0|0:0,0:0:0:0:
241,341,104339,2,0,P|204:285|211:220,1,135,10|0,0:0|0:0,0:0:0:0:
380,68,104673,5,2,0:0:0:0:
351,128,104756,1,0,0:0:0:0:
295,166,104839,1,0,0:0:0:0:
228,171,104923,1,0,0:0:0:0:
168,140,105006,2,0,L|154:75,1,45,10|0,0:0|0:0,0:0:0:0:
80,302,105173,2,0,L|89:257,1,45,0|0,0:0|0:0,0:0:0:0:
255,264,105339,6,0,L|277:261,1,22.5,2|0,0:0|0:0,0:0:0:0:
411,246,105506,2,0,L|433:243,1,22.5,0|0,0:0|0:0,0:0:0:0:
190,355,105673,6,0,L|167:352,1,22.5,10|0,0:0|0:0,0:0:0:0:
323,370,105839,2,0,L|346:373,1,22.5,0|0,0:0|0:0,0:0:0:0:
333,183,106006,5,2,0:0:0:0:
272,152,106089,1,0,0:0:0:0:
205,162,106173,1,0,0:0:0:0:
156,208,106256,1,0,0:0:0:0:
143,276,106339,6,0,L|159:351,1,45,10|0,0:0|0:0,0:0:0:0:
65,190,106506,2,0,L|-8:166,1,45,0|0,0:0|0:0,0:0:0:0:
205,162,106673,2,0,P|254:98|226:22,1,168.75,2|0,0:0|0:0,0:0:0:0:
38,76,107006,2,0,B|81:89|81:89|119:78|119:78|170:84,1,135.000005149842,8|0,0:0|0:0,0:0:0:0:
425,141,107339,5,6,0:0:0:0:
394,130,107423,1,0,0:0:0:0:
363,130,107506,1,0,0:0:0:0:
333,140,107589,1,0,0:0:0:0:
308,159,107673,1,10,0:0:0:0:
291,185,107756,1,0,0:0:0:0:
283,216,107839,5,0,0:0:0:0:
261,238,107923,1,0,0:0:0:0:
233,252,108006,1,2,0:0:0:0:
202,257,108089,1,0,0:0:0:0:
171,250,108173,1,0,0:0:0:0:
144,235,108256,1,0,0:0:0:0:
123,211,108339,2,0,L|108:140,3,45,10|0|0|0,0:0|0:0|0:0|0:0,0:0:0:0:
219,27,108673,5,2,0:0:0:0:
216,50,108756,1,0,0:0:0:0:
214,72,108839,1,0,0:0:0:0:
212,94,108923,1,0,0:0:0:0:
209,117,109006,1,10,0:0:0:0:
207,139,109089,1,0,0:0:0:0:
205,162,109173,5,0,0:0:0:0:
227,139,109256,1,0,0:0:0:0:
255,125,109339,1,2,0:0:0:0:
286,120,109423,1,0,0:0:0:0:
317,124,109506,1,0,0:0:0:0:
345,137,109589,1,0,0:0:0:0:
365,164,109673,5,10,0:0:0:0:
388,201,109756,1,0,0:0:0:0:
430,216,109839,1,0,0:0:0:0:
471,201,109922,1,0,0:0:0:0:
496,164,110006,5,6,0:0:0:0:
459,147,110089,1,0,0:0:0:0:
418,146,110172,1,0,0:0:0:0:
381,163,110255,1,0,0:0:0:0:
354,193,110339,1,10,0:0:0:0:
341,231,110422,1,0,0:0:0:0:
344,271,110505,1,0,0:0:0:0:
362,307,110589,1,0,0:0:0:0:
389,337,110673,5,2,0:0:0:0:
352,320,110756,1,0,0:0:0:0:
312,314,110839,1,0,0:0:0:0:
273,325,110922,1,0,0:0:0:0:
248,344,111006,5,10,0:0:0:0:
219,356,111089,1,0,0:0:0:0:
189,359,111173,1,0,0:0:0:0:
157,354,111256,1,0,0:0:0:0:
130,339,111339,6,0,P|115:315|109:288,1,53.9999983520508,6|0,0:0|0:0,0:0:0:0:
37,251,111506,2,0,P|42:223|57:200,1,53.9999983520508
33,123,111673,2,0,P|54:108|81:101,1,53.9999983520508,10|0,0:0|0:0,0:0:0:0:
121,31,111839,2,0,P|146:36|169:51,1,53.9999983520508
167,152,112006,6,0,P|192:157|219:155,1,53.9999983520508,6|0,0:0|0:0,0:0:0:0:
280,213,112173,2,0,P|302:198|319:177,1,53.9999983520508
402,177,112339,2,0,P|407:150|404:123,1,53.9999983520508,10|0,0:0|0:0,0:0:0:0:
463,64,112506,2,0,P|447:40|426:23,1,53.9999983520508
263,10,112673,5,6,0:0:0:0:
229,31,112756,1,0,0:0:0:0:
207,64,112839,1,0,0:0:0:0:
199,104,112922,1,0,0:0:0:0:
207,143,113006,1,10,0:0:0:0:
230,176,113089,1,0,0:0:0:0:
260,197,113173,5,0,0:0:0:0:
285,219,113256,1,0,0:0:0:0:
301,248,113339,1,2,0:0:0:0:
305,282,113422,1,0,0:0:0:0:
298,314,113506,1,0,0:0:0:0:
279,342,113589,1,0,0:0:0:0:
251,361,113673,2,0,L|188:367,3,45,10|0|0|0,0:0|0:0|0:0|0:0,0:0:0:0:
40,303,114006,5,2,0:0:0:0:
58,277,114089,1,0,0:0:0:0:
83,258,114173,1,0,0:0:0:0:
113,248,114256,1,0,0:0:0:0:
144,247,114339,1,10,0:0:0:0:
174,255,114423,1,0,0:0:0:0:
201,272,114506,5,0,0:0:0:0:
231,263,114589,1,0,0:0:0:0:
261,254,114673,1,2,0:0:0:0:
291,245,114756,1,0,0:0:0:0:
322,237,114839,1,0,0:0:0:0:
352,228,114923,1,0,0:0:0:0:
382,219,115006,5,10,0:0:0:0:
399,234,115089,1,0,0:0:0:0:
410,254,115173,1,0,0:0:0:0:
416,275,115256,1,0,0:0:0:0:
415,298,115339,5,2,0:0:0:0:
443,263,115423,1,0,0:0:0:0:
460,221,115506,1,0,0:0:0:0:
464,177,115589,1,0,0:0:0:0:
455,133,115673,1,10,0:0:0:0:
434,93,115756,1,0,0:0:0:0:
402,62,115839,5,0,0:0:0:0:
382,86,115923,1,0,0:0:0:0:
355,103,116006,1,2,0:0:0:0:
325,112,116089,1,0,0:0:0:0:
294,111,116173,1,0,0:0:0:0:
264,102,116256,1,0,0:0:0:0:
238,84,116339,5,10,0:0:0:0:
205,69,116423,1,0,0:0:0:0:
170,66,116506,1,0,0:0:0:0:
135,74,116589,1,0,0:0:0:0:
105,93,116673,5,2,0:0:0:0:
113,127,116756,1,0,0:0:0:0:
87,153,116839,1,0,0:0:0:0:
88,186,116923,1,0,0:0:0:0:
69,213,117006,1,10,0:0:0:0:
77,247,117089,1,0,0:0:0:0:
51,273,117173,1,0,0:0:0:0:
59,308,117256,1,0,0:0:0:0:
33,331,117339,6,0,B|70:309|134:311|105:346|172:349|205:319,1,180,6|0,0:0|0:0,0:0:0:0:
283,272,117589,2,0,P|295:304|294:338,2,67.5000025749208,0|10|0,0:0|0:0|0:0,0:0:0:0:
219,205,117839,2,0,P|219:171|230:139,1,56.25
369,218,118006,5,6,0:0:0:0:
397,230,118089,1,0,0:0:0:0:
429,231,118173,1,0,0:0:0:0:
459,221,118256,1,0,0:0:0:0:
483,202,118339,1,10,0:0:0:0:
499,175,118423,1,0,0:0:0:0:
506,144,118506,1,0,0:0:0:0:
501,113,118589,1,0,0:0:0:0:
485,86,118673,6,0,L|412:70,1,45,2|0,0:0|0:0,0:0:0:0:
367,25,118839,2,0,L|296:47,1,45,0|0,0:0|0:0,0:0:0:0:
267,109,119006,2,0,L|194:93,1,45,10|0,0:0|0:0,0:0:0:0:
149,48,119173,2,0,L|78:70,1,45,0|0,0:0|0:0,0:0:0:0:
50,212,119339,5,2,0:0:0:0:
77,228,119423,1,0,0:0:0:0:
107,237,119506,1,0,0:0:0:0:
138,237,119589,1,0,0:0:0:0:
168,228,119673,1,10,0:0:0:0:
195,212,119756,1,0,0:0:0:0:
217,189,119839,5,0,0:0:0:0:
222,215,119923,1,0,0:0:0:0:
228,242,120006,1,2,0:0:0:0:
234,268,120089,1,0,0:0:0:0:
239,295,120173,1,0,0:0:0:0:
245,321,120256,1,0,0:0:0:0:
251,348,120339,5,10,0:0:0:0:
275,324,120423,1,0,0:0:0:0:
306,312,120506,1,0,0:0:0:0:
339,313,120589,1,0,0:0:0:0:
370,327,120673,5,6,0:0:0:0:
413,354,120756,1,0,0:0:0:0:
466,352,120839,1,0,0:0:0:0:
504,314,120922,1,0,0:0:0:0:
510,260,121006,1,10,0:0:0:0:
478,217,121089,1,0,0:0:0:0:
430,203,121173,5,0,0:0:0:0:
386,189,121256,1,0,0:0:0:0:
360,152,121339,1,2,0:0:0:0:
364,109,121423,1,0,0:0:0:0:
394,77,121506,1,0,0:0:0:0:
438,71,121589,1,0,0:0:0:0:
476,93,121673,5,10,0:0:0:0:
469,115,121756,1,0,0:0:0:0:
463,137,121839,1,0,0:0:0:0:
457,158,121923,1,0,0:0:0:0:
451,180,122006,6,0,L|392:193,1,53.9999983520508,6|0,0:0|0:0,0:0:0:0:
259,86,122173,2,0,L|311:97,1,53.9999983520508,0|0,0:0|0:0,0:0:0:0:
426,267,122339,2,0,L|367:280,1,53.9999983520508,10|0,0:0|0:0,0:0:0:0:
234,173,122506,2,0,L|286:184,1,53.9999983520508,0|0,0:0|0:0,0:0:0:0:
401,354,122673,6,0,L|342:367,1,53.9999983520508,6|0,0:0|0:0,0:0:0:0:
209,260,122839,2,0,L|261:271,1,53.9999983520508,0|0,0:0|0:0,0:0:0:0:
451,180,123006,2,0,L|392:193,1,53.9999983520508,10|0,0:0|0:0,0:0:0:0:
259,86,123173,2,0,L|311:97,1,53.9999983520508,0|0,0:0|0:0,0:0:0:0:
490,12,123339,5,6,0:0:0:0:
460,20,123422,1,0,0:0:0:0:
433,37,123506,1,0,0:0:0:0:
413,61,123589,1,0,0:0:0:0:
402,91,123672,1,10,0:0:0:0:
400,122,123756,1,0,0:0:0:0:
408,152,123839,1,0,0:0:0:0:
425,179,123922,1,0,0:0:0:0:
450,199,124006,5,2,0:0:0:0:
410,177,124089,1,0,0:0:0:0:
366,171,124173,1,0,0:0:0:0:
322,180,124256,1,0,0:0:0:0:
284,204,124339,1,10,0:0:0:0:
246,227,124423,1,0,0:0:0:0:
202,237,124506,1,0,0:0:0:0:
158,230,124589,1,0,0:0:0:0:
118,209,124673,6,0,L|107:135,1,53.9999983520508,2|0,0:0|0:0,0:0:0:0:
191,22,124839,2,0,L|180:95,1,53.9999983520508,0|0,0:0|0:0,0:0:0:0:
36,171,125006,2,0,L|25:97,1,53.9999983520508,10|0,0:0|0:0,0:0:0:0:
259,81,125173,2,0,L|248:154,1,53.9999983520508,0|0,0:0|0:0,0:0:0:0:
14,24,125339,5,2,0:0:0:0:
41,24,125423,1,0,0:0:0:0:
66,31,125506,1,0,0:0:0:0:
89,46,125589,1,0,0:0:0:0:
107,66,125673,1,10,0:0:0:0:
118,90,125756,1,0,0:0:0:0:
122,117,125839,1,0,0:0:0:0:
119,143,125923,1,0,0:0:0:0:
108,168,126006,6,0,L|32:184,3,53.9999983520508,2|0|0|0,0:0|0:0|0:0|0:0,0:0:0:0:
202,237,126339,2,0,L|277:253,3,53.9999983520508,10|0|0|0,0:0|0:0|0:0|0:0,0:0:0:0:
83,309,126673,2,0,L|7:325,3,53.9999983520508,2|0|0|0,0:0|0:0|0:0|0:0,0:0:0:0:
203,376,127006,5,10,0:0:0:0:
203,376,127089,1,0,0:0:0:0:
203,376,127173,1,0,0:0:0:0:
203,376,127256,1,0,0:0:0:0:
203,376,127339,5,2,0:0:0:0:
247,370,127423,1,0,0:0:0:0:
284,345,127506,1,0,0:0:0:0:
306,306,127589,1,0,0:0:0:0:
308,261,127673,1,10,0:0:0:0:
290,221,127756,1,0,0:0:0:0:
256,192,127839,1,0,0:0:0:0:
221,164,127923,1,0,0:0:0:0:
203,123,128006,1,2,0:0:0:0:
206,78,128089,1,0,0:0:0:0:
228,39,128173,1,0,0:0:0:0:
265,14,128256,1,0,0:0:0:0:
309,9,128339,5,8,0:0:0:0:
316,76,128423,1,8,0:0:0:0:
323,143,128506,1,8,0:0:0:0:
330,210,128589,1,8,0:0:0:0:
337,277,128673,6,0,P|392:320|390:216,1,215.999993408203,4|8,0:0|0:0,0:0:0:0:
256,192,129173,1,8,0:0:0:0:
175,277,129339,6,0,P|119:320|121:216,1,215.999993408203,4|8,0:0|0:0,0:0:0:0:
256,192,129839,1,8,0:0:0:0:
300,100,130006,6,0,P|256:14|212:100,1,236.250009012223,12|0,0:0|0:0,0:0:0:0:
352,156,130673,2,0,P|374:122|385:82,1,80.9999975280763,0|0,0:0|0:0,0:0:0:0:
127,83,131006,2,0,P|137:122|160:156,1,80.9999975280763,0|0,0:0|0:0,0:0:0:0:
256,68,131339,5,6,0:0:0:0:
394,25,131562,5,0,0:0:0:0:
482,181,131784,5,0,0:0:0:0:
457,219,131895,5,0,0:0:0:0:
417,237,132006,5,0,0:0:0:0:
372,231,132117,5,0,0:0:0:0:
335,204,132228,5,0,0:0:0:0:
287,187,132339,5,0,0:0:0:0:
241,192,132451,5,0,0:0:0:0:
205,219,132562,5,0,0:0:0:0:
191,265,132673,6,0,B|223:295|292:291|261:259|327:254|363:281,1,180,6|6,0:0|0:0,0:0:0:0:
409,349,133173,1,6,0:0:0:0:
241,192,133339,1,6,0:0:0:0:
405,56,133673,6,0,L|410:124,1,67.5
411,43,134006,6,0,P|315:58|330:154,1,215.999993408203,4|8,0:0|0:0,0:0:0:0:
422,178,134506,1,8,0:0:0:0:
315,58,134673,6,0,P|215:77|194:176,1,215.999993408203,4|8,0:0|0:0,0:0:0:0:
256,247,135173,1,8,0:0:0:0:
216,77,135339,6,0,P|90:77|40:203,1,270.000010299683,12|0,0:0|0:0,0:0:0:0:
329,281,136339,6,0,P|337:248|331:216,1,67.5,0|0,0:0|0:0,0:0:0:0:
256,162,136673,5,6,0:0:0:0:
483,238,136895,5,0,0:0:0:0:
406,56,137117,5,0,0:0:0:0:
316,307,137339,5,0,0:0:0:0:
285,339,137451,5,0,0:0:0:0:
244,356,137562,5,0,0:0:0:0:
199,354,137673,5,0,0:0:0:0:
159,334,137784,5,0,0:0:0:0:
131,299,137895,5,0,0:0:0:0:
121,255,138006,6,0,P|120:232|126:210,1,45.0000017166138,0|0,0:0|0:0,0:0:0:0:
221,121,138228,6,0,P|221:98|216:77,1,45.0000017166138,0|0,0:0|0:0,0:0:0:0:
77,38,138451,5,0,0:0:0:0:
48,72,138562,5,0,0:0:0:0:
35,114,138673,5,0,0:0:0:0:
40,159,138784,5,0,0:0:0:0:
63,197,138895,5,0,0:0:0:0:
86,235,139006,5,0,0:0:0:0:
91,280,139117,5,0,0:0:0:0:
78,322,139228,5,0,0:0:0:0:
49,356,139339,6,0,P|116:249|141:373,1,323.999990112305,6|0,0:0|0:0,0:0:0:0:
5,272,140173,1,8,0:0:0:0:
145,212,140339,1,0,0:0:0:0:
249,325,140506,1,0,0:0:0:0:
410,251,140673,6,0,B|458:201|433:118|433:118|442:100|442:100|397:122|348:114|368:83|317:77|269:98,1,323.999990112305,6|0,0:0|0:0,0:0:0:0:
145,212,141506,1,8,0:0:0:0:
77,89,141673,2,0,L|32:95,1,45
245,184,141839,2,0,L|289:190,1,45,0|0,0:0|0:0,0:0:0:0:
75,283,142006,6,0,P|70:322|84:360,1,80.9999975280763,6|0,0:0|0:0,0:0:0:0:
171,116,142339,2,0,P|175:76|161:38,1,80.9999975280763
216,282,142673,6,0,L|243:285,1,22.5,8|0,0:0|0:0,0:0:0:0:
325,313,142839,2,0,L|338:294,1,22.5
407,233,143006,2,0,L|398:212,1,22.5
379,122,143173,2,0,L|351:118,1,22.5
111,145,143339,2,0,B|136:168|136:168|244:184|244:184|277:168,1,180,6|0,0:0|0:0,0:0:0:0:
195,54,144006,5,8,0:0:0:0:
256,27,144089,1,0,0:0:0:0:
323,32,144173,1,0,0:0:0:0:
379,67,144256,1,0,0:0:0:0:
413,125,144339,2,0,L|422:183,1,54,10|0,0:0|0:0,0:0:0:0:
483,61,144673,6,0,P|401:30|329:77,1,180,6|0,0:0|0:0,0:0:0:0:
265,169,145117,5,8,0:0:0:0:
177,199,145228,5,8,0:0:0:0:
92,165,145339,5,8,0:0:0:0:
211,30,145506,6,0,L|279:25,1,45
301,267,145673,2,0,L|232:262,1,45
413,125,145839,1,4,0:0:0:0:
131,129,146006,5,6,0:0:0:0:
257,51,146173,1,2,0:0:0:0:
88,146,146339,1,8,0:0:0:0:
314,118,146506,1,8,0:0:0:0:
43,134,146673,1,8,0:0:0:0:
326,205,146839,1,8,0:0:0:0:
0,151,147006,1,8,0:0:0:0:
344,36,147173,1,8,0:0:0:0:
170,252,147339,6,0,P|220:270|272:258,1,107.999996704102,6|0,0:0|0:0,0:0:0:0:
133,149,147673,2,0,L|88:145,1,45,0|0,0:0|0:0,0:0:0:0:
59,349,147839,2,0,L|122:344,1,45,0|0,0:0|0:0,0:0:0:0:
225,181,148006,6,0,L|226:158,1,22.5,8|0,0:0|0:0,0:0:0:0:
308,253,148173,2,0,L|286:252,1,22.5,0|0,0:0|0:0,0:0:0:0:
215,313,148339,2,0,L|213:335,1,22.5,0|0,0:0|0:0,0:0:0:0:
131,240,148506,2,0,L|154:242,1,22.5,0|0,0:0|0:0,0:0:0:0:
246,156,148673,6,0,P|258:112|247:69,1,90,6|0,0:0|0:0,0:0:0:0:
327,200,149006,1,0,0:0:0:0:
166,113,149173,1,0,0:0:0:0:
391,55,149339,1,8,0:0:0:0:
418,115,149423,1,0,0:0:0:0:
424,182,149506,1,0,0:0:0:0:
408,247,149589,1,0,0:0:0:0:
371,303,149673,6,0,P|323:311|274:297,1,90,10|0,0:0|0:0,0:0:0:0:
330,224,150339,5,6,0:0:0:0:
318,193,150422,1,0,0:0:0:0:
296,169,150505,1,0,0:0:0:0:
270,154,150589,1,0,0:0:0:0:
239,149,150672,1,10,0:0:0:0:
208,154,150755,1,0,0:0:0:0:
181,169,150839,5,0,0:0:0:0:
169,198,150922,1,0,0:0:0:0:
149,221,151005,1,2,0:0:0:0:
121,237,151089,1,0,0:0:0:0:
91,243,151172,1,0,0:0:0:0:
59,238,151255,1,0,0:0:0:0:
32,223,151339,2,0,L|15:166,3,45,10|0|0|0,0:0|0:0|0:0|0:0,0:0:0:0:
0,59,151672,5,2,0:0:0:0:
30,65,151755,1,0,0:0:0:0:
61,71,151838,1,0,0:0:0:0:
91,78,151922,1,0,0:0:0:0:
122,84,152005,1,10,0:0:0:0:
153,90,152088,1,0,0:0:0:0:
184,97,152172,1,0,0:0:0:0:
215,104,152255,1,0,0:0:0:0:
245,111,152339,5,2,0:0:0:0:
222,133,152422,1,0,0:0:0:0:
210,161,152505,1,0,0:0:0:0:
211,193,152589,1,0,0:0:0:0:
226,224,152672,1,10,0:0:0:0:
253,260,152755,1,0,0:0:0:0:
259,304,152839,1,0,0:0:0:0:
243,346,152922,1,0,0:0:0:0:
210,375,153005,5,6,0:0:0:0:
209,330,153089,1,0,0:0:0:0:
230,291,153172,1,0,0:0:0:0:
267,267,153255,1,0,0:0:0:0:
312,263,153338,1,10,0:0:0:0:
352,282,153421,1,0,0:0:0:0:
379,317,153505,5,0,0:0:0:0:
411,292,153589,1,0,0:0:0:0:
427,254,153672,1,2,0:0:0:0:
424,213,153755,1,0,0:0:0:0:
406,181,153839,1,0,0:0:0:0:
384,157,153922,1,0,0:0:0:0:
365,132,154005,5,10,0:0:0:0:
349,105,154089,1,0,0:0:0:0:
342,74,154172,1,0,0:0:0:0:
345,43,154255,1,0,0:0:0:0:
358,15,154339,6,0,B|421:1,1,56.25,6|0,0:0|0:0,0:0:0:0:
254,65,154505,2,0,B|199:52,1,56.25,0|0,0:0|0:0,0:0:0:0:
421,83,154672,2,0,B|484:69,1,56.25,10|0,0:0|0:0,0:0:0:0:
190,132,154839,2,0,B|136:120,1,56.25,0|0,0:0|0:0,0:0:0:0:
392,171,155005,6,0,B|447:159,1,56.25,6|0,0:0|0:0,0:0:0:0:
219,220,155172,2,0,B|164:208,1,56.25,0|0,0:0|0:0,0:0:0:0:
455,239,155339,2,0,B|509:226,1,56.25,10|0,0:0|0:0,0:0:0:0:
156,288,155505,2,0,B|102:276,1,56.25,0|0,0:0|0:0,0:0:0:0:
426,327,155672,5,6,0:0:0:0:
453,311,155755,1,0,0:0:0:0:
474,288,155839,1,0,0:0:0:0:
485,258,155922,1,0,0:0:0:0:
485,227,156005,1,10,0:0:0:0:
475,198,156089,1,0,0:0:0:0:
456,173,156172,5,0,0:0:0:0:
432,194,156255,1,0,0:0:0:0:
405,209,156339,1,2,0:0:0:0:
374,216,156422,1,0,0:0:0:0:
343,216,156505,1,0,0:0:0:0:
312,208,156589,1,0,0:0:0:0:
285,193,156672,2,0,L|274:122,3,45,10|0|0|0,0:0|0:0|0:0|0:0,0:0:0:0:
355,67,157005,5,2,0:0:0:0:
328,50,157088,1,0,0:0:0:0:
297,42,157171,1,0,0:0:0:0:
266,42,157255,1,0,0:0:0:0:
236,50,157338,1,10,0:0:0:0:
209,67,157421,1,0,0:0:0:0:
188,90,157505,5,0,0:0:0:0:
156,87,157589,1,0,0:0:0:0:
125,85,157672,1,2,0:0:0:0:
93,83,157756,1,0,0:0:0:0:
62,81,157839,1,0,0:0:0:0:
31,79,157922,1,0,0:0:0:0:
0,77,158005,2,0,L|8:152,3,45,10|0|0|0,0:0|0:0|0:0|0:0,0:0:0:0:
87,10,158339,5,2,0:0:0:0:
111,47,158422,1,0,0:0:0:0:
120,91,158505,1,0,0:0:0:0:
112,135,158589,1,0,0:0:0:0:
89,173,158672,1,10,0:0:0:0:
53,200,158755,1,0,0:0:0:0:
10,212,158839,5,0,0:0:0:0:
42,214,158922,1,0,0:0:0:0:
72,222,159005,1,2,0:0:0:0:
100,237,159089,1,0,0:0:0:0:
124,257,159172,1,0,0:0:0:0:
143,282,159255,1,0,0:0:0:0:
157,310,159339,5,10,0:0:0:0:
179,314,159422,1,0,0:0:0:0:
202,312,159505,1,0,0:0:0:0:
223,305,159589,1,0,0:0:0:0:
242,293,159672,5,2,0:0:0:0:
263,264,159755,1,0,0:0:0:0:
249,230,159839,1,0,0:0:0:0:
271,201,159922,1,0,0:0:0:0:
257,167,160005,1,10,0:0:0:0:
278,140,160089,1,0,0:0:0:0:
265,106,160172,1,0,0:0:0:0:
287,77,160255,1,0,0:0:0:0:
273,46,160339,6,0,B|322:21|322:21|456:40,1,180,6|0,0:0|0:0,0:0:0:0:
377,125,160589,2,0,L|310:134,2,67.5000025749208,0|10|0,0:0|0:0|0:0,0:0:0:0:
445,199,160839,2,0,L|500:206,1,56.25,0|0,0:0|0:0,0:0:0:0:
414,303,161005,5,6,0:0:0:0:
390,324,161088,1,0,0:0:0:0:
362,337,161171,1,0,0:0:0:0:
331,342,161255,1,0,0:0:0:0:
300,338,161338,1,10,0:0:0:0:
272,325,161421,1,0,0:0:0:0:
248,304,161505,1,0,0:0:0:0:
232,277,161588,1,0,0:0:0:0:
223,247,161672,6,0,L|233:197,1,45,2|0,0:0|0:0,0:0:0:0:
282,90,161839,2,0,L|271:40,1,45,0|0,0:0|0:0,0:0:0:0:
120,208,162005,2,0,L|129:163,1,45,10|0,0:0|0:0,0:0:0:0:
179,51,162172,2,0,L|169:6,1,45,0|0,0:0|0:0,0:0:0:0:
3,75,162339,5,2,0:0:0:0:
26,108,162423,1,0,0:0:0:0:
60,128,162506,1,0,0:0:0:0:
100,132,162589,1,0,0:0:0:0:
138,118,162673,1,10,0:0:0:0:
166,89,162756,1,0,0:0:0:0:
179,51,162839,5,0,0:0:0:0:
202,26,162922,1,0,0:0:0:0:
231,10,163005,1,2,0:0:0:0:
264,4,163089,1,0,0:0:0:0:
298,9,163173,1,0,0:0:0:0:
328,24,163256,1,0,0:0:0:0:
352,48,163339,5,10,0:0:0:0:
348,70,163422,1,0,0:0:0:0:
345,92,163505,1,0,0:0:0:0:
342,114,163589,1,0,0:0:0:0:
338,137,163672,5,6,0:0:0:0:
376,112,163755,1,0,0:0:0:0:
420,106,163839,1,0,0:0:0:0:
462,120,163922,1,0,0:0:0:0:
493,152,164005,1,10,0:0:0:0:
508,194,164089,1,0,0:0:0:0:
501,238,164172,5,0,0:0:0:0:
463,213,164255,1,0,0:0:0:0:
419,207,164339,1,2,0:0:0:0:
377,221,164422,1,0,0:0:0:0:
346,253,164505,1,0,0:0:0:0:
331,295,164589,1,0,0:0:0:0:
338,339,164672,5,10,0:0:0:0:
368,343,164755,1,0,0:0:0:0:
398,333,164838,1,0,0:0:0:0:
420,311,164922,1,0,0:0:0:0:
429,281,165005,6,0,L|423:205,1,53.9999983520508,6|0,0:0|0:0,0:0:0:0:
417,118,165172,2,0,L|413:65,1,53.9999983520508,0|0,0:0|0:0,0:0:0:0:
258,137,165338,2,0,L|253:190,1,53.9999983520508,10|0,0:0|0:0,0:0:0:0:
245,299,165505,2,0,L|240:352,1,53.9999983520508,0|0,0:0|0:0,0:0:0:0:
86,280,165672,6,0,L|81:227,1,53.9999983520508,6|0,0:0|0:0,0:0:0:0:
263,83,165838,2,0,L|258:136,1,53.9999983520508,0|0,0:0|0:0,0:0:0:0:
250,245,166005,2,0,L|245:298,1,53.9999983520508,10|0,0:0|0:0,0:0:0:0:
73,118,166172,2,0,L|68:65,1,53.9999983520508,0|0,0:0|0:0,0:0:0:0:
287,0,166338,5,6,0:0:0:0:
321,20,166421,1,0,0:0:0:0:
346,51,166504,1,0,0:0:0:0:
358,90,166588,1,0,0:0:0:0:
355,130,166671,1,10,0:0:0:0:
336,166,166754,1,0,0:0:0:0:
307,188,166838,5,0,0:0:0:0:
283,211,166921,1,0,0:0:0:0:
268,241,167004,1,2,0:0:0:0:
264,275,167088,1,0,0:0:0:0:
272,307,167171,1,0,0:0:0:0:
290,335,167254,1,0,0:0:0:0:
317,354,167338,2,0,L|363:358,3,45,10|0|0|0,0:0|0:0|0:0|0:0,0:0:0:0:
197,220,167672,6,0,P|171:213|144:214,1,53.9999983520508,2|0,0:0|0:0,0:0:0:0:
58,242,167838,2,0,P|33:253|13:271,1,53.9999983520508,0|0,0:0|0:0,0:0:0:0:
233,135,168005,2,0,P|212:120|186:112,1,53.9999983520508,10|0,0:0|0:0,0:0:0:0:
94,107,168172,2,0,P|68:109|43:119,1,53.9999983520508,0|0,0:0|0:0,0:0:0:0:
161,305,168338,5,2,0:0:0:0:
191,326,168422,1,0,0:0:0:0:
228,335,168505,1,0,0:0:0:0:
265,328,168588,1,0,0:0:0:0:
296,308,168672,1,10,0:0:0:0:
327,287,168755,1,0,0:0:0:0:
364,281,168838,1,0,0:0:0:0:
401,289,168922,1,0,0:0:0:0:
431,311,169005,6,0,P|441:336|446:366,3,53.9999983520508,2|0|0|0,0:0|0:0|0:0|0:0,0:0:0:0:
473,173,169338,2,0,P|489:150|512:131,3,53.9999983520508,10|0|0|0,0:0|0:0|0:0|0:0,0:0:0:0:
333,205,169672,2,0,P|305:201|277:191,3,53.9999983520508,2|0|0|0,0:0|0:0|0:0|0:0,0:0:0:0:
74,51,170005,5,10,0:0:0:0:
70,53,170088,1,0,0:0:0:0:
67,56,170172,1,0,0:0:0:0:
64,59,170255,1,0,0:0:0:0:
61,63,170338,5,2,0:0:0:0:
67,107,170422,1,0,0:0:0:0:
90,145,170505,1,0,0:0:0:0:
127,170,170588,1,0,0:0:0:0:
171,177,170672,1,10,0:0:0:0:
214,166,170755,1,0,0:0:0:0:
249,138,170838,1,0,0:0:0:0:
284,110,170922,1,0,0:0:0:0:
328,98,171005,1,2,0:0:0:0:
372,106,171088,1,0,0:0:0:0:
409,131,171172,1,0,0:0:0:0:
432,169,171255,1,0,0:0:0:0:
438,213,171338,5,8,0:0:0:0:
372,225,171422,1,8,0:0:0:0:
305,236,171505,1,8,0:0:0:0:
239,248,171588,1,8,0:0:0:0:
173,260,171672,6,0,P|124:311|228:320,1,215.999993408203,4|8,0:0|0:0,0:0:0:0:
280,192,172172,1,8,0:0:0:0:
171,123,172338,6,0,P|122:72|226:63,1,215.999993408203,4|8,0:0|0:0,0:0:0:0:
280,192,172838,1,8,0:0:0:0:
395,239,173005,6,0,P|480:192|395:144,1,236.250009012223,4|0,0:0|0:0,0:0:0:0:
327,291,173672,2,0,P|363:316|402:326,1,80.9999975280763,0|0,0:0|0:0,0:0:0:0:
398,58,174005,2,0,P|359:68|327:92,1,80.9999975280763
280,192,174338,5,6,0:0:0:0:
137,214,174561,5,0,0:0:0:0:
40,62,174783,5,0,0:0:0:0:
64,24,174894,5,0,0:0:0:0:
107,9,175006,5,0,0:0:0:0:
151,22,175117,5,0,0:0:0:0:
180,56,175228,5,0,0:0:0:0:
194,99,175339,5,0,0:0:0:0:
190,144,175450,5,0,0:0:0:0:
170,183,175561,5,0,0:0:0:0:
137,214,175672,6,0,P|220:176|302:196,1,168.750006437302,6|0,0:0|0:0,0:0:0:0:
352,268,176172,1,6,0:0:0:0:
398,58,176338,1,6,0:0:0:0:
479,353,176672,6,0,L|411:345,1,67.5,0|0,0:0|0:0,0:0:0:0:
425,333,177005,6,0,P|439:244|352:268,1,215.999993408203,4|8,0:0|0:0,0:0:0:0:
333,364,177505,1,8,0:0:0:0:
439,243,177672,6,0,P|410:147|308:143,1,215.999993408203,4|8,0:0|0:0,0:0:0:0:
267,226,178172,1,8,0:0:0:0:
409,147,178338,6,0,P|360:30|234:36,1,270.000010299683,12|0,0:0|0:0,0:0:0:0:
260,321,179338,6,0,P|294:317|324:301,1,67.5,0|0,0:0|0:0,0:0:0:0:
359,214,179672,5,2,0:0:0:0:
446,326,179894,5,0,0:0:0:0:
267,226,180116,5,0,0:0:0:0:
437,166,180338,6,0,P|444:131|438:96,1,71.9999978027344,0|0,0:0|0:0,0:0:0:0:
291,96,180561,6,0,P|318:119|351:131,1,71.9999978027344,0|0,0:0|0:0,0:0:0:0:
424,4,180783,6,0,P|390:15|363:38,1,71.9999978027344,0|0,0:0|0:0,0:0:0:0:
275,199,181005,6,0,P|198:227|118:206,1,168.750006437302,2|0,0:0|0:0,0:0:0:0:
42,149,181505,1,0,0:0:0:0:
153,132,181672,2,0,P|251:96|147:53,1,270.000010299683,4|0,0:0|0:0,0:0:0:0:
363,38,183005,6,0,L|374:118,1,67.5,0|0,0:0|0:0,0:0:0:0:
325,163,183338,2,0,L|339:62,1,101.250003862381,0|0,0:0|0:0,0:0:0:0:
440,233,183672,5,6,0:0:0:0:
420,257,183755,1,0,0:0:0:0:
396,277,183838,1,0,0:0:0:0:
367,290,183922,1,0,0:0:0:0:
337,297,184005,1,10,0:0:0:0:
305,296,184088,1,0,0:0:0:0:
275,288,184172,1,0,0:0:0:0:
247,273,184255,1,0,0:0:0:0:
224,253,184338,6,0,L|232:193,3,45,2|0|0|0,0:0|0:0|0:0|0:0,0:0:0:0:
131,327,184672,2,0,L|136:371,3,45,10|0|0|0,0:0|0:0|0:0|0:0,0:0:0:0:
134,164,185005,5,2,0:0:0:0:
122,134,185088,1,0,0:0:0:0:
99,114,185172,1,0,0:0:0:0:
68,107,185255,1,0,0:0:0:0:
38,114,185338,1,10,0:0:0:0:
15,135,185422,1,0,0:0:0:0:
4,164,185505,1,0,0:0:0:0:
8,195,185588,1,0,0:0:0:0:
26,221,185672,6,0,L|82:233,3,45,2|0|0|0,0:0|0:0|0:0|0:0,0:0:0:0:
134,164,186005,2,0,L|177:154,3,45,10|0|0|0,0:0|0:0|0:0|0:0,0:0:0:0:
198,280,186338,5,2,0:0:0:0:
224,304,186422,1,0,0:0:0:0:
257,316,186505,1,0,0:0:0:0:
293,314,186588,1,0,0:0:0:0:
325,297,186672,1,10,0:0:0:0:
347,269,186755,1,0,0:0:0:0:
356,235,186838,1,0,0:0:0:0:
351,200,186922,1,0,0:0:0:0:
332,169,187005,1,2,0:0:0:0:
313,138,187088,1,0,0:0:0:0:
308,103,187172,1,0,0:0:0:0:
317,69,187255,1,0,0:0:0:0:
339,41,187338,1,10,0:0:0:0:
371,24,187422,1,0,0:0:0:0:
407,22,187505,1,0,0:0:0:0:
440,34,187588,1,0,0:0:0:0:
466,58,187672,5,2,0:0:0:0:
440,83,187755,1,0,0:0:0:0:
409,100,187838,1,0,0:0:0:0:
373,106,187922,1,0,0:0:0:0:
338,102,188005,1,10,0:0:0:0:
305,87,188088,1,0,0:0:0:0:
278,64,188172,1,0,0:0:0:0:
251,40,188255,1,0,0:0:0:0:
218,25,188338,5,2,0:0:0:0:
182,21,188422,1,0,0:0:0:0:
147,27,188505,1,0,0:0:0:0:
115,44,188588,1,0,0:0:0:0:
90,70,188672,5,10,0:0:0:0:
126,66,188755,1,0,0:0:0:0:
161,72,188838,1,0,0:0:0:0:
193,89,188922,1,0,0:0:0:0:
218,115,189005,5,6,0:0:0:0:
182,115,189088,1,0,0:0:0:0:
151,133,189172,1,0,0:0:0:0:
134,164,189255,1,0,0:0:0:0:
135,199,189338,1,10,0:0:0:0:
153,229,189422,1,0,0:0:0:0:
185,246,189505,1,0,0:0:0:0:
220,245,189588,1,0,0:0:0:0:
250,226,189672,5,2,0:0:0:0:
292,210,189755,1,0,0:0:0:0:
336,214,189838,1,0,0:0:0:0:
375,236,189922,1,0,0:0:0:0:
401,272,190005,5,10,0:0:0:0:
359,256,190088,1,0,0:0:0:0:
314,260,190172,1,0,0:0:0:0:
275,282,190255,1,0,0:0:0:0:
250,318,190338,5,2,0:0:0:0:
285,317,190422,1,0,0:0:0:0:
316,299,190505,1,0,0:0:0:0:
334,268,190588,1,0,0:0:0:0:
334,232,190672,1,10,0:0:0:0:
317,201,190755,1,0,0:0:0:0:
286,183,190838,1,0,0:0:0:0:
251,181,190922,1,0,0:0:0:0:
219,198,191005,6,0,L|207:255,3,45,2|0|0|0,0:0|0:0|0:0|0:0,0:0:0:0:
115,87,191338,2,0,L|109:42,3,45,10|0|0|0,0:0|0:0|0:0|0:0,0:0:0:0:
36,283,191672,5,2,0:0:0:0:
36,283,191755,1,0,0:0:0:0:
36,283,191838,2,0,L|99:274,1,45,0|0,0:0|0:0,0:0:0:0:
263,204,192005,5,10,0:0:0:0:
263,204,192088,1,0,0:0:0:0:
263,204,192172,2,0,L|199:195,1,45,0|0,0:0|0:0,0:0:0:0:
70,93,192338,5,2,0:0:0:0:
70,93,192422,1,0,0:0:0:0:
70,93,192505,2,0,L|133:84,1,45,0|0,0:0|0:0,0:0:0:0:
270,216,192672,6,0,L|206:207,1,45,10|0,0:0|0:0,0:0:0:0:
29,295,192838,2,0,L|92:286,1,45,0|0,0:0|0:0,0:0:0:0:
190,127,193005,5,2,0:0:0:0:
164,144,193088,1,0,0:0:0:0:
145,170,193172,1,0,0:0:0:0:
137,200,193255,1,0,0:0:0:0:
139,231,193338,1,10,0:0:0:0:
152,259,193422,1,0,0:0:0:0:
173,282,193505,1,0,0:0:0:0:
202,295,193588,1,0,0:0:0:0:
233,298,193672,6,0,B|239:200|239:200|270:152|270:152|278:28,1,270,6|0,0:0|0:0,0:0:0:0:
374,70,194005,2,0,P|269:139|177:54,1,270,10|0,0:0|0:0,0:0:0:0:
463,0,194338,5,6,0:0:0:0:
479,26,194422,1,0,0:0:0:0:
487,57,194505,1,0,0:0:0:0:
486,88,194588,1,0,0:0:0:0:
477,118,194672,1,10,0:0:0:0:
460,145,194755,1,0,0:0:0:0:
436,165,194838,1,0,0:0:0:0:
408,179,194922,1,0,0:0:0:0:
377,184,195005,6,0,L|365:131,3,45,2|0|0|0,0:0|0:0|0:0|0:0,0:0:0:0:
444,319,195338,2,0,L|434:362,3,45,10|0|0|0,0:0|0:0|0:0|0:0,0:0:0:0:
317,238,195672,5,2,0:0:0:0:
290,220,195755,1,0,0:0:0:0:
260,209,195838,1,0,0:0:0:0:
229,203,195922,1,0,0:0:0:0:
198,205,196005,1,10,0:0:0:0:
168,214,196088,1,0,0:0:0:0:
141,230,196172,1,0,0:0:0:0:
117,250,196255,1,0,0:0:0:0:
99,276,196338,6,0,L|92:337,3,45,2|0|0|0,0:0|0:0|0:0|0:0,0:0:0:0:
6,142,196672,2,0,L|10:186,3,45,10|0|0|0,0:0|0:0|0:0|0:0,0:0:0:0:
95,17,197005,5,2,0:0:0:0:
85,46,197088,1,0,0:0:0:0:
88,78,197172,1,0,0:0:0:0:
103,105,197255,1,0,0:0:0:0:
127,125,197338,1,10,0:0:0:0:
157,135,197422,1,0,0:0:0:0:
188,132,197505,1,0,0:0:0:0:
216,118,197588,1,0,0:0:0:0:
236,94,197672,5,2,0:0:0:0:
265,72,197755,1,0,0:0:0:0:
298,60,197838,1,0,0:0:0:0:
334,58,197922,1,0,0:0:0:0:
369,68,198005,5,10,0:0:0:0:
336,83,198088,1,0,0:0:0:0:
308,106,198172,1,0,0:0:0:0:
289,136,198255,1,0,0:0:0:0:
281,171,198338,5,2,0:0:0:0:
315,162,198422,1,0,0:0:0:0:
349,172,198505,1,0,0:0:0:0:
374,198,198588,1,0,0:0:0:0:
382,232,198672,1,10,0:0:0:0:
372,266,198755,1,0,0:0:0:0:
346,291,198838,1,0,0:0:0:0:
311,299,198922,1,0,0:0:0:0:
277,288,199005,5,2,0:0:0:0:
235,272,199088,1,0,0:0:0:0:
191,276,199172,1,0,0:0:0:0:
152,298,199255,1,0,0:0:0:0:
126,334,199338,5,10,0:0:0:0:
168,318,199422,1,0,0:0:0:0:
213,322,199505,1,0,0:0:0:0:
252,344,199588,1,0,0:0:0:0:
277,380,199672,5,6,0:0:0:0:
279,348,199755,1,0,0:0:0:0:
281,317,199838,1,0,0:0:0:0:
283,285,199922,1,0,0:0:0:0:
285,254,200005,1,10,0:0:0:0:
287,222,200088,1,0,0:0:0:0:
289,190,200172,1,0,0:0:0:0:
291,159,200255,1,0,0:0:0:0:
293,127,200338,6,0,L|361:147,3,45,2|0|0|0,0:0|0:0|0:0|0:0,0:0:0:0:
468,203,200672,2,0,L|400:222,3,45,10|0|0|0,0:0|0:0|0:0|0:0,0:0:0:0:
200,192,201005,5,2,0:0:0:0:
185,160,201088,1,0,0:0:0:0:
180,125,201172,1,0,0:0:0:0:
187,89,201255,1,0,0:0:0:0:
204,58,201338,1,10,0:0:0:0:
230,33,201422,1,0,0:0:0:0:
262,18,201505,1,0,0:0:0:0:
298,13,201588,1,0,0:0:0:0:
333,20,201672,5,2,0:0:0:0:
303,54,201755,1,0,0:0:0:0:
262,72,201838,1,0,0:0:0:0:
218,71,201922,1,0,0:0:0:0:
177,52,202005,1,10,0:0:0:0:
136,33,202088,1,0,0:0:0:0:
91,32,202172,1,0,0:0:0:0:
51,50,202255,1,0,0:0:0:0:
21,84,202338,5,6,0:0:0:0:
76,84,202422,1,0,0:0:0:0:
120,118,202505,1,0,0:0:0:0:
135,171,202588,1,0,0:0:0:0:
117,223,202672,1,10,0:0:0:0:
99,275,202755,1,0,0:0:0:0:
110,330,202838,1,0,0:0:0:0:
147,372,202922,1,0,0:0:0:0:
199,391,203005,1,2,0:0:0:0:
254,382,203088,1,0,0:0:0:0:
297,347,203172,1,0,0:0:0:0:
318,295,203255,1,0,0:0:0:0:
310,240,203338,1,10,0:0:0:0:
289,188,203422,1,0,0:0:0:0:
299,134,203505,1,0,0:0:0:0:
337,93,203588,1,0,0:0:0:0:
391,80,203672,1,2,0:0:0:0:
443,97,203755,1,0,0:0:0:0:
478,141,203838,1,0,0:0:0:0:
484,196,203922,1,0,0:0:0:0:
458,245,204005,6,0,L|431:281,3,33.7500012874604,10|0|0|0,0:0|0:0|0:0|0:0,0:0:0:0:
338,334,204338,5,8,0:0:0:0:
345,343,204422,1,8,0:0:0:0:
352,353,204505,1,8,0:0:0:0:
359,363,204588,1,8,0:0:0:0:
366,373,204672,2,0,L|385:345,3,33.7500012874604,0|0|0|0,0:0|0:0|0:0|0:0,0:0:0:0:
349,238,205005,6,0,P|315:240|284:253,1,67.5,6|0,3:0|0:0,0:0:0:0:
182,342,205338,2,0,L|175:294,1,36,2|0,0:0|0:0,0:0:0:0:
112,196,205505,2,0,L|106:231,1,36,2|0,0:0|0:0,0:0:0:0:
261,287,205672,2,0,L|254:239,1,36,2|0,0:0|0:0,0:0:0:0:
20,227,205838,2,0,L|13:274,1,36,2|0,0:0|0:0,0:0:0:0:
204,165,206005,2,0,P|174:121|125:99,1,108,2|0,0:0|0:0,0:0:0:0:
49,89,206338,6,0,L|188:79,1,135,6|0,3:0|0:0,0:0:0:0:
346,185,206672,2,0,L|381:190,1,36,2|0,0:0|0:0,0:0:0:0:
240,169,206838,2,0,L|204:163,1,36,2|0,0:0|0:0,0:0:0:0:
396,110,207005,2,0,L|431:115,1,36,2|0,0:0|0:0,0:0:0:0:
296,260,207172,2,0,L|260:254,1,36,2|0,0:0|0:0,0:0:0:0:
184,80,207338,2,0,L|317:98,1,108,2|0,0:0|0:0,0:0:0:0:
89,174,207672,5,6,3:0:0:0:
108,306,208005,6,0,L|114:342,1,36,2|0,0:0|0:0,0:0:0:0:
202,308,208172,2,0,L|208:272,1,36,2|0,0:0|0:0,0:0:0:0:
99,240,208338,2,0,B|110:318,1,67.5,2|0,0:0|0:0,0:0:0:0:
292,345,208672,2,0,B|308:232,1,108,2|0,0:0|0:0,0:0:0:0:
243,34,209005,6,0,B|224:167,1,135,2|0,0:0|0:0,0:0:0:0:
407,205,209338,2,0,B|391:92,1,108,2|0,0:0|0:0,0:0:0:0:
307,238,209672,2,0,L|312:274,1,36,2|0,0:0|0:0,0:0:0:0:
427,352,209838,2,0,L|421:313,1,40.4999987640381,2|0,0:0|0:0,0:0:0:0:
202,308,210005,2,0,L|194:360,3,45,2|0|0|0,3:2|0:3|0:3|0:3,0:0:0:0:
89,174,210338,5,6,3:0:0:0:
283,49,210672,6,0,L|295:117,1,36,2|0,0:0|0:0,0:0:0:0:
221,190,210838,2,0,L|228:145,1,36,2|0,0:0|0:0,0:0:0:0:
385,89,211005,2,0,L|372:157,1,36,2|0,0:0|0:0,0:0:0:0:
142,106,211172,2,0,L|134:61,1,36,2|0,0:0|0:0,0:0:0:0:
310,204,211338,2,0,P|325:255|312:307,1,108,2|0,0:0|0:0,0:0:0:0:
248,352,211672,6,0,L|399:336,1,135,6|0,3:0|0:0,0:0:0:0:
228,257,212005,2,0,L|166:248,1,45,2|0,0:0|0:0,0:0:0:0:
102,344,212172,2,0,L|164:335,1,45,2|0,0:0|0:0,0:0:0:0:
194,168,212338,2,0,L|132:159,1,45,2|0,0:0|0:0,0:0:0:0:
44,267,212505,2,0,L|106:258,1,45,2|0,0:0|0:0,0:0:0:0:
81,45,212672,2,0,L|67:179,1,135,2|0,0:0|0:0,0:0:0:0:
228,257,213005,5,6,3:0:0:0:
387,171,213338,6,0,L|422:175,1,36,2|0,0:0|0:0,0:0:0:0:
459,246,213505,2,0,L|405:253,1,36,2|0,0:0|0:0,0:0:0:0:
321,163,213672,2,0,L|389:172,1,67.5,2|0,0:0|0:0,0:0:0:0:
451,338,214005,2,0,L|330:354,1,108,2|0,0:0|0:0,0:0:0:0:
162,251,214338,6,0,L|295:269,1,135,2|0,0:0|0:0,0:0:0:0:
208,167,214672,2,0,L|35:190,1,161.999995056153,2|0,0:0|0:0,0:0:0:0:
116,335,215005,2,0,L|202:346,1,45,2|0,0:0|0:0,0:0:0:0:
258,247,215172,2,0,L|302:240,1,45,2|0,0:0|0:0,0:0:0:0:
75,167,215338,2,0,L|30:174,1,45,2|0,0:0|0:0,0:0:0:0:
267,252,215505,2,0,L|311:245,1,45,2|0,0:0|0:0,0:0:0:0:
191,66,215672,6,0,L|197:21,3,45,14|0|2|0,0:0|0:0|0:0|0:0,0:0:0:0:
321,163,216005,2,0,L|314:118,3,45,10|0|2|0,0:0|0:0|0:0|0:0,0:0:0:0:
191,260,216338,2,0,L|197:215,1,45,10|0,0:0|0:0,0:0:0:0:
270,360,216505,2,0,L|288:318,1,45,2|0,0:0|0:0,0:0:0:0:
87,334,216672,2,0,L|80:289,3,45,10|0|2|0,0:0|0:0|0:0|0:0,0:0:0:0:
0,147,217005,5,10,0:0:0:0:
39,125,217088,1,0,0:0:0:0:
83,121,217172,1,2,0:0:0:0:
125,135,217255,1,0,0:0:0:0:
158,166,217338,1,10,0:0:0:0:
190,196,217422,1,0,0:0:0:0:
233,210,217505,1,2,0:0:0:0:
277,206,217588,1,0,0:0:0:0:
316,185,217672,6,0,L|328:124,1,45,10|0,0:0|0:0,0:0:0:0:
223,29,217838,2,0,L|232:73,1,45,2|0,0:0|0:0,0:0:0:0:
440,153,218005,6,0,L|456:74,1,67.5,14|0,0:0|0:0,0:0:0:0:
316,185,218338,5,14,0:0:0:0:
320,218,218422,1,0,0:0:0:0:
325,251,218505,1,2,0:0:0:0:
330,285,218588,1,0,0:0:0:0:
334,318,218672,2,0,L|396:324,1,45,10|0,0:0|0:0,0:0:0:0:
203,209,218838,2,0,L|158:213,1,45,2|0,0:0|0:0,0:0:0:0:
344,333,219005,6,0,L|406:339,3,45,10|0|2|0,0:0|0:0|0:0|0:0,0:0:0:0:
190,196,219338,2,0,L|127:202,3,45,10|0|2|0,0:0|0:0|0:0|0:0,0:0:0:0:
380,179,219672,6,0,L|385:96,3,53.9999983520508,10|0|2|0,0:0|0:0|0:0|0:0,0:0:0:0:
233,302,220005,2,0,L|236:355,3,49.5000015106202,10|0|2|0,0:0|0:0|0:0|0:0,0:0:0:0:
158,125,220338,6,0,P|136:118|114:117,1,45,10|0,0:0|0:0,0:0:0:0:
268,220,220505,2,0,P|285:205|297:186,1,45,2|0,0:0|0:0,0:0:0:0:
129,269,220672,2,0,P|133:290|144:310,3,45,10|0|2|0,0:0|0:0|0:0|0:0,0:0:0:0:
54,175,221005,6,0,L|-5:187,3,45,14|0|2|0,0:0|0:0|0:0|0:0,0:0:0:0:
113,21,221338,2,0,L|68:11,3,45,10|0|2|0,0:0|0:0|0:0|0:0,0:0:0:0:
182,150,221672,2,0,P|204:153|226:151,1,45,10|0,0:0|0:0,0:0:0:0:
331,53,221838,2,0,P|353:51|375:54,1,45,2|0,0:0|0:0,0:0:0:0:
459,185,222005,2,0,L|464:248,3,45,10|0|2|0,0:0|0:0|0:0|0:0,0:0:0:0:
360,370,222338,5,10,0:0:0:0:
330,336,222422,1,0,0:0:0:0:
317,294,222505,1,2,0:0:0:0:
322,250,222588,1,0,0:0:0:0:
345,211,222672,1,10,0:0:0:0:
368,173,222755,1,0,0:0:0:0:
373,128,222838,1,2,0:0:0:0:
360,86,222922,1,0,0:0:0:0:
331,53,223005,6,0,L|269:46,1,45,10|0,0:0|0:0,0:0:0:0:
420,284,223172,2,0,L|464:279,1,45,2|0,0:0|0:0,0:0:0:0:
270,138,223338,6,0,P|257:172|259:211,1,67.5,14|0,0:0|0:0,0:0:0:0:
450,57,223672,5,14,0:0:0:0:
416,53,223755,1,0,0:0:0:0:
382,49,223838,1,2,0:0:0:0:
349,46,223922,1,0,0:0:0:0:
315,42,224005,2,0,L|247:34,1,45,10|0,0:0|0:0,0:0:0:0:
136,156,224172,2,0,L|180:151,1,45,2|0,0:0|0:0,0:0:0:0:
99,37,224338,6,0,L|54:32,3,45,10|0|2|0,0:0|0:0|0:0|0:0,0:0:0:0:
217,267,224672,2,0,L|262:272,3,45,10|0|2|0,0:0|0:0|0:0|0:0,0:0:0:0:
304,182,225005,6,0,L|373:174,3,53.9999983520508,10|0|2|0,0:0|0:0|0:0|0:0,0:0:0:0:
174,356,225338,2,0,L|105:364,3,58.4999973220826,10|0|2|0,0:0|0:0|0:0|0:0,0:0:0:0:
70,260,225672,6,0,L|131:277,1,49.5000015106202,10|0,0:0|0:0,0:0:0:0:
280,343,225838,2,0,L|264:280,1,49.5000015106202,2|0,0:0|0:0,0:0:0:0:
247,120,226005,2,0,L|201:164,1,49.5000015106202,10|0,0:0|0:0,0:0:0:0:
373,224,226172,2,0,L|434:241,1,49.5000015106202,10|0,0:0|0:0,0:0:0:0:
299,38,226338,6,0,P|257:22|212:29,1,90,6|0,1:0|0:0,0:0:0:0:
159,236,226672,2,0,P|200:251|245:244,1,90,10|0,1:0|2:0,0:0:0:0:
361,165,227005,1,2,1:0:0:0:
229,137,227172,1,2,1:0:0:0:
257,327,227338,2,0,L|277:230,1,90,10|0,1:0|0:0,0:0:0:0:
95,110,227672,5,2,1:0:0:0:
123,242,227838,1,0,0:0:0:0:
2,90,228005,1,10,1:0:0:0:
188,130,228172,1,0,0:0:0:0:
53,308,228338,5,2,1:0:0:0:
81,176,228505,1,2,1:0:0:0:
243,280,228672,2,0,L|146:259,1,90,10|0,1:0|0:0,0:0:0:0:
358,203,229005,6,0,B|368:232|368:232|355:294,1,90,6|0,1:0|0:0,0:0:0:0:
242,366,229338,2,0,B|231:336|231:336|243:280,1,90,10|0,1:0|0:0,0:0:0:0:
268,167,229672,1,2,1:0:0:0:
144,222,229838,1,2,1:0:0:0:
228,91,230005,2,0,B|259:119|259:119|353:126,1,135,10|0,1:0|0:0,0:0:0:0:
264,8,230338,6,0,L|211:4,1,53.9999983520508,2|0,1:0|0:0,0:0:0:0:
123,189,230505,2,0,L|176:193,1,53.9999983520508
144,61,230672,2,0,L|90:56,1,53.9999983520508,10|0,1:0|0:0,0:0:0:0:
235,259,230838,2,0,L|288:263,1,53.9999983520508
63,293,231005,5,2,1:0:0:0:
198,134,231172,1,2,1:0:0:0:
255,340,231338,1,8,0:0:0:0:
149,276,231505,1,0,0:0:0:0:
364,234,231672,6,0,P|378:276|372:320,1,90,6|0,1:0|0:0,0:0:0:0:
440,171,232005,2,0,P|405:144|356:134,1,90,10|0,1:0|0:0,0:0:0:0:
280,286,232338,1,2,1:0:0:0:
456,268,232505,1,2,1:0:0:0:
278,187,232672,2,0,B|259:143|259:143|277:46,1,135,10|0,1:0|0:0,0:0:0:0:
366,2,233005,6,0,P|375:27|377:54,1,53.9999983520508,2|0,1:0|0:0,0:0:0:0:
412,212,233172,2,0,P|385:207|361:195,1,53.9999983520508
450,93,233338,2,0,P|432:114|410:129,1,53.9999983520508,10|0,1:0|0:0,0:0:0:0:
290,238,233505,2,0,P|280:212|278:185,1,53.9999983520508,0|0,0:0|0:0,0:0:0:0:
489,170,233672,2,0,P|496:239|455:289,1,135,2|0,1:0|0:0,0:0:0:70:soft-hitnormal4.wav
370,322,234005,2,0,L|325:318,1,45,10|0,1:0|0:0,0:0:0:0:
234,311,234172,2,0,L|189:307,1,45
50,195,234338,6,0,P|109:259|101:346,1,180,6|10,1:0|1:0,0:0:0:0:
9,294,234838,1,0,0:0:0:0:
174,181,235005,2,0,L|183:86,2,90,2|2|10,1:0|1:0|1:0,0:0:0:0:
40,103,235505,1,0,0:0:0:0:
272,159,235672,6,0,B|285:163|293:174|293:174|274:186|274:186|290:205|290:205|269:212|269:212|280:235|280:235|258:236|258:236|263:261|263:261|239:257|239:257|239:281|239:281|217:272|217:272|211:295|211:295|192:280|192:280|180:301|180:301|165:281|165:281|149:298|149:298|139:274|139:274|120:287|120:287|115:261|115:261|94:269|94:269|95:243|95:243|84:241|73:244,1,503.999984619141,6|2,1:0|1:0,0:0:0:0:
9,294,236505,1,2,1:0:0:0:
174,181,236672,1,10,1:0:0:0:
40,103,236838,2,0,L|47:138,1,36
195,369,237005,6,0,L|203:306,1,49.5000015106202,6|0,0:0|0:0,0:0:0:0:
317,288,237172,2,0,L|308:225,1,49.5000015106202,2|0,0:0|0:0,0:0:0:0:
195,207,237338,2,0,L|203:144,1,49.5000015106202,10|0,0:0|0:0,0:0:0:0:
317,126,237505,2,0,L|308:63,1,49.5000015106202,2|0,0:0|0:0,0:0:0:0:
152,32,237672,5,2,0:0:0:0:
279,201,237838,1,2,0:0:0:0:
299,3,238005,5,10,0:0:0:0:
119,170,238172,1,2,0:0:0:0:
480,91,238338,6,0,P|469:68|452:50,1,49.5000015106202,2|0,0:0|0:0,0:0:0:0:
373,217,238505,2,0,P|359:237|351:261,1,49.5000015106202,2|0,0:0|0:0,0:0:0:0:
389,123,238672,2,0,P|364:121|340:126,1,49.5000015106202,10|0,0:0|0:0,0:0:0:0:
446,278,238838,2,0,P|456:300|473:318,1,49.5000015106202,2|0,0:0|0:0,0:0:0:0:
279,201,239005,2,0,B|231:176|170:191|135:221|195:243|132:288|65:292|26:285|1:243|3:195|41:167|79:169|106:203,1,377.999988464356,10|2,0:0|0:0,0:0:0:0:
202,308,239672,6,0,P|224:308|246:303,1,45,6|0,0:0|0:0,0:0:0:0:
409,214,239838,2,0,P|397:194|382:178,1,45,2|0,0:0|0:0,0:0:0:0:
332,321,240005,2,0,P|344:301|350:280,1,45,10|0,0:0|0:0,0:0:0:0:
353,93,240172,2,0,P|331:93|309:98,1,45,2|0,0:0|0:0,0:0:0:0:
424,306,240338,5,2,0:0:0:0:
474,117,240505,1,2,0:0:0:0:
270,269,240672,1,10,0:0:0:0:
220,80,240838,1,2,0:0:0:0:
426,190,241005,6,0,P|448:200|473:204,1,49.5000015106202,2|0,0:0|0:0,0:0:0:0:
474,117,241172,2,0,P|494:102|509:83,1,49.5000015106202,2|0,0:0|0:0,0:0:0:0:
300,109,241338,6,0,P|279:123|264:142,1,49.5000015106202,10|0,0:0|0:0,0:0:0:0:
339,186,241505,2,0,P|341:210|350:233,1,49.5000015106202,2|0,0:0|0:0,0:0:0:0:
434,39,241672,6,0,L|384:33,1,49.5000015106202,2|0,0:0|0:0,0:0:0:0:
426,190,241838,2,0,L|475:184,1,49.5000015106202,2|0,0:0|0:0,0:0:0:0:
300,109,242005,6,0,L|250:103,1,49.5000015106202,10|0,0:0|0:0,0:0:0:0:
426,277,242172,2,0,L|475:271,1,49.5000015106202,2|0,0:0|0:0,0:0:0:0:
214,233,242338,5,6,0:0:0:0:
362,193,242505,1,2,0:0:0:0:
322,291,242672,1,10,0:0:0:0:
281,52,242838,1,2,0:0:0:0:
465,187,243005,5,2,0:0:0:0:
512,108,243172,1,2,0:0:0:0:
483,308,243338,5,10,0:0:0:0:
389,100,243505,1,2,0:0:0:0:
307,310,243672,6,0,L|257:306,1,49.5000015106202,2|0,0:0|0:0,0:0:0:0:
152,208,243838,2,0,L|202:204,1,49.5000015106202,2|0,0:0|0:0,0:0:0:0:
320,158,244005,2,0,L|378:164,1,58.4999973220826,10|0,0:0|0:0,0:0:0:0:
133,336,244172,2,0,L|74:329,1,58.4999973220826,2|0,0:0|0:0,0:0:0:0:
18,138,244338,6,0,B|47:105|91:102|91:102|143:122|143:122|216:117,1,202.500007724762,2|0,0:0|0:0,0:0:0:0:
235,30,244672,2,0,L|166:34,1,53.9999983520508,10|0,0:0|0:0,0:0:0:0:
121,209,244838,2,0,L|175:206,1,53.9999983520508,2|0,0:0|0:0,0:0:0:0:
406,166,245005,6,0,P|303:158|266:264,1,225,6|10,0:0|0:0,0:0:0:0:
316,325,245505,1,2,0:0:0:0:
177,281,245672,5,2,0:0:0:0:
349,233,245838,1,2,0:0:0:0:
225,373,246005,5,10,0:0:0:0:
301,141,246172,1,2,0:0:0:0:
376,375,246338,6,0,L|409:377,1,33.7500012874604,2|0,0:0|0:0,0:0:0:0:
256,275,246505,2,0,L|222:272,1,33.7500012874604,2|0,0:0|0:0,0:0:0:0:
442,191,246672,1,10,0:0:0:0:
208,99,246838,1,2,0:0:0:0:
370,27,247005,5,10,0:0:0:0:
370,27,247172,1,2,0:0:0:0:
159,222,247338,1,10,0:0:0:0:
159,222,247505,1,2,0:0:0:0:
396,213,247672,6,0,B|438:203|470:171|488:124|482:84|433:67|390:79|374:117|400:165,1,237.599999274902,6|2,0:0|0:0,0:0:0:0:
474,273,248172,1,2,0:0:0:0:
309,160,248338,6,0,B|259:122|175:153|220:183|132:204|75:153,1,237.599999274902,6|2,0:0|0:0,0:0:0:0:
187,269,248838,1,2,0:0:0:0:
146,83,249005,6,0,B|134:53|103:44|103:44|146:7|206:17|183:45|239:48|288:16,1,237.599999274902,6|2,0:0|0:0,0:0:0:0:
67,128,249505,1,2,0:0:0:0:
212,221,249672,6,0,P|213:317|134:262,1,237.599999274902,6|2,0:0|0:0,0:0:0:0:
333,61,250338,6,0,L|344:238,1,178.199999456177,6|0,0:0|0:0,0:0:0:0:
426,142,250672,2,0,P|453:131|483:131,1,59.3999998187256,2|0,0:0|0:0,0:0:0:0:
384,312,250838,2,0,P|355:321|325:320,1,59.3999998187256,2|0,0:0|0:0,0:0:0:0:
173,246,251005,6,0,P|96:216|18:263,1,178.199999456177,6|0,0:0|0:0,0:0:0:0:
95,374,251338,2,0,L|101:314,1,59.3999998187256,2|0,0:0|0:0,0:0:0:0:
260,200,251505,2,0,L|266:259,1,59.3999998187256,2|0,0:0|0:0,0:0:0:0:
92,119,251672,6,0,B|71:108|55:106|55:106|88:101|101:96|101:96|145:104|145:104|159:96|195:93,1,178.199999456177,6|0,0:0|0:0,0:0:0:0:
361,159,252005,2,0,L|370:246,1,59.3999998187256,2|0,0:0|0:0,0:0:0:0:
281,59,252172,2,0,L|287:-1,1,59.3999998187256,2|2,0:0|0:0,0:0:0:0:
448,101,252338,6,0,B|462:237|462:237|444:285|444:285|454:385,1,283.499991348267,6|0,0:0|0:0,0:0:0:0:
348,291,253005,6,0,B|281:246|214:292|214:292|256:226|242:146|197:182|178:93|235:42,1,396,6|0,0:0|0:0,0:0:0:0:
468,0,255006,5,6,0:0:0:0:
483,27,255089,1,0,0:0:0:0:
489,57,255172,1,0,0:0:0:0:
483,88,255256,1,0,0:0:0:0:
468,115,255339,1,10,0:0:0:0:
445,136,255422,1,0,0:0:0:0:
415,147,255506,5,0,0:0:0:0:
401,175,255589,1,0,0:0:0:0:
399,206,255672,1,2,0:0:0:0:
407,237,255756,1,0,0:0:0:0:
425,262,255839,1,0,0:0:0:0:
451,279,255922,1,0,0:0:0:0:
482,286,256006,2,0,L|500:222,3,45,10|0|0|0,0:0|0:0|0:0|0:0,0:0:0:0:
333,301,256339,5,2,0:0:0:0:
310,303,256422,1,0,0:0:0:0:
288,305,256506,1,0,0:0:0:0:
265,308,256589,1,0,0:0:0:0:
243,310,256672,1,10,0:0:0:0:
221,312,256756,1,0,0:0:0:0:
198,315,256839,5,0,0:0:0:0:
217,290,256922,1,0,0:0:0:0:
229,261,257006,1,2,0:0:0:0:
231,230,257089,1,0,0:0:0:0:
223,199,257172,1,0,0:0:0:0:
207,173,257256,1,0,0:0:0:0:
190,146,257339,1,10,0:0:0:0:
182,116,257422,1,0,0:0:0:0:
184,84,257506,1,0,0:0:0:0:
196,55,257589,1,0,0:0:0:0:
216,31,257672,5,6,0:0:0:0:
230,73,257756,1,0,0:0:0:0:
223,117,257839,1,0,0:0:0:0:
196,152,257922,1,0,0:0:0:0:
156,171,258006,1,10,0:0:0:0:
111,168,258089,1,0,0:0:0:0:
73,145,258172,5,0,0:0:0:0:
92,109,258256,1,0,0:0:0:0:
128,91,258339,1,2,0:0:0:0:
168,90,258422,1,0,0:0:0:0:
201,105,258506,1,0,0:0:0:0:
224,125,258589,1,0,0:0:0:0:
248,144,258672,5,10,0:0:0:0:
278,152,258756,1,0,0:0:0:0:
309,147,258839,1,0,0:0:0:0:
337,134,258922,1,0,0:0:0:0:
360,110,259006,6,0,P|366:78|365:47,1,53.9999983520508,6|0,0:0|0:0,0:0:0:0:
418,185,259172,2,0,P|448:175|474:158,1,53.9999983520508,0|0,0:0|0:0,0:0:0:0:
382,272,259339,2,0,P|405:293|433:307,1,53.9999983520508,10|0,0:0|0:0,0:0:0:0:
288,284,259506,2,0,P|281:315|282:346,1,53.9999983520508,0|0,0:0|0:0,0:0:0:0:
279,189,259672,6,0,P|253:195|230:208,1,53.9999983520508,6|0,0:0|0:0,0:0:0:0:
150,118,259839,2,0,P|143:144|143:171,1,53.9999983520508,0|0,0:0|0:0,0:0:0:0:
24,193,260006,2,0,P|43:212|65:226,1,53.9999983520508,10|0,0:0|0:0,0:0:0:0:
25,339,260172,2,0,P|52:333|76:320,1,53.9999983520508,0|0,0:0|0:0,0:0:0:0:
217,374,260339,5,6,0:0:0:0:
251,354,260422,1,0,0:0:0:0:
276,323,260505,1,0,0:0:0:0:
288,284,260589,1,0,0:0:0:0:
285,244,260672,1,10,0:0:0:0:
266,208,260755,1,0,0:0:0:0:
237,186,260839,5,0,0:0:0:0:
213,163,260922,1,0,0:0:0:0:
198,133,261005,1,2,0:0:0:0:
194,99,261089,1,0,0:0:0:0:
202,67,261172,1,0,0:0:0:0:
220,39,261255,1,0,0:0:0:0:
247,20,261339,2,0,L|293:15,3,45,10|0|0|0,0:0|0:0|0:0|0:0,0:0:0:0:
440,72,261672,5,2,0:0:0:0:
436,103,261756,1,0,0:0:0:0:
433,134,261839,1,0,0:0:0:0:
430,165,261922,1,0,0:0:0:0:
426,197,262006,1,10,0:0:0:0:
423,228,262089,1,0,0:0:0:0:
419,260,262172,5,0,0:0:0:0:
379,281,262256,1,0,0:0:0:0:
335,282,262339,1,2,0:0:0:0:
295,262,262422,1,0,0:0:0:0:
255,242,262506,1,0,0:0:0:0:
210,243,262589,1,0,0:0:0:0:
171,264,262672,5,10,0:0:0:0:
169,287,262756,1,0,0:0:0:0:
167,309,262839,1,0,0:0:0:0:
166,332,262922,1,0,0:0:0:0:
164,354,263006,5,2,0:0:0:0:
207,346,263089,1,0,0:0:0:0:
243,319,263172,1,0,0:0:0:0:
261,278,263256,1,0,0:0:0:0:
257,234,263339,1,10,0:0:0:0:
232,197,263422,1,0,0:0:0:0:
193,176,263506,5,0,0:0:0:0:
220,155,263589,1,0,0:0:0:0:
252,145,263672,1,2,0:0:0:0:
286,145,263756,1,0,0:0:0:0:
317,155,263839,1,0,0:0:0:0:
344,175,263922,1,0,0:0:0:0:
368,198,264006,5,10,0:0:0:0:
401,193,264089,1,0,0:0:0:0:
434,188,264172,1,0,0:0:0:0:
468,183,264256,1,0,0:0:0:0:
501,179,264339,5,2,0:0:0:0:
491,144,264422,1,0,0:0:0:0:
455,136,264506,1,0,0:0:0:0:
445,102,264589,1,0,0:0:0:0:
410,94,264672,1,10,0:0:0:0:
400,60,264756,1,0,0:0:0:0:
364,52,264839,1,0,0:0:0:0:
354,18,264922,1,0,0:0:0:0:
317,10,265006,6,0,P|264:84|323:162,1,202.500007724762,6|0,0:0|0:0,0:0:0:0:
344,85,265339,2,0,B|268:79|268:79|227:100|227:100|144:94,1,202.500007724762,10|0,0:0|0:0,0:0:0:0:
88,234,265672,5,6,0:0:0:0:
122,206,265756,1,0,0:0:0:0:
166,195,265839,1,0,0:0:0:0:
210,203,265922,1,0,0:0:0:0:
246,229,266006,1,10,0:0:0:0:
282,254,266089,1,0,0:0:0:0:
326,263,266172,1,0,0:0:0:0:
369,252,266256,1,0,0:0:0:0:
404,224,266339,6,0,L|410:159,1,45,2|0,0:0|0:0,0:0:0:0:
417,89,266506,2,0,L|423:24,1,45,0|0,0:0|0:0,0:0:0:0:
274,164,266672,2,0,L|278:208,1,45,10|0,0:0|0:0,0:0:0:0:
287,299,266839,2,0,L|291:343,1,45,0|0,0:0|0:0,0:0:0:0:
144,234,267006,5,2,0:0:0:0:
146,202,267089,1,0,0:0:0:0:
149,171,267172,1,0,0:0:0:0:
152,139,267256,1,0,0:0:0:0:
155,108,267339,1,10,0:0:0:0:
158,77,267422,1,0,0:0:0:0:
160,45,267506,5,0,0:0:0:0:
128,41,267589,1,0,0:0:0:0:
98,50,267672,1,2,0:0:0:0:
74,69,267756,1,0,0:0:0:0:
59,97,267839,1,0,0:0:0:0:
55,128,267922,1,0,0:0:0:0:
64,158,268006,5,10,0:0:0:0:
86,153,268089,1,0,0:0:0:0:
108,148,268172,1,0,0:0:0:0:
130,143,268256,1,0,0:0:0:0:
152,139,268339,5,6,0:0:0:0:
181,171,268422,1,0,0:0:0:0:
188,215,268506,1,0,0:0:0:0:
170,256,268589,1,0,0:0:0:0:
132,280,268672,1,10,0:0:0:0:
88,279,268756,1,0,0:0:0:0:
51,255,268839,5,0,0:0:0:0:
73,221,268922,1,0,0:0:0:0:
109,203,269006,1,2,0:0:0:0:
149,205,269089,1,0,0:0:0:0:
181,219,269172,1,0,0:0:0:0:
204,240,269256,1,0,0:0:0:0:
227,260,269339,5,10,0:0:0:0:
257,269,269422,1,0,0:0:0:0:
288,266,269506,1,0,0:0:0:0:
316,252,269589,1,0,0:0:0:0:
337,227,269672,6,0,P|349:202|354:170,1,53.9999983520508,6|0,0:0|0:0,0:0:0:0:
400,113,269839,2,0,P|384:90|359:69,1,53.9999983520508,0|0,0:0|0:0,0:0:0:0:
332,2,270006,2,0,P|304:4|274:15,1,53.9999983520508,10|0,0:0|0:0,0:0:0:0:
201,3,270172,2,0,P|189:28|184:60,1,53.9999983520508,0|0,0:0|0:0,0:0:0:0:
251,163,270339,6,0,P|227:149|201:144,1,53.9999983520508,6|0,0:0|0:0,0:0:0:0:
114,112,270506,2,0,P|90:125|72:145,1,53.9999983520508,0|0,0:0|0:0,0:0:0:0:
4,205,270672,2,0,P|4:231|12:257,1,53.9999983520508,10|0,0:0|0:0,0:0:0:0:
25,349,270839,2,0,P|48:362|74:367,1,53.9999983520508,0|0,0:0|0:0,0:0:0:0:
183,307,271006,5,6,0:0:0:0:
199,280,271089,1,0,0:0:0:0:
223,259,271173,1,0,0:0:0:0:
251,245,271256,1,0,0:0:0:0:
282,239,271339,1,10,0:0:0:0:
313,242,271423,1,0,0:0:0:0:
342,253,271506,1,0,0:0:0:0:
367,272,271589,1,0,0:0:0:0:
387,297,271672,5,2,0:0:0:0:
372,268,271756,1,0,0:0:0:0:
369,238,271839,1,0,0:0:0:0:
377,208,271922,1,0,0:0:0:0:
395,183,272006,1,10,0:0:0:0:
413,157,272089,1,0,0:0:0:0:
421,127,272172,1,0,0:0:0:0:
418,96,272256,1,0,0:0:0:0:
403,67,272339,6,0,P|378:56|351:53,1,53.9999983520508,2|0,0:0|0:0,0:0:0:0:
449,244,272506,2,0,P|475:240|500:230,1,53.9999983520508
398,51,272672,6,0,P|372:42|345:40,1,53.9999983520508,10|0,0:0|0:0,0:0:0:0:
460,253,272839,2,0,P|486:247|510:235,1,53.9999983520508
347,126,273006,5,2,0:0:0:0:
311,114,273089,1,0,0:0:0:0:
273,117,273172,1,0,0:0:0:0:
240,134,273255,1,0,0:0:0:0:
216,162,273339,1,10,0:0:0:0:
205,198,273422,1,0,0:0:0:0:
208,236,273505,1,0,0:0:0:0:
226,269,273589,1,0,0:0:0:0:
255,292,273672,6,0,L|271:216,3,53.9999983520508,2|0|0|0,0:0|0:0|0:0|0:0,0:0:0:0:
182,172,274006,2,0,L|166:95,3,53.9999983520508,10|0|0|0,0:0|0:0|0:0|0:0,0:0:0:0:
255,52,274339,2,0,L|270:-24,3,53.9999983520508,2|0|0|0,0:0|0:0|0:0|0:0,0:0:0:0:
75,31,274672,5,10,0:0:0:0:
75,31,274756,1,0,0:0:0:0:
75,31,274839,1,0,0:0:0:0:
75,31,274922,1,0,0:0:0:0:
75,31,275006,5,2,0:0:0:0:
87,73,275089,1,0,0:0:0:0:
116,107,275172,1,0,0:0:0:0:
156,126,275256,1,0,0:0:0:0:
201,126,275339,1,10,0:0:0:0:
242,108,275422,1,0,0:0:0:0:
282,89,275506,1,0,0:0:0:0:
327,89,275589,1,0,0:0:0:0:
367,108,275672,1,2,0:0:0:0:
396,142,275756,1,0,0:0:0:0:
409,185,275839,5,8,0:0:0:0:
334,166,275922,1,8,0:0:0:0:
270,208,276006,1,8,0:0:0:0:
257,283,276089,1,8,0:0:0:0:
302,345,276172,1,8,0:0:0:0:
378,353,276256,1,8,0:0:0:0:
437,303,276339,6,0,L|453:73,1,215.999993408203,4|8,0:0|0:0,0:0:0:0:
350,262,276839,1,8,0:0:0:0:
118,150,277006,6,0,L|347:166,1,215.999993408203,4|8,0:0|0:0,0:0:0:0:
146,241,277506,1,8,0:0:0:0:
249,73,277672,6,0,P|212:-15|162:65,1,236.250009012223,4|0,0:0|0:0,0:0:0:0:
297,151,278339,2,0,P|326:123|340:85,1,80.9999975280763,0|0,0:0|0:0,0:0:0:0:
69,66,278672,2,0,P|78:105|104:137,1,80.9999975280763,0|0,0:0|0:0,0:0:0:0:
196,199,279006,6,0,P|171:313|55:307,1,252,6|0,0:0|0:0,0:0:0:0:
15,230,279672,2,0,L|116:241,1,101.250003862381,0|0,0:0|0:0,0:0:0:0:
209,318,280006,2,0,L|309:307,1,101.250003862381,0|0,0:0|0:0,0:0:0:0:
421,361,280339,2,0,B|427:294|427:294|453:258|453:258|460:186,1,180,6|0,0:0|0:0,0:0:0:0:
474,64,280839,1,6,0:0:0:0:
228,198,281006,1,6,0:0:0:0:
321,18,281339,6,0,B|328:85,1,67.5,0|0,0:0|0:0,0:0:0:0:
338,98,281672,6,0,P|252:77|276:163,1,215.999993408203,4|8,0:0|0:0,0:0:0:0:
365,186,282172,1,8,0:0:0:0:
251,77,282339,6,0,P|154:108|148:209,1,215.999993408203,4|8,0:0|0:0,0:0:0:0:
251,266,282839,1,8,0:0:0:0:
155,108,283006,6,0,P|39:156|46:296,1,270.000010299683,12|0,0:0|0:0,0:0:0:0:
325,340,284005,6,0,L|245:334,1,67.5
183,369,284339,6,0,B|226:342|266:285|257:233|228:201|176:208|158:242|166:274,1,252,6|4,0:0|0:0,0:0:0:0:
325,254,285005,2,0,L|336:143,1,101.250003862381,0|0,0:0|0:0,0:0:0:0:
227,37,285339,2,0,L|237:137,1,101.250003862381,0|0,0:0|0:0,0:0:0:0:
489,80,285672,6,0,L|321:63,1,168.750006437302,6|0,0:0|0:0,0:0:0:0:
209,113,286172,1,6,0:0:0:0:
383,11,286339,2,0,B|420:48|408:138|361:97|352:173|393:229,1,215.999993408203,8|0,0:0|0:0,0:0:0:0:
250,235,287672,6,0,L|170:246,1,67.5,0|0,0:0|0:0,0:0:0:0:
123,266,288005,2,0,L|224:280,1,101.250003862381,0|0,0:0|0:0,0:0:0:0:
56,368,288339,5,6,0:0:0:0:
32,347,288422,1,0,0:0:0:0:
14,321,288505,1,0,0:0:0:0:
4,292,288589,1,0,0:0:0:0:
2,260,288672,1,10,0:0:0:0:
7,229,288755,1,0,0:0:0:0:
20,201,288839,1,0,0:0:0:0:
41,177,288922,1,0,0:0:0:0:
66,159,289005,6,0,L|110:154,3,45,2|0|0|0,0:0|0:0|0:0|0:0,0:0:0:0:
178,274,289339,2,0,L|222:278,3,45,10|0|0|0,0:0|0:0|0:0|0:0,0:0:0:0:
267,136,289672,5,2,0:0:0:0:
284,110,289755,1,0,0:0:0:0:
288,79,289839,1,0,0:0:0:0:
278,50,289922,1,0,0:0:0:0:
255,29,290005,1,10,0:0:0:0:
224,20,290089,1,0,0:0:0:0:
194,27,290172,1,0,0:0:0:0:
170,47,290255,1,0,0:0:0:0:
158,76,290339,6,0,L|148:140,3,45,2|0|0|0,0:0|0:0|0:0|0:0,0:0:0:0:
235,213,290672,2,0,L|244:277,3,45,10|0|0|0,0:0|0:0|0:0|0:0,0:0:0:0:
312,91,291005,5,2,0:0:0:0:
338,66,291089,1,0,0:0:0:0:
372,56,291172,1,0,0:0:0:0:
407,63,291255,1,0,0:0:0:0:
435,85,291339,1,10,0:0:0:0:
450,117,291422,1,0,0:0:0:0:
449,152,291505,1,0,0:0:0:0:
432,184,291589,1,0,0:0:0:0:
403,204,291672,1,2,0:0:0:0:
373,224,291755,1,0,0:0:0:0:
356,255,291839,1,0,0:0:0:0:
355,291,291922,1,0,0:0:0:0:
370,323,292005,1,10,0:0:0:0:
398,345,292089,1,0,0:0:0:0:
433,351,292172,1,0,0:0:0:0:
468,341,292255,1,0,0:0:0:0:
494,317,292339,5,2,0:0:0:0:
466,294,292422,1,0,0:0:0:0:
434,277,292505,1,0,0:0:0:0:
399,268,292589,1,0,0:0:0:0:
363,265,292672,1,10,0:0:0:0:
328,270,292755,1,0,0:0:0:0:
294,282,292839,1,0,0:0:0:0:
263,301,292922,1,0,0:0:0:0:
238,327,293005,5,2,0:0:0:0:
206,345,293089,1,0,0:0:0:0:
172,353,293172,1,0,0:0:0:0:
135,350,293255,1,0,0:0:0:0:
102,337,293339,5,10,0:0:0:0:
136,327,293422,1,0,0:0:0:0:
166,306,293505,1,0,0:0:0:0:
188,278,293589,1,0,0:0:0:0:
200,243,293672,5,6,0:0:0:0:
167,257,293755,1,0,0:0:0:0:
132,251,293839,1,0,0:0:0:0:
104,230,293922,1,0,0:0:0:0:
92,197,294005,1,10,0:0:0:0:
99,162,294089,1,0,0:0:0:0:
123,136,294172,1,0,0:0:0:0:
158,126,294255,1,0,0:0:0:0:
192,136,294339,5,2,0:0:0:0:
233,153,294422,1,0,0:0:0:0:
277,154,294505,1,0,0:0:0:0:
320,140,294589,1,0,0:0:0:0:
354,111,294672,5,10,0:0:0:0:
309,110,294755,1,0,0:0:0:0:
268,93,294839,1,0,0:0:0:0:
236,62,294922,1,0,0:0:0:0:
218,22,295005,5,2,0:0:0:0:
214,56,295089,1,0,0:0:0:0:
198,88,295172,1,0,0:0:0:0:
171,111,295255,1,0,0:0:0:0:
136,123,295339,1,10,0:0:0:0:
102,121,295422,1,0,0:0:0:0:
69,106,295505,1,0,0:0:0:0:
44,79,295589,1,0,0:0:0:0:
33,44,295672,6,0,L|39:-3,3,45,2|0|0|0,0:0|0:0|0:0|0:0,0:0:0:0:
158,192,296005,2,0,L|162:236,3,45,10|0|0|0,0:0|0:0|0:0|0:0,0:0:0:0:
287,11,296339,5,2,0:0:0:0:
287,11,296422,1,0,0:0:0:0:
287,11,296505,2,0,L|348:19,1,45,0|0,0:0|0:0,0:0:0:0:
492,122,296672,5,10,0:0:0:0:
492,122,296755,1,0,0:0:0:0:
492,122,296839,2,0,L|430:130,1,45,0|0,0:0|0:0,0:0:0:0:
322,225,297005,5,2,0:0:0:0:
322,225,297089,1,0,0:0:0:0:
322,225,297172,2,0,L|383:233,1,45
498,113,297339,6,0,L|453:118,1,45,10|0,0:0|0:0,0:0:0:0:
281,3,297505,2,0,L|326:8,1,45,0|0,0:0|0:0,0:0:0:0:
409,194,297672,5,2,0:0:0:0:
414,224,297755,1,0,0:0:0:0:
409,255,297839,1,0,0:0:0:0:
393,283,297922,1,0,0:0:0:0:
370,303,298005,1,10,0:0:0:0:
340,314,298089,1,0,0:0:0:0:
309,315,298172,1,0,0:0:0:0:
279,306,298255,1,0,0:0:0:0:
255,286,298339,6,0,P|137:263|139:381,1,270,6|0,0:0|0:0,0:0:0:0:
187,321,298672,2,0,B|235:265|213:172|170:223|141:130|201:55,1,270,10|0,0:0|0:0,0:0:0:0:
426,40,299005,5,6,0:0:0:0:
430,71,299089,1,0,0:0:0:0:
423,101,299172,1,0,0:0:0:0:
407,128,299255,1,0,0:0:0:0:
383,149,299339,1,10,0:0:0:0:
354,160,299422,1,0,0:0:0:0:
323,162,299505,1,0,0:0:0:0:
292,153,299589,1,0,0:0:0:0:
267,136,299672,6,0,P|259:114|258:91,3,45,2|0|0|0,0:0|0:0|0:0|0:0,0:0:0:0:
388,238,300005,2,0,P|394:258|395:281,3,45,10|0|0|0,0:0|0:0|0:0|0:0,0:0:0:0:
344,67,300339,5,2,0:0:0:0:
371,51,300422,1,0,0:0:0:0:
402,46,300505,1,0,0:0:0:0:
433,50,300589,1,0,0:0:0:0:
461,63,300672,1,10,0:0:0:0:
484,85,300755,1,0,0:0:0:0:
499,113,300839,1,0,0:0:0:0:
504,144,300922,1,0,0:0:0:0:
500,175,301005,6,0,L|442:187,3,45,2|0|0|0,0:0|0:0|0:0|0:0,0:0:0:0:
315,269,301339,2,0,L|256:256,3,45,10|0|0|0,0:0|0:0|0:0|0:0,0:0:0:0:
253,87,301672,5,2,0:0:0:0:
227,68,301755,1,0,0:0:0:0:
197,61,301839,1,0,0:0:0:0:
166,66,301922,1,0,0:0:0:0:
140,83,302005,1,10,0:0:0:0:
122,108,302089,1,0,0:0:0:0:
116,139,302172,1,0,0:0:0:0:
122,170,302255,1,0,0:0:0:0:
139,196,302339,5,2,0:0:0:0:
155,227,302422,1,0,0:0:0:0:
159,263,302505,1,0,0:0:0:0:
152,298,302589,1,0,0:0:0:0:
133,328,302672,5,10,0:0:0:0:
119,294,302755,1,0,0:0:0:0:
95,268,302839,1,0,0:0:0:0:
63,251,302922,1,0,0:0:0:0:
28,245,303005,5,2,0:0:0:0:
50,217,303089,1,0,0:0:0:0:
79,195,303172,1,0,0:0:0:0:
111,180,303255,1,0,0:0:0:0:
147,174,303339,1,10,0:0:0:0:
183,176,303422,1,0,0:0:0:0:
217,187,303505,1,0,0:0:0:0:
248,206,303589,1,0,0:0:0:0:
273,231,303672,5,2,0:0:0:0:
309,257,303755,1,0,0:0:0:0:
353,266,303839,1,0,0:0:0:0:
396,256,303922,1,0,0:0:0:0:
432,229,304005,5,10,0:0:0:0:
388,223,304089,1,0,0:0:0:0:
350,199,304172,1,0,0:0:0:0:
325,162,304255,1,0,0:0:0:0:
319,118,304339,5,6,0:0:0:0:
349,136,304422,1,0,0:0:0:0:
385,136,304505,1,0,0:0:0:0:
416,119,304589,1,0,0:0:0:0:
435,89,304672,1,10,0:0:0:0:
436,54,304755,1,0,0:0:0:0:
419,22,304839,1,0,0:0:0:0:
389,3,304922,1,0,0:0:0:0:
354,1,305005,6,0,L|337:80,3,45,2|0|0|0,0:0|0:0|0:0|0:0,0:0:0:0:
494,153,305339,2,0,L|503:197,3,45,10|0|0|0,0:0|0:0|0:0|0:0,0:0:0:0:
317,216,305672,5,2,0:0:0:0:
292,242,305755,1,0,0:0:0:0:
282,276,305839,1,0,0:0:0:0:
286,311,305922,1,0,0:0:0:0:
305,341,306005,1,10,0:0:0:0:
336,361,306089,1,0,0:0:0:0:
371,365,306172,1,0,0:0:0:0:
405,354,306255,1,0,0:0:0:0:
431,330,306339,5,2,0:0:0:0:
397,301,306422,1,0,0:0:0:0:
355,288,306505,1,0,0:0:0:0:
310,293,306589,1,0,0:0:0:0:
272,316,306672,1,10,0:0:0:0:
234,339,306755,1,0,0:0:0:0:
190,345,306839,1,0,0:0:0:0:
147,332,306922,1,0,0:0:0:0:
113,302,307005,5,2,0:0:0:0:
168,295,307089,1,0,0:0:0:0:
211,260,307172,1,0,0:0:0:0:
229,208,307255,1,0,0:0:0:0:
217,154,307339,1,10,0:0:0:0:
177,115,307422,1,0,0:0:0:0:
122,102,307505,1,0,0:0:0:0:
71,121,307589,1,0,0:0:0:0:
35,164,307672,5,2,0:0:0:0:
80,198,307755,1,0,0:0:0:0:
135,211,307839,1,0,0:0:0:0:
190,202,307922,1,0,0:0:0:0:
237,173,308005,1,10,0:0:0:0:
270,127,308089,1,0,0:0:0:0:
302,81,308172,1,0,0:0:0:0:
349,51,308255,1,0,0:0:0:0:
404,43,308339,1,2,0:0:0:0:
459,56,308422,1,0,0:0:0:0:
503,89,308505,2,0,L|496:159,1,53.9999983520508,8|0,0:0|0:0,0:0:0:0:
257,66,308672,5,0,0:0:0:0:
238,57,308755,1,0,0:0:0:0:
223,44,308839,1,0,0:0:0:0:
212,30,308922,1,0,0:0:0:0:
203,12,309005,2,0,L|216:138,1,108,8|0,0:0|0:0,0:0:0:0:
217,154,309339,5,8,0:0:0:0:
44,60,309505,2,0,L|82:56,1,33.7500012874604,8|0,0:0|0:0,0:0:0:0:
329,27,309672,5,6,0:0:0:0:
349,51,309755,1,0,0:0:0:0:
363,79,309839,1,0,0:0:0:0:
371,109,309922,1,0,0:0:0:0:
373,140,310005,1,10,0:0:0:0:
368,171,310089,1,0,0:0:0:0:
357,201,310172,1,0,0:0:0:0:
339,227,310255,1,0,0:0:0:0:
317,249,310339,6,0,L|246:258,3,45,2|0|0|0,0:0|0:0|0:0|0:0,0:0:0:0:
408,327,310672,2,0,L|478:336,3,45,10|0|0|0,0:0|0:0|0:0|0:0,0:0:0:0:
279,160,311005,5,2,0:0:0:0:
248,152,311089,1,0,0:0:0:0:
217,154,311172,1,0,0:0:0:0:
187,164,311255,1,0,0:0:0:0:
161,181,311339,1,10,0:0:0:0:
141,206,311422,1,0,0:0:0:0:
129,235,311505,1,0,0:0:0:0:
125,266,311589,1,0,0:0:0:0:
130,297,311672,6,0,L|179:286,3,45,2|0|0|0,0:0|0:0|0:0|0:0,0:0:0:0:
52,160,312005,2,0,L|2:149,3,45,10|0|0|0,0:0|0:0|0:0|0:0,0:0:0:0:
146,31,312339,5,2,0:0:0:0:
180,20,312422,1,0,0:0:0:0:
215,24,312505,1,0,0:0:0:0:
246,43,312589,1,0,0:0:0:0:
268,71,312672,1,10,0:0:0:0:
275,106,312755,1,0,0:0:0:0:
270,140,312839,1,0,0:0:0:0:
249,171,312922,1,0,0:0:0:0:
220,191,313005,1,2,0:0:0:0:
189,210,313089,1,0,0:0:0:0:
171,240,313172,1,0,0:0:0:0:
164,275,313255,1,0,0:0:0:0:
172,310,313339,1,10,0:0:0:0:
193,339,313422,1,0,0:0:0:0:
225,357,313505,1,0,0:0:0:0:
260,361,313589,1,0,0:0:0:0:
294,351,313672,5,2,0:0:0:0:
273,321,313755,1,0,0:0:0:0:
266,286,313839,1,0,0:0:0:0:
275,252,313922,1,0,0:0:0:0:
298,224,314005,1,10,0:0:0:0:
330,210,314089,1,0,0:0:0:0:
366,210,314172,1,0,0:0:0:0:
398,225,314255,1,0,0:0:0:0:
421,253,314339,5,2,0:0:0:0:
413,218,314422,1,0,0:0:0:0:
406,182,314505,1,0,0:0:0:0:
398,147,314589,1,0,0:0:0:0:
390,107,314672,5,10,0:0:0:0:
410,136,314755,1,0,0:0:0:0:
440,156,314839,1,0,0:0:0:0:
474,165,314922,1,0,0:0:0:0:
510,162,315005,5,6,0:0:0:0:
481,140,315089,1,0,0:0:0:0:
448,128,315172,1,0,0:0:0:0:
412,125,315255,1,0,0:0:0:0:
377,132,315339,1,10,0:0:0:0:
345,149,315422,1,0,0:0:0:0:
319,174,315505,1,0,0:0:0:0:
301,205,315589,1,0,0:0:0:0:
293,240,315672,5,2,0:0:0:0:
273,280,315755,1,0,0:0:0:0:
240,310,315839,1,0,0:0:0:0:
198,325,315922,1,0,0:0:0:0:
153,322,316005,5,10,0:0:0:0:
181,287,316089,1,0,0:0:0:0:
194,244,316172,1,0,0:0:0:0:
189,200,316255,1,0,0:0:0:0:
167,160,316339,5,2,0:0:0:0:
158,194,316422,1,0,0:0:0:0:
134,220,316505,1,0,0:0:0:0:
100,232,316589,1,0,0:0:0:0:
65,226,316672,1,10,0:0:0:0:
37,204,316755,1,0,0:0:0:0:
23,171,316839,1,0,0:0:0:0:
27,136,316922,1,0,0:0:0:0:
47,106,317005,6,0,L|105:94,3,45,2|0|0|0,0:0|0:0|0:0|0:0,0:0:0:0:
128,259,317339,2,0,L|172:268,3,45,10|0|0|0,0:0|0:0|0:0|0:0,0:0:0:0:
280,169,317672,5,2,0:0:0:0:
280,169,317755,1,0,0:0:0:0:
280,169,317839,2,0,L|324:163,1,45,0|0,0:0|0:0,0:0:0:0:
389,311,318005,5,10,0:0:0:0:
389,311,318089,1,0,0:0:0:0:
389,311,318172,2,0,L|361:275,1,45,0|0,0:0|0:0,0:0:0:0:
458,146,318339,5,2,0:0:0:0:
458,146,318422,1,0,0:0:0:0:
458,146,318505,2,0,L|440:187,1,45,0|0,0:0|0:0,0:0:0:0:
384,326,318672,6,0,L|356:290,1,45,10|0,0:0|0:0,0:0:0:0:
269,157,318839,2,0,L|313:151,1,45,0|0,0:0|0:0,0:0:0:0:
492,62,319005,5,2,0:0:0:0:
470,39,319089,1,0,0:0:0:0:
443,21,319172,1,0,0:0:0:0:
414,10,319255,1,0,0:0:0:0:
383,5,319339,1,10,0:0:0:0:
352,6,319422,1,0,0:0:0:0:
321,14,319505,1,0,0:0:0:0:
293,28,319589,1,0,0:0:0:0:
268,49,319672,6,0,B|208:131|264:224|264:224|235:188|188:180,1,270,6|0,0:0|0:0,0:0:0:0:
107,311,320005,2,0,P|205:349|160:254,1,270,10|0,0:0|0:0,0:0:0:0:
13,124,320339,5,6,0:0:0:0:
35,102,320422,1,0,0:0:0:0:
62,87,320505,1,0,0:0:0:0:
93,81,320589,1,0,0:0:0:0:
124,86,320672,1,10,0:0:0:0:
153,100,320755,1,0,0:0:0:0:
175,122,320839,1,0,0:0:0:0:
189,150,320922,1,0,0:0:0:0:
195,181,321005,6,0,L|187:239,3,45,2|0|0|0,0:0|0:0|0:0|0:0,0:0:0:0:
273,21,321339,2,0,L|278:65,3,45,10|0|0|0,0:0|0:0|0:0|0:0,0:0:0:0:
341,227,321672,5,2,0:0:0:0:
364,248,321755,1,0,0:0:0:0:
393,258,321839,1,0,0:0:0:0:
424,256,321922,1,0,0:0:0:0:
452,243,322005,1,10,0:0:0:0:
473,219,322089,1,0,0:0:0:0:
483,189,322172,1,0,0:0:0:0:
480,158,322255,1,0,0:0:0:0:
465,130,322339,6,0,L|390:120,3,45,2|0|0|0,0:0|0:0|0:0|0:0,0:0:0:0:
366,286,322672,2,0,L|321:292,3,45,10|0|0|0,0:0|0:0|0:0|0:0,0:0:0:0:
255,109,323005,5,2,0:0:0:0:
228,92,323089,1,0,0:0:0:0:
197,86,323172,1,0,0:0:0:0:
166,90,323255,1,0,0:0:0:0:
138,104,323339,1,10,0:0:0:0:
116,126,323422,1,0,0:0:0:0:
104,155,323505,1,0,0:0:0:0:
101,186,323589,1,0,0:0:0:0:
109,217,323672,5,2,0:0:0:0:
135,192,323755,1,0,0:0:0:0:
168,179,323839,1,0,0:0:0:0:
204,177,323922,1,0,0:0:0:0:
238,188,324005,5,10,0:0:0:0:
208,208,324089,1,0,0:0:0:0:
189,238,324172,1,0,0:0:0:0:
180,273,324255,1,0,0:0:0:0:
184,309,324339,5,2,0:0:0:0:
211,285,324422,1,0,0:0:0:0:
243,269,324505,1,0,0:0:0:0:
278,260,324589,1,0,0:0:0:0:
314,260,324672,1,10,0:0:0:0:
349,268,324755,1,0,0:0:0:0:
381,283,324839,1,0,0:0:0:0:
409,305,324922,1,0,0:0:0:0:
432,334,325005,5,2,0:0:0:0:
435,298,325089,1,0,0:0:0:0:
439,262,325172,1,0,0:0:0:0:
443,226,325255,1,0,0:0:0:0:
446,190,325339,2,0,L|452:125,1,53.9999983520508,8|0,0:0|0:0,0:0:0:0:
297,281,325505,2,0,L|302:336,1,53.9999983520508,8|0,0:0|0:0,0:0:0:0:
372,174,325672,6,0,B|327:136|240:158|277:187|194:209|139:156,1,236.250009012223,6|0,0:0|0:0,0:0:0:0:
76,95,326339,2,0,L|68:208,1,87.749995983124,0|0,0:0|0:0,0:0:0:0:
211,88,326672,1,0,0:0:0:0:
209,71,326755,1,0,0:0:0:0:
208,54,326839,1,0,0:0:0:0:
207,37,326922,1,0,0:0:0:0:
206,20,327005,6,0,P|284:27|309:113,1,170.100004152832,6|0,0:0|0:0,0:0:0:0:
271,176,327672,2,0,P|254:238|319:303,1,157.5,0|0,0:0|0:0,0:0:0:0:
330,226,328339,6,0,B|268:184|175:196|233:254|172:290|85:272|65:235|65:193|92:156|132:155|158:180,1,364.500008898926,6|0,0:0|0:0,0:0:0:0:
188,274,329672,6,0,B|183:315|155:336|155:336|124:316|119:277,1,144,6|0,0:0|0:0,0:0:0:0:
