osu file format v14

[General]
AudioFilename: emerald sword.mp3
AudioLeadIn: 1974
PreviewTime: -1
Countdown: 1
SampleSet: Normal
StackLeniency: 0.2
Mode: 0
LetterboxInBreaks: 1
WidescreenStoryboard: 1

[Editor]
Bookmarks: 53798,64797,130464,141131,201464,213131
DistanceSpacing: 1.7
BeatDivisor: 4
GridSize: 4
TimelineZoom: 3.699999

[Metadata]
Title:Emerald Sword
TitleUnicode:Emerald Sword
Artist:Rhapsody
ArtistUnicode:Rhapsody
Creator:[Lucky]
Version:OUTDATED MAP
Source:
Tags:
BeatmapID:847253
BeatmapSetID:388376

[Difficulty]
HPDrainRate:6.9
CircleSize:4.3
OverallDifficulty:8.7
ApproachRate:10
SliderMultiplier:2.55
SliderTickRate:2

[Events]
//Background and Video events
0,0,"gfdgfgsdfgdfgsdfgdgdsggdsggdfgsdgsdgsdfgdfgdfgsdfgsdfgsdgdfgsdfgsdgdfgdfgdfgdsg.jpg",0,0
//Break Periods
2,96678,108028
2,130678,140695
//Storyboard Layer 0 (Background)
//Storyboard Layer 1 (Fail)
//Storyboard Layer 2 (Pass)
//Storyboard Layer 3 (Foreground)
//Storyboard Sound Samples

[TimingPoints]
812,333.333333333333,4,1,0,80,1,0
108311,-100,4,1,0,80,0,1
129311,-100,4,1,0,80,0,0
201395,-100,4,1,0,80,0,1
212639,-100,4,1,0,80,0,0

[HitObjects]
108,140,812,5,0,0:0:0:0:
356,188,978,1,0,0:0:0:0:
132,312,1145,1,0,0:0:0:0:
268,100,1311,1,0,0:0:0:0:
300,352,1478,1,0,0:0:0:0:
148,148,1645,2,8,L|224:196,2,63.75
448,248,1978,5,0,0:0:0:0:
128,60,2145,1,0,0:0:0:0:
140,316,2311,2,0,L|76:368,2,63.75
348,320,2645,5,0,0:0:0:0:
392,276,2728,1,0,0:0:0:0:
404,224,2811,1,0,0:0:0:0:
388,164,2895,1,0,0:0:0:0:
360,112,2978,1,0,0:0:0:0:
324,68,3061,1,0,0:0:0:0:
272,44,3145,1,0,0:0:0:0:
212,40,3228,1,0,0:0:0:0:
108,284,3478,6,10,L|236:284,1,127.5
48,52,3811,1,2,0:0:0:0:
104,272,3978,1,2,0:0:0:0:
216,80,4145,1,2,0:0:0:0:
280,280,4311,2,8,L|304:184,2,63.75
444,60,4645,5,2,0:0:0:0:
332,360,4811,1,2,0:0:0:0:
104,188,4978,2,8,L|108:124,2,63.75
304,88,5311,5,2,0:0:0:0:
356,124,5395,1,2,0:0:0:0:
392,172,5478,1,2,0:0:0:0:
416,224,5561,1,2,0:0:0:0:
392,280,5645,5,2,0:0:0:0:
356,320,5728,1,0,0:0:0:0:
304,344,5811,2,10,L|132:332,1,127.5
384,72,6145,2,10,L|259:51,1,127.5
88,120,6478,6,0,L|56:184,1,63.75
88,280,6645,2,0,L|128:200,1,63.75
216,172,6811,2,0,L|136:148,2,63.75
272,196,7061,1,0,0:0:0:0:
324,168,7145,1,0,0:0:0:0:
388,80,7311,5,0,0:0:0:0:
124,208,7478,1,0,0:0:0:0:
356,320,7645,2,0,L|392:252,2,63.75
323,129,7978,5,0,0:0:0:0:
279,165,8061,1,0,0:0:0:0:
231,197,8144,1,0,0:0:0:0:
183,229,8227,1,0,0:0:0:0:
135,261,8311,1,0,0:0:0:0:
84,300,8395,2,0,L|28:376,2,63.75
264,336,8811,2,10,L|424:256,1,127.5
412,128,9145,6,0,L|340:120,1,63.75
172,140,9311,2,0,L|232:196,1,63.75
320,284,9478,2,0,L|408:200,3,63.75
116,240,9978,6,0,L|64:160,1,63.75
160,32,10145,2,0,L|208:116,3,63.75
404,116,10645,6,0,L|368:212,1,63.75
422,315,10811,2,0,L|376:360,4,63.75
416,272,11228,1,0,0:0:0:0:
372,268,11311,1,0,0:0:0:0:
328,272,11395,1,0,0:0:0:0:
280,280,11478,5,8,0:0:0:0:
232,296,11561,1,0,0:0:0:0:
184,308,11645,1,0,0:0:0:0:
136,312,11728,1,0,0:0:0:0:
96,296,11811,5,8,0:0:0:0:
56,272,11895,1,0,0:0:0:0:
64,224,11978,1,0,0:0:0:0:
112,196,12061,1,0,0:0:0:0:
164,188,12145,5,8,0:0:0:0:
208,188,12228,1,0,0:0:0:0:
260,204,12311,1,0,0:0:0:0:
308,228,12395,1,0,0:0:0:0:
352,236,12478,5,8,0:0:0:0:
400,220,12561,1,0,0:0:0:0:
432,184,12645,1,0,0:0:0:0:
436,140,12728,1,0,0:0:0:0:
424,88,12811,5,8,0:0:0:0:
388,60,12895,1,0,0:0:0:0:
336,64,12978,1,0,0:0:0:0:
288,68,13061,1,0,0:0:0:0:
240,88,13145,5,8,0:0:0:0:
192,108,13228,1,0,0:0:0:0:
144,120,13311,1,0,0:0:0:0:
104,144,13395,1,0,0:0:0:0:
72,184,13478,5,8,0:0:0:0:
84,232,13561,1,0,0:0:0:0:
108,272,13645,1,0,0:0:0:0:
152,300,13728,1,0,0:0:0:0:
204,292,13811,2,0,L|276:280,2,63.75
412,248,14144,5,0,0:0:0:0:
396,204,14228,1,0,0:0:0:0:
360,164,14311,1,0,0:0:0:0:
324,132,14395,1,0,0:0:0:0:
280,104,14478,5,8,0:0:0:0:
236,80,14561,1,0,0:0:0:0:
184,64,14645,1,0,0:0:0:0:
136,64,14728,1,0,0:0:0:0:
88,88,14811,5,8,0:0:0:0:
64,128,14895,1,0,0:0:0:0:
48,176,14978,1,0,0:0:0:0:
60,224,15061,1,0,0:0:0:0:
84,268,15145,5,8,0:0:0:0:
120,300,15228,1,0,0:0:0:0:
164,328,15311,1,0,0:0:0:0:
220,336,15395,1,0,0:0:0:0:
268,312,15478,5,8,0:0:0:0:
312,280,15561,1,0,0:0:0:0:
348,232,15645,1,0,0:0:0:0:
352,180,15728,1,0,0:0:0:0:
320,140,15811,5,8,0:0:0:0:
264,120,15895,1,0,0:0:0:0:
212,132,15978,1,0,0:0:0:0:
160,152,16061,1,0,0:0:0:0:
104,168,16145,5,8,0:0:0:0:
56,136,16228,1,0,0:0:0:0:
48,92,16311,1,0,0:0:0:0:
76,52,16395,1,0,0:0:0:0:
128,40,16478,2,8,L|192:40,2,63.75
408,64,16811,5,0,0:0:0:0:
420,120,16895,1,0,0:0:0:0:
416,176,16978,1,0,0:0:0:0:
392,224,17061,1,0,0:0:0:0:
356,264,17145,5,8,0:0:0:0:
304,284,17228,1,0,0:0:0:0:
252,300,17311,1,0,0:0:0:0:
196,300,17395,1,0,0:0:0:0:
148,276,17478,5,8,0:0:0:0:
104,240,17561,1,0,0:0:0:0:
64,204,17645,1,0,0:0:0:0:
48,156,17728,1,0,0:0:0:0:
56,112,17811,5,8,0:0:0:0:
92,64,17895,1,0,0:0:0:0:
144,40,17978,1,0,0:0:0:0:
196,32,18061,1,0,0:0:0:0:
248,32,18145,5,8,0:0:0:0:
304,32,18228,1,0,0:0:0:0:
340,60,18311,1,0,0:0:0:0:
344,104,18395,1,0,0:0:0:0:
312,132,18478,5,8,0:0:0:0:
264,152,18561,1,0,0:0:0:0:
212,148,18645,1,0,0:0:0:0:
164,136,18728,1,0,0:0:0:0:
116,160,18811,5,8,0:0:0:0:
96,200,18895,1,0,0:0:0:0:
100,252,18978,1,0,0:0:0:0:
148,272,19061,1,0,0:0:0:0:
204,292,19145,2,8,L|272:292,2,63.75
372,296,19478,5,0,0:0:0:0:
396,248,19561,1,0,0:0:0:0:
376,200,19645,1,0,0:0:0:0:
328,176,19728,1,0,0:0:0:0:
276,172,19811,5,8,0:0:0:0:
228,184,19895,1,0,0:0:0:0:
172,176,19978,1,0,0:0:0:0:
128,144,20061,1,0,0:0:0:0:
116,88,20145,5,8,0:0:0:0:
144,36,20228,1,0,0:0:0:0:
192,20,20311,1,0,0:0:0:0:
240,12,20395,1,0,0:0:0:0:
296,16,20478,5,8,0:0:0:0:
336,52,20561,1,0,0:0:0:0:
340,96,20645,1,0,0:0:0:0:
316,144,20728,1,0,0:0:0:0:
272,188,20811,5,8,0:0:0:0:
232,224,20895,1,0,0:0:0:0:
200,268,20978,1,0,0:0:0:0:
188,320,21061,1,0,0:0:0:0:
224,360,21145,5,8,0:0:0:0:
280,360,21228,1,0,0:0:0:0:
320,320,21311,1,0,0:0:0:0:
352,272,21395,1,0,0:0:0:0:
376,224,21478,5,8,0:0:0:0:
368,176,21561,1,0,0:0:0:0:
328,136,21645,1,0,0:0:0:0:
280,108,21728,1,0,0:0:0:0:
224,108,21811,2,8,L|144:124,2,63.75
168,336,22145,6,0,L|205:284,1,63.75
88,188,22311,2,0,L|147:213,1,63.75
264,80,22478,2,0,L|247:142,2,63.75
388,292,22811,6,0,L|368:268,4,31.875
256,192,23145,1,0,0:0:0:0:
72,36,23311,1,0,0:0:0:0:
440,36,23478,1,0,0:0:0:0:
172,288,23645,6,0,L|172:216,1,63.75
172,116,23811,1,0,0:0:0:0:
336,288,23978,1,0,0:0:0:0:
264,116,24145,5,0,0:0:0:0:
248,176,24228,1,0,0:0:0:0:
264,240,24311,1,0,0:0:0:0:
248,304,24395,1,0,0:0:0:0:
264,360,24478,1,0,0:0:0:0:
152,360,24645,1,0,0:0:0:0:
460,256,24811,6,0,L|468:180,1,63.75
324,124,24978,2,0,L|280:56,1,63.75
164,188,25145,2,0,L|68:160,1,63.75
60,160,25311,1,0,0:0:0:0:
276,320,25478,6,0,L|296:344,4,31.875
440,308,25811,2,0,L|428:236,1,63.75
388,196,25978,1,0,0:0:0:0:
360,80,26145,5,4,0:0:0:0:
296,92,26228,1,0,0:0:0:0:
236,116,26311,1,0,0:0:0:0:
180,128,26395,5,4,0:0:0:0:
124,128,26478,1,0,0:0:0:0:
76,156,26561,1,0,0:0:0:0:
48,208,26645,5,4,0:0:0:0:
64,264,26728,1,0,0:0:0:0:
112,296,26811,2,0,P|252:280|240:232,1,191.25
296,180,27145,5,0,0:0:0:0:
80,36,27311,1,0,0:0:0:0:
40,328,27478,2,2,L|152:344,1,63.75
156,348,27645,1,2,0:0:0:0:
432,300,27811,5,0,0:0:0:0:
404,160,27978,2,4,L|384:84,1,63.75
320,80,28145,1,4,0:0:0:0:
252,256,28311,1,0,0:0:0:0:
144,100,28478,6,0,L|64:116,2,63.75
340,312,28811,2,0,L|402:299,2,63.75
256,328,29061,2,0,L|156:352,2,63.75
220,60,29478,2,0,L|280:192,1,127.5
300,320,29811,1,0,0:0:0:0:
404,84,29978,1,0,0:0:0:0:
268,152,30145,5,8,0:0:0:0:
228,112,30228,1,8,0:0:0:0:
176,88,30311,1,8,0:0:0:0:
120,104,30395,5,8,0:0:0:0:
92,152,30478,1,8,0:0:0:0:
100,208,30561,1,8,0:0:0:0:
108,264,30645,5,8,0:0:0:0:
140,312,30728,1,8,0:0:0:0:
192,336,30811,2,14,L|256:324,2,63.75
316,184,31145,5,2,0:0:0:0:
124,48,31311,1,2,0:0:0:0:
288,56,31478,5,0,0:0:0:0:
348,80,31561,1,0,0:0:0:0:
364,144,31645,1,0,0:0:0:0:
332,200,31728,1,0,0:0:0:0:
284,244,31811,1,0,0:0:0:0:
236,276,31895,5,0,0:0:0:0:
172,280,31978,1,0,0:0:0:0:
116,252,32061,1,0,0:0:0:0:
92,200,32145,2,0,B|80:128|136:88|168:96|168:96|204:172|204:172|264:124|264:124,1,255
268,152,32561,2,0,L|348:200,1,63.75
184,56,32811,6,0,L|336:68,1,127.5
416,80,33145,1,0,0:0:0:0:
452,148,33228,1,0,0:0:0:0:
460,220,33311,1,0,0:0:0:0:
368,304,33478,6,0,L|224:272,1,127.5
96,272,33811,1,0,0:0:0:0:
64,212,33894,1,0,0:0:0:0:
68,144,33978,1,0,0:0:0:0:
248,80,34145,6,0,L|328:116,1,63.75
264,168,34311,1,0,0:0:0:0:
156,288,34478,2,0,L|88:220,1,63.75
88,320,34645,1,0,0:0:0:0:
380,320,34811,2,0,L|488:280,1,63.75
488,340,34978,1,0,0:0:0:0:
440,156,35145,2,0,L|276:80,1,127.5
232,48,35478,5,0,0:0:0:0:
180,68,35561,1,0,0:0:0:0:
132,96,35645,1,0,0:0:0:0:
92,136,35728,1,0,0:0:0:0:
60,184,35811,1,0,0:0:0:0:
48,240,35895,1,0,0:0:0:0:
68,296,35978,2,0,P|132:320|192:304,1,127.5
296,80,36311,6,0,L|316:-16,4,63.75
380,268,36811,5,0,0:0:0:0:
380,268,36895,1,0,0:0:0:0:
380,268,36978,1,0,0:0:0:0:
168,316,37145,5,0,0:0:0:0:
168,316,37228,1,0,0:0:0:0:
168,316,37311,1,0,0:0:0:0:
140,80,37478,5,0,0:0:0:0:
140,80,37561,1,0,0:0:0:0:
140,80,37645,1,0,0:0:0:0:
276,96,37811,5,0,0:0:0:0:
276,96,37895,1,0,0:0:0:0:
276,96,37978,1,0,0:0:0:0:
296,120,38061,1,0,0:0:0:0:
316,144,38145,2,0,L|344:216,2,63.75
216,140,38478,6,0,P|136:160|88:120,1,127.5
72,96,38728,1,0,0:0:0:0:
48,140,38811,2,0,P|52:224|132:248,1,127.5
220,340,39145,1,0,0:0:0:0:
424,296,39311,2,0,P|444:224|392:184,1,127.5
372,160,39561,5,0,0:0:0:0:
332,132,39645,1,0,0:0:0:0:
288,112,39728,1,0,0:0:0:0:
240,104,39811,2,0,L|156:96,2,63.75
176,320,40145,6,0,L|113:309,2,63.75
372,232,40478,2,0,L|434:242,3,63.75
468,212,40811,5,0,0:0:0:0:
424,160,40895,1,0,0:0:0:0:
368,120,40978,1,0,0:0:0:0:
304,100,41061,1,0,0:0:0:0:
240,104,41145,1,0,0:0:0:0:
80,132,41311,6,0,L|-8:160,1,63.75
80,208,41478,2,0,L|4:240,1,63.75
72,296,41645,1,0,0:0:0:0:
248,304,41811,2,0,L|324:272,1,63.75
248,212,41978,2,0,L|320:176,1,63.75
344,168,42145,2,0,B|324:100|364:60|364:60|420:72|448:136|448:136|448:144,1,191.25
444,144,42478,2,0,L|364:256,1,127.5
76,96,42811,5,0,0:0:0:0:
436,120,42978,1,0,0:0:0:0:
116,216,43145,1,0,0:0:0:0:
352,280,43311,1,0,0:0:0:0:
96,356,43478,6,0,L|172:268,1,63.75
148,296,43645,2,0,L|256:184,1,127.5
360,80,44145,2,0,P|424:124|352:260,1,255
112,272,44645,2,0,L|200:320,1,63.75
260,340,44811,2,0,B|315:324|315:324|296:268|296:268|349:247|349:247|316:168,1,255
204,124,45311,2,0,L|136:172,1,63.75
264,188,45478,1,0,0:0:0:0:
380,172,45645,5,0,0:0:0:0:
352,116,45728,1,0,0:0:0:0:
324,64,45811,2,0,L|184:52,1,127.5
40,164,46145,1,0,0:0:0:0:
36,228,46228,1,0,0:0:0:0:
56,288,46311,6,0,L|132:336,2,63.75
128,288,46561,1,0,0:0:0:0:
196,280,46645,1,0,0:0:0:0:
264,288,46728,1,0,0:0:0:0:
324,320,46811,1,0,0:0:0:0:
372,112,46978,2,0,L|376:280,2,127.5
216,104,47478,5,0,0:0:0:0:
44,204,47644,1,0,0:0:0:0:
176,312,47811,1,0,0:0:0:0:
368,104,47978,5,0,0:0:0:0:
144,200,48144,1,0,0:0:0:0:
308,300,48311,1,0,0:0:0:0:
492,112,48478,1,0,0:0:0:0:
288,208,48645,1,0,0:0:0:0:
476,320,48811,5,0,0:0:0:0:
476,320,48895,1,0,0:0:0:0:
476,320,48978,1,0,0:0:0:0:
212,292,49145,1,0,0:0:0:0:
56,232,49311,1,0,0:0:0:0:
116,160,49478,2,0,B|180:104|232:188|368:136,1,255
120,312,50145,5,0,0:0:0:0:
120,312,50228,1,0,0:0:0:0:
120,312,50311,1,0,0:0:0:0:
332,304,50478,1,0,0:0:0:0:
380,72,50645,5,0,0:0:0:0:
380,72,50728,1,0,0:0:0:0:
380,72,50811,1,0,0:0:0:0:
380,72,50895,1,0,0:0:0:0:
436,188,51145,5,0,0:0:0:0:
304,280,51311,1,0,0:0:0:0:
296,120,51478,2,0,L|88:120,1,191.25
40,168,51811,2,0,P|72:280|176:296,1,191.25
224,292,52145,2,0,P|244:240|400:212,1,191.25
456,216,52478,2,0,L|448:76,1,127.5
360,80,52811,2,0,B|336:32|304:140|304:140|96:56|8:196|292:324|292:324,1,510
152,120,53811,6,0,L|232:104,1,63.75
304,116,53978,1,0,0:0:0:0:
288,328,54145,2,0,B|176:296|168:192|264:136|364:128|416:228|344:328,1,446.25
316,344,54811,1,0,0:0:0:0:
152,168,55145,6,0,P|240:64|316:88,1,191.25
340,108,55478,2,0,B|440:104|444:172|360:272|228:304|72:340,1,446.25
36,344,56145,2,0,L|188:152,1,191.25
312,76,56478,2,0,L|192:152,1,127.5
448,128,56811,2,0,B|424:268|280:320|216:288|160:220,1,382.5
28,132,57478,6,0,B|116:100|304:56,1,255
420,72,57978,2,0,L|320:144,1,63.75
260,144,58145,2,0,B|140:156|140:156|4:224|4:224|256:296,1,510
300,328,59145,6,0,P|196:336|156:252,1,191.25
316,208,59478,2,0,P|404:144|220:68,1,382.5
224,128,60145,2,0,L|20:64,1,191.25
224,284,60478,2,0,B|88:228|44:160,1,191.25
160,348,60811,2,0,P|292:344|348:264,1,191.25
420,248,61145,2,0,P|396:124|296:80,1,191.25
272,68,61478,1,0,0:0:0:0:
212,248,61811,5,0,0:0:0:0:
156,268,61895,1,0,0:0:0:0:
100,240,61978,1,0,0:0:0:0:
432,60,62145,2,0,P|416:136|76:320,1,446.25
56,324,62811,2,0,P|68:240|368:104,1,446.25
448,96,63478,2,0,P|444:224|128:344,2,510
328,340,65645,5,0,0:0:0:0:
28,268,65811,1,0,0:0:0:0:
112,40,65978,5,0,0:0:0:0:
416,88,66145,2,0,B|296:312|268:224|248:128|0:100|40:248,1,510
296,340,66978,5,0,0:0:0:0:
300,32,67145,1,0,0:0:0:0:
104,268,67311,1,0,0:0:0:0:
396,176,67478,1,0,0:0:0:0:
100,96,67645,1,0,0:0:0:0:
344,276,67811,5,0,0:0:0:0:
60,160,67978,1,0,0:0:0:0:
360,100,68145,1,0,0:0:0:0:
180,344,68311,1,0,0:0:0:0:
164,36,68478,1,0,0:0:0:0:
384,324,68645,5,0,0:0:0:0:
200,144,68811,2,0,L|140:108,1,63.75
80,72,68978,2,0,L|56:160,2,63.75
72,280,69478,5,0,0:0:0:0:
152,236,69561,1,0,0:0:0:0:
236,248,69645,1,0,0:0:0:0:
320,280,69728,1,0,0:0:0:0:
396,244,69811,1,0,0:0:0:0:
160,76,70145,6,0,P|208:44|396:108,1,255
412,148,70561,1,0,0:0:0:0:
432,208,70645,1,0,0:0:0:0:
400,264,70728,1,0,0:0:0:0:
352,308,70811,1,0,0:0:0:0:
204,344,70978,5,0,0:0:0:0:
52,156,71144,1,0,0:0:0:0:
280,72,71311,1,0,0:0:0:0:
64,204,71478,2,0,B|148:140|256:132|324:56|208:-60|156:344,1,510
376,96,72311,5,0,0:0:0:0:
216,372,72478,1,0,0:0:0:0:
84,80,72645,1,0,0:0:0:0:
364,228,72811,1,0,0:0:0:0:
60,324,72978,5,0,0:0:0:0:
220,48,73145,1,0,0:0:0:0:
372,328,73311,1,0,0:0:0:0:
88,180,73478,5,0,0:0:0:0:
396,96,73645,1,0,0:0:0:0:
212,356,73811,1,0,0:0:0:0:
144,44,73978,1,0,0:0:0:0:
412,220,74145,6,0,B|380:172|380:172|312:168|312:168|328:256|328:256|240:248,1,255
180,284,74811,1,0,0:0:0:0:
128,228,74895,1,0,0:0:0:0:
136,152,74978,1,0,0:0:0:0:
180,84,75061,1,0,0:0:0:0:
244,40,75145,2,0,P|340:52|428:204,1,255
96,80,75811,5,0,0:0:0:0:
72,132,75895,1,0,0:0:0:0:
64,188,75978,1,0,0:0:0:0:
64,244,76061,1,0,0:0:0:0:
76,300,76145,5,0,0:0:0:0:
132,316,76228,1,0,0:0:0:0:
188,312,76311,1,0,0:0:0:0:
244,292,76395,1,0,0:0:0:0:
300,284,76478,5,0,0:0:0:0:
352,308,76561,1,0,0:0:0:0:
404,284,76645,1,0,0:0:0:0:
444,244,76728,1,0,0:0:0:0:
424,192,76811,5,0,0:0:0:0:
412,136,76895,1,0,0:0:0:0:
364,104,76978,1,0,0:0:0:0:
140,260,77145,6,0,L|60:304,1,63.75
232,252,77311,2,0,L|260:336,1,63.75
284,184,77478,2,0,L|339:153,1,63.75
220,124,77645,2,0,L|184:68,1,63.75
136,168,77811,2,0,L|56:212,2,63.75
228,124,78145,5,0,0:0:0:0:
284,116,78228,1,0,0:0:0:0:
340,108,78311,2,0,L|416:100,2,63.75
380,152,78561,1,0,0:0:0:0:
420,196,78645,5,0,0:0:0:0:
408,252,78728,1,0,0:0:0:0:
356,276,78811,1,0,0:0:0:0:
300,272,78895,1,0,0:0:0:0:
248,248,78978,1,0,0:0:0:0:
192,252,79061,1,0,0:0:0:0:
140,228,79145,1,0,0:0:0:0:
112,180,79228,6,0,L|216:144,2,63.75
68,140,79478,1,0,0:0:0:0:
104,96,79561,1,0,0:0:0:0:
160,84,79645,1,0,0:0:0:0:
216,84,79728,1,0,0:0:0:0:
272,84,79811,2,0,P|364:80|436:200,1,191.25
444,192,80145,5,0,0:0:0:0:
420,244,80228,1,0,0:0:0:0:
384,288,80311,1,0,0:0:0:0:
232,280,80478,5,0,0:0:0:0:
268,232,80562,1,0,0:0:0:0:
304,188,80645,1,0,0:0:0:0:
160,176,80811,5,0,0:0:0:0:
120,216,80895,1,0,0:0:0:0:
80,256,80978,1,0,0:0:0:0:
52,308,81061,1,0,0:0:0:0:
100,344,81145,2,0,L|224:352,2,63.75
144,308,81395,5,0,0:0:0:0:
196,288,81478,1,0,0:0:0:0:
252,276,81561,1,0,0:0:0:0:
308,260,81645,1,0,0:0:0:0:
356,232,81728,2,0,L|424:204,2,63.75
388,184,81978,5,0,0:0:0:0:
372,128,82061,1,0,0:0:0:0:
328,92,82145,1,0,0:0:0:0:
272,88,82228,1,0,0:0:0:0:
216,88,82311,1,0,0:0:0:0:
160,100,82395,1,0,0:0:0:0:
124,136,82478,6,0,L|40:176,5,63.75
60,220,82978,2,0,L|128:232,5,63.75
164,220,83478,1,0,0:0:0:0:
312,76,83811,6,0,P|384:56|464:104,1,127.5
252,324,84145,2,0,P|172:344|120:304,1,127.5
44,144,84478,2,0,P|100:76|180:96,1,127.5
352,136,84811,2,0,P|416:176|372:248,1,127.5
360,252,85061,5,0,0:0:0:0:
304,260,85145,1,0,0:0:0:0:
248,256,85228,1,0,0:0:0:0:
192,256,85311,2,0,L|72:196,2,127.5
376,344,85811,5,0,0:0:0:0:
448,28,86061,1,0,0:0:0:0:
140,128,86311,1,0,0:0:0:0:
380,128,86478,5,0,0:0:0:0:
324,100,86561,1,0,0:0:0:0:
260,104,86645,2,0,P|216:176|248:224,1,127.5
204,248,87145,2,0,P|208:304|332:332,1,191.25
384,268,87478,2,0,P|344:212|208:164,1,191.25
212,80,87811,2,0,L|136:92,3,63.75
140,152,88145,6,0,P|56:184|132:312,1,255
388,196,88811,1,0,0:0:0:0:
424,144,88895,1,0,0:0:0:0:
388,92,88978,1,0,0:0:0:0:
224,232,89145,5,0,0:0:0:0:
188,284,89228,1,0,0:0:0:0:
184,348,89311,1,0,0:0:0:0:
240,380,89395,1,0,0:0:0:0:
72,140,89645,6,0,P|108:80|268:116,1,255
356,200,90145,2,0,L|392:268,2,63.75
88,228,90478,1,0,0:0:0:0:
120,284,90561,1,0,0:0:0:0:
164,336,90645,1,0,0:0:0:0:
132,208,90811,5,0,0:0:0:0:
164,256,90895,1,0,0:0:0:0:
216,296,90978,1,0,0:0:0:0:
264,332,91061,1,0,0:0:0:0:
328,328,91145,1,0,0:0:0:0:
372,284,91228,5,0,0:0:0:0:
396,224,91311,1,0,0:0:0:0:
380,160,91395,1,0,0:0:0:0:
328,120,91478,1,0,0:0:0:0:
92,84,91811,5,0,0:0:0:0:
144,348,91978,2,0,L|216:220,1,127.5
328,64,92311,1,0,0:0:0:0:
400,316,92478,2,0,L|296:336,1,63.75
268,352,92645,2,0,P|164:324|152:268,1,127.5
104,124,93145,5,0,0:0:0:0:
172,296,93311,1,0,0:0:0:0:
288,136,93478,1,0,0:0:0:0:
344,120,93561,1,0,0:0:0:0:
400,100,93645,2,0,L|476:80,1,63.75
480,152,93812,2,0,P|444:216|352:244,2,127.5
192,328,94311,5,0,0:0:0:0:
436,328,94478,1,0,0:0:0:0:
304,40,94811,5,0,0:0:0:0:
244,64,94895,1,0,0:0:0:0:
196,108,94978,1,0,0:0:0:0:
72,344,95145,5,0,0:0:0:0:
104,288,95228,1,0,0:0:0:0:
164,272,95311,1,0,0:0:0:0:
400,280,95478,5,0,0:0:0:0:
428,232,95561,1,0,0:0:0:0:
420,176,95645,1,0,0:0:0:0:
384,124,95728,1,0,0:0:0:0:
328,96,95811,5,0,0:0:0:0:
268,68,95895,1,0,0:0:0:0:
200,64,95978,1,0,0:0:0:0:
140,96,96061,1,0,0:0:0:0:
132,168,96145,5,0,0:0:0:0:
180,228,96228,1,0,0:0:0:0:
236,280,96311,1,0,0:0:0:0:
308,304,96395,1,0,0:0:0:0:
388,324,96478,1,0,0:0:0:0:
240,76,108478,5,0,0:0:0:0:
188,72,108561,1,0,0:0:0:0:
156,112,108645,1,0,0:0:0:0:
156,164,108728,1,0,0:0:0:0:
188,204,108811,5,0,0:0:0:0:
160,248,108895,1,0,0:0:0:0:
112,268,108978,1,0,0:0:0:0:
76,300,109061,1,0,0:0:0:0:
88,348,109145,5,0,0:0:0:0:
140,348,109228,1,0,0:0:0:0:
188,332,109311,1,0,0:0:0:0:
236,316,109395,1,0,0:0:0:0:
268,276,109478,5,0,0:0:0:0:
300,240,109561,1,0,0:0:0:0:
488,172,109811,5,0,0:0:0:0:
460,220,109895,1,0,0:0:0:0:
420,260,109978,1,0,0:0:0:0:
368,296,110061,1,0,0:0:0:0:
312,304,110145,5,0,0:0:0:0:
256,304,110228,1,0,0:0:0:0:
216,264,110311,1,0,0:0:0:0:
200,208,110395,1,0,0:0:0:0:
220,156,110478,5,0,0:0:0:0:
240,100,110561,1,0,0:0:0:0:
204,56,110645,1,0,0:0:0:0:
148,40,110728,1,0,0:0:0:0:
108,80,110811,5,0,0:0:0:0:
104,136,110895,1,0,0:0:0:0:
352,88,111145,5,0,0:0:0:0:
404,124,111228,1,0,0:0:0:0:
420,184,111311,1,0,0:0:0:0:
436,248,111395,1,0,0:0:0:0:
416,308,111478,5,0,0:0:0:0:
360,340,111561,1,0,0:0:0:0:
296,332,111645,1,0,0:0:0:0:
264,280,111728,1,0,0:0:0:0:
232,224,111811,5,0,0:0:0:0:
196,276,111895,1,0,0:0:0:0:
152,324,111978,1,0,0:0:0:0:
88,320,112061,1,0,0:0:0:0:
48,272,112145,5,0,0:0:0:0:
52,208,112228,1,0,0:0:0:0:
68,148,112311,1,0,0:0:0:0:
116,104,112395,1,0,0:0:0:0:
172,72,112478,5,0,0:0:0:0:
228,40,112561,1,0,0:0:0:0:
284,68,112645,1,0,0:0:0:0:
296,132,112728,1,0,0:0:0:0:
272,192,112811,5,0,0:0:0:0:
236,244,112895,1,0,0:0:0:0:
236,308,112978,1,0,0:0:0:0:
388,304,113145,5,0,0:0:0:0:
404,248,113228,1,0,0:0:0:0:
412,192,113311,1,0,0:0:0:0:
424,136,113395,1,0,0:0:0:0:
416,80,113478,2,0,L|344:28,2,63.75
68,168,113811,6,0,L|136:256,2,63.75
128,112,114145,6,0,L|200:192,2,63.75
152,280,114478,5,0,0:0:0:0:
208,252,114561,1,0,0:0:0:0:
264,280,114645,1,0,0:0:0:0:
324,296,114728,1,0,0:0:0:0:
332,236,114811,5,0,0:0:0:0:
340,172,114895,1,0,0:0:0:0:
312,116,114978,1,0,0:0:0:0:
420,68,115145,5,0,0:0:0:0:
440,120,115228,1,0,0:0:0:0:
444,176,115311,1,0,0:0:0:0:
440,292,115478,5,0,0:0:0:0:
396,328,115561,1,0,0:0:0:0:
340,324,115645,1,0,0:0:0:0:
232,272,115811,5,0,0:0:0:0:
180,276,115895,1,0,0:0:0:0:
128,276,115978,1,0,0:0:0:0:
80,256,116061,1,0,0:0:0:0:
68,208,116145,5,0,0:0:0:0:
52,160,116228,1,0,0:0:0:0:
64,112,116311,1,0,0:0:0:0:
280,72,116478,5,0,0:0:0:0:
344,68,116561,1,0,0:0:0:0:
408,80,116645,1,0,0:0:0:0:
416,196,116811,5,0,0:0:0:0:
364,232,116895,1,0,0:0:0:0:
308,204,116978,1,0,0:0:0:0:
272,152,117061,1,0,0:0:0:0:
216,124,117145,5,0,0:0:0:0:
168,80,117228,1,0,0:0:0:0:
112,52,117311,1,0,0:0:0:0:
72,104,117395,1,0,0:0:0:0:
52,164,117478,5,0,0:0:0:0:
72,224,117561,1,0,0:0:0:0:
116,272,117645,1,0,0:0:0:0:
148,328,117728,1,0,0:0:0:0:
212,320,117811,5,0,0:0:0:0:
244,264,117895,1,0,0:0:0:0:
284,216,117978,1,0,0:0:0:0:
340,188,118061,1,0,0:0:0:0:
400,168,118145,1,0,0:0:0:0:
428,224,118228,5,0,0:0:0:0:
388,272,118311,1,0,0:0:0:0:
332,304,118395,1,0,0:0:0:0:
280,336,118478,2,0,P|144:336|88:112,1,382.5
268,48,119145,5,0,0:0:0:0:
332,56,119228,1,2,0:0:0:0:
384,92,119311,1,0,0:0:0:0:
140,68,119478,5,0,0:0:0:0:
92,112,119561,1,0,0:0:0:0:
60,168,119645,1,0,0:0:0:0:
68,264,119811,5,0,0:0:0:0:
100,320,119895,1,0,0:0:0:0:
160,344,119978,1,0,0:0:0:0:
220,328,120061,1,0,0:0:0:0:
284,312,120145,5,0,0:0:0:0:
340,340,120228,1,0,0:0:0:0:
404,344,120311,1,0,0:0:0:0:
332,220,120478,5,0,0:0:0:0:
272,236,120561,1,0,0:0:0:0:
208,240,120645,1,0,0:0:0:0:
132,140,120811,5,0,0:0:0:0:
184,100,120895,1,0,0:0:0:0:
244,84,120978,1,0,0:0:0:0:
384,72,121145,5,0,0:0:0:0:
408,132,121228,1,0,0:0:0:0:
364,180,121312,1,0,0:0:0:0:
316,224,121395,1,0,0:0:0:0:
264,260,121478,5,0,0:0:0:0:
216,300,121561,1,0,0:0:0:0:
180,352,121645,1,0,0:0:0:0:
80,280,121811,5,0,0:0:0:0:
64,216,121895,1,0,0:0:0:0:
92,160,121978,1,0,0:0:0:0:
232,168,122145,5,0,0:0:0:0:
204,224,122228,1,0,0:0:0:0:
216,288,122311,1,0,0:0:0:0:
328,324,122478,5,0,0:0:0:0:
372,276,122561,1,0,0:0:0:0:
400,216,122645,1,0,0:0:0:0:
396,152,122728,1,0,0:0:0:0:
428,96,122811,5,0,0:0:0:0:
376,60,122895,1,0,0:0:0:0:
316,76,122978,1,0,0:0:0:0:
240,180,123145,5,0,0:0:0:0:
176,176,123228,1,0,0:0:0:0:
116,200,123311,1,0,0:0:0:0:
128,328,123478,5,0,0:0:0:0:
192,332,123561,1,0,0:0:0:0:
256,328,123645,1,0,0:0:0:0:
432,280,123811,5,0,0:0:0:0:
432,216,123895,1,0,0:0:0:0:
380,180,123978,1,0,0:0:0:0:
320,164,124061,1,0,0:0:0:0:
256,152,124145,5,0,0:0:0:0:
192,160,124228,1,0,0:0:0:0:
148,112,124311,1,0,0:0:0:0:
56,40,124478,5,0,0:0:0:0:
120,32,124561,1,0,0:0:0:0:
184,32,124645,1,0,0:0:0:0:
348,60,124811,5,0,0:0:0:0:
380,116,124895,1,0,0:0:0:0:
372,180,124978,1,0,0:0:0:0:
216,232,125145,5,0,0:0:0:0:
160,204,125228,1,0,0:0:0:0:
100,188,125311,1,0,0:0:0:0:
44,216,125395,1,0,0:0:0:0:
12,272,125478,5,0,0:0:0:0:
40,328,125561,1,0,0:0:0:0:
104,328,125645,1,0,0:0:0:0:
320,328,125811,5,0,0:0:0:0:
356,276,125895,1,0,0:0:0:0:
308,236,125978,1,0,0:0:0:0:
180,228,126145,5,0,0:0:0:0:
148,172,126228,1,0,0:0:0:0:
164,112,126311,1,0,0:0:0:0:
284,88,126478,5,0,0:0:0:0:
344,104,126561,1,0,0:0:0:0:
400,136,126645,1,0,0:0:0:0:
444,184,126728,1,0,0:0:0:0:
448,248,126811,5,0,0:0:0:0:
384,256,126895,1,0,0:0:0:0:
332,224,126978,1,0,0:0:0:0:
240,296,127145,5,0,0:0:0:0:
180,312,127228,1,0,0:0:0:0:
124,284,127311,1,0,0:0:0:0:
96,224,127395,1,0,0:0:0:0:
120,164,127478,5,0,0:0:0:0:
140,104,127561,1,0,0:0:0:0:
196,72,127645,1,0,0:0:0:0:
72,36,127811,5,0,0:0:0:0:
136,48,127895,1,0,0:0:0:0:
184,92,127978,1,0,0:0:0:0:
200,152,128061,1,0,0:0:0:0:
160,204,128145,5,0,0:0:0:0:
120,252,128228,1,0,0:0:0:0:
108,316,128311,1,0,0:0:0:0:
164,344,128395,1,0,0:0:0:0:
228,336,128478,5,0,0:0:0:0:
288,316,128561,1,0,0:0:0:0:
332,272,128645,1,0,0:0:0:0:
364,216,128728,1,0,0:0:0:0:
372,152,128811,5,0,0:0:0:0:
332,100,128895,1,0,0:0:0:0:
284,56,128978,1,0,0:0:0:0:
220,56,129061,1,0,0:0:0:0:
156,72,129145,1,0,0:0:0:0:
256,192,129228,12,0,130478,0:0:0:0:
76,104,141145,6,0,L|152:32,1,63.75
180,88,141311,1,0,0:0:0:0:
419,176,141478,2,0,L|368:60,1,127.5
88,296,141811,6,0,L|172:312,1,63.75
212,292,141978,1,0,0:0:0:0:
440,216,142145,2,0,L|304:324,1,127.5
432,324,142478,6,0,L|420:252,1,63.75
364,236,142645,1,0,0:0:0:0:
120,316,142811,2,0,L|236:188,1,127.5
424,68,143145,6,0,L|344:64,1,63.75
300,80,143311,1,0,0:0:0:0:
56,200,143478,2,0,L|200:248,1,127.5
408,208,143811,6,0,L|404:284,2,63.75
160,108,144145,2,0,L|160:44,2,63.75
196,328,144478,2,0,L|100:356,2,63.75
384,56,144811,2,0,P|464:136|464:224,1,191.25
428,284,145145,5,0,0:0:0:0:
60,176,145478,1,0,0:0:0:0:
344,80,145811,1,0,0:0:0:0:
464,308,145978,1,0,0:0:0:0:
188,276,146145,1,0,0:0:0:0:
104,308,146478,6,0,L|12:316,2,63.75
364,292,146811,2,0,L|456:308,2,63.75
42,197,147145,2,0,L|116:176,1,63.75
184,160,147311,1,0,0:0:0:0:
432,180,147478,6,0,L|368:164,1,63.75
292,136,147645,1,0,0:0:0:0:
96,332,147811,2,0,L|192:296,3,63.75
196,304,148145,1,0,0:0:0:0:
420,208,148311,6,0,L|316:264,2,63.75
348,168,148561,1,0,0:0:0:0:
272,127,148645,2,0,L|332:104,2,63.75
68,276,149145,5,0,0:0:0:0:
60,192,149228,1,0,0:0:0:0:
64,108,149311,2,0,P|112:52|312:76,1,255
336,96,149811,1,0,0:0:0:0:
72,340,150145,2,0,L|224:324,1,127.5
412,304,150478,1,0,0:0:0:0:
88,80,150811,1,0,0:0:0:0:
428,104,151145,5,0,0:0:0:0:
100,96,151311,1,0,0:0:0:0:
296,332,151478,1,0,0:0:0:0:
248,72,151811,6,0,L|116:116,1,127.5
24,260,152145,1,0,0:0:0:0:
32,312,152229,1,0,0:0:0:0:
72,352,152311,1,0,0:0:0:0:
324,280,152478,6,0,L|202:319,1,127.5
440,280,152811,1,0,0:0:0:0:
144,78,153145,2,0,L|208:72,2,63.75
424,64,153478,1,0,0:0:0:0:
396,296,153645,1,0,0:0:0:0:
240,104,153811,6,0,L|216:136,4,31.875
204,152,154020,2,0,B|132:104|16:124|176:176|212:192|356:180|108:204,1,350.625
268,276,154645,1,0,0:0:0:0:
368,112,154811,1,0,0:0:0:0:
152,124,154978,2,0,B|68:152|88:144,2,63.75
152,280,155478,2,0,P|224:304|280:264,1,127.5
208,40,155811,5,0,0:0:0:0:
156,76,155895,1,0,0:0:0:0:
120,128,155978,1,0,0:0:0:0:
80,296,156145,5,0,0:0:0:0:
116,244,156228,1,0,0:0:0:0:
168,208,156311,1,0,0:0:0:0:
376,136,156478,5,0,0:0:0:0:
320,164,156561,1,0,0:0:0:0:
276,212,156645,1,0,0:0:0:0:
168,368,156811,5,0,0:0:0:0:
204,316,156894,1,0,0:0:0:0:
252,276,156978,1,0,0:0:0:0:
439,269,157145,6,0,P|404:288|320:344,1,127.5
292,360,157395,1,0,0:0:0:0:
252,340,157478,1,0,0:0:0:0:
96,96,157645,1,0,0:0:0:0:
100,152,157811,2,0,B|40:168|28:200|60:276|72:296,1,127.5
324,144,158145,1,0,0:0:0:0:
468,176,158478,5,0,0:0:0:0:
476,228,158561,1,0,0:0:0:0:
436,264,158645,2,0,L|360:296,2,63.75
396,84,158978,1,0,0:0:0:0:
200,104,159145,6,0,L|8:140,1,191.25
0,200,159478,1,0,0:0:0:0:
208,348,159645,1,0,0:0:0:0:
396,176,159811,1,0,0:0:0:0:
72,56,160145,5,0,0:0:0:0:
220,336,160311,1,0,0:0:0:0:
404,76,160478,2,0,L|468:48,2,63.75
252,228,160811,1,0,0:0:0:0:
116,92,160978,1,0,0:0:0:0:
336,80,161145,2,0,B|352:56|352:56|368:80|368:80|376:56|376:56|388:80|388:80|396:52|396:52|408:84|408:84|416:56|416:56|424:88|424:88|440:64|440:64|436:92|436:92|456:68|456:68|456:104|456:104|472:76|472:76|472:104|472:104|484:80|484:80|480:116|480:116|492:84|492:84|496:124|496:124|503:94|503:94|528:100|560:196|444:220,1,765
48,96,162478,6,0,L|40:192,1,63.75
32,240,162645,2,0,L|136:220,1,63.75
156,216,162811,2,0,L|128:92,1,127.5
328,80,163145,2,0,L|338:207,1,127.5
152,332,163478,1,0,0:0:0:0:
424,108,163811,6,0,L|416:192,2,63.75
84,272,164145,2,0,L|211:278,1,127.5
252,316,164395,1,0,0:0:0:0:
300,352,164478,2,0,B|308:328|308:328|352:348|352:348|336:308|336:308|368:328|368:328|372:228,1,255
216,112,165145,5,0,0:0:0:0:
80,328,165311,1,0,0:0:0:0:
20,80,165478,1,0,0:0:0:0:
204,256,165645,2,0,L|348:264,2,127.5
428,92,166145,5,0,0:0:0:0:
112,84,166478,2,0,L|52:196,1,127.5
436,60,166811,2,0,L|359:162,1,127.5
172,352,167145,2,0,L|288:300,2,127.5
408,284,167645,1,0,0:0:0:0:
120,116,167811,6,0,L|240:92,1,63.75
192,152,167978,2,0,L|280:152,1,63.75
324,164,168145,2,0,P|280:248|196:268,1,127.5
120,320,168478,2,0,P|212:368|332:308,1,191.25
384,316,168811,2,0,L|268:240,1,127.5
180,92,169145,5,0,0:0:0:0:
44,292,169311,1,0,0:0:0:0:
300,324,169478,1,0,0:0:0:0:
320,100,169645,2,0,L|296:176,1,63.75
284,232,169811,2,0,P|360:196|316:48,1,255
220,132,170311,1,0,0:0:0:0:
140,56,170478,6,0,L|0:144,2,127.5
80,180,170978,1,0,0:0:0:0:
344,64,171145,2,0,L|456:128,2,127.5
372,192,171645,1,0,0:0:0:0:
64,120,171811,6,0,L|172:112,1,63.75
184,136,171978,1,0,0:0:0:0:
468,188,172145,2,0,L|344:157,1,127.5
32,328,172478,2,0,L|276:324,1,191.25
328,340,172811,2,0,L|396:144,1,191.25
320,180,173145,2,0,L|212:192,1,63.75
96,320,173478,6,0,L|76:140,1,127.5
188,28,173811,1,0,0:0:0:0:
352,80,174145,5,0,0:0:0:0:
452,220,174311,1,0,0:0:0:0:
232,356,174478,1,0,0:0:0:0:
128,156,174645,1,0,0:0:0:0:
416,20,174811,5,0,0:0:0:0:
396,364,174978,1,0,0:0:0:0:
68,196,175145,1,0,0:0:0:0:
368,120,175478,2,0,L|360:192,2,63.75
128,308,175811,6,0,L|188:332,2,63.75
240,160,176145,1,0,0:0:0:0:
416,308,176311,1,0,0:0:0:0:
432,76,176478,1,0,0:0:0:0:
40,308,176811,5,0,0:0:0:0:
200,352,176978,1,0,0:0:0:0:
60,200,177145,1,0,0:0:0:0:
320,252,177311,1,0,0:0:0:0:
76,88,177478,1,0,0:0:0:0:
420,76,177645,2,0,L|456:216,1,127.5
408,240,177895,2,0,B|452:280|452:280|368:300|352:256|364:188|468:220|468:220|392:44,1,446.25
256,192,178561,12,0,180311,0:0:0:0:
396,56,180478,5,0,0:0:0:0:
336,56,180561,1,0,0:0:0:0:
272,64,180645,1,0,0:0:0:0:
212,80,180728,1,0,0:0:0:0:
156,108,180811,1,0,0:0:0:0:
352,184,180978,5,0,0:0:0:0:
292,200,181061,1,0,0:0:0:0:
232,220,181145,1,0,0:0:0:0:
168,212,181228,2,0,L|84:204,1,63.75
312,88,181478,5,0,0:0:0:0:
332,148,181561,1,0,0:0:0:0:
332,212,181645,1,0,0:0:0:0:
120,272,181811,5,0,0:0:0:0:
152,328,181895,1,0,0:0:0:0:
212,312,181978,1,0,0:0:0:0:
272,288,182061,1,0,0:0:0:0:
336,272,182145,5,0,0:0:0:0:
400,272,182228,1,0,0:0:0:0:
448,228,182311,2,0,L|444:164,4,63.75
188,124,182811,2,0,L|188:188,3,63.75
260,196,183145,5,0,0:0:0:0:
228,252,183228,1,0,0:0:0:0:
168,276,183311,1,0,0:0:0:0:
104,268,183395,1,0,0:0:0:0:
72,212,183478,1,0,0:0:0:0:
148,92,183645,5,0,0:0:0:0:
212,88,183728,1,0,0:0:0:0:
276,80,183811,1,0,0:0:0:0:
340,88,183895,1,0,0:0:0:0:
412,236,184061,5,0,0:0:0:0:
368,280,184145,1,0,0:0:0:0:
312,252,184228,1,0,0:0:0:0:
100,208,184395,5,0,0:0:0:0:
100,272,184478,1,0,0:0:0:0:
156,304,184561,1,0,0:0:0:0:
220,316,184645,6,0,L|264:240,1,63.75
372,248,184811,2,0,L|336:184,1,63.75
204,188,184978,2,0,L|276:140,1,63.75
404,136,185145,2,0,L|332:92,1,63.75
196,100,185311,2,0,L|288:40,1,63.75
432,60,185478,2,0,L|352:16,2,63.75
224,44,185811,5,0,0:0:0:0:
176,84,185894,1,0,0:0:0:0:
144,140,185977,1,0,0:0:0:0:
140,204,186061,1,0,0:0:0:0:
168,264,186145,1,0,0:0:0:0:
352,280,186311,5,0,0:0:0:0:
380,220,186395,1,0,0:0:0:0:
368,156,186478,1,0,0:0:0:0:
328,108,186561,1,0,0:0:0:0:
192,88,186728,5,0,0:0:0:0:
148,128,186811,1,0,0:0:0:0:
124,180,186895,1,0,0:0:0:0:
120,236,186978,1,0,0:0:0:0:
272,256,187145,5,0,0:0:0:0:
336,248,187228,1,0,0:0:0:0:
360,188,187311,1,0,0:0:0:0:
308,152,187395,1,0,0:0:0:0:
244,144,187478,5,0,0:0:0:0:
188,112,187561,1,0,0:0:0:0:
232,64,187645,1,0,0:0:0:0:
296,76,187728,1,0,0:0:0:0:
360,88,187811,5,0,0:0:0:0:
416,116,187895,1,0,0:0:0:0:
440,164,187978,2,0,L|464:224,1,63.75
416,356,188145,2,0,L|376:288,1,63.75
320,308,188312,5,0,0:0:0:0:
256,304,188395,1,0,0:0:0:0:
192,296,188478,2,0,L|112:264,4,63.75
248,176,188978,2,0,L|352:160,4,63.75
400,304,189395,2,0,L|419:243,1,63.75
412,196,189561,1,0,0:0:0:0:
216,328,189811,5,0,0:0:0:0:
156,304,189895,1,0,0:0:0:0:
96,284,189978,1,0,0:0:0:0:
60,232,190061,1,0,0:0:0:0:
36,168,190145,5,0,0:0:0:0:
44,104,190228,1,0,0:0:0:0:
92,64,190311,1,0,0:0:0:0:
148,36,190395,1,0,0:0:0:0:
204,64,190478,5,0,0:0:0:0:
244,116,190561,1,0,0:0:0:0:
268,176,190645,2,0,L|280:240,2,63.75
392,288,191145,5,0,0:0:0:0:
440,248,191228,1,0,0:0:0:0:
452,184,191312,1,0,0:0:0:0:
444,120,191395,1,0,0:0:0:0:
392,84,191478,1,0,0:0:0:0:
36,256,191811,6,0,L|60:168,1,63.75
80,144,191978,1,0,0:0:0:0:
308,80,192145,2,0,L|304:144,1,63.75
292,204,192311,1,0,0:0:0:0:
268,264,192395,1,0,0:0:0:0:
220,308,192479,5,0,0:0:0:0:
156,308,192562,1,0,0:0:0:0:
100,280,192645,2,0,L|76:216,2,63.75
248,64,192978,5,0,0:0:0:0:
308,80,193061,1,0,0:0:0:0:
348,128,193144,1,0,0:0:0:0:
380,184,193228,1,0,0:0:0:0:
412,240,193311,5,0,0:0:0:0:
420,304,193394,1,0,0:0:0:0:
360,324,193478,1,0,0:0:0:0:
296,324,193561,1,0,0:0:0:0:
76,324,193811,5,0,0:0:0:0:
44,268,193895,1,0,0:0:0:0:
60,208,193978,1,0,0:0:0:0:
68,144,194061,1,0,0:0:0:0:
108,92,194145,1,0,0:0:0:0:
168,76,194228,2,0,L|232:64,1,63.75
269,259,194478,6,0,L|208:276,1,63.75
320,256,194645,1,0,0:0:0:0:
432,108,194811,2,0,L|336:124,1,63.75
304,104,194978,1,0,0:0:0:0:
140,88,195145,5,0,0:0:0:0:
88,124,195228,1,0,0:0:0:0:
76,184,195311,1,0,0:0:0:0:
52,244,195395,1,0,0:0:0:0:
68,304,195478,1,0,0:0:0:0:
132,292,195561,6,0,L|188:328,1,63.75
296,292,195728,2,0,L|208:280,1,63.75
240,196,195895,2,0,L|312:188,1,63.75
328,80,196061,2,0,L|240:88,3,63.75
204,100,196395,5,0,0:0:0:0:
140,120,196478,1,0,0:0:0:0:
48,208,196645,2,0,L|176:236,1,127.5
488,320,196978,1,0,0:0:0:0:
420,300,197145,2,0,P|196:296|44:64,1,510
248,96,197978,6,0,L|392:64,1,127.5
404,168,198311,1,0,0:0:0:0:
280,300,198478,2,0,P|152:312|168:88,1,382.5
370,158,199145,6,0,L|420:200,1,63.75
368,92,199311,1,0,0:0:0:0:
168,96,199478,2,0,L|145:36,1,63.75
140,156,199645,1,0,0:0:0:0:
200,336,199811,2,0,L|132:384,1,63.75
152,296,199978,1,0,0:0:0:0:
344,204,200145,2,0,L|354:266,1,63.75
296,168,200311,1,0,0:0:0:0:
112,240,200478,5,0,0:0:0:0:
96,180,200561,1,0,0:0:0:0:
136,128,200645,1,0,0:0:0:0:
192,100,200728,1,0,0:0:0:0:
252,80,200811,5,0,0:0:0:0:
320,68,200895,1,0,0:0:0:0:
384,72,200978,1,0,0:0:0:0:
436,108,201061,1,0,0:0:0:0:
448,172,201145,5,0,0:0:0:0:
436,236,201228,1,0,0:0:0:0:
412,296,201311,1,0,0:0:0:0:
244,220,201478,5,0,0:0:0:0:
100,100,201645,1,0,0:0:0:0:
96,280,201811,2,0,P|344:260|296:64,1,510
252,264,202645,1,0,0:0:0:0:
112,40,202811,2,0,P|44:88|28:228,1,191.25
24,272,203145,2,0,B|108:292|328:348|220:176|272:44|504:228,1,510
210,342,203978,6,0,P|271:327|324:292,1,127.5
92,120,204311,1,0,0:0:0:0:
48,164,204395,1,0,0:0:0:0:
60,228,204478,2,0,B|84:340|356:268|164:140|184:44|344:184|488:196|352:40,1,510
176,84,205311,6,0,P|88:92|36:168,1,127.5
28,172,205561,1,0,0:0:0:0:
28,236,205645,1,0,0:0:0:0:
368,308,205811,2,0,B|332:184|220:160|96:320|48:0|316:56,1,510
220,52,206811,5,0,0:0:0:0:
176,140,206895,1,0,0:0:0:0:
168,236,206978,1,0,0:0:0:0:
280,376,207145,2,0,P|452:309|510:133,1,382.5
356,68,207811,2,0,P|204:76|176:72,1,127.5
155,218,208145,2,0,L|28:216,1,127.5
168,316,208478,5,0,0:0:0:0:
224,336,208561,1,0,0:0:0:0:
280,300,208645,2,0,B|344:288|416:252|488:148|400:140|248:120|176:208|172:208,1,382.5
152,200,209228,1,0,0:0:0:0:
100,164,209311,1,0,0:0:0:0:
292,56,209478,6,0,L|288:120,1,63.75
276,172,209645,1,0,0:0:0:0:
256,232,209728,1,0,0:0:0:0:
272,292,209811,1,0,0:0:0:0:
332,316,209895,2,0,P|400:160|168:92,1,446.25
144,72,210561,1,0,0:0:0:0:
32,288,210811,5,0,0:0:0:0:
76,324,210895,1,0,0:0:0:0:
136,336,210978,1,0,0:0:0:0:
256,192,211145,12,0,212478,0:0:0:0:
72,132,213145,5,0,0:0:0:0:
136,136,213228,1,0,0:0:0:0:
196,112,213311,1,0,0:0:0:0:
112,280,213478,5,0,0:0:0:0:
156,236,213561,1,0,0:0:0:0:
216,212,213645,1,0,0:0:0:0:
400,80,213811,5,0,0:0:0:0:
400,144,213895,1,0,0:0:0:0:
388,208,213978,1,0,0:0:0:0:
344,256,214061,1,0,0:0:0:0:
296,304,214145,2,0,L|232:320,2,63.75
248,120,214478,5,0,0:0:0:0:
184,124,214561,1,0,0:0:0:0:
124,144,214645,1,0,0:0:0:0:
76,296,214811,5,0,0:0:0:0:
140,312,214895,1,0,0:0:0:0:
204,308,214978,1,0,0:0:0:0:
332,320,215145,5,0,0:0:0:0:
384,280,215228,1,0,0:0:0:0:
428,232,215311,1,0,0:0:0:0:
400,176,215395,1,0,0:0:0:0:
344,148,215478,1,0,0:0:0:0:
284,172,215561,1,0,0:0:0:0:
220,184,215645,1,0,0:0:0:0:
128,236,215811,5,0,0:0:0:0:
68,212,215895,1,0,0:0:0:0:
72,144,215978,1,0,0:0:0:0:
152,56,216145,5,0,0:0:0:0:
216,60,216228,1,0,0:0:0:0:
276,72,216311,1,0,0:0:0:0:
328,244,216478,5,0,0:0:0:0:
276,284,216561,1,0,0:0:0:0:
216,308,216645,1,0,0:0:0:0:
152,316,216728,1,0,0:0:0:0:
92,300,216811,5,0,0:0:0:0:
40,264,216895,1,0,0:0:0:0:
48,200,216978,1,0,0:0:0:0:
72,144,217061,1,0,0:0:0:0:
124,108,217145,5,0,0:0:0:0:
180,140,217228,1,0,0:0:0:0:
244,144,217311,1,0,0:0:0:0:
308,140,217395,1,0,0:0:0:0:
360,180,217478,5,0,0:0:0:0:
308,220,217561,1,0,0:0:0:0:
248,236,217645,1,0,0:0:0:0:
188,220,217728,1,0,0:0:0:0:
128,200,217811,2,0,L|69:173,4,63.75
384,248,218478,5,0,0:0:0:0:
420,196,218561,1,0,0:0:0:0:
416,132,218645,1,0,0:0:0:0:
160,120,218811,5,0,0:0:0:0:
124,172,218895,1,0,0:0:0:0:
116,236,218978,1,0,0:0:0:0:
276,336,219145,5,0,0:0:0:0:
340,340,219228,1,0,0:0:0:0:
392,304,219311,1,0,0:0:0:0:
424,248,219395,1,0,0:0:0:0:
372,208,219478,5,0,0:0:0:0:
328,164,219561,1,0,0:0:0:0:
300,104,219645,1,0,0:0:0:0:
120,72,219812,5,0,0:0:0:0:
92,128,219895,1,0,0:0:0:0:
112,188,219979,1,0,0:0:0:0:
244,164,220145,5,0,0:0:0:0:
280,216,220227,1,0,0:0:0:0:
344,224,220311,1,0,0:0:0:0:
436,160,220478,5,0,0:0:0:0:
396,112,220562,1,0,0:0:0:0:
340,84,220645,1,0,0:0:0:0:
276,80,220728,1,0,0:0:0:0:
216,60,220811,5,0,0:0:0:0:
156,84,220895,1,0,0:0:0:0:
128,140,220978,1,0,0:0:0:0:
148,296,221145,5,0,0:0:0:0:
212,300,221228,1,0,0:0:0:0:
268,272,221312,1,0,0:0:0:0:
72,224,221479,5,0,0:0:0:0:
80,212,221562,1,0,0:0:0:0:
88,200,221645,1,0,0:0:0:0:
104,180,221728,1,0,0:0:0:0:
144,164,221811,5,0,0:0:0:0:
204,144,221895,1,0,0:0:0:0:
256,124,221978,1,0,0:0:0:0:
312,116,222061,1,0,0:0:0:0:
364,144,222145,5,0,0:0:0:0:
368,200,222228,1,0,0:0:0:0:
336,248,222311,1,0,0:0:0:0:
280,264,222395,1,0,0:0:0:0:
224,280,222478,5,0,0:0:0:0:
168,276,222561,1,0,0:0:0:0:
112,272,222645,1,0,0:0:0:0:
68,236,222728,1,0,0:0:0:0:
68,180,222811,5,0,0:0:0:0:
112,144,222895,1,0,0:0:0:0:
148,100,222978,1,0,0:0:0:0:
200,80,223061,1,0,0:0:0:0:
252,56,223145,2,0,L|348:44,4,63.75
420,168,223811,6,0,L|336:132,2,63.75
188,92,224145,1,0,0:0:0:0:
120,136,224228,1,0,0:0:0:0:
72,208,224311,1,0,0:0:0:0:
156,324,224478,6,0,L|236:316,2,63.75
184,276,224728,1,0,0:0:0:0:
248,264,224811,1,0,0:0:0:0:
312,276,224895,1,0,0:0:0:0:
372,252,224978,1,0,0:0:0:0:
392,152,225145,5,0,0:0:0:0:
332,132,225228,1,0,0:0:0:0:
268,140,225311,1,0,0:0:0:0:
176,264,225478,5,0,0:0:0:0:
112,276,225561,1,0,0:0:0:0:
64,232,225645,1,0,0:0:0:0:
96,176,225728,2,0,L|128:104,2,63.75
144,140,225978,5,0,0:0:0:0:
180,88,226061,1,0,0:0:0:0:
244,88,226145,1,0,0:0:0:0:
304,68,226228,1,0,0:0:0:0:
360,96,226311,1,0,0:0:0:0:
400,248,226478,5,0,0:0:0:0:
348,284,226561,1,0,0:0:0:0:
284,296,226645,1,0,0:0:0:0:
160,320,226811,5,0,0:0:0:0:
100,300,226894,1,0,0:0:0:0:
56,252,226977,1,0,0:0:0:0:
108,180,227145,5,0,0:0:0:0:
48,156,227228,1,0,0:0:0:0:
32,96,227311,1,0,0:0:0:0:
60,40,227395,1,0,0:0:0:0:
124,32,227478,1,0,0:0:0:0:
188,44,227561,6,0,L|260:84,3,63.75
304,56,227895,1,0,0:0:0:0:
352,100,227978,1,0,0:0:0:0:
392,160,228061,2,0,L|440:256,1,63.75
348,372,228228,2,0,L|296:308,1,63.75
264,276,228395,5,0,0:0:0:0:
200,240,228478,2,0,L|160:176,4,63.75
244,80,229145,5,0,0:0:0:0:
280,132,229228,1,0,0:0:0:0:
304,192,229311,1,0,0:0:0:0:
104,100,229478,5,0,0:0:0:0:
72,148,229561,1,0,0:0:0:0:
48,200,229645,1,0,0:0:0:0:
52,256,229728,1,0,0:0:0:0:
100,288,229811,5,0,0:0:0:0:
156,308,229895,1,0,0:0:0:0:
212,316,229978,1,0,0:0:0:0:
268,320,230061,1,0,0:0:0:0:
312,284,230145,1,0,0:0:0:0:
352,244,230228,6,0,L|400:176,2,63.75
320,196,230478,1,0,0:0:0:0:
316,140,230561,1,0,0:0:0:0:
332,84,230645,1,0,0:0:0:0:
216,88,230811,5,0,0:0:0:0:
152,96,230895,1,0,0:0:0:0:
104,152,230978,1,0,0:0:0:0:
80,296,231145,5,0,0:0:0:0:
140,316,231228,1,0,0:0:0:0:
200,332,231311,1,0,0:0:0:0:
260,316,231395,1,0,0:0:0:0:
296,264,231478,5,0,0:0:0:0:
256,216,231561,1,0,0:0:0:0:
196,212,231645,1,0,0:0:0:0:
132,200,231728,1,0,0:0:0:0:
116,156,231811,2,0,L|172:96,5,63.75
340,76,232478,5,0,0:0:0:0:
400,76,232562,1,0,0:0:0:0:
424,136,232645,1,0,0:0:0:0:
380,184,232728,5,0,0:0:0:0:
332,224,232812,1,0,0:0:0:0:
280,260,232895,1,0,0:0:0:0:
220,236,232978,1,0,0:0:0:0:
168,196,233061,5,0,0:0:0:0:
132,144,233145,1,0,0:0:0:0:
136,80,233228,1,0,0:0:0:0:
196,64,233311,1,0,0:0:0:0:
252,96,233395,5,0,0:0:0:0:
272,156,233478,1,0,0:0:0:0:
300,212,233561,1,0,0:0:0:0:
272,272,233645,1,0,0:0:0:0:
208,284,233728,5,0,0:0:0:0:
148,260,233811,1,0,0:0:0:0:
104,216,233895,2,0,L|40:156,3,63.75
100,132,234228,1,0,0:0:0:0:
144,96,234311,2,0,L|228:56,1,63.75
272,64,234478,2,0,L|356:64,3,63.75
376,104,234811,5,0,0:0:0:0:
332,144,234895,1,0,0:0:0:0:
276,144,234978,1,0,0:0:0:0:
220,152,235061,1,0,0:0:0:0:
164,160,235145,5,0,0:0:0:0:
116,192,235228,1,0,0:0:0:0:
80,236,235311,1,0,0:0:0:0:
104,288,235395,1,0,0:0:0:0:
160,296,235478,5,0,0:0:0:0:
216,288,235561,1,0,0:0:0:0:
268,268,235645,1,0,0:0:0:0:
332,160,235811,5,0,0:0:0:0:
304,100,235894,1,0,0:0:0:0:
256,60,235978,1,0,0:0:0:0:
148,84,236145,5,0,0:0:0:0:
104,124,236228,1,0,0:0:0:0:
80,176,236311,1,0,0:0:0:0:
56,228,236395,1,0,0:0:0:0:
40,284,236478,5,0,0:0:0:0:
84,320,236561,1,0,0:0:0:0:
140,316,236645,1,0,0:0:0:0:
196,308,236728,1,0,0:0:0:0:
248,284,236811,5,0,0:0:0:0:
268,228,236895,1,0,0:0:0:0:
280,172,236978,1,0,0:0:0:0:
376,112,237145,5,0,0:0:0:0:
328,68,237228,1,0,0:0:0:0:
264,56,237311,1,0,0:0:0:0:
208,76,237395,1,0,0:0:0:0:
164,112,237478,5,0,0:0:0:0:
144,164,237561,1,0,0:0:0:0:
152,220,237645,1,0,0:0:0:0:
188,264,237728,1,0,0:0:0:0:
240,284,237811,5,0,0:0:0:0:
296,284,237895,1,0,0:0:0:0:
336,244,237978,1,0,0:0:0:0:
360,192,238061,1,0,0:0:0:0:
308,168,238145,5,0,0:0:0:0:
256,148,238228,1,0,0:0:0:0:
212,184,238311,1,0,0:0:0:0:
156,180,238395,1,0,0:0:0:0:
108,148,238478,5,0,0:0:0:0:
104,92,238561,1,0,0:0:0:0:
136,44,238645,1,0,0:0:0:0:
192,36,238728,1,0,0:0:0:0:
232,76,238811,5,0,0:0:0:0:
256,128,238895,1,0,0:0:0:0:
276,180,238978,1,0,0:0:0:0:
280,236,239061,1,0,0:0:0:0:
228,256,239145,2,0,L|160:224,6,63.75
104,56,239811,5,0,0:0:0:0:
68,108,239895,1,0,0:0:0:0:
52,168,239978,1,0,0:0:0:0:
44,232,240062,1,0,0:0:0:0:
84,280,240145,5,0,0:0:0:0:
140,308,240228,1,0,0:0:0:0:
200,332,240312,1,0,0:0:0:0:
148,180,240478,5,0,0:0:0:0:
200,152,240562,1,0,0:0:0:0:
236,108,240645,1,0,0:0:0:0:
280,68,240728,1,0,0:0:0:0:
332,44,240812,1,0,0:0:0:0:
388,48,240895,1,0,0:0:0:0:
444,64,240978,1,0,0:0:0:0:
424,220,241145,5,0,0:0:0:0:
360,232,241228,1,0,0:0:0:0:
296,240,241311,1,0,0:0:0:0:
232,248,241395,5,0,0:0:0:0:
176,276,241478,1,0,0:0:0:0:
112,280,241562,1,0,0:0:0:0:
60,244,241645,1,0,0:0:0:0:
128,48,241811,5,0,0:0:0:0:
192,56,241895,1,0,0:0:0:0:
252,72,241978,1,0,0:0:0:0:
300,112,242061,5,0,0:0:0:0:
292,176,242145,1,0,0:0:0:0:
228,188,242228,1,0,0:0:0:0:
164,192,242311,1,0,0:0:0:0:
56,280,242478,5,0,0:0:0:0:
112,308,242561,1,0,0:0:0:0:
172,332,242645,1,0,0:0:0:0:
236,332,242728,1,0,0:0:0:0:
296,308,242811,5,0,0:0:0:0:
352,276,242895,1,0,0:0:0:0:
404,240,242978,1,0,0:0:0:0:
448,192,243061,1,0,0:0:0:0:
436,128,243145,5,0,0:0:0:0:
384,92,243228,1,0,0:0:0:0:
320,96,243311,1,0,0:0:0:0:
260,120,243395,1,0,0:0:0:0:
204,88,243478,5,0,0:0:0:0:
144,68,243561,1,0,0:0:0:0:
80,80,243645,1,0,0:0:0:0:
48,136,243728,1,0,0:0:0:0:
68,196,243811,5,0,0:0:0:0:
116,240,243895,1,0,0:0:0:0:
172,268,243978,1,0,0:0:0:0:
228,240,244061,1,0,0:0:0:0:
260,184,244145,5,0,0:0:0:0:
312,144,244228,1,0,0:0:0:0:
356,100,244311,1,0,0:0:0:0:
416,72,244395,2,0,L|448:152,5,63.75
164,64,245145,5,0,0:0:0:0:
116,108,245228,1,0,0:0:0:0:
72,152,245311,1,0,0:0:0:0:
60,216,245395,1,0,0:0:0:0:
76,276,245478,1,0,0:0:0:0:
136,296,245561,5,0,0:0:0:0:
200,280,245645,1,0,0:0:0:0:
252,244,245728,1,0,0:0:0:0:
292,192,245811,1,0,0:0:0:0:
280,128,245895,1,0,0:0:0:0:
244,76,245978,5,0,0:0:0:0:
184,56,246061,1,0,0:0:0:0:
124,76,246145,1,0,0:0:0:0:
84,128,246228,1,0,0:0:0:0:
116,180,246311,1,0,0:0:0:0:
176,196,246395,5,0,0:0:0:0:
236,176,246478,1,0,0:0:0:0:
284,136,246561,1,0,0:0:0:0:
340,104,246645,1,0,0:0:0:0:
400,80,246728,1,0,0:0:0:0:
460,104,246811,5,0,0:0:0:0:
472,168,246895,1,0,0:0:0:0:
424,212,246978,1,0,0:0:0:0:
364,236,247061,1,0,0:0:0:0:
300,236,247145,1,0,0:0:0:0:
244,268,247228,5,0,0:0:0:0:
184,248,247311,1,0,0:0:0:0:
136,204,247395,1,0,0:0:0:0:
116,144,247478,1,0,0:0:0:0:
152,92,247561,1,0,0:0:0:0:
208,60,247645,5,0,0:0:0:0:
272,60,247728,1,0,0:0:0:0:
300,116,247811,1,0,0:0:0:0:
316,180,247895,1,0,0:0:0:0:
304,244,247978,1,0,0:0:0:0:
256,288,248061,5,0,0:0:0:0:
212,336,248145,1,0,0:0:0:0:
152,316,248228,1,0,0:0:0:0:
116,264,248311,1,0,0:0:0:0:
128,200,248395,1,0,0:0:0:0:
156,144,248478,5,0,0:0:0:0:
188,88,248561,1,0,0:0:0:0:
252,84,248645,1,0,0:0:0:0:
308,108,248728,1,0,0:0:0:0:
344,160,248811,1,0,0:0:0:0:
356,224,248895,5,0,0:0:0:0:
324,280,248978,1,0,0:0:0:0:
268,252,249061,1,0,0:0:0:0:
260,188,249145,1,0,0:0:0:0:
292,132,249228,1,0,0:0:0:0:
320,76,249311,5,0,0:0:0:0:
372,36,249395,1,0,0:0:0:0:
432,52,249478,1,0,0:0:0:0:
452,112,249561,1,0,0:0:0:0:
444,176,249645,1,0,0:0:0:0:
428,236,249728,5,0,0:0:0:0:
412,296,249811,2,0,L|392:336,12,31.875
188,304,250478,5,0,0:0:0:0:
124,280,250561,1,0,0:0:0:0:
72,228,250645,1,0,0:0:0:0:
72,160,250728,1,0,0:0:0:0:
112,104,250811,1,0,0:0:0:0:
176,76,250895,5,0,0:0:0:0:
244,80,250978,1,0,0:0:0:0:
300,120,251061,1,0,0:0:0:0:
312,188,251145,1,0,0:0:0:0:
288,248,251228,1,0,0:0:0:0:
256,304,251311,5,0,0:0:0:0:
312,340,251395,1,0,0:0:0:0:
376,332,251478,1,0,0:0:0:0:
420,284,251561,1,0,0:0:0:0:
440,224,251645,1,0,0:0:0:0:
440,156,251728,5,0,0:0:0:0:
408,92,251811,1,0,0:0:0:0:
348,56,251895,1,0,0:0:0:0:
280,76,251978,1,0,0:0:0:0:
224,116,252061,1,0,0:0:0:0:
156,132,252145,5,0,0:0:0:0:
108,184,252228,1,0,0:0:0:0:
80,248,252311,1,0,0:0:0:0:
116,308,252395,1,0,0:0:0:0:
184,308,252478,1,0,0:0:0:0:
248,280,252561,5,0,0:0:0:0:
312,248,252645,1,0,0:0:0:0:
376,220,252728,1,0,0:0:0:0:
432,180,252811,1,0,0:0:0:0:
432,108,252895,1,0,0:0:0:0:
380,60,252978,5,0,0:0:0:0:
312,48,253061,1,0,0:0:0:0:
240,48,253145,2,0,L|196:68,14,31.875
240,136,253811,6,0,L|180:192,1,63.75
112,352,253978,2,0,L|124:264,1,63.75
116,76,254145,2,0,L|96:148,1,63.75
16,284,254311,2,0,L|64:216,1,63.75
256,296,254478,6,0,L|201:262,1,63.75
136,124,254645,2,0,L|208:176,1,63.75
360,188,254811,2,0,L|276:132,1,63.75
288,24,254978,2,0,L|388:68,1,63.75
468,36,255145,1,0,0:0:0:0:
