osu file format v14

[General]
AudioFilename: audio.mp3
AudioLeadIn: 0
PreviewTime: -1
Countdown: 1
SampleSet: None
StackLeniency: 0.7
Mode: 0
LetterboxInBreaks: 0
WidescreenStoryboard: 0

[Editor]
DistanceSpacing: 0.8
BeatDivisor: 1
GridSize: 8
TimelineZoom: 1

[Metadata]
Title:La Muerte Del Rucio Moro
TitleUnicode:La Muerte Del Rucio Moro
Artist:Reynaldo Armas
ArtistUnicode:Reynaldo Armas
Creator:JadenFroste
Version:The Rucio Moro Death
Source:
Tags:Venezuela
BeatmapID:1826808
BeatmapSetID:873992

[Difficulty]
HPDrainRate:5
CircleSize:4
OverallDifficulty:5
ApproachRate:5
SliderMultiplier:1.4
SliderTickRate:1

[Events]
//Background and Video events
0,0,"Konachan.com - 264404 animal animal_ears anthropomorphism brown_hair casino_(artist) horse short_hair special_week tears uma_musume__pretty_derby wristwear.jpg",0,0
//Break Periods
//Storyboard Layer 0 (Background)
//Storyboard Layer 1 (Fail)
//Storyboard Layer 2 (Pass)
//Storyboard Layer 3 (Foreground)
//Storyboard Sound Samples

[TimingPoints]
11494.7902389715,166.968062827225,4,1,0,100,1,0

[Colours]
Combo1 : 128,128,0
Combo2 : 128,64,64
Combo3 : 128,128,64
Combo4 : 128,0,0
Combo5 : 0,0,0

[HitObjects]
74,92,808,5,0,0:0:0:0:
101,247,1810,1,0,0:0:0:0:
215,327,2645,1,0,0:0:0:0:
341,315,3313,1,0,0:0:0:0:
375,223,3981,1,0,0:0:0:0:
356,82,4649,1,0,0:0:0:0:
221,100,5316,1,0,0:0:0:0:
102,158,5817,1,0,0:0:0:0:
170,240,6652,1,0,0:0:0:0:
351,263,7320,1,0,0:0:0:0:
276,132,8322,1,0,0:0:0:0:
132,148,8823,2,0,B|246:351|375:89|377:89,1,280
103,98,11995,5,0,0:0:0:0:
63,180,12329,1,0,0:0:0:0:
103,273,12830,1,0,0:0:0:0:
208,304,13164,1,0,0:0:0:0:
322,308,13665,1,0,0:0:0:0:
407,233,13999,1,0,0:0:0:0:
396,127,14333,1,0,0:0:0:0:
315,62,14834,1,0,0:0:0:0:
186,67,15168,1,0,0:0:0:0:
93,169,15502,1,0,0:0:0:0:
146,288,16002,1,0,0:0:0:0:
273,322,16336,1,0,0:0:0:0:
386,300,16837,1,0,0:0:0:0:
424,209,17004,1,0,0:0:0:0:
396,134,17505,1,0,0:0:0:0:
340,86,18006,1,0,0:0:0:0:
250,82,18340,1,0,0:0:0:0:
156,133,18841,1,0,0:0:0:0:
139,226,19175,1,0,0:0:0:0:
250,288,19676,1,0,0:0:0:0:
343,299,20511,5,0,0:0:0:0:
378,237,20845,1,0,0:0:0:0:
364,171,21345,1,0,0:0:0:0:
315,118,21679,1,0,0:0:0:0:
241,98,22013,1,0,0:0:0:0:
168,127,22514,1,0,0:0:0:0:
116,192,22848,1,0,0:0:0:0:
117,277,23349,1,0,0:0:0:0:
179,332,23683,1,0,0:0:0:0:
272,328,24017,1,0,0:0:0:0:
354,300,24351,1,0,0:0:0:0:
410,240,24852,1,0,0:0:0:0:
407,165,25186,1,0,0:0:0:0:
368,112,25520,1,0,0:0:0:0:
309,78,26021,1,0,0:0:0:0:
227,74,26354,1,0,0:0:0:0:
145,117,26855,1,0,0:0:0:0:
82,166,27189,1,0,0:0:0:0:
89,260,28024,5,0,0:0:0:0:
132,322,28358,1,0,0:0:0:0:
194,342,28692,1,0,0:0:0:0:
252,336,29026,1,0,0:0:0:0:
309,323,29360,1,0,0:0:0:0:
355,301,29861,1,0,0:0:0:0:
391,246,30195,1,0,0:0:0:0:
435,179,30696,1,0,0:0:0:0:
398,124,30863,1,0,0:0:0:0:
347,103,31030,1,0,0:0:0:0:
294,88,31363,1,0,0:0:0:0:
241,86,31530,1,0,0:0:0:0:
187,94,31697,1,0,0:0:0:0:
149,131,32031,1,0,0:0:0:0:
132,182,32198,1,0,0:0:0:0:
127,233,32532,1,0,0:0:0:0:
130,284,32699,1,0,0:0:0:0:
166,312,33033,1,0,0:0:0:0:
216,320,33367,1,0,0:0:0:0:
270,327,33868,5,0,0:0:0:0:
324,326,34369,1,0,0:0:0:0:
369,310,34703,1,0,0:0:0:0:
370,253,34870,1,0,0:0:0:0:
324,215,35204,1,0,0:0:0:0:
365,181,35371,1,0,0:0:0:0:
361,115,35705,1,0,0:0:0:0:
319,145,35872,1,0,0:0:0:0:
318,83,36039,1,0,0:0:0:0:
257,111,36539,1,0,0:0:0:0:
179,141,37040,1,0,0:0:0:0:
98,175,37374,1,0,0:0:0:0:
125,257,37708,1,0,0:0:0:0:
174,333,38209,1,0,0:0:0:0:
271,331,38543,1,0,0:0:0:0:
332,317,39044,1,0,0:0:0:0:
406,279,39378,1,0,0:0:0:0:
385,197,39879,1,0,0:0:0:0:
367,146,40213,1,0,0:0:0:0:
319,136,40547,1,0,0:0:0:0:
274,122,40881,1,0,0:0:0:0:
223,110,41048,1,0,0:0:0:0:
181,101,41382,1,0,0:0:0:0:
131,104,41549,1,0,0:0:0:0:
88,132,41716,1,0,0:0:0:0:
93,185,42049,1,0,0:0:0:0:
105,231,42383,1,0,0:0:0:0:
146,262,42550,1,0,0:0:0:0:
196,269,42717,1,0,0:0:0:0:
251,278,43719,5,0,0:0:0:0:
251,278,43886,1,0,0:0:0:0:
251,278,44053,1,0,0:0:0:0:
251,278,44220,1,0,0:0:0:0:
251,278,44387,1,0,0:0:0:0:
251,278,44554,1,0,0:0:0:0:
251,278,44721,1,0,0:0:0:0:
251,278,44888,1,0,0:0:0:0:
251,278,45055,1,0,0:0:0:0:
251,278,45222,1,0,0:0:0:0:
251,278,45389,1,0,0:0:0:0:
251,278,45723,1,0,0:0:0:0:
251,278,45890,1,0,0:0:0:0:
251,278,46057,1,0,0:0:0:0:
299,317,46725,5,0,0:0:0:0:
361,306,47058,1,0,0:0:0:0:
394,258,47559,1,0,0:0:0:0:
392,204,47893,1,0,0:0:0:0:
361,159,48394,1,0,0:0:0:0:
313,138,48728,1,0,0:0:0:0:
253,121,49229,1,0,0:0:0:0:
183,119,49563,1,0,0:0:0:0:
134,169,49897,1,0,0:0:0:0:
134,238,50398,1,0,0:0:0:0:
152,309,50732,1,0,0:0:0:0:
213,331,51066,1,0,0:0:0:0:
280,318,51400,1,0,0:0:0:0:
332,283,51901,1,0,0:0:0:0:
344,220,52234,1,0,0:0:0:0:
294,173,52568,1,0,0:0:0:0:
338,115,53069,1,0,0:0:0:0:
290,53,53236,1,0,0:0:0:0:
223,67,53570,1,0,0:0:0:0:
169,102,53737,1,0,0:0:0:0:
124,155,53904,1,0,0:0:0:0:
95,223,54238,1,0,0:0:0:0:
129,299,54739,5,0,0:0:0:0:
215,329,55073,1,0,0:0:0:0:
292,304,55574,1,0,0:0:0:0:
344,264,55908,1,0,0:0:0:0:
397,204,56242,1,0,0:0:0:0:
371,141,56743,1,0,0:0:0:0:
293,105,57244,1,0,0:0:0:0:
209,84,57577,1,0,0:0:0:0:
151,134,58078,1,0,0:0:0:0:
156,203,58412,1,0,0:0:0:0:
219,245,58746,1,0,0:0:0:0:
289,252,59247,1,0,0:0:0:0:
339,195,59581,1,0,0:0:0:0:
318,131,60082,1,0,0:0:0:0:
249,99,60416,1,0,0:0:0:0:
181,151,60917,1,0,0:0:0:0:
155,230,61418,1,0,0:0:0:0:
215,278,61752,1,0,0:0:0:0:
291,247,62086,1,0,0:0:0:0:
292,163,62587,1,0,0:0:0:0:
217,140,63087,1,0,0:0:0:0:
169,192,63254,1,0,0:0:0:0:
135,266,63588,1,0,0:0:0:0:
200,314,64089,1,0,0:0:0:0:
285,311,64423,1,0,0:0:0:0:
344,268,64924,1,0,0:0:0:0:
336,188,65258,1,0,0:0:0:0:
298,125,65759,1,0,0:0:0:0:
196,182,66594,1,0,0:0:0:0:
196,182,66761,1,0,0:0:0:0:
196,182,66928,1,0,0:0:0:0:
196,182,67095,1,0,0:0:0:0:
196,182,67262,1,0,0:0:0:0:
196,182,67596,1,0,0:0:0:0:
196,182,67763,1,0,0:0:0:0:
196,182,67929,1,0,0:0:0:0:
196,182,68096,1,0,0:0:0:0:
196,182,68263,1,0,0:0:0:0:
196,182,68430,1,0,0:0:0:0:
196,182,68597,1,0,0:0:0:0:
106,173,68931,5,0,0:0:0:0:
55,215,69432,1,0,0:0:0:0:
70,288,69766,1,0,0:0:0:0:
135,303,70100,1,0,0:0:0:0:
204,301,70601,1,0,0:0:0:0:
271,301,70935,1,0,0:0:0:0:
336,314,71436,1,0,0:0:0:0:
397,286,71770,1,0,0:0:0:0:
379,228,72104,1,0,0:0:0:0:
423,188,72438,1,0,0:0:0:0:
383,140,72772,1,0,0:0:0:0:
338,112,72939,1,0,0:0:0:0:
280,128,73272,1,0,0:0:0:0:
241,176,73606,1,0,0:0:0:0:
212,126,73773,1,0,0:0:0:0:
171,176,74107,1,0,0:0:0:0:
142,122,74274,1,0,0:0:0:0:
108,172,74608,1,0,0:0:0:0:
49,216,74775,1,0,0:0:0:0:
79,272,75276,1,0,0:0:0:0:
161,250,75944,5,0,0:0:0:0:
161,250,76111,1,0,0:0:0:0:
161,250,76278,1,0,0:0:0:0:
161,250,76445,1,0,0:0:0:0:
161,250,76612,1,0,0:0:0:0:
161,250,76779,1,0,0:0:0:0:
161,250,76946,1,0,0:0:0:0:
161,250,77113,1,0,0:0:0:0:
161,250,77280,1,0,0:0:0:0:
161,250,77447,1,0,0:0:0:0:
161,250,77614,1,0,0:0:0:0:
161,250,77781,1,0,0:0:0:0:
161,250,77948,1,0,0:0:0:0:
161,250,78115,1,0,0:0:0:0:
114,188,78615,5,0,0:0:0:0:
152,122,78949,1,0,0:0:0:0:
222,95,79283,1,0,0:0:0:0:
294,102,79784,1,0,0:0:0:0:
357,134,80118,1,0,0:0:0:0:
392,185,80619,1,0,0:0:0:0:
408,248,80953,1,0,0:0:0:0:
361,295,81454,1,0,0:0:0:0:
291,307,81788,1,0,0:0:0:0:
225,312,82122,1,0,0:0:0:0:
161,321,82623,1,0,0:0:0:0:
107,284,83124,1,0,0:0:0:0:
94,221,83458,1,0,0:0:0:0:
84,159,83958,1,0,0:0:0:0:
124,113,84292,1,0,0:0:0:0:
186,89,84793,1,0,0:0:0:0:
256,71,85127,5,0,0:0:0:0:
329,86,85795,1,0,0:0:0:0:
393,109,86129,1,0,0:0:0:0:
402,179,86630,1,0,0:0:0:0:
409,244,86964,1,0,0:0:0:0:
374,295,87298,1,0,0:0:0:0:
313,315,87799,1,0,0:0:0:0:
251,319,88133,1,0,0:0:0:0:
189,309,88467,1,0,0:0:0:0:
135,280,88967,1,0,0:0:0:0:
102,231,89468,1,0,0:0:0:0:
119,168,89802,1,0,0:0:0:0:
132,111,90303,1,0,0:0:0:0:
180,74,90637,1,0,0:0:0:0:
243,73,91138,1,0,0:0:0:0:
313,71,91472,1,0,0:0:0:0:
372,87,91973,1,0,0:0:0:0:
419,139,92307,1,0,0:0:0:0:
429,202,92808,1,0,0:0:0:0:
417,264,93142,1,0,0:0:0:0:
362,299,93476,1,0,0:0:0:0:
299,310,93977,1,0,0:0:0:0:
234,313,94310,1,0,0:0:0:0:
169,311,94644,1,0,0:0:0:0:
112,279,95145,1,0,0:0:0:0:
102,219,95479,1,0,0:0:0:0:
111,155,95980,1,0,0:0:0:0:
148,109,96314,1,0,0:0:0:0:
212,83,96815,1,0,0:0:0:0:
280,81,97149,1,0,0:0:0:0:
348,89,97483,1,0,0:0:0:0:
83,102,97817,6,0,P|249:347|427:75,1,700
381,71,99153,5,0,0:0:0:0:
309,54,99486,1,0,0:0:0:0:
237,57,99987,1,0,0:0:0:0:
168,88,100321,1,0,0:0:0:0:
114,135,100822,1,0,0:0:0:0:
100,202,101156,1,0,0:0:0:0:
121,260,101657,1,0,0:0:0:0:
179,288,102158,1,0,0:0:0:0:
241,293,102492,1,0,0:0:0:0:
305,290,102993,1,0,0:0:0:0:
367,285,103494,1,0,0:0:0:0:
416,254,103828,1,0,0:0:0:0:
422,193,104329,1,0,0:0:0:0:
397,139,104829,1,0,0:0:0:0:
352,101,105163,1,0,0:0:0:0:
298,83,105664,1,0,0:0:0:0:
241,78,106165,1,0,0:0:0:0:
184,90,106499,1,0,0:0:0:0:
130,112,107000,1,0,0:0:0:0:
151,187,107668,5,0,0:0:0:0:
80,222,108169,1,0,0:0:0:0:
76,295,108670,1,0,0:0:0:0:
152,326,109004,1,0,0:0:0:0:
225,344,109505,1,0,0:0:0:0:
229,277,109838,1,0,0:0:0:0:
286,315,110339,1,0,0:0:0:0:
343,345,110673,1,0,0:0:0:0:
388,298,111174,1,0,0:0:0:0:
350,242,111508,1,0,0:0:0:0:
403,210,112009,1,0,0:0:0:0:
348,170,112343,1,0,0:0:0:0:
403,129,112844,1,0,0:0:0:0:
341,101,113178,1,0,0:0:0:0:
402,63,113679,1,0,0:0:0:0:
310,40,114013,1,0,0:0:0:0:
242,44,114514,1,0,0:0:0:0:
182,66,114848,1,0,0:0:0:0:
124,96,115181,1,0,0:0:0:0:
69,140,115682,1,0,0:0:0:0:
62,212,116016,1,0,0:0:0:0:
87,269,116350,1,0,0:0:0:0:
139,307,116851,1,0,0:0:0:0:
206,317,117185,1,0,0:0:0:0:
274,315,117686,1,0,0:0:0:0:
345,294,118020,1,0,0:0:0:0:
392,255,118521,1,0,0:0:0:0:
414,204,118855,1,0,0:0:0:0:
408,143,119189,1,0,0:0:0:0:
387,91,119690,1,0,0:0:0:0:
276,154,120858,5,0,0:0:0:0:
276,154,121025,1,0,0:0:0:0:
276,154,121192,1,0,0:0:0:0:
276,154,121359,1,0,0:0:0:0:
276,154,121526,1,0,0:0:0:0:
276,154,121693,1,0,0:0:0:0:
276,154,121860,1,0,0:0:0:0:
276,154,122027,1,0,0:0:0:0:
276,154,122194,1,0,0:0:0:0:
276,154,122361,1,0,0:0:0:0:
276,154,122528,1,0,0:0:0:0:
276,154,122695,1,0,0:0:0:0:
276,154,122862,1,0,0:0:0:0:
276,154,123029,1,0,0:0:0:0:
205,148,123697,5,0,0:0:0:0:
161,103,124031,1,0,0:0:0:0:
127,156,124532,1,0,0:0:0:0:
56,179,124866,1,0,0:0:0:0:
74,245,125367,1,0,0:0:0:0:
121,299,125867,1,0,0:0:0:0:
203,317,126368,1,0,0:0:0:0:
277,318,126702,1,0,0:0:0:0:
343,311,127203,1,0,0:0:0:0:
400,287,127537,1,0,0:0:0:0:
412,225,128038,1,0,0:0:0:0:
414,166,128539,1,0,0:0:0:0:
406,101,128873,1,0,0:0:0:0:
362,52,129374,1,0,0:0:0:0:
292,52,129708,1,0,0:0:0:0:
224,57,130209,1,0,0:0:0:0:
163,125,130543,5,0,0:0:0:0:
163,125,130709,1,0,0:0:0:0:
163,125,130876,1,0,0:0:0:0:
163,125,131043,1,0,0:0:0:0:
163,125,131210,1,0,0:0:0:0:
163,125,131377,1,0,0:0:0:0:
163,125,131544,1,0,0:0:0:0:
163,125,131711,1,0,0:0:0:0:
163,125,131878,1,0,0:0:0:0:
163,125,132045,1,0,0:0:0:0:
163,125,132212,1,0,0:0:0:0:
163,125,132379,1,0,0:0:0:0:
163,125,132546,1,0,0:0:0:0:
163,125,132713,1,0,0:0:0:0:
163,125,132880,1,0,0:0:0:0:
60,137,133214,5,0,0:0:0:0:
37,215,133715,1,0,0:0:0:0:
85,261,134049,1,0,0:0:0:0:
143,301,134383,1,0,0:0:0:0:
204,329,134884,1,0,0:0:0:0:
267,331,135218,1,0,0:0:0:0:
331,329,135552,1,0,0:0:0:0:
393,318,136052,1,0,0:0:0:0:
438,278,136386,1,0,0:0:0:0:
421,220,136720,1,0,0:0:0:0:
410,162,137221,1,0,0:0:0:0:
402,106,137555,1,0,0:0:0:0:
368,63,138056,1,0,0:0:0:0:
311,51,138390,1,0,0:0:0:0:
242,56,138891,1,0,0:0:0:0:
179,66,139225,1,0,0:0:0:0:
121,87,139726,1,0,0:0:0:0:
98,137,140060,1,0,0:0:0:0:
102,194,140394,1,0,0:0:0:0:
127,244,140728,1,0,0:0:0:0:
181,271,141228,1,0,0:0:0:0:
245,273,141562,1,0,0:0:0:0:
305,273,142063,1,0,0:0:0:0:
369,276,142397,1,0,0:0:0:0:
420,250,142898,1,0,0:0:0:0:
402,192,143232,1,0,0:0:0:0:
369,138,143566,1,0,0:0:0:0:
326,103,144067,1,0,0:0:0:0:
275,72,144401,1,0,0:0:0:0:
213,60,144902,1,0,0:0:0:0:
154,64,145236,1,0,0:0:0:0:
100,100,145737,1,0,0:0:0:0:
73,153,146238,1,0,0:0:0:0:
47,209,146571,1,0,0:0:0:0:
51,270,147072,1,0,0:0:0:0:
91,322,147406,1,0,0:0:0:0:
160,329,147907,1,0,0:0:0:0:
226,320,148241,1,0,0:0:0:0:
290,316,148742,1,0,0:0:0:0:
351,311,149076,1,0,0:0:0:0:
401,277,149577,1,0,0:0:0:0:
420,222,150078,1,0,0:0:0:0:
402,160,150412,1,0,0:0:0:0:
379,103,150913,1,0,0:0:0:0:
319,83,151247,1,0,0:0:0:0:
259,77,151747,1,0,0:0:0:0:
196,85,152081,1,0,0:0:0:0:
140,102,152582,1,0,0:0:0:0:
95,143,152916,1,0,0:0:0:0:
232,232,153083,5,0,0:0:0:0:
232,232,153250,1,0,0:0:0:0:
232,232,153417,1,0,0:0:0:0:
232,232,153584,1,0,0:0:0:0:
232,232,153751,1,0,0:0:0:0:
232,232,153918,1,0,0:0:0:0:
232,232,154085,1,0,0:0:0:0:
232,232,154252,1,0,0:0:0:0:
232,232,154419,1,0,0:0:0:0:
232,232,154586,1,0,0:0:0:0:
232,232,154753,1,0,0:0:0:0:
232,232,154920,1,0,0:0:0:0:
232,232,155087,1,0,0:0:0:0:
232,232,155254,1,0,0:0:0:0:
251,294,155922,5,0,0:0:0:0:
300,342,156423,1,0,0:0:0:0:
371,338,156923,1,0,0:0:0:0:
432,316,157257,1,0,0:0:0:0:
442,255,157758,1,0,0:0:0:0:
414,196,158092,1,0,0:0:0:0:
385,142,158593,1,0,0:0:0:0:
354,88,158927,1,0,0:0:0:0:
307,50,159428,1,0,0:0:0:0:
236,50,159762,1,0,0:0:0:0:
174,63,160263,1,0,0:0:0:0:
115,83,160597,1,0,0:0:0:0:
90,153,161098,1,0,0:0:0:0:
104,214,161599,1,0,0:0:0:0:
128,269,162099,1,0,0:0:0:0:
251,268,162767,1,0,0:0:0:0:
251,268,162934,1,0,0:0:0:0:
251,268,163101,1,0,0:0:0:0:
251,268,163268,1,0,0:0:0:0:
251,268,163435,1,0,0:0:0:0:
251,268,163602,1,0,0:0:0:0:
251,268,163769,1,0,0:0:0:0:
251,268,163936,1,0,0:0:0:0:
251,268,164103,1,0,0:0:0:0:
251,268,164270,1,0,0:0:0:0:
251,268,164437,1,0,0:0:0:0:
251,268,164604,1,0,0:0:0:0:
251,268,164771,1,0,0:0:0:0:
251,268,164938,1,0,0:0:0:0:
251,268,165105,1,0,0:0:0:0:
294,321,165773,5,0,0:0:0:0:
366,316,166274,1,0,0:0:0:0:
410,272,166775,1,0,0:0:0:0:
397,205,167109,1,0,0:0:0:0:
377,145,167609,1,0,0:0:0:0:
338,95,167943,1,0,0:0:0:0:
286,61,168444,1,0,0:0:0:0:
224,60,168945,1,0,0:0:0:0:
164,76,169279,1,0,0:0:0:0:
120,123,169780,1,0,0:0:0:0:
103,182,170114,1,0,0:0:0:0:
87,241,170615,1,0,0:0:0:0:
102,303,170949,1,0,0:0:0:0:
161,334,171450,1,0,0:0:0:0:
231,335,171784,1,0,0:0:0:0:
298,333,172118,1,0,0:0:0:0:
373,327,172452,1,0,0:0:0:0:
443,315,172952,1,0,0:0:0:0:
418,251,173286,1,0,0:0:0:0:
385,187,173620,1,0,0:0:0:0:
351,129,173954,1,0,0:0:0:0:
311,70,174455,1,0,0:0:0:0:
236,52,174789,1,0,0:0:0:0:
170,61,175290,1,0,0:0:0:0:
121,102,175624,1,0,0:0:0:0:
98,166,175958,1,0,0:0:0:0:
81,224,176459,1,0,0:0:0:0:
67,299,176960,1,0,0:0:0:0:
130,336,177294,1,0,0:0:0:0:
193,324,177628,1,0,0:0:0:0:
258,323,178128,1,0,0:0:0:0:
319,320,178462,1,0,0:0:0:0:
379,317,178796,1,0,0:0:0:0:
429,266,179130,1,0,0:0:0:0:
413,206,179631,1,0,0:0:0:0:
374,159,179965,1,0,0:0:0:0:
329,113,180466,1,0,0:0:0:0:
277,88,180633,1,0,0:0:0:0:
217,67,181134,1,0,0:0:0:0:
158,64,181468,1,0,0:0:0:0:
106,94,181802,1,0,0:0:0:0:
74,152,182303,1,0,0:0:0:0:
65,217,182637,1,0,0:0:0:0:
70,278,182970,1,0,0:0:0:0:
110,330,183471,1,0,0:0:0:0:
175,326,183805,1,0,0:0:0:0:
250,320,184306,1,0,0:0:0:0:
316,307,184640,1,0,0:0:0:0:
369,270,185141,1,0,0:0:0:0:
406,208,185475,5,0,0:0:0:0:
441,135,185809,1,0,0:0:0:0:
400,86,186143,1,0,0:0:0:0:
342,60,186644,1,0,0:0:0:0:
266,61,187145,1,0,0:0:0:0:
195,66,187479,1,0,0:0:0:0:
130,85,187980,1,0,0:0:0:0:
82,132,188313,1,0,0:0:0:0:
66,198,188647,1,0,0:0:0:0:
72,263,188981,1,0,0:0:0:0:
108,320,189482,1,0,0:0:0:0:
176,338,189816,1,0,0:0:0:0:
243,342,190317,1,0,0:0:0:0:
313,339,190651,1,0,0:0:0:0:
379,335,190985,1,0,0:0:0:0:
426,297,191319,1,0,0:0:0:0:
387,242,191653,1,0,0:0:0:0:
428,188,191987,1,0,0:0:0:0:
366,171,192321,1,0,0:0:0:0:
412,117,192655,1,0,0:0:0:0:
352,89,192822,1,0,0:0:0:0:
290,75,193156,1,0,0:0:0:0:
222,70,193323,1,0,0:0:0:0:
158,80,193823,1,0,0:0:0:0:
115,129,194157,1,0,0:0:0:0:
88,193,194658,1,0,0:0:0:0:
96,251,195159,5,0,0:0:0:0:
102,324,195660,1,0,0:0:0:0:
174,354,195994,1,0,0:0:0:0:
245,339,196495,1,0,0:0:0:0:
309,325,196829,1,0,0:0:0:0:
368,306,197330,1,0,0:0:0:0:
415,266,197664,1,0,0:0:0:0:
418,203,198165,1,0,0:0:0:0:
393,144,198665,1,0,0:0:0:0:
353,95,198999,1,0,0:0:0:0:
305,56,199500,1,0,0:0:0:0:
244,54,199834,1,0,0:0:0:0:
183,62,200335,1,0,0:0:0:0:
129,91,200669,1,0,0:0:0:0:
92,138,201170,1,0,0:0:0:0:
77,196,201504,1,0,0:0:0:0:
77,255,201838,1,0,0:0:0:0:
112,302,202339,1,0,0:0:0:0:
175,307,202673,1,0,0:0:0:0:
244,316,202840,1,0,0:0:0:0:
314,317,203341,1,0,0:0:0:0:
374,308,203841,1,0,0:0:0:0:
420,271,204342,1,0,0:0:0:0:
409,213,204676,1,0,0:0:0:0:
391,153,205010,1,0,0:0:0:0:
353,104,205511,1,0,0:0:0:0:
292,86,205845,1,0,0:0:0:0:
228,83,206346,1,0,0:0:0:0:
167,106,206680,1,0,0:0:0:0:
252,225,207181,5,0,0:0:0:0:
252,225,207348,1,0,0:0:0:0:
252,225,207515,1,0,0:0:0:0:
252,225,207682,1,0,0:0:0:0:
252,225,207849,1,0,0:0:0:0:
252,225,208016,1,0,0:0:0:0:
252,225,208183,1,0,0:0:0:0:
252,225,208350,1,0,0:0:0:0:
252,225,208517,1,0,0:0:0:0:
252,225,208684,1,0,0:0:0:0:
252,225,208851,1,0,0:0:0:0:
252,225,209018,1,0,0:0:0:0:
252,225,209184,1,0,0:0:0:0:
252,225,209351,1,0,0:0:0:0:
252,225,209518,1,0,0:0:0:0:
195,290,209685,5,0,0:0:0:0:
248,330,210186,1,0,0:0:0:0:
307,304,210687,1,0,0:0:0:0:
362,270,211021,1,0,0:0:0:0:
405,222,211522,1,0,0:0:0:0:
410,161,211856,1,0,0:0:0:0:
378,107,212357,1,0,0:0:0:0:
330,71,212691,1,0,0:0:0:0:
271,57,213025,1,0,0:0:0:0:
211,66,213526,1,0,0:0:0:0:
155,89,213860,1,0,0:0:0:0:
107,126,214194,1,0,0:0:0:0:
67,174,214694,1,0,0:0:0:0:
76,236,215195,1,0,0:0:0:0:
115,286,215529,1,0,0:0:0:0:
178,303,216030,1,0,0:0:0:0:
240,306,216364,1,0,0:0:0:0:
307,252,216698,5,0,0:0:0:0:
307,252,216865,1,0,0:0:0:0:
307,252,217032,1,0,0:0:0:0:
307,252,217199,1,0,0:0:0:0:
307,252,217366,1,0,0:0:0:0:
307,252,217533,1,0,0:0:0:0:
307,252,217700,1,0,0:0:0:0:
307,252,217867,1,0,0:0:0:0:
307,252,218034,1,0,0:0:0:0:
307,252,218201,1,0,0:0:0:0:
307,252,218368,1,0,0:0:0:0:
307,252,218535,1,0,0:0:0:0:
307,252,218702,1,0,0:0:0:0:
307,252,218869,1,0,0:0:0:0:
311,339,219203,5,0,0:0:0:0:
244,345,219703,1,0,0:0:0:0:
182,334,220037,1,0,0:0:0:0:
120,323,220705,1,0,0:0:0:0:
74,286,221206,1,0,0:0:0:0:
45,234,221540,1,0,0:0:0:0:
56,174,221874,1,0,0:0:0:0:
93,126,222375,1,0,0:0:0:0:
139,86,222709,1,0,0:0:0:0:
197,60,223210,1,0,0:0:0:0:
256,52,223544,1,0,0:0:0:0:
314,53,223878,1,0,0:0:0:0:
370,72,224379,1,0,0:0:0:0:
410,110,224713,1,0,0:0:0:0:
417,169,225046,1,0,0:0:0:0:
416,232,225714,1,0,0:0:0:0:
394,294,225881,1,0,0:0:0:0:
329,331,226382,5,0,0:0:0:0:
263,335,226883,1,0,0:0:0:0:
198,336,227217,1,0,0:0:0:0:
140,318,227718,1,0,0:0:0:0:
90,282,228052,1,0,0:0:0:0:
64,227,228386,1,0,0:0:0:0:
67,167,228887,1,0,0:0:0:0:
95,113,229221,1,0,0:0:0:0:
142,74,229722,1,0,0:0:0:0:
198,49,230055,1,0,0:0:0:0:
257,43,230556,1,0,0:0:0:0:
317,47,230890,1,0,0:0:0:0:
365,80,231391,1,0,0:0:0:0:
408,131,231892,1,0,0:0:0:0:
425,192,232226,1,0,0:0:0:0:
426,258,232727,1,0,0:0:0:0:
400,311,233061,1,0,0:0:0:0:
343,331,233562,1,0,0:0:0:0:
283,345,233896,1,0,0:0:0:0:
223,339,234230,1,0,0:0:0:0:
165,325,234731,1,0,0:0:0:0:
111,295,235065,1,0,0:0:0:0:
72,250,235565,1,0,0:0:0:0:
67,194,235899,1,0,0:0:0:0:
86,136,236400,1,0,0:0:0:0:
136,85,236734,1,0,0:0:0:0:
193,56,237068,1,0,0:0:0:0:
252,48,237569,1,0,0:0:0:0:
312,47,237903,1,0,0:0:0:0:
372,69,238404,1,0,0:0:0:0:
293,193,239239,5,0,0:0:0:0:
293,193,239406,1,0,0:0:0:0:
293,193,239573,1,0,0:0:0:0:
293,193,239740,1,0,0:0:0:0:
293,193,239907,1,0,0:0:0:0:
293,193,240074,1,0,0:0:0:0:
293,193,240241,1,0,0:0:0:0:
293,193,240408,1,0,0:0:0:0:
293,193,240574,1,0,0:0:0:0:
293,193,240741,1,0,0:0:0:0:
293,193,240908,1,0,0:0:0:0:
293,193,241075,1,0,0:0:0:0:
293,193,241242,1,0,0:0:0:0:
293,193,241409,1,0,0:0:0:0:
293,193,241576,1,0,0:0:0:0:
222,246,241910,5,0,0:0:0:0:
273,297,242411,1,0,0:0:0:0:
330,331,242912,1,0,0:0:0:0:
388,290,243246,1,0,0:0:0:0:
402,229,243747,1,0,0:0:0:0:
406,164,244081,1,0,0:0:0:0:
392,101,244582,1,0,0:0:0:0:
344,58,244916,1,0,0:0:0:0:
284,53,245417,1,0,0:0:0:0:
224,59,245750,1,0,0:0:0:0:
165,68,246251,1,0,0:0:0:0:
107,84,246585,1,0,0:0:0:0:
81,135,247086,1,0,0:0:0:0:
87,193,247587,1,0,0:0:0:0:
117,240,247921,1,0,0:0:0:0:
169,276,248422,1,0,0:0:0:0:
293,252,248756,5,0,0:0:0:0:
293,252,248923,1,0,0:0:0:0:
293,252,249090,1,0,0:0:0:0:
293,252,249257,1,0,0:0:0:0:
293,252,249424,1,0,0:0:0:0:
293,252,249591,1,0,0:0:0:0:
293,252,249758,1,0,0:0:0:0:
293,252,249925,1,0,0:0:0:0:
293,252,250092,1,0,0:0:0:0:
293,252,250259,1,0,0:0:0:0:
293,252,250426,1,0,0:0:0:0:
293,252,250593,1,0,0:0:0:0:
293,252,250760,1,0,0:0:0:0:
293,252,250926,1,0,0:0:0:0:
293,252,251093,1,0,0:0:0:0:
221,302,251594,5,0,0:0:0:0:
277,344,252095,1,0,0:0:0:0:
343,344,252596,1,0,0:0:0:0:
400,305,253097,1,0,0:0:0:0:
414,250,253431,1,0,0:0:0:0:
400,193,253932,1,0,0:0:0:0:
375,137,254266,1,0,0:0:0:0:
376,77,254600,1,0,0:0:0:0:
324,48,255101,1,0,0:0:0:0:
264,44,255435,1,0,0:0:0:0:
203,63,255936,1,0,0:0:0:0:
143,83,256269,1,0,0:0:0:0:
92,116,256770,1,0,0:0:0:0:
74,178,257271,1,0,0:0:0:0:
85,238,257605,1,0,0:0:0:0:
127,282,258106,1,0,0:0:0:0:
187,311,258440,1,0,0:0:0:0:
251,315,258941,1,0,0:0:0:0:
315,314,259275,1,0,0:0:0:0:
375,303,259776,1,0,0:0:0:0:
422,263,260110,1,0,0:0:0:0:
432,205,260444,1,0,0:0:0:0:
429,144,260778,1,0,0:0:0:0:
410,88,261279,1,0,0:0:0:0:
361,53,261612,1,0,0:0:0:0:
300,45,261946,1,0,0:0:0:0:
240,51,262447,1,0,0:0:0:0:
179,61,262948,1,0,0:0:0:0:
122,82,263282,1,0,0:0:0:0:
71,114,263783,1,0,0:0:0:0:
67,178,264117,1,0,0:0:0:0:
87,235,264451,1,0,0:0:0:0:
131,276,264785,1,0,0:0:0:0:
184,308,265286,1,0,0:0:0:0:
244,317,265620,1,0,0:0:0:0:
307,316,266121,1,0,0:0:0:0:
371,313,266455,1,0,0:0:0:0:
414,268,266955,1,0,0:0:0:0:
448,219,267289,1,0,0:0:0:0:
433,156,267790,1,0,0:0:0:0:
398,107,268124,1,0,0:0:0:0:
342,80,268625,1,0,0:0:0:0:
285,58,268959,1,0,0:0:0:0:
222,59,269460,1,0,0:0:0:0:
163,83,269961,1,0,0:0:0:0:
112,118,270295,1,0,0:0:0:0:
68,160,270796,1,0,0:0:0:0:
72,261,271631,5,0,0:0:0:0:
115,316,272131,1,0,0:0:0:0:
160,258,272465,1,0,0:0:0:0:
205,319,272799,1,0,0:0:0:0:
261,262,273300,1,0,0:0:0:0:
316,324,273634,1,0,0:0:0:0:
376,315,273968,1,0,0:0:0:0:
415,267,274469,1,0,0:0:0:0:
419,208,274803,1,0,0:0:0:0:
410,147,275137,1,0,0:0:0:0:
386,91,275471,1,0,0:0:0:0:
331,65,275972,1,0,0:0:0:0:
269,52,276306,1,0,0:0:0:0:
207,51,276807,1,0,0:0:0:0:
147,55,277140,1,0,0:0:0:0:
96,86,277641,1,0,0:0:0:0:
73,144,277975,1,0,0:0:0:0:
68,202,278309,1,0,0:0:0:0:
78,261,278643,1,0,0:0:0:0:
122,303,278977,1,0,0:0:0:0:
181,314,279144,1,0,0:0:0:0:
237,314,279478,1,0,0:0:0:0:
295,309,280146,1,0,0:0:0:0:
350,288,280480,1,0,0:0:0:0:
407,232,280814,5,0,0:0:0:0:
403,153,281148,1,0,0:0:0:0:
369,93,281649,1,0,0:0:0:0:
309,65,281983,1,0,0:0:0:0:
245,49,282483,1,0,0:0:0:0:
176,62,282817,1,0,0:0:0:0:
115,90,283485,1,0,0:0:0:0:
70,138,283986,1,0,0:0:0:0:
61,204,284320,1,0,0:0:0:0:
79,265,284821,1,0,0:0:0:0:
128,301,285155,1,0,0:0:0:0:
193,313,285656,1,0,0:0:0:0:
259,317,285990,1,0,0:0:0:0:
321,318,286491,1,0,0:0:0:0:
385,302,286825,1,0,0:0:0:0:
421,249,287326,1,0,0:0:0:0:
432,185,287659,1,0,0:0:0:0:
409,125,288160,1,0,0:0:0:0:
374,76,288494,1,0,0:0:0:0:
321,48,288995,1,0,0:0:0:0:
259,40,289496,1,0,0:0:0:0:
201,55,289830,1,0,0:0:0:0:
147,89,290331,1,0,0:0:0:0:
104,132,290665,1,0,0:0:0:0:
76,184,291166,1,0,0:0:0:0:
74,246,291500,1,0,0:0:0:0:
112,295,292001,1,0,0:0:0:0:
172,308,292335,1,0,0:0:0:0:
246,305,292835,1,0,0:0:0:0:
321,227,293670,1,0,0:0:0:0:
321,227,293837,1,0,0:0:0:0:
321,227,294004,1,0,0:0:0:0:
321,227,294171,1,0,0:0:0:0:
321,227,294338,1,0,0:0:0:0:
321,227,294505,1,0,0:0:0:0:
321,227,294672,1,0,0:0:0:0:
321,227,294839,1,0,0:0:0:0:
321,227,295006,1,0,0:0:0:0:
321,227,295173,1,0,0:0:0:0:
321,227,295340,1,0,0:0:0:0:
259,281,295841,5,0,0:0:0:0:
301,332,296342,1,0,0:0:0:0:
362,331,296676,1,0,0:0:0:0:
412,291,297010,1,0,0:0:0:0:
435,232,297511,1,0,0:0:0:0:
426,171,297845,1,0,0:0:0:0:
396,116,298345,1,0,0:0:0:0:
350,76,298679,1,0,0:0:0:0:
290,59,299180,1,0,0:0:0:0:
228,58,299514,1,0,0:0:0:0:
170,71,300015,1,0,0:0:0:0:
123,112,300349,1,0,0:0:0:0:
85,160,300850,1,0,0:0:0:0:
76,223,301184,1,0,0:0:0:0:
115,279,301518,1,0,0:0:0:0:
183,289,301852,1,0,0:0:0:0:
242,223,302687,5,0,0:0:0:0:
242,223,302854,1,0,0:0:0:0:
242,223,303021,1,0,0:0:0:0:
242,223,303187,1,0,0:0:0:0:
242,223,303354,1,0,0:0:0:0:
242,223,303521,1,0,0:0:0:0:
242,223,303688,1,0,0:0:0:0:
242,223,303855,1,0,0:0:0:0:
242,223,304022,1,0,0:0:0:0:
242,223,304189,1,0,0:0:0:0:
242,223,304356,1,0,0:0:0:0:
242,223,304523,1,0,0:0:0:0:
242,223,304690,1,0,0:0:0:0:
242,223,304857,1,0,0:0:0:0:
167,266,305191,5,0,0:0:0:0:
212,320,305692,1,0,0:0:0:0:
273,326,306026,1,0,0:0:0:0:
335,323,306527,1,0,0:0:0:0:
393,309,306861,1,0,0:0:0:0:
421,256,307195,1,0,0:0:0:0:
446,199,307529,1,0,0:0:0:0:
414,146,307863,1,0,0:0:0:0:
380,98,308364,1,0,0:0:0:0:
332,60,308697,1,0,0:0:0:0:
273,46,309198,1,0,0:0:0:0:
211,47,309532,1,0,0:0:0:0:
156,74,309866,1,0,0:0:0:0:
105,111,310367,1,0,0:0:0:0:
65,160,310701,1,0,0:0:0:0:
51,220,311202,1,0,0:0:0:0:
56,280,311703,5,0,0:0:0:0:
109,318,312037,1,0,0:0:0:0:
175,320,312538,1,0,0:0:0:0:
242,321,312872,1,0,0:0:0:0:
310,318,313206,1,0,0:0:0:0:
372,306,313540,1,0,0:0:0:0:
426,272,314040,1,0,0:0:0:0:
407,211,314374,1,0,0:0:0:0:
393,150,314875,1,0,0:0:0:0:
357,98,315209,1,0,0:0:0:0:
305,58,315710,1,0,0:0:0:0:
246,48,316044,1,0,0:0:0:0:
185,68,316545,1,0,0:0:0:0:
136,106,316879,1,0,0:0:0:0:
99,156,317380,1,0,0:0:0:0:
78,218,317714,1,0,0:0:0:0:
104,275,318048,1,0,0:0:0:0:
158,305,318549,1,0,0:0:0:0:
221,311,318882,1,0,0:0:0:0:
286,311,319383,1,0,0:0:0:0:
347,310,319717,1,0,0:0:0:0:
406,294,320218,1,0,0:0:0:0:
444,250,320552,1,0,0:0:0:0:
434,190,320886,1,0,0:0:0:0:
413,136,321387,1,0,0:0:0:0:
372,94,321721,1,0,0:0:0:0:
320,67,322055,1,0,0:0:0:0:
260,57,322556,1,0,0:0:0:0:
202,65,322890,1,0,0:0:0:0:
144,83,323391,1,0,0:0:0:0:
107,138,323725,1,0,0:0:0:0:
237,181,324726,5,0,0:0:0:0:
237,181,324893,1,0,0:0:0:0:
237,181,325060,1,0,0:0:0:0:
237,181,325227,1,0,0:0:0:0:
237,181,325394,1,0,0:0:0:0:
237,181,325561,1,0,0:0:0:0:
237,181,325728,1,0,0:0:0:0:
237,181,325895,1,0,0:0:0:0:
237,181,326062,1,0,0:0:0:0:
237,181,326229,1,0,0:0:0:0:
237,181,326396,1,0,0:0:0:0:
237,181,326563,1,0,0:0:0:0:
237,181,326730,1,0,0:0:0:0:
237,181,326897,1,0,0:0:0:0:
237,181,327064,1,0,0:0:0:0:
161,226,327732,5,0,0:0:0:0:
187,285,328233,1,0,0:0:0:0:
250,312,328734,1,0,0:0:0:0:
313,312,329068,1,0,0:0:0:0:
373,299,329568,1,0,0:0:0:0:
406,248,329902,1,0,0:0:0:0:
418,188,330403,1,0,0:0:0:0:
428,131,330737,1,0,0:0:0:0:
387,87,331238,1,0,0:0:0:0:
333,61,331572,1,0,0:0:0:0:
272,58,332073,1,0,0:0:0:0:
214,63,332407,1,0,0:0:0:0:
160,88,332908,1,0,0:0:0:0:
114,128,333242,1,0,0:0:0:0:
75,174,333576,1,0,0:0:0:0:
69,234,334077,1,0,0:0:0:0:
232,269,334911,5,0,0:0:0:0:
232,269,335078,1,0,0:0:0:0:
232,269,335245,1,0,0:0:0:0:
232,269,335412,1,0,0:0:0:0:
232,269,335579,1,0,0:0:0:0:
232,269,335746,1,0,0:0:0:0:
232,269,335913,1,0,0:0:0:0:
232,269,336080,1,0,0:0:0:0:
232,269,336247,1,0,0:0:0:0:
232,269,336414,1,0,0:0:0:0:
232,269,336581,1,0,0:0:0:0:
232,269,336748,1,0,0:0:0:0:
232,269,336915,1,0,0:0:0:0:
232,269,337082,1,0,0:0:0:0:
247,339,337750,5,0,0:0:0:0:
310,313,338251,1,0,0:0:0:0:
358,272,338585,1,0,0:0:0:0:
396,223,339086,1,0,0:0:0:0:
410,161,339420,1,0,0:0:0:0:
393,102,339754,1,0,0:0:0:0:
346,59,340254,1,0,0:0:0:0:
287,52,340588,1,0,0:0:0:0:
225,56,341089,1,0,0:0:0:0:
168,84,341423,1,0,0:0:0:0:
121,125,341924,1,0,0:0:0:0:
104,186,342425,1,0,0:0:0:0:
116,252,342759,1,0,0:0:0:0:
161,294,343260,1,0,0:0:0:0:
221,303,343594,1,0,0:0:0:0:
286,300,344095,1,0,0:0:0:0:
343,277,344763,1,0,0:0:0:0:
378,227,345263,1,0,0:0:0:0:
385,161,345597,1,0,0:0:0:0:
356,102,346098,1,0,0:0:0:0:
290,77,346432,1,0,0:0:0:0:
