osu file format v14

[General]
AudioFilename: audio.mp3
AudioLeadIn: 0
PreviewTime: 6950
Countdown: 0
SampleSet: Soft
StackLeniency: 0.5
Mode: 0
LetterboxInBreaks: 0
WidescreenStoryboard: 0

[Editor]
Bookmarks: 6990,27415,32522,52947,58054
DistanceSpacing: 0.8
BeatDivisor: 4
GridSize: 8
TimelineZoom: 3.699999

[Metadata]
Title:So Pretty
TitleUnicode:So Pretty
Artist:Reyanna Maria
ArtistUnicode:Reyanna Maria
Creator:Chompy
Version:Kitty
Source:
Tags:english pop hip hop trap rap wafer goopert KAMI NO KOTOBA ancelysia ancel - clubber -_clubber_- CHIGAMYMOMMY
BeatmapID:2807947
BeatmapSetID:1356812

[Difficulty]
HPDrainRate:5.3
CircleSize:4
OverallDifficulty:8
ApproachRate:9.3
SliderMultiplier:2.8
SliderTickRate:1

[Events]
//Background and Video events
0,0,"cat.jpg",0,0
//Break Periods
//Storyboard Layer 0 (Background)
//Storyboard Layer 1 (Fail)
//Storyboard Layer 2 (Pass)
//Storyboard Layer 3 (Foreground)
//Storyboard Layer 4 (Overlay)
//Storyboard Sound Samples

[TimingPoints]
1884,638.297872340426,4,2,0,70,1,0
1884,-45.4545454545455,4,2,0,70,0,0
7947,-71.4285714285714,4,2,0,70,0,0
8905,-52.6315789473684,4,2,0,70,0,0
9224,-83.3333333333333,4,2,0,70,0,0
9543,-45.4545454545455,4,2,0,70,0,0
10501,-71.4285714285714,4,2,0,70,0,0
11458,-52.6315789473684,4,2,0,70,0,0
11777,-66.6666666666667,4,2,0,70,0,0
12096,-45.4545454545455,4,2,0,70,0,0
12415,-52.6315789473684,4,2,0,70,0,0
12734,-66.6666666666667,4,2,0,70,0,0
14649,-45.4545454545455,4,2,0,70,0,0
15607,-71.4285714285714,4,2,0,70,0,0
17841,-83.3333333333333,4,2,0,70,0,0
21671,-62.5,4,2,0,70,0,0
21990,-83.3333333333333,4,2,0,70,0,0
22309,-62.5,4,2,0,70,0,0
22628,-83.3333333333333,4,2,0,70,0,0
27415,-45.4545454545455,4,2,0,70,0,0
33479,-71.4285714285714,4,2,0,70,0,0
36671,-62.5,4,2,0,70,0,0
37628,-45.4545454545455,4,2,0,70,0,0
38586,-71.4285714285714,4,2,0,70,0,0
39224,-52.6315789473684,4,2,0,70,0,0
39543,-45.4545454545455,4,2,0,70,0,0
40181,-71.4285714285714,4,2,0,70,0,0
40820,-52.6315789473684,4,2,0,70,0,0
41458,-62.5,4,2,0,70,0,0
44011,-52.6315789473684,4,2,0,70,0,0
45288,-71.4285714285714,4,2,0,70,0,0
46884,-62.5,4,2,0,70,0,0
47841,-45.4545454545455,4,2,0,70,0,0
48798,-71.4285714285714,4,2,0,70,0,0
49437,-52.6315789473684,4,2,0,70,0,0
49756,-250.000000000001,4,2,0,70,0,0
52947,-45.4545454545455,4,2,0,70,0,0
59011,-71.4285714285714,4,2,0,70,0,0
60607,-45.4545454545455,4,2,0,70,0,0
61564,-71.4285714285714,4,2,0,70,0,0
62522,-52.6315789473684,4,2,0,70,0,0
62841,-83.3333333333333,4,2,0,70,0,0
63160,-45.4545454545455,4,2,0,70,0,0
64118,-71.4285714285714,4,2,0,70,0,0
65713,-45.4545454545455,4,2,0,70,0,0
66671,-71.4285714285714,4,2,0,70,0,0
68266,-52.6315789473684,4,2,0,70,0,0
68905,-71.4285714285714,4,2,0,70,0,0
70820,-52.6315789473684,4,2,0,70,0,0
71458,-71.4285714285714,4,2,0,70,0,0
72735,-62.5,4,2,0,70,0,0
73373,-83.3333333333333,4,2,0,70,0,0
77841,-333.333333333333,4,2,0,70,0,0
78479,-45.4545454545455,4,2,0,70,0,0
83586,-31.25,4,2,0,25,0,0
83905,-31.25,4,2,0,20,0,0
84064,-31.25,4,2,0,15,0,0
84224,-31.25,4,2,0,10,0,0
84384,-31.25,4,2,0,5,0,0

[Colours]
Combo1 : 4,189,148
Combo2 : 221,253,162
Combo3 : 251,170,121
Combo4 : 242,24,57

[HitObjects]
273,138,1884,6,0,B|207:181|126:134|163:42|87:0|20:44,1,308.000009399414,4|0,1:3|0:0,0:0:0:0:
16,228,3160,6,0,B|86:274|167:227|130:135|206:93|294:149,1,308.000009399414,4|0,1:3|0:0,0:0:0:0:
272,318,4437,6,0,B|202:364|121:317|158:225|82:183|-6:239,1,308.000009399414,4|0,1:3|0:0,0:0:0:0:
282,308,5075,6,0,B|212:354|131:307|168:215|92:173|4:229,1,308.000009399414,4|0,1:3|0:0,0:0:0:0:
292,298,5713,6,0,B|222:344|141:297|178:205|102:163|14:219,1,308.000009399414,4|0,1:3|0:0,0:0:0:0:
277,286,6352,6,0,B|224:320|163:285|191:216|134:184|68:226,1,231.000007049561,4|0,1:3|0:0,0:0:0:0:
84,354,6671,2,0,B|136:388|197:353|169:284|226:252|292:294,1,231.000007049561,4|0,1:3|0:0,0:0:0:0:
503,365,6990,6,0,B|479:396|416:357|404:229|428:126|498:128|501:221,1,308.000009399414,4|2,1:3|0:3,0:0:0:0:
378,24,7469,2,0,B|347:1|347:1|352:43,1,77.0000023498536,8|0,1:3|0:0,0:0:0:0:
227,79,7628,6,0,P|340:59|455:51,1,231.000007049561,8|0,1:0|0:0,0:0:0:0:
452,122,7947,2,0,P|350:130|256:146,1,195.999994018555,8|0,1:3|0:0,0:0:0:0:
175,294,8586,5,8,1:3:0:0:
246,151,8746,1,2,3:0:0:0:
0,312,8905,6,0,B|23:261|65:260|135:257|171:279|172:322,1,199.499994672775,8|0,1:0|0:0,0:0:0:0:
173,375,9224,2,0,B|147:379|114:370|83:327|89:265,1,125.999996154785,2|0,3:0|0:0,0:0:0:0:
394,43,9543,6,0,P|414:195|425:349,1,308.000009399414,4|2,1:3|0:3,0:0:0:0:
328,94,10022,2,0,B|347:113|372:119|372:119|319:112,1,77.0000023498536,8|0,1:3|0:0,0:0:0:0:
180,274,10181,6,0,B|183:244|194:201|260:182|308:175|360:188|401:230,1,231.000007049561,8|0,1:0|0:0,0:0:0:0:
361,287,10501,2,0,B|343:256|297:250|249:254|234:279|246:303|277:332,1,146.999995513916,8|0,1:3|0:0,0:0:0:0:
10,351,10820,5,2,3:0:0:0:
100,332,10979,1,0,3:0:0:0:
251,316,11139,5,10,1:3:0:0:
174,283,11298,1,2,3:0:0:0:
38,77,11458,6,0,P|82:85|138:103,1,99.7499973363877,8|0,1:0|0:0,0:0:0:0:
132,110,11618,2,0,P|85:95|36:85,1,99.7499973363877,2|0,0:0|0:0,0:0:0:0:
28,186,11777,2,0,B|80:166|80:166|91:123|91:123|143:98,1,157.500006008148,2|0,3:0|0:0,0:0:0:0:
249,356,12096,6,0,P|253:210|264:76,1,269.500008224488,4|0,1:3|0:0,0:0:0:0:
448,236,12415,6,0,P|403:244|347:262,1,99.7499973363877,2|0,3:0|0:0,0:0:0:0:
354,269,12575,2,0,P|400:254|449:244,1,99.7499973363877,8|0,1:3|0:0,0:0:0:0:
458,345,12734,2,0,B|406:325|406:325|395:282|395:282|342:257,1,157.500006008148,8|0,1:0|0:0,0:0:0:0:
68,343,13054,5,8,1:3:0:0:
78,318,13213,1,0,3:0:0:0:
193,143,13373,5,2,3:0:0:0:
203,168,13532,1,0,3:0:0:0:
318,343,13692,5,8,1:3:0:0:
328,318,13851,1,2,3:0:0:0:
473,128,14011,6,0,B|458:154|438:163|400:160,1,78.7500030040742,8|0,1:0|0:0,0:0:0:0:
402,150,14171,2,0,B|434:153|454:144|469:118,1,78.7500030040742,2|0,3:2|0:0,0:0:0:0:
467,41,14330,2,0,P|390:54|335:109,1,157.500006008148,2|0,3:2|0:0,0:0:0:0:
206,317,14649,6,0,B|187:234|213:172|231:172|254:102|231:16,1,308.000009399414,4|2,1:3|0:3,0:0:0:0:
67,230,15128,2,0,B|62:191|62:191|93:214,1,77.0000023498536,8|0,1:3|0:0,0:0:0:0:
206,317,15288,6,0,B|147:255|89:248|9:244|-15:297|-13:319,1,231.000007049561,8|0,1:0|0:0,0:0:0:0:
37,352,15607,2,0,B|46:328|92:317|133:338|164:380,1,146.999995513916,8|0,1:3|0:0,0:0:0:0:
352,364,15926,5,2,3:0:0:0:
335,291,16086,1,0,3:0:0:0:
489,105,16245,5,8,1:3:0:0:
472,178,16405,1,2,3:0:0:0:
366,357,16564,5,8,1:0:0:0:
349,284,16724,1,0,3:0:0:0:
484,96,16884,6,0,B|468:138|416:140|383:97|324:108|318:156,1,195.999994018555,2|4,3:0|0:3,0:0:0:0:
318,152,17681,1,4,1:3:0:0:
104,34,17841,6,0,B|78:49|51:59|9:68,1,83.9999974365235,8|0,1:0|0:0,0:0:0:0:
51,132,18160,2,0,B|76:126|103:116|129:101,1,83.9999974365235,8|0,1:3|0:0,0:0:0:0:
183,47,18479,5,2,3:2:0:0:
183,47,18639,1,2,3:2:0:0:
90,287,18798,6,0,B|104:252|132:244|199:238|197:271,1,125.999996154785,4|0,1:3|0:0,0:0:0:0:
321,308,19118,6,0,B|311:264|329:232|344:247|366:208|349:170,1,146.999995513916,8|0,1:0|0:0,0:0:0:0:
382,171,19437,2,0,B|372:215|390:247|405:232|427:271|410:308,1,146.999995513916,2|0,0:3|0:0,0:0:0:0:
369,375,19756,5,6,1:3:0:0:
369,375,19915,1,0,3:0:0:0:
457,190,20075,5,2,3:0:0:0:
439,115,20235,1,8,1:3:0:0:
274,36,20394,5,8,1:0:0:0:
256,111,20554,1,0,3:0:0:0:
256,24,20713,1,10,1:3:0:0:
98,186,20873,5,0,3:0:0:0:
58,202,20953,1,0,3:0:0:0:
27,179,21032,5,2,3:2:0:0:
27,179,21192,1,2,3:2:0:0:
51,357,21352,5,10,1:3:0:0:
131,340,21511,1,2,3:0:0:0:
251,379,21671,6,0,P|238:297|234:209,1,168,8|0,1:0|0:0,0:0:0:0:
306,225,21990,2,0,P|309:279|320:357,1,125.999996154785,2|0,3:0|0:0,0:0:0:0:
485,201,22309,6,0,P|498:119|502:31,1,168,4|0,1:3|0:0,0:0:0:0:
430,47,22628,2,0,P|427:101|416:179,1,125.999996154785,2|0,3:0|0:0,0:0:0:0:
168,102,22947,6,0,P|99:88|29:105,1,125.999996154785,8|0,1:0|0:0,0:0:0:0:
65,167,23266,2,0,P|106:160|146:170,1,83.9999974365235,8|0,1:3|0:0,0:0:0:0:
260,63,23586,5,2,3:2:0:0:
260,63,23745,1,2,3:2:0:0:
344,292,23905,6,0,P|413:306|483:289,1,125.999996154785,8|0,1:3|0:0,0:0:0:0:
447,227,24224,2,0,P|405:233|365:223,1,83.9999974365235,8|0,1:0|0:0,0:0:0:0:
78,347,24543,5,2,3:0:0:0:
59,262,24703,1,0,3:0:0:0:
197,169,24862,5,4,1:3:0:0:
178,254,25022,1,0,3:0:0:0:
66,342,25181,5,2,3:0:0:0:
47,257,25341,1,8,1:3:0:0:
211,133,25501,6,0,P|190:192|178:254,1,125.999996154785,8|0,1:0|0:0,0:0:0:0:
434,347,25820,5,8,1:3:0:0:
453,262,25980,1,0,3:0:0:0:
315,169,26139,5,2,3:2:0:0:
334,254,26299,1,2,3:2:0:0:
446,342,26458,5,6,1:3:0:0:
465,257,26618,1,2,3:0:0:0:
303,164,26777,5,8,1:0:0:0:
322,249,26937,1,0,3:0:0:0:
445,342,27096,6,0,P|458:280|479:221,1,125.999996154785,2|0,3:0|0:0,0:0:0:0:
508,14,27415,6,0,B|452:3|414:41|413:128|340:126|298:76|349:27|411:47|454:84,1,308.000009399414,4|2,1:3|0:3,0:0:0:0:
158,145,28692,6,0,B|214:134|252:172|253:259|326:257|368:207|317:158|255:178|212:215,1,308.000009399414,4|2,1:3|0:3,0:0:0:0:
508,276,29969,6,0,B|452:265|414:303|413:390|340:388|298:338|349:289|411:309|454:346,1,308.000009399414,4|2,1:3|0:3,0:0:0:0:
508,255,30607,6,0,B|452:244|414:282|413:369|340:367|298:317|349:268|411:288|454:325,1,308.000009399414,4|2,1:3|0:3,0:0:0:0:
508,234,31245,6,0,B|452:223|414:261|413:348|340:346|298:296|349:247|411:267|454:304,1,308.000009399414,4|2,1:3|0:3,0:0:0:0:
497,155,31884,6,0,B|466:156|432:163|392:200|392:200|345:197|308:217|294:245,1,231.000007049561,6|0,1:3|0:0,0:0:0:0:
286,154,32203,2,0,B|317:155|351:162|391:199|391:199|438:196|475:216|489:245,1,231.000007049561,6|0,1:3|0:0,0:0:0:0:
262,353,32522,6,0,P|258:199|248:46,1,308.000009399414,4|2,1:3|0:3,0:0:0:0:
48,262,33001,2,0,B|68:247|73:226|73:226|79:244|71:266,1,77.0000023498536,8|0,1:3|0:0,0:0:0:0:
176,187,33160,6,0,B|163:228|163:228|92:242|20:240|20:240|0:202,1,231.000007049561,8|0,1:0|0:0,0:0:0:0:
5,313,33479,2,0,P|99:310|212:291,1,195.999994018555,8|0,1:3|0:0,0:0:0:0:
463,151,34118,6,0,B|428:156|400:127|417:95|396:60|346:68,1,146.999995513916,8|0,1:3|0:0,0:0:0:0:
296,132,34437,2,0,B|333:147|379:149|406:130|427:91,1,146.999995513916,8|0,1:0|0:0,0:0:0:0:
237,22,34756,5,2,3:0:0:0:
237,22,34915,1,0,3:0:0:0:
31,87,35075,5,4,1:3:0:0:
109,104,35235,1,0,3:0:0:0:
237,22,35394,5,2,3:0:0:0:
159,39,35554,1,10,1:3:0:0:
25,101,35713,5,8,1:0:0:0:
103,118,35873,1,0,3:0:0:0:
231,8,36032,5,10,1:3:0:0:
153,25,36192,1,0,3:0:0:0:
31,276,36352,5,2,3:0:0:0:
31,276,36511,1,0,3:0:0:0:
252,276,36671,6,0,B|210:287|170:259|192:230|157:200|109:213,1,168,10|0,1:3|0:0,0:0:0:0:
110,339,36990,2,0,B|151:350|191:322|169:293|204:263|252:276,1,168,8|0,1:0|0:0,0:0:0:0:
512,294,37309,6,0,B|477:283|468:227|468:227|455:280|403:287,1,168,2|0,3:0|0:0,0:0:0:0:
456,378,37628,6,0,P|441:217|419:67,1,308.000009399414,4|2,1:3|0:3,0:0:0:0:
119,77,38107,2,0,B|138:65|158:66|158:66|177:77|185:99,1,77.0000023498536,8|0,1:3|0:0,0:0:0:0:
24,86,38266,6,0,B|-2:110|15:145|49:175|114:161|183:165|192:99|136:93,1,231.000007049561,8|0,1:0|0:0,0:0:0:0:
201,190,38586,2,0,B|165:223|117:230|62:235|12:210,1,195.999994018555,8|0,1:3|0:0,0:0:0:0:
372,373,39224,6,0,B|315:351|313:270|313:270|305:314|270:328,1,199.499994672775,8|0,1:3|0:0,0:0:0:0:
369,254,39543,6,0,B|354:302|380:345|416:357|462:363|508:335|523:263|486:234|449:235|449:235|481:252|529:245|548:151|479:107|408:129|402:193,1,539.000016448975,8|0,1:0|0:0,0:0:0:0:
288,37,40181,5,4,1:3:0:0:
288,37,40341,1,0,3:0:0:0:
162,85,40501,2,0,B|207:77|207:77|226:28|226:28|285:20,1,146.999995513916,2|0,3:0|0:0,0:0:0:0:
112,149,40820,6,0,P|71:129|15:111,1,99.7499973363877,8|0,1:0|0:0,0:0:0:0:
16,120,40980,2,0,P|62:135|108:156,1,99.7499973363877,2|0,0:0|0:0,0:0:0:0:
230,225,41139,5,8,1:3:0:0:
230,225,41298,1,0,3:0:0:0:
0,354,41458,6,0,B|31:306|77:289|119:297|146:338,1,168,2|0,3:0|0:0,0:0:0:0:
83,378,41777,2,0,P|83:327|105:191,1,168,8|0,1:3|0:0,0:0:0:0:
281,110,42096,2,0,B|249:86|249:86|254:129,1,84,8|0,1:0|0:0,0:0:0:0:
395,86,42256,5,2,3:2:0:0:
306,186,42415,1,2,3:0:0:0:
373,44,42575,1,2,3:2:0:0:
494,358,42735,6,0,P|397:340|299:333,1,196,4|0,1:3|0:0,0:0:0:0:
303,260,43054,6,0,P|400:266|497:284,1,196,0|0,1:0|0:0,0:0:0:0:
500,210,43373,6,0,P|403:192|305:185,1,196,8|0,1:0|0:0,0:0:0:0:
156,328,43692,5,8,1:3:0:0:
156,328,43852,1,0,3:0:0:0:
45,50,44011,5,2,3:2:0:0:
45,50,44171,1,2,3:2:0:0:
187,115,44330,6,0,B|193:135|210:148|210:148|160:139|117:56|117:56|116:87|92:105,1,232.749993784905,8|0,1:3|0:0,0:0:0:0:
211,35,44649,6,0,P|203:125|198:276,1,232.749993784905,8|0,1:0|0:0,0:0:0:0:
19,320,44969,6,0,B|27:269|83:251|124:276|124:276|128:312|156:328,1,199.499994672775,2|0,3:0|0:0,0:0:0:0:
477,271,45288,6,0,B|477:238|508:185|454:224|434:260|443:326|478:355,1,195.999994018555,4|0,1:3|0:0,0:0:0:0:
485,193,45766,1,4,1:3:0:0:
368,105,45926,6,0,B|368:72|337:19|391:58|411:94|402:160|367:189,1,195.999994018555,8|8,1:0|1:3,0:0:0:0:
360,27,46404,1,0,3:0:0:0:
260,300,46564,5,2,3:2:0:0:
260,300,46723,1,2,3:2:0:0:
39,300,46884,6,0,B|81:311|121:283|99:254|134:224|182:237,1,168,8|0,1:3|0:0,0:0:0:0:
181,363,47203,2,0,B|140:374|100:346|122:317|87:287|39:300,1,168,8|0,1:0|0:0,0:0:0:0:
122,111,47522,6,0,B|99:93|99:93|99:121,1,56,2|0,3:0|0:0,0:0:0:0:
197,48,47682,2,0,B|220:30|220:30|220:58,1,56,0|0,3:0|0:0,0:0:0:0:
0,123,47841,6,0,P|155:108|313:99,1,308.000009399414,4|2,1:3|0:3,0:0:0:0:
479,250,48320,2,0,B|499:235|504:214|504:214|510:232|502:254,1,77.0000023498536,8|0,1:3|0:0,0:0:0:0:
422,182,48479,6,0,B|467:222|486:289|470:393|513:313|474:239,1,231.000007049561,8|0,1:0|0:0,0:0:0:0:
409,364,48798,2,0,B|418:346|401:305|401:269|386:242|360:221,1,146.999995513916,8|0,1:3|0:0,0:0:0:0:
184,144,49118,5,2,3:2:0:0:
184,144,49277,1,2,3:2:0:0:
28,290,49437,6,0,B|27:257|64:242|130:244|180:256|197:271|197:303,1,199.499994672775,8|0,1:3|0:0,0:0:0:0:
137,330,49756,2,0,P|111:324|87:325,1,48.9999985046387,8|0,1:0|0:0,0:0:0:0:
300,356,50075,5,2,3:0:0:0:
314,280,50235,1,0,3:0:0:0:
421,105,50394,5,4,1:3:0:0:
407,29,50554,1,0,3:0:0:0:
393,105,50713,5,2,3:0:0:0:
379,181,50873,1,10,1:3:0:0:
379,29,51032,1,8,1:0:0:0:
212,356,51352,5,10,1:3:0:0:
198,280,51512,1,0,3:0:0:0:
91,105,51671,5,2,3:2:0:0:
105,29,51831,1,2,3:2:0:0:
198,354,51990,5,8,1:3:0:0:
184,278,52150,1,2,3:0:0:0:
95,121,52309,6,0,B|124:119|141:97|141:97|161:114|191:112,1,105,8|0,1:0|0:0,0:0:0:0:
303,348,52947,6,0,P|307:194|319:40,1,308.000009399414,2|2,1:0|0:3,0:0:0:0:
396,40,54224,6,0,P|384:193|379:347,1,308.000009399414,2|2,1:0|0:3,0:0:0:0:
454,345,55501,6,0,P|459:191|471:38,1,308.000009399414,2|2,1:0|0:3,0:0:0:0:
440,345,56139,6,0,P|444:191|456:37,1,308.000009399414,2|2,1:0|0:3,0:0:0:0:
425,344,56777,6,0,P|429:190|441:36,1,308.000009399414,2|2,1:0|0:3,0:0:0:0:
345,339,57415,6,0,B|385:351|412:319|411:285|395:257|353:251|304:257|275:280|256:345,1,269.500008224488,2|0,1:0|0:0,0:0:0:0:
171,354,57735,2,0,B|133:373|101:346|96:313|107:282|147:269|196:266|229:284|259:345,1,269.500008224488,2|0,1:3|0:0,0:0:0:0:
298,68,58054,6,0,B|247:40|207:57|207:117|161:160|99:151|64:111|75:58|125:46|145:79,1,308.000009399414,8|2,1:3|0:3,0:0:0:0:
430,207,58532,2,0,B|399:184|399:184|404:226,1,77.0000023498536,4|0,1:3|0:0,0:0:0:0:
292,298,58692,6,0,B|331:251|406:246|474:247|515:253,1,231.000007049561,8|0,1:0|0:0,0:0:0:0:
417,348,59011,2,0,B|382:363|346:351|325:341|357:321|424:320|461:322|505:325,1,195.999994018555,8|2,1:3|0:3,0:0:0:0:
175,257,59649,6,0,B|129:297|77:269|89:236|40:204|-2:234,1,195.999994018555,8|8,1:3|0:1,0:0:0:0:
54,326,60128,5,0,3:0:0:0:
67,182,60288,1,2,3:0:0:0:
88,356,60447,1,0,3:0:0:0:
251,57,60607,6,0,P|261:191|269:370,1,308.000009399414,4|2,1:3|0:3,0:0:0:0:
465,162,61086,2,0,B|445:147|440:126|440:126|434:144|442:166,1,77.0000023498536,8|0,1:3|0:0,0:0:0:0:
349,189,61245,6,0,B|368:138|407:82|471:61|519:72|512:105,1,231.000007049561,8|0,1:0|0:0,0:0:0:0:
449,10,61564,2,0,B|416:14|370:34|331:70|298:127,1,195.999994018555,8|2,1:3|0:3,0:0:0:0:
190,276,62203,5,8,1:3:0:0:
288,129,62362,1,2,3:0:0:0:
15,294,62522,6,0,B|38:243|80:242|150:239|186:261|187:304,1,199.499994672775,8|0,1:0|0:0,0:0:0:0:
188,357,62841,2,0,B|162:361|129:352|98:309|104:247,1,125.999996154785,2|0,3:0|0:0,0:0:0:0:
90,53,63160,6,0,B|65:83|117:135|244:118|339:72|322:4|230:22,1,308.000009399414,4|2,1:3|0:3,0:0:0:0:
432,255,63639,2,0,B|451:236|476:230|476:230|423:237,1,77.0000023498536,8|0,1:3|0:0,0:0:0:0:
421,344,63798,6,0,P|401:231|393:116,1,231.000007049561,8|0,1:0|0:0,0:0:0:0:
464,119,64118,2,0,P|472:221|488:315,1,195.999994018555,8|2,1:3|0:3,0:0:0:0:
94,272,64756,6,0,B|74:282|54:305|54:305|121:268|199:276,1,195.999994018555,8|8,1:3|0:1,0:0:0:0:
91,262,65235,5,0,3:0:0:0:
77,338,65395,1,2,3:0:0:0:
77,186,65554,1,0,3:0:0:0:
423,62,65713,6,0,B|475:94|430:168|327:109|351:13|223:-22|217:80|270:79,1,308.000009399414,4|0,1:3|0:0,0:0:0:0:
331,259,66192,2,0,B|362:236|362:236|357:278,1,77.0000023498536,8|0,1:3|0:0,0:0:0:0:
461,362,66351,6,0,B|418:306|341:291|257:318|303:377,1,231.000007049561,8|0,1:0|0:0,0:0:0:0:
497,291,66671,2,0,P|434:253|352:237,1,146.999995513916,8|0,1:3|0:0,0:0:0:0:
153,273,66990,5,2,3:0:0:0:
127,345,67149,1,0,3:0:0:0:
81,169,67309,5,8,1:3:0:0:
55,97,67468,1,2,3:0:0:0:
176,260,67628,6,0,P|152:304|134:355,1,97.9999970092774,8|0,1:0|0:0,0:0:0:0:
32,84,67947,6,0,P|56:128|74:179,1,97.9999970092774,2|0,3:0|0:0,0:0:0:0:
258,125,68266,6,0,B|275:89|275:89|367:94|460:114|460:114|485:69,1,265.999992897034,2|0,1:0|0:0,0:0:0:0:
246,129,68745,1,0,1:0:0:0:
281,17,68905,6,0,P|358:24|428:34,1,146.999995513916,8|0,1:0|0:0,0:0:0:0:
465,190,69224,2,0,P|392:174|320:165,1,146.999995513916,8|0,1:3|0:0,0:0:0:0:
86,200,69543,5,2,3:2:0:0:
86,200,69703,1,2,3:2:0:0:
91,351,69862,6,0,B|82:314|104:275|120:291|139:254|122:203,1,146.999995513916,8|0,1:3|0:0,0:0:0:0:
165,337,70181,1,8,1:0:0:0:
23,37,70501,5,2,3:0:0:0:
242,173,70820,6,0,P|343:156|510:133,1,265.999992897034,2|0,1:0|0:0,0:0:0:0:
227,176,71298,1,0,1:0:0:0:
255,284,71458,6,0,B|256:246|256:246|314:229|372:229,1,146.999995513916,8|0,1:0|0:0,0:0:0:0:
216,62,71777,2,0,B|228:97|228:97|289:96|344:78,1,146.999995513916,8|0,1:3|0:0,0:0:0:0:
96,18,72096,5,2,3:2:0:0:
96,18,72256,1,2,3:2:0:0:
20,183,72415,5,8,1:3:0:0:
45,253,72575,1,0,3:0:0:0:
270,368,72735,6,0,B|239:345|252:260|271:193,1,168,8|0,1:0|0:0,0:0:0:0:
338,336,73054,2,0,B|333:310|307:287|263:281|232:276|207:290|214:322,1,168,2|0,3:0|0:0,0:0:0:0:
489,186,73373,6,0,P|489:102|500:18,1,167.999994873047,2|2,1:0|3:0,0:0:0:0:
416,182,73852,6,0,P|416:98|427:14,1,167.999994873047,0|0,1:0|0:0,0:0:0:0:
343,178,74330,6,0,P|343:94|354:10,1,167.999994873047,8|2,1:3|3:0,0:0:0:0:
270,174,74969,6,0,P|270:90|281:6,1,167.999994873047,8|8,1:3|3:1,0:0:0:0:
12,366,75926,6,0,B|16:340|38:325|99:313|175:323,1,167.999994873047,2|0,1:0|3:0,0:0:0:0:
240,293,76405,6,0,B|236:267|214:252|153:240|77:250,1,167.999994873047,0|0,1:0|3:0,0:0:0:0:
12,220,76884,6,0,B|16:194|38:179|99:167|175:177,1,167.999994873047,8|2,1:3|3:2,0:0:0:0:
240,147,77522,6,0,B|236:121|214:106|153:94|96:105,1,146.999995513916,8|0,1:3|0:0,0:0:0:0:
12,28,77841,6,0,B|27:36|36:57|36:57|39:35|57:22,1,78.7499975967408,8|0,1:0|0:0,0:0:0:0:
239,138,78479,6,0,B|305:181|386:134|349:42|425:0|492:44,1,308.000009399414,2|0,1:0|0:0,0:0:0:0:
496,228,79755,6,0,B|426:274|345:227|382:135|306:93|218:149,1,308.000009399414,2|0,1:0|0:0,0:0:0:0:
240,318,81032,6,0,B|310:364|391:317|354:225|430:183|518:239,1,308.000009399414,2|0,1:0|0:0,0:0:0:0:
230,308,81670,6,0,B|300:354|381:307|344:215|420:173|508:229,1,308.000009399414,2|0,1:0|0:0,0:0:0:0:
220,298,82308,6,0,B|290:344|371:297|334:205|410:163|498:219,1,308.000009399414,2|0,1:0|0:0,0:0:0:0:
235,286,82947,6,0,B|288:320|349:285|321:216|378:184|444:226,1,231.000007049561,2|0,1:0|0:0,0:0:0:0:
428,354,83266,2,0,B|376:388|315:353|343:284|286:252|220:294,1,231.000007049561,2|0,1:0|0:0,0:0:0:0:
127,376,83586,6,0,B|107:361|102:340|102:340|96:358|104:378,15,74.6666666666667,0|0|0|0|0|0|0|0|0|0|0|0|0|0|0|0,3:0|3:0|3:0|3:0|3:0|3:0|3:0|3:0|3:0|3:0|3:0|3:0|3:0|3:0|3:0|3:0,0:0:0:0:
