osu file format v14

[General]
AudioFilename: audio.mp3
AudioLeadIn: 0
PreviewTime: 49611
Countdown: 1
SampleSet: Soft
StackLeniency: 0.6
Mode: 0
LetterboxInBreaks: 0
WidescreenStoryboard: 1

[Editor]
DistanceSpacing: 1.2
BeatDivisor: 4
GridSize: 16
TimelineZoom: 1.5

[Metadata]
Title:Sunflower
TitleUnicode:Sunflower
Artist:Rex Orange County
ArtistUnicode:Rex Orange County
Creator:-town-
Version:Normal
Source:
Tags:love alternative pop
BeatmapID:1939273
BeatmapSetID:881279

[Difficulty]
HPDrainRate:2
CircleSize:2
OverallDifficulty:2
ApproachRate:3
SliderMultiplier:1
SliderTickRate:1

[Events]
//Background and Video events
0,0,"sunflower.jpg",0,0
//Break Periods
2,46811,48291
//Storyboard Layer 0 (Background)
//Storyboard Layer 1 (Fail)
//Storyboard Layer 2 (Pass)
//Storyboard Layer 3 (Foreground)
//Storyboard Sound Samples

[TimingPoints]
1611,500,4,2,0,40,1,0
49731,461.538461538462,4,2,0,60,1,0
76961,-100,4,2,0,45,0,0
80654,-100,4,2,0,70,0,1
106500,-100,4,2,0,60,0,0
113423,-100,4,2,0,10,0,0

[HitObjects]
371,49,1611,6,0,P|408:100|382:230,1,200
267,254,3111,2,0,B|145:223|215:288|66:253,1,200
120,144,4611,2,0,P|213:116|320:137,1,200
336,251,6111,5,0,0:0:0:0:
220,284,6611,2,0,P|198:232|200:187,1,100
141,84,7611,2,0,P|251:83|318:159,1,200
314,262,9111,5,0,0:0:0:0:
200,302,9611,2,0,P|182:241|195:195,1,100
268,116,10611,2,0,B|119:98|119:98|57:133,1,200
114,235,12111,5,0,0:0:0:0:
220,290,12611,2,0,P|287:283|318:263,1,100
406,189,13611,2,0,B|349:179|317:147|317:147|264:159|213:152,1,200
110,206,15111,5,0,0:0:0:0:
210,271,15611,2,0,P|231:207|228:163,1,100
140,95,16611,2,0,P|79:64|59:36,2,100
248,44,18111,6,0,P|276:113|267:158,1,100
170,197,19111,1,0,0:0:0:0:
51,215,19611,2,0,P|49:121|146:66,1,200
226,136,21111,2,0,L|162:340,1,200
256,192,23111,12,0,25111,0:0:0:0:
173,194,25611,6,0,L|159:90,2,100
285,235,27111,2,0,L|298:130,2,100
384,301,28611,2,0,L|423:203,2,100
266,277,30111,5,0,0:0:0:0:
194,181,30611,2,0,P|218:91|231:75,1,100
315,161,31611,2,0,P|317:246|423:276,1,200
475,176,33111,5,0,0:0:0:0:
390,90,33611,2,0,P|346:68|284:66,1,100
180,95,34611,2,0,L|136:3,2,100
123,200,36111,5,0,0:0:0:0:
242,187,36611,1,0,0:0:0:0:
305,85,37111,1,0,0:0:0:0:
424,74,37611,2,0,B|431:147|431:147|414:194|414:194|418:273,1,200
303,237,39111,5,0,0:0:0:0:
303,237,40111,1,0,0:0:0:0:
396,162,40611,2,0,P|436:241|373:328,1,200
304,231,42111,6,0,P|200:239|118:195,1,200
8,145,43611,2,0,L|207:166,1,200
309,228,45111,2,0,P|360:236|406:219,2,100
208,161,46611,1,0,0:0:0:0:
373,131,49731,5,0,0:0:0:0:
261,88,50192,1,0,0:0:0:0:
146,124,50654,1,0,0:0:0:0:
97,233,51115,6,0,P|59:213|-3:205,2,100,0|8|0,0:3|0:3|0:3,0:3:0:0:
210,272,52500,1,8,0:3:0:0:
327,246,52961,2,0,P|331:161|322:134,1,100,0|8,0:3|0:3,0:3:0:0:
111,42,54346,1,8,0:3:0:0:
62,151,54807,6,0,B|62:228|62:228|78:267,1,100,0|8,0:3|0:3,0:3:0:0:
165,323,55731,2,0,P|225:314|269:328,1,100,0|8,0:3|0:3,0:3:0:0:
321,316,56423,2,0,B|348:247|348:247|348:164,1,150,0|8,0:3|0:3,0:3:0:0:
153,30,58038,1,8,0:3:0:0:
181,146,58500,6,0,P|231:143|276:120,2,100,0|8|0,0:3|0:3|0:3,0:3:0:0:
68,103,59884,1,8,0:3:0:0:
107,216,60346,1,0,0:3:0:0:
217,261,60807,2,0,P|274:259|320:241,2,100,8|0|8,0:3|0:3|0:3,0:3:0:0:
103,299,62192,6,0,B|63:200|143:202|99:103,1,200,0|0,0:3|0:3,0:3:0:0:
172,10,63577,1,8,0:3:0:0:
268,81,64038,1,0,0:3:0:0:
291,198,64500,1,8,0:3:0:0:
171,194,64961,2,0,P|182:145|225:99,1,100,0|8,0:3|0:3,0:3:0:0:
326,66,65884,5,0,0:3:0:0:
443,93,66346,2,0,B|430:151|454:192|454:192|429:235|441:300,1,200,8|8,0:3|0:3,0:3:0:0:
331,339,67731,1,0,0:3:0:0:
236,265,68192,1,8,0:3:0:0:
286,155,68654,2,0,L|276:105,2,50,0|0|8,0:3|0:3|0:3,0:3:0:0:
356,252,69577,6,0,B|278:243|228:280|228:280|184:245|159:252,1,200,0|0,0:3|0:3,0:3:0:0:
55,285,70961,1,8,0:3:0:0:
57,164,71423,2,0,P|105:146|162:149,1,100,0|8,0:3|0:3,0:3:0:0:
263,193,72346,2,0,P|320:195|371:181,1,100,0|8,0:3|0:3,0:3:0:0:
471,137,73269,6,0,P|462:76|434:30,2,100,0|8|0,0:3|0:3|0:3,0:3:0:0:
397,232,74654,1,8,0:3:0:0:
294,293,75115,2,0,L|278:187,1,100,0|8,0:3|0:3,0:3:0:0:
184,120,76038,2,0,L|167:231,1,100,0|8,0:3|0:3,0:3:0:0:
217,328,76961,6,0,P|294:335|321:324,2,100
230,208,78346,1,0,0:0:0:0:
342,248,78807,2,0,L|329:145,1,100
287,35,79731,2,0,P|230:29|175:45,1,100
83,94,80654,6,0,L|89:152,1,50
123,192,81115,2,0,L|114:249,1,50,8|0,0:0|0:0,0:0:0:0:
81,291,81577,2,0,P|142:285|194:299,1,100,0|8,0:0|0:0,0:0:0:0:
294,327,82500,1,0,0:0:0:0:
401,273,82961,1,8,0:0:0:0:
465,171,83423,2,0,L|473:122,2,50,0|8|8,0:0|0:0|0:0,0:0:0:0:
369,243,84346,6,0,L|317:226,1,50
266,252,84807,2,0,L|209:260,1,50,8|0,0:0|0:0,0:0:0:0:
159,279,85269,2,0,L|128:165,1,100,0|8,0:0|0:0,0:0:0:0:
71,79,86192,2,0,P|127:59|186:59,1,100,0|8,0:0|0:0,0:0:0:0:
271,117,87115,2,0,L|333:100,2,50,0|8|8,0:0|0:0|0:0,0:0:0:0:
150,116,88038,6,0,P|149:169|168:218,1,100,0|8,0:0|0:0,0:0:0:0:
236,308,88961,2,0,L|295:213,1,100,0|8,0:0|0:0,0:0:0:0:
358,125,89884,2,0,L|378:184,1,50
370,232,90346,2,0,L|365:285,1,50,8|0,0:0|0:0,0:0:0:0:
378,340,90807,1,0,0:0:0:0:
489,295,91269,1,8,0:0:0:0:
443,183,91731,6,0,P|384:162|340:168,1,100,0|8,0:0|0:0,0:0:0:0:
227,168,92654,2,0,P|242:232|236:275,1,100,0|8,0:0|0:0,0:0:0:0:
153,350,93577,1,0,0:0:0:0:
83,252,94038,1,8,0:0:0:0:
124,139,94500,2,0,P|182:130|236:141,1,100,0|8,0:0|0:0,0:0:0:0:
341,124,95423,6,0,L|360:187,1,50
364,231,95884,2,0,L|353:289,1,50,8|0,0:0|0:0,0:0:0:0:
332,336,96346,1,0,0:0:0:0:
246,251,96807,1,8,0:0:0:0:
225,132,97269,6,0,L|283:112,1,50
312,71,97731,2,0,L|370:90,1,50,8|0,0:0|0:0,0:0:0:0:
418,97,98192,2,0,L|458:53,2,50,0|8|8,0:0|0:0|0:0,0:0:0:0:
399,215,99115,5,0,0:0:0:0:
292,270,99577,1,8,0:0:0:0:
179,228,100038,2,0,P|227:167|258:160,1,100,0|8,0:0|0:0,0:0:0:0:
356,115,100961,6,0,L|371:168,1,50
372,223,101423,2,0,L|362:285,1,50,8|0,0:0|0:0,0:0:0:0:
341,328,101884,2,0,L|269:339,2,50,0|8|8,0:0|0:0|0:0,0:0:0:0:
299,215,102807,5,0,0:0:0:0:
373,120,103269,1,8,0:0:0:0:
278,45,103731,1,0,0:0:0:0:
203,138,104192,1,8,0:0:0:0:
315,178,104654,6,0,L|323:235,1,50
371,261,105115,2,0,L|357:323,1,50,8|0,0:0|0:0,0:0:0:0:
314,349,105577,1,0,0:0:0:0:
244,251,106038,1,8,0:0:0:0:
194,141,106500,6,0,P|247:128|311:134,1,100
412,130,107423,2,0,L|379:236,1,100
263,208,108346,1,0,0:0:0:0:
187,301,108807,1,0,0:0:0:0:
72,263,109269,1,0,0:0:0:0:
69,142,109731,2,0,P|124:128|184:143,1,100
256,192,110307,12,8,113423,0:0:0:0:
