osu file format v14

[General]
AudioFilename: audio.mp3
AudioLeadIn: 0
PreviewTime: 69428
Countdown: 1
SampleSet: Soft
StackLeniency: 0.9
Mode: 0
LetterboxInBreaks: 0
WidescreenStoryboard: 0

[Editor]
Bookmarks: 27811,45811,57811,69809
DistanceSpacing: 1
BeatDivisor: 4
GridSize: 16
TimelineZoom: 2.000006

[Metadata]
Title:Magnetism
TitleUnicode:Magnetism
Artist:Rex
ArtistUnicode:Rex
Creator:acece
Version:Insane
Source:Project FX
Tags:
BeatmapID:1872432
BeatmapSetID:896188

[Difficulty]
HPDrainRate:6
CircleSize:4.2
OverallDifficulty:8
ApproachRate:9
SliderMultiplier:1.5
SliderTickRate:1

[Events]
//Background and Video events
0,0,"71849224_p0.jpg",0,0
//Break Periods
//Storyboard Layer 0 (Background)
//Storyboard Layer 1 (Fail)
//Storyboard Layer 2 (Pass)
//Storyboard Layer 3 (Foreground)
//Storyboard Sound Samples

[TimingPoints]
803,375,4,2,0,30,1,0
6053,-100,4,2,0,30,0,0
17303,-133.333333333333,4,2,0,30,0,0
18803,-133.333333333333,4,2,0,20,0,0
22928,-100,4,2,0,30,0,0
24428,-83.3333333333333,4,2,0,30,0,0
25178,-133.333333333333,4,2,0,30,0,0
25365,-83.3333333333333,4,2,0,30,0,0
27168,-200,4,2,0,30,0,0
27428,-133.333333333333,4,2,0,30,0,0
45811,-76.9230769230769,4,2,0,30,0,0
57053,-83.3333333333333,4,2,0,12,0,0
57803,-100,4,2,0,20,0,0
59303,-100,4,2,0,20,0,0
60428,-66.6666666666667,4,2,0,20,0,0
60803,-100,4,2,0,20,0,0
80303,-133.333333333333,4,2,0,30,0,0
85740,-100,4,2,0,30,0,0
87428,-83.3333333333333,4,2,0,30,0,0
90803,-66.6666666666667,4,2,0,30,0,1
96428,-100,4,2,0,30,0,0

[Colours]
Combo1 : 250,87,69
Combo2 : 128,0,0
Combo3 : 125,2,67
Combo4 : 128,0,128

[HitObjects]
54,153,803,6,0,P|52:195|60:245,1,75,8|0,0:0|0:0,0:0:0:0:
117,295,1084,2,0,L|131:269,2,25
277,309,1365,2,0,P|308:272|321:247,1,75,8|0,0:0|0:0,0:0:0:0:
331,56,1740,1,0,0:0:0:0:
470,70,1928,6,0,P|489:100|496:145,1,75
474,213,2178,2,0,L|455:196,2,25,0|0|8,0:0|0:0|0:0,0:0:0:0:
302,171,2490,1,0,0:0:0:0:
294,146,2584,1,0,0:0:0:0:
297,120,2678,6,8,P|307:85|336:50,1,75,0|8,0:0|0:0,0:0:0:0:
399,133,3053,1,0,0:0:0:0:
129,181,3240,1,2,0:0:0:0:
247,23,3428,1,2,0:0:0:0:
129,181,3615,1,2,0:0:0:0:
257,337,3803,6,0,P|300:343|339:332,1,75,8|0,0:0|0:0,0:0:0:0:
362,346,4053,2,0,L|389:328,2,25
108,329,4365,2,0,P|140:297|177:284,1,75,8|0,0:0|0:0,0:0:0:0:
391,254,4740,1,0,0:0:0:0:
443,81,4928,1,0,0:0:0:0:
443,81,5021,1,0,0:0:0:0:
443,81,5115,1,0,0:0:0:0:
443,81,5209,1,0,0:0:0:0:
443,81,5303,2,0,B|457:166|457:166|434:132|365:122|330:172|339:206,1,225
89,315,6053,1,8,0:0:0:0:
89,315,6146,1,0,0:0:0:0:
89,315,6240,1,0,0:0:0:0:
89,315,6428,2,0,L|93:241,1,75,4|0,0:0|0:0,0:0:0:0:
255,24,6803,6,0,P|277:49|291:97,1,75,8|0,0:0|0:0,0:0:0:0:
275,124,7084,1,0,0:0:0:0:
275,124,7178,1,0,0:0:0:0:
134,111,7365,1,8,0:0:0:0:
275,124,7553,2,0,P|316:114|350:89,1,75
388,30,7928,1,2,0:0:0:0:
161,99,8115,1,0,0:0:0:0:
331,181,8303,2,0,P|355:216|362:250,1,75,8|0,0:0|0:0,0:0:0:0:
361,247,8584,1,0,0:0:0:0:
361,247,8678,1,0,0:0:0:0:
77,302,8865,2,0,P|64:261|68:226,1,75,8|0,0:0|0:0,0:0:0:0:
68,229,9146,1,0,0:0:0:0:
68,229,9240,1,0,0:0:0:0:
250,311,9428,5,2,0:0:0:0:
275,325,9521,1,0,0:0:0:0:
301,313,9615,1,0,0:0:0:0:
326,327,9709,1,0,0:0:0:0:
347,337,9803,2,0,P|389:333|438:300,1,75,8|0,0:0|0:0,0:0:0:0:
491,243,10084,1,0,0:0:0:0:
491,243,10178,1,0,0:0:0:0:
187,134,10365,2,0,B|215:106|215:106|259:148|340:122,1,150,8|0,0:0|0:0,0:0:0:0:
329,180,10834,1,0,0:0:0:0:
347,148,10928,2,2,L|432:148,1,75
213,327,11303,6,0,P|159:327|129:308,1,75,8|0,0:0|0:0,0:0:0:0:
141,318,11584,1,0,0:0:0:0:
141,318,11678,1,0,0:0:0:0:
34,48,11865,2,0,L|43:139,1,75,8|0,0:0|0:0,0:0:0:0:
141,318,12240,1,2,0:0:0:0:
139,149,12428,1,4,0:0:0:0:
187,228,12615,1,0,0:0:0:0:
39,211,12803,1,8,0:0:0:0:
171,60,12990,1,0,0:0:0:0:
187,52,13084,1,0,0:0:0:0:
205,47,13178,1,0,0:0:0:0:
224,47,13271,1,0,0:0:0:0:
242,52,13365,1,8,0:0:0:0:
342,134,13553,5,0,0:0:0:0:
321,136,13646,1,0,0:0:0:0:
300,132,13740,1,0,0:0:0:0:
280,124,13834,1,0,0:0:0:0:
264,110,13928,1,2,0:0:0:0:
251,93,14021,1,0,0:0:0:0:
244,73,14115,1,0,0:0:0:0:
242,52,14209,1,0,0:0:0:0:
329,42,14303,2,0,L|420:42,1,75,8|0,0:0|0:0,0:0:0:0:
404,42,14584,1,0,0:0:0:0:
404,42,14678,1,0,0:0:0:0:
146,231,14865,2,0,L|237:231,1,75,8|0,0:0|0:0,0:0:0:0:
221,231,15146,1,0,0:0:0:0:
221,231,15240,1,0,0:0:0:0:
436,239,15428,5,2,0:0:0:0:
434,275,15521,1,0,0:0:0:0:
412,305,15615,1,0,0:0:0:0:
377,317,15709,1,0,0:0:0:0:
302,317,15803,2,0,L|385:317,1,75,8|0,0:0|0:0,0:0:0:0:
377,317,16084,1,0,0:0:0:0:
377,317,16178,1,0,0:0:0:0:
222,135,16365,2,0,L|297:135,1,75,8|0,0:0|0:0,0:0:0:0:
297,135,16646,1,0,0:0:0:0:
297,135,16740,1,0,0:0:0:0:
407,162,16928,1,2,0:0:0:0:
263,37,17115,1,2,0:0:0:0:
385,55,17303,6,0,P|446:59|494:99,1,112.500004291535,8|0,0:0|0:0,0:0:0:0:
404,244,17865,1,0,0:0:0:0:
404,244,17959,1,0,0:0:0:0:
404,244,18053,2,0,L|337:244,1,56.2500021457673,2|0,0:0|0:0,0:0:0:0:
84,130,18428,2,0,P|30:126|-11:91,1,84.3750032186509
152,62,18803,2,0,P|184:61|218:74,1,56.2500021457673,8|0,0:0|0:0,0:0:0:0:
275,141,19084,1,0,0:0:0:0:
275,141,19178,2,0,P|243:152|207:150,1,56.2500021457673,8|0,0:0|0:0,0:0:0:0:
269,0,19459,1,0,0:0:0:0:
269,0,19553,2,0,P|294:22|311:54,1,56.2500021457673,8|0,0:0|0:0,0:0:0:0:
150,215,19928,2,0,P|143:247|149:283,1,56.2500021457673
404,332,20303,6,0,P|373:345|337:346,1,56.2500021457673,8|0,0:0|0:0,0:0:0:0:
235,252,20584,1,0,0:0:0:0:
235,252,20678,2,0,P|228:284|234:320,1,56.2500021457673,8|0,0:0|0:0,0:0:0:0:
355,253,20959,1,0,0:0:0:0:
355,253,21053,2,0,P|362:221|356:185,1,56.2500021457673,8|0,0:0|0:0,0:0:0:0:
150,215,21428,1,0,0:0:0:0:
231,63,21615,5,0,0:0:0:0:
231,63,21709,1,0,0:0:0:0:
231,63,21803,2,0,P|218:95|219:141,1,56.2500021457673,8|0,0:0|0:0,0:0:0:0:
359,197,22084,1,0,0:0:0:0:
359,197,22178,2,0,P|318:200|287:195,1,56.2500021457673,8|0,0:0|0:0,0:0:0:0:
353,88,22459,1,2,0:0:0:0:
353,88,22553,2,0,P|393:84|425:90,1,56.2500021457673,10|0,0:0|0:0,0:0:0:0:
60,245,22928,5,0,0:0:0:0:
50,280,23021,1,0,0:0:0:0:
69,311,23115,1,0,0:0:0:0:
105,317,23209,1,0,0:0:0:0:
157,296,23303,2,0,L|240:296,1,75,8|0,0:0|0:0,0:0:0:0:
268,285,23584,1,0,0:0:0:0:
268,285,23678,1,0,0:0:0:0:
474,211,23865,2,0,L|391:211,1,75,8|0,0:0|0:0,0:0:0:0:
359,197,24146,1,0,0:0:0:0:
359,197,24240,1,0,0:0:0:0:
64,126,24428,5,0,0:0:0:0:
55,94,24521,1,0,0:0:0:0:
68,63,24615,1,0,0:0:0:0:
97,48,24709,1,0,0:0:0:0:
130,54,24803,1,8,0:0:0:0:
228,183,24990,1,0,0:0:0:0:
228,138,25084,1,0,0:0:0:0:
228,93,25178,1,0,0:0:0:0:
228,93,25271,1,0,0:0:0:0:
228,93,25365,2,0,P|273:65|320:61,1,89.9999972534181,8|0,0:0|0:0,0:0:0:0:
420,265,25740,5,0,0:0:0:0:
382,289,25834,1,0,0:0:0:0:
338,297,25928,1,0,0:0:0:0:
309,269,26021,1,0,0:0:0:0:
264,265,26115,1,0,0:0:0:0:
222,279,26209,1,0,0:0:0:0:
158,346,26303,2,0,P|129:300|129:248,1,89.9999972534181,8|0,0:0|0:0,0:0:0:0:
144,238,26584,1,0,0:0:0:0:
144,238,26678,1,0,0:0:0:0:
308,60,26865,2,0,P|337:106|337:158,1,89.9999972534181,8|0,0:0|0:0,0:0:0:0:
227,138,27146,1,0,0:0:0:0:
209,144,27240,1,0,0:0:0:0:
191,151,27334,1,0,0:0:0:0:
174,155,27428,2,0,P|134:151|109:136,1,56.2500021457673
308,60,27803,6,0,P|388:54|481:99,1,168.750006437302
298,221,28553,2,0,P|292:275|323:321,2,112.500004291535
107,95,29678,2,0,L|50:95,1,56.2500021457673
214,183,30053,2,0,P|254:137|322:124,1,112.500004291535
412,261,30803,2,0,P|371:306|303:319,1,112.500004291535
130,272,31553,5,0,0:0:0:0:
69,280,31740,1,0,0:0:0:0:
30,231,31928,1,0,0:0:0:0:
43,170,32115,1,0,0:0:0:0:
43,170,32303,2,0,P|33:115|62:70,1,112.500004291535
348,180,33053,2,0,L|283:181,2,56.2500021457673
158,103,33803,2,0,P|141:168|156:221,1,112.500004291535
355,329,34553,5,0,0:0:0:0:
412,307,34740,1,0,0:0:0:0:
435,249,34928,1,0,0:0:0:0:
414,190,35115,1,0,0:0:0:0:
414,190,35303,2,0,L|491:190,1,56.2500021457673
292,35,35678,2,0,L|194:35,1,84.3750032186509
207,35,36053,1,0,0:0:0:0:
53,135,36240,1,0,0:0:0:0:
53,135,36334,1,0,0:0:0:0:
53,135,36428,2,0,L|148:135,1,84.3750032186509
134,154,36803,1,0,0:0:0:0:
121,312,36990,1,0,0:0:0:0:
121,312,37084,1,0,0:0:0:0:
121,312,37178,2,0,L|177:312,1,56.2500021457673
295,355,37553,5,0,0:0:0:0:
439,306,37740,1,0,0:0:0:0:
265,263,37928,2,0,L|332:263,1,56.2500021457673
399,152,38303,2,0,L|332:152,1,56.2500021457673
265,263,38678,1,0,0:0:0:0:
257,250,38771,1,0,0:0:0:0:
243,239,38865,1,0,0:0:0:0:
227,233,38959,1,0,0:0:0:0:
209,231,39053,1,0,0:0:0:0:
191,233,39146,1,0,0:0:0:0:
175,237,39240,5,0,0:0:0:0:
138,226,39334,1,0,0:0:0:0:
115,195,39428,1,0,0:0:0:0:
114,157,39521,1,0,0:0:0:0:
135,125,39615,1,0,0:0:0:0:
171,111,39709,1,0,0:0:0:0:
206,120,39803,1,0,0:0:0:0:
418,142,39990,1,0,0:0:0:0:
271,194,40178,1,0,0:0:0:0:
360,0,40365,1,0,0:0:0:0:
235,118,40553,1,0,0:0:0:0:
389,134,40740,1,0,0:0:0:0:
282,172,40928,1,0,0:0:0:0:
347,31,41115,1,0,0:0:0:0:
235,118,41303,2,0,P|313:107|346:28,1,168.750006437302
98,67,42053,2,0,P|77:137|124:231,1,168.750006437302
256,192,42803,12,0,45428,0:0:0:0:
486,89,45709,5,0,0:0:0:0:
486,89,45803,1,8,0:0:0:0:
256,183,45990,1,0,0:0:0:0:
412,208,46178,1,0,0:0:0:0:
81,134,46365,1,8,0:0:0:0:
81,134,46459,1,0,0:0:0:0:
81,134,46553,2,0,P|73:193|110:248,1,97.4999955368044
173,283,46928,1,2,0:0:0:0:
0,242,47115,1,0,0:0:0:0:
5,86,47303,6,0,P|43:55|105:46,1,97.4999955368044,8|0,0:0|0:0,0:0:0:0:
349,144,47678,1,0,0:0:0:0:
220,60,47865,1,8,0:0:0:0:
222,98,47959,1,0,0:0:0:0:
242,131,48053,1,0,0:0:0:0:
274,153,48146,1,0,0:0:0:0:
313,157,48240,1,0,0:0:0:0:
349,144,48334,1,0,0:0:0:0:
424,158,48428,2,0,P|455:122|460:74,1,97.4999955368044,2|0,0:0|0:0,0:0:0:0:
339,0,48709,1,0,0:0:0:0:
339,0,48803,2,0,P|307:35|302:83,1,97.4999955368044,8|0,0:0|0:0,0:0:0:0:
512,214,49178,1,0,0:0:0:0:
160,347,49365,2,0,P|209:367|269:355,1,97.4999955368044,8|0,0:0|0:0,0:0:0:0:
289,188,49740,2,2,P|248:222|229:280,1,97.4999955368044,0|2,0:0|0:0,0:0:0:0:
259,289,50021,1,0,0:0:0:0:
307,285,50115,1,0,0:0:0:0:
351,305,50209,1,0,0:0:0:0:
380,344,50303,2,0,P|420:309|439:251,1,97.4999955368044,8|0,0:0|0:0,0:0:0:0:
429,178,50584,1,0,0:0:0:0:
429,178,50678,1,0,0:0:0:0:
429,178,50771,1,0,0:0:0:0:
373,113,50865,1,8,0:0:0:0:
373,113,51240,5,2,0:0:0:0:
75,103,51428,2,0,P|100:152|159:165,1,97.4999955368044,4|0,0:0|0:0,0:0:0:0:
491,114,51803,2,0,P|466:163|407:176,1,97.4999955368044,8|0,0:0|0:0,0:0:0:0:
242,131,52084,1,0,0:0:0:0:
242,131,52178,2,0,P|267:82|326:69,1,97.4999955368044,8|0,0:0|0:0,0:0:0:0:
477,290,52553,1,8,0:0:0:0:
477,290,52646,1,0,0:0:0:0:
477,290,52740,1,0,0:0:0:0:
195,320,52928,2,8,P|147:327|100:316,1,97.4999955368044
85,283,53209,1,0,0:0:0:0:
85,283,53303,1,8,0:0:0:0:
242,131,53490,1,0,0:0:0:0:
242,131,53584,1,0,0:0:0:0:
242,131,53678,2,0,P|194:120|146:127,1,97.4999955368044,8|0,0:0|0:0,0:0:0:0:
242,245,53959,1,0,0:0:0:0:
242,245,54053,2,0,P|294:238|335:197,1,97.4999955368044,8|0,0:0|0:0,0:0:0:0:
344,23,54428,2,8,P|291:29|251:71,1,97.4999955368044
473,204,54803,1,8,0:0:0:0:
356,137,54990,1,0,0:0:0:0:
356,137,55084,1,0,0:0:0:0:
356,137,55178,2,8,P|372:90|354:38,1,97.4999955368044,0|8,0:0|0:0,0:0:0:0:
143,35,55553,2,0,P|130:84|165:146,1,97.4999955368044
174,193,55834,1,0,0:0:0:0:
191,176,55928,1,8,0:0:0:0:
213,166,56021,1,0,0:0:0:0:
238,164,56115,1,0,0:0:0:0:
261,170,56209,1,0,0:0:0:0:
278,186,56303,2,0,P|349:197|307:56,1,292.499986610413
62,37,57053,6,2,L|40:37,13,22.4999993133545
73,178,57803,2,0,P|52:225|69:266,1,75
288,326,58178,1,0,0:0:0:0:
324,329,58271,1,0,0:0:0:0:
354,308,58365,1,0,0:0:0:0:
365,273,58459,1,0,0:0:0:0:
350,239,58553,2,0,L|389:220,3,37.5
385,129,58928,2,0,L|426:108,3,37.5
328,48,59303,2,0,P|273:43|223:67,1,112.5
172,91,59678,5,0,0:0:0:0:
136,88,59771,1,0,0:0:0:0:
105,109,59865,1,0,0:0:0:0:
95,144,59959,1,0,0:0:0:0:
110,178,60053,2,0,L|63:178,3,37.5
172,91,60428,2,0,L|242:62,1,56.2500021457673
354,132,60615,2,0,L|284:161,1,56.2500021457673
476,128,60803,2,0,P|497:168|469:235,1,112.5
441,267,61178,5,0,0:0:0:0:
448,302,61271,1,0,0:0:0:0:
431,335,61365,1,0,0:0:0:0:
398,349,61459,1,0,0:0:0:0:
362,339,61553,2,0,L|332:311,1,37.5
232,282,61740,2,0,L|262:310,1,37.5
198,266,61928,1,0,0:0:0:0:
161,270,62022,1,0,0:0:0:0:
131,293,62116,1,0,0:0:0:0:
118,327,62210,1,0,0:0:0:0:
122,363,62303,2,0,L|88:335,1,37.5
57,259,62490,2,0,L|23:231,1,37.5
64,229,62677,1,0,0:0:0:0:
87,200,62771,1,0,0:0:0:0:
87,164,62865,1,0,0:0:0:0:
62,137,62959,1,0,0:0:0:0:
138,89,63053,1,0,0:0:0:0:
174,90,63146,1,0,0:0:0:0:
203,68,63240,1,0,0:0:0:0:
211,32,63334,1,0,0:0:0:0:
193,0,63428,2,0,L|263:42,2,75
437,53,64178,6,0,L|475:86,3,37.5
420,150,64553,2,0,L|458:183,3,37.5
460,208,64928,1,0,0:0:0:0:
450,244,65022,1,0,0:0:0:0:
421,266,65116,1,0,0:0:0:0:
384,268,65210,1,0,0:0:0:0:
345,257,65303,2,0,L|284:194,1,75
79,294,65678,2,0,L|121:338,3,37.5
74,175,66053,2,0,L|116:219,3,37.5
92,56,66428,2,0,L|134:100,4,37.5
251,58,66990,6,0,L|287:23,1,37.5
401,46,67178,2,0,L|350:94,3,37.5
435,151,67553,2,0,L|384:199,3,37.5
418,211,67928,1,0,0:0:0:0:
404,245,68022,1,0,0:0:0:0:
372,263,68116,1,0,0:0:0:0:
336,256,68210,1,0,0:0:0:0:
310,231,68303,2,8,B|272:283|178:274|198:173|198:173|240:221,1,225
360,150,68959,1,0,0:0:0:0:
360,150,69053,2,0,L|458:151,1,75
127,56,69428,5,2,0:0:0:0:
142,296,69615,1,2,0:0:0:0:
294,120,69803,2,0,L|258:193,1,75,8|0,0:0|0:0,0:0:0:0:
274,220,70084,1,0,0:0:0:0:
274,220,70178,2,8,L|274:306,1,75,0|8,0:0|0:0,0:0:0:0:
475,335,70553,2,0,L|511:262,1,75
441,182,70928,1,2,0:0:0:0:
293,119,71115,1,2,0:0:0:0:
441,182,71303,2,0,L|440:80,1,75,8|0,0:0|0:0,0:0:0:0:
440,107,71584,1,0,0:0:0:0:
440,107,71678,1,0,0:0:0:0:
294,45,71865,2,0,L|294:124,1,75,8|0,0:0|0:0,0:0:0:0:
294,120,72146,1,0,0:0:0:0:
294,120,72240,1,0,0:0:0:0:
103,152,72428,1,2,0:0:0:0:
122,148,72521,1,0,0:0:0:0:
140,144,72615,1,0,0:0:0:0:
158,140,72709,1,0,0:0:0:0:
177,135,72803,2,0,L|177:46,1,75,8|0,0:0|0:0,0:0:0:0:
177,60,73084,1,0,0:0:0:0:
177,60,73178,1,0,0:0:0:0:
87,268,73365,2,2,P|116:333|194:344,1,150,8|2,0:0|0:0,0:0:0:0:
338,258,73834,1,0,0:0:0:0:
337,257,73928,2,8,L|258:258,1,75
421,350,74303,6,0,P|451:328|468:295,1,75,8|0,0:0|0:0,0:0:0:0:
461,256,74584,1,0,0:0:0:0:
461,256,74678,1,0,0:0:0:0:
185,78,74865,2,0,L|194:169,1,75,8|0,0:0|0:0,0:0:0:0:
292,348,75240,1,2,0:0:0:0:
290,179,75428,1,2,0:0:0:0:
338,258,75615,1,0,0:0:0:0:
190,241,75803,1,8,0:0:0:0:
461,105,75990,1,0,0:0:0:0:
445,97,76084,1,0,0:0:0:0:
427,92,76178,1,0,0:0:0:0:
408,92,76271,1,0,0:0:0:0:
390,97,76365,1,8,0:0:0:0:
290,179,76553,5,0,0:0:0:0:
311,181,76646,1,0,0:0:0:0:
332,177,76740,1,0,0:0:0:0:
352,169,76834,1,0,0:0:0:0:
368,155,76928,1,2,0:0:0:0:
381,138,77021,1,0,0:0:0:0:
388,118,77115,1,0,0:0:0:0:
390,97,77209,1,0,0:0:0:0:
185,78,77303,2,0,L|276:78,1,75,8|0,0:0|0:0,0:0:0:0:
260,78,77584,1,0,0:0:0:0:
260,78,77678,1,0,0:0:0:0:
31,198,77865,2,0,L|122:198,1,75,8|0,0:0|0:0,0:0:0:0:
106,198,78146,1,0,0:0:0:0:
106,198,78240,1,2,0:0:0:0:
290,179,78428,5,2,0:0:0:0:
254,181,78521,1,0,0:0:0:0:
224,203,78615,1,0,0:0:0:0:
212,238,78709,1,0,0:0:0:0:
212,313,78803,2,0,L|212:230,1,75,8|0,0:0|0:0,0:0:0:0:
212,238,79084,1,0,0:0:0:0:
212,238,79178,1,0,0:0:0:0:
465,97,79365,2,0,L|390:97,1,75,8|0,0:0|0:0,0:0:0:0:
390,97,79646,1,0,0:0:0:0:
390,97,79740,1,0,0:0:0:0:
176,108,79928,1,2,0:0:0:0:
312,269,80115,1,2,0:0:0:0:
411,181,80303,2,0,P|472:185|520:225,1,112.500004291535,10|0,0:0|0:0,0:0:0:0:
338,365,80865,1,0,0:0:0:0:
310,367,80959,1,0,0:0:0:0:
282,362,81053,2,0,P|252:349|232:324,1,56.2500021457673,2|0,0:0|0:0,0:0:0:0:
285,189,81428,1,0,0:0:0:0:
147,340,81615,1,0,0:0:0:0:
141,312,81708,1,0,0:0:0:0:
142,284,81803,2,0,P|150:252|172:229,1,56.2500021457673,8|0,0:0|0:0,0:0:0:0:
285,133,82178,2,0,L|286:200,2,56.2500021457673,8|0|0,0:0|0:0|0:0,0:0:0:0:
242,51,82740,1,0,0:0:0:0:
268,40,82833,1,0,0:0:0:0:
296,36,82928,2,0,P|328:39|355:56,1,56.2500021457673
400,203,83303,6,0,L|481:203,2,56.2500021457673,8|0|0,0:0|0:0|0:0,0:0:0:0:
164,234,83865,1,0,0:0:0:0:
164,234,83959,1,0,0:0:0:0:
164,234,84053,2,0,L|108:234,1,56.2500021457673,2|0,0:0|0:0,0:0:0:0:
164,234,84428,1,0,0:0:0:0:
13,105,84615,1,0,0:0:0:0:
13,105,84709,1,0,0:0:0:0:
13,105,84803,2,0,L|13:179,1,56.2500021457673,8|0,0:0|0:0,0:0:0:0:
164,234,85178,2,0,L|165:155,1,56.2500021457673,8|0,0:0|0:0,0:0:0:0:
164,177,85459,1,2,0:0:0:0:
164,177,85553,1,2,0:0:0:0:
237,47,85740,5,0,0:0:0:0:
250,20,85833,1,0,0:0:0:0:
276,5,85927,1,0,0:0:0:0:
305,7,86021,1,0,0:0:0:0:
329,25,86115,1,0,0:0:0:0:
339,52,86208,1,0,0:0:0:0:
338,125,86303,2,0,L|417:125,1,75,8|0,0:0|0:0,0:0:0:0:
413,125,86584,1,0,0:0:0:0:
413,125,86678,1,0,0:0:0:0:
387,269,86865,2,0,L|308:269,1,75,8|0,0:0|0:0,0:0:0:0:
312,269,87146,1,0,0:0:0:0:
312,269,87240,1,0,0:0:0:0:
114,384,87428,1,2,0:0:0:0:
77,382,87521,1,0,0:0:0:0:
50,357,87615,1,0,0:0:0:0:
45,320,87709,1,0,0:0:0:0:
66,290,87803,1,8,0:0:0:0:
205,197,87990,1,0,0:0:0:0:
205,152,88084,1,0,0:0:0:0:
205,107,88178,1,0,0:0:0:0:
205,107,88271,1,0,0:0:0:0:
205,107,88365,2,8,P|160:79|113:75,1,89.9999972534181
442,343,88740,5,0,0:0:0:0:
397,347,88834,1,0,0:0:0:0:
354,335,88928,1,2,0:0:0:0:
340,297,89021,1,0,0:0:0:0:
301,274,89115,1,0,0:0:0:0:
257,268,89209,1,0,0:0:0:0:
171,300,89303,2,0,P|165:245|187:199,1,89.9999972534181,8|0,0:0|0:0,0:0:0:0:
205,197,89584,1,0,0:0:0:0:
205,197,89678,1,0,0:0:0:0:
355,80,89865,2,0,P|360:134|338:180,1,89.9999972534181,8|0,0:0|0:0,0:0:0:0:
205,107,90146,1,0,0:0:0:0:
187,113,90240,1,0,0:0:0:0:
169,120,90334,1,0,0:0:0:0:
152,124,90428,2,2,P|112:120|77:86,1,89.9999972534181
442,69,90803,5,8,0:0:0:0:
309,196,90990,1,0,0:0:0:0:
458,97,91178,1,8,0:0:0:0:
325,224,91365,2,8,L|325:338,1,112.500004291535,0|8,0:0|0:0,0:0:0:0:
446,258,91740,1,0,0:0:0:0:
191,198,91928,1,2,0:0:0:0:
104,341,92115,1,2,0:0:0:0:
104,341,92209,1,0,0:0:0:0:
104,341,92303,1,8,0:0:0:0:
53,148,92490,1,0,0:0:0:0:
53,148,92678,2,0,P|63:94|124:57,1,112.500004291535,8|0,0:0|0:0,0:0:0:0:
393,89,93053,1,8,0:0:0:0:
245,296,93240,1,2,0:0:0:0:
273,62,93428,1,2,0:0:0:0:
457,208,93615,1,2,0:0:0:0:
193,170,93803,5,8,0:0:0:0:
457,208,93990,1,0,0:0:0:0:
457,208,94084,1,0,0:0:0:0:
457,208,94178,2,0,P|458:262|418:317,1,112.500004291535,8|0,0:0|0:0,0:0:0:0:
161,349,94553,1,8,0:0:0:0:
0,226,94740,1,0,0:0:0:0:
231,117,94928,1,8,0:0:0:0:
231,117,95021,1,0,0:0:0:0:
231,117,95115,1,0,0:0:0:0:
231,117,95209,1,0,0:0:0:0:
231,117,95303,1,8,0:0:0:0:
425,98,95490,1,0,0:0:0:0:
425,112,95583,1,0,0:0:0:0:
425,126,95677,1,2,0:0:0:0:
425,140,95771,1,0,0:0:0:0:
425,154,95865,2,0,L|426:224,1,56.2500021457673,12|0,0:0|0:0,0:0:0:0:
133,101,96053,2,0,L|133:27,1,56.2500021457673
245,324,96240,2,0,L|244:256,1,56.2500021457673,4|0,0:0|0:0,0:0:0:0:
319,31,96428,1,4,0:0:0:0:
