osu file format v14

[General]
AudioFilename: audio.mp3
AudioLeadIn: 0
PreviewTime: -1
Countdown: 1
SampleSet: Normal
StackLeniency: 0.7
Mode: 0
LetterboxInBreaks: 0
WidescreenStoryboard: 0

[Editor]
DistanceSpacing: 1.1
BeatDivisor: 4
GridSize: 4
TimelineZoom: 2.7

[Metadata]
Title:Blend S [Funkot Remix]
TitleUnicode:Blend S [Funkot Remix]
Artist:Revymiko
ArtistUnicode:Revymiko
Creator:DeZpair
Version:Dugem
Source:soundcloud
Tags:dangdut funky
BeatmapID:1545244
BeatmapSetID:732359

[Difficulty]
HPDrainRate:5
CircleSize:3.8
OverallDifficulty:8
ApproachRate:9
SliderMultiplier:1.5
SliderTickRate:1

[Events]
//Background and Video events
0,0,"878017.jpg",0,0
//Break Periods
//Storyboard Layer 0 (Background)
//Storyboard Layer 1 (Fail)
//Storyboard Layer 2 (Pass)
//Storyboard Layer 3 (Foreground)
//Storyboard Sound Samples

[TimingPoints]
1502.63678561455,333.334235033259,4,3,0,100,1,0
5335,-66.6666666666667,4,1,0,100,0,0
17502,333.334235033259,4,1,0,100,1,0
17502,-133.333333333333,4,1,0,100,0,0
18335,-66.6666666666667,4,1,0,100,0,0
18668,-133.333333333333,4,1,0,100,0,0
19659,-66.6666666666667,4,1,0,100,0,0
19918,-133.333333333333,4,1,0,100,0,0
20969,-66.6666666666667,4,1,0,100,0,0
21252,-133.333333333333,4,1,0,100,0,0
23335,-100,4,1,0,100,0,0
23652,-66.6666666666667,4,1,0,100,0,0
23918,-100,4,1,0,100,0,0
28502,-66.6666666666667,4,1,0,100,0,0
41502,-66.6666666666667,4,1,0,100,0,1
60168,-100,4,1,0,100,0,0
61168,-66.6666666666667,4,1,0,100,0,0
65502,-50,4,1,0,100,0,0
67835,-66.6666666666667,4,1,0,100,0,0
73502,-50,4,1,0,100,0,0

[HitObjects]
328,312,1502,6,0,L|256:260,1,75
180,152,1835,2,0,L|220:117,2,37.5
256,85,2169,1,0,0:0:0:0:
72,241,2335,1,0,0:0:0:0:
152,173,2502,2,0,L|192:141,2,37.5
232,101,2835,1,0,0:0:0:0:
24,277,3002,1,0,0:0:0:0:
124,194,3169,2,0,L|160:165,2,37.5
396,160,3502,5,0,0:0:0:0:
160,84,3669,1,0,0:0:0:0:
272,116,3835,1,0,0:0:0:0:
396,160,4002,2,0,L|372:224,2,37.5
144,240,4335,2,0,P|128:180|152:144,1,75
316,104,4669,2,0,P|356:144|360:172,1,75
288,168,5002,2,0,L|208:168,1,75
120,148,5335,1,0,0:0:0:0:
284,88,5502,5,0,0:0:0:0:
308,100,5585,1,0,0:0:0:0:
336,120,5669,1,0,0:0:0:0:
352,216,5835,1,0,0:0:0:0:
332,228,5919,1,0,0:0:0:0:
256,256,6085,1,0,0:0:0:0:
208,260,6169,1,0,0:0:0:0:
164,260,6252,1,0,0:0:0:0:
140,188,6335,5,0,0:0:0:0:
176,188,6419,1,0,0:0:0:0:
220,192,6502,1,0,0:0:0:0:
260,192,6585,1,0,0:0:0:0:
300,192,6669,1,0,0:0:0:0:
340,196,6752,2,0,P|368:228|352:288,1,56.2500021457673
244,312,7002,5,0,0:0:0:0:
244,312,7169,2,0,B|184:356|144:276,1,112.500004291535
100,172,7502,1,0,0:0:0:0:
228,68,7669,1,0,0:0:0:0:
264,72,7752,1,0,0:0:0:0:
296,76,7835,1,0,0:0:0:0:
80,56,8002,1,0,0:0:0:0:
192,160,8169,2,0,L|288:240,1,112.500004291535
384,304,8502,1,0,0:0:0:0:
280,232,8669,2,0,L|224:188,2,56.2500021457673
120,88,9002,5,0,0:0:0:0:
235,197,9169,2,0,L|331:273,1,112.500004291535
388,320,9502,2,0,L|332:272,2,56.2500021457673
216,168,9835,1,0,0:0:0:0:
380,40,10002,1,0,0:0:0:0:
380,40,10169,2,0,L|288:112,1,112.500004291535
128,232,10502,1,0,0:0:0:0:
304,144,10669,5,0,0:0:0:0:
304,144,10835,2,0,B|368:136|368:136|436:192,1,112.500004291535
244,292,11169,1,0,0:0:0:0:
244,292,11252,1,0,0:0:0:0:
244,292,11335,1,0,0:0:0:0:
244,292,11502,1,0,0:0:0:0:
64,136,11669,2,0,B|16:212|108:232,1,112.500004291535
244,292,12002,1,0,0:0:0:0:
312,192,12169,1,0,0:0:0:0:
345,142,12252,1,0,0:0:0:0:
373,98,12335,5,0,0:0:0:0:
272,80,12502,2,0,L|208:180,1,112.500004291535
136,312,12836,1,0,0:0:0:0:
216,168,13002,1,0,0:0:0:0:
248,128,13086,1,0,0:0:0:0:
272,88,13169,1,0,0:0:0:0:
272,88,13336,2,0,P|212:68|172:96,1,112.500004291535
368,68,13669,1,0,0:0:0:0:
232,136,13836,2,0,B|196:172|156:144|136:188,2,112.500004291535
344,88,14336,1,0,0:0:0:0:
264,224,14502,5,0,0:0:0:0:
232,240,14586,1,0,0:0:0:0:
200,252,14669,2,0,B|148:272|148:272|136:216,1,112.500004291535
216,56,15002,1,0,0:0:0:0:
336,176,15169,1,0,0:0:0:0:
344,216,15252,1,0,0:0:0:0:
356,248,15336,2,0,B|400:360,1,112.500004291535
208,320,15669,1,0,0:0:0:0:
96,168,15836,1,0,0:0:0:0:
228,92,16002,2,0,L|384:92,1,112.500004291535
336,188,16336,6,0,L|288:228,1,56.2500021457673
208,280,16586,1,0,0:0:0:0:
208,280,16669,1,0,0:0:0:0:
184,200,16836,1,0,0:0:0:0:
160,88,17002,2,0,P|236:80|260:108,1,112.500004291535
92,192,17336,1,0,0:0:0:0:
144,312,17502,2,0,P|172:328|212:312,1,56.2500021457673
264,256,17836,2,0,P|304:232|304:200,1,56.2500021457673
240,68,18169,1,0,0:0:0:0:
120,136,18336,2,0,P|88:192|140:232,1,112.500004291535
200,300,18668,6,0,L|264:284,1,56.2500021457673
360,216,19002,1,0,0:0:0:0:
376,100,19169,1,0,0:0:0:0:
264,96,19336,1,0,0:0:0:0:
248,208,19502,1,0,0:0:0:0:
360,216,19669,2,0,P|392:164|336:108,1,112.500004291535
244,96,20002,5,0,0:0:0:0:
244,96,20169,2,0,P|220:128|232:152,1,56.2500021457673
272,288,20502,1,0,0:0:0:0:
152,172,20669,1,0,0:0:0:0:
256,36,20836,1,0,0:0:0:0:
396,72,21002,2,0,P|340:68|300:120,1,112.500004291535
172,252,21336,1,0,0:0:0:0:
124,60,21502,6,0,L|188:52,1,56.2500021457673
320,140,21835,1,0,0:0:0:0:
320,140,21919,1,0,0:0:0:0:
320,140,22002,1,0,0:0:0:0:
248,240,22169,6,0,L|200:248,2,28.1250010728836
240,48,22502,5,0,0:0:0:0:
240,48,22585,1,0,0:0:0:0:
240,48,22669,2,0,P|280:64|288:96,1,56.2500021457673
376,280,23002,1,0,0:0:0:0:
176,240,23169,1,0,0:0:0:0:
316,144,23336,2,0,P|276:124|220:148,1,75
176,240,23669,2,0,P|204:292|276:304,1,112.500004291535
176,240,24002,2,0,B|164:194|192:152|192:152,1,75
288,44,24336,1,0,0:0:0:0:
184,166,24502,2,0,P|168:202|176:250,1,75
252,344,24836,5,0,0:0:0:0:
224,256,25002,1,0,0:0:0:0:
192,160,25169,1,0,0:0:0:0:
184,120,25252,1,0,0:0:0:0:
180,80,25336,2,0,P|232:52|272:68,1,75
392,160,25669,1,0,0:0:0:0:
284,272,25836,1,0,0:0:0:0:
248,256,25919,1,0,0:0:0:0:
216,232,26002,2,0,P|208:188|244:160,1,75
372,88,26336,1,0,0:0:0:0:
372,88,26502,2,0,L|388:176,1,75
288,228,26836,6,0,L|236:216,5,37.5
232,172,27335,2,0,L|164:184,3,37.5
272,168,27669,1,0,0:0:0:0:
320,176,27752,1,0,0:0:0:0:
352,212,27836,1,0,0:0:0:0:
348,252,27919,1,0,0:0:0:0:
320,284,28002,1,0,0:0:0:0:
280,296,28085,2,0,L|236:288,1,37.5
128,224,28335,5,0,0:0:0:0:
108,96,28502,1,0,0:0:0:0:
264,64,28669,1,0,0:0:0:0:
284,208,28836,2,0,P|304:248|372:256,1,112.500004291535
284,208,29168,1,0,0:0:0:0:
366,258,29335,2,0,P|346:218|278:210,1,112.500004291535
168,100,29669,1,0,0:0:0:0:
112,204,29836,1,0,0:0:0:0:
200,296,30002,2,0,P|264:292|304:252,1,112.500004291535
380,160,30336,5,0,0:0:0:0:
240,80,30502,2,0,L|96:4,2,112.500004291535
384,144,31002,1,0,0:0:0:0:
204,288,31169,1,0,0:0:0:0:
384,140,31336,1,0,0:0:0:0:
364,112,31419,1,0,0:0:0:0:
336,88,31502,2,0,P|288:56|228:84,1,112.500004291535
120,184,31835,1,0,0:0:0:0:
264,292,32002,2,0,P|328:308|388:252,1,112.500004291535
436,152,32335,1,0,0:0:0:0:
248,80,32502,5,0,0:0:0:0:
204,84,32585,1,0,0:0:0:0:
168,92,32668,2,0,P|128:128|120:184,1,112.500004291535
156,308,33002,1,0,0:0:0:0:
168,92,33168,2,0,P|128:128|120:196,1,112.500004291535
160,304,33502,2,0,P|200:356|264:324,1,112.500004291535
424,304,33835,1,0,0:0:0:0:
408,192,34002,1,0,0:0:0:0:
400,160,34085,1,0,0:0:0:0:
388,128,34168,2,0,P|360:68|296:44,1,112.500004291535
168,52,34502,5,0,0:0:0:0:
100,184,34668,2,0,P|108:276|160:292,1,112.500004291535
304,284,35002,1,0,0:0:0:0:
120,136,35168,2,0,B|60:184|104:240,1,112.500004291535
280,92,35502,1,0,0:0:0:0:
152,104,35668,2,0,B|104:148|136:208,1,112.500004291535
292,264,36002,1,0,0:0:0:0:
320,240,36085,1,0,0:0:0:0:
344,212,36168,5,0,0:0:0:0:
352,112,36335,2,0,B|320:64|252:76|252:76,1,112.500004291535
216,184,36668,2,0,B|284:172|316:220,1,112.500004291535
340,292,37002,1,0,0:0:0:0:
156,248,37168,1,0,0:0:0:0:
112,232,37252,1,0,0:0:0:0:
80,200,37335,2,0,B|4:104|148:8|200:132,1,225.000008583069
128,144,37835,2,0,P|200:160|240:120,1,112.500004291535
472,104,38168,5,0,0:0:0:0:
272,44,38335,1,0,0:0:0:0:
272,192,38502,2,0,L|256:260,3,56.2500021457673
236,260,38835,1,0,0:0:0:0:
184,244,38918,1,0,0:0:0:0:
148,196,39002,1,0,0:0:0:0:
156,140,39085,1,0,0:0:0:0:
192,108,39168,1,0,0:0:0:0:
236,96,39252,1,0,0:0:0:0:
268,100,39335,1,0,0:0:0:0:
288,116,39418,1,0,0:0:0:0:
312,144,39502,1,0,0:0:0:0:
308,176,39585,1,0,0:0:0:0:
280,188,39668,1,0,0:0:0:0:
260,168,39752,1,0,0:0:0:0:
284,132,39835,1,0,0:0:0:0:
340,136,39918,1,0,0:0:0:0:
368,180,40002,5,0,0:0:0:0:
360,240,40085,1,0,0:0:0:0:
304,272,40168,1,0,0:0:0:0:
256,252,40252,1,0,0:0:0:0:
224,208,40335,1,0,0:0:0:0:
168,176,40418,1,0,0:0:0:0:
108,196,40502,1,0,0:0:0:0:
80,256,40585,1,0,0:0:0:0:
112,324,40668,1,0,0:0:0:0:
188,344,40752,1,0,0:0:0:0:
248,292,40835,2,0,L|276:212,1,56.2500021457673
384,100,41002,5,0,0:0:0:0:
288,52,41168,1,0,0:0:0:0:
216,64,41252,1,0,0:0:0:0:
152,92,41335,1,0,0:0:0:0:
96,144,41418,1,0,0:0:0:0:
80,216,41502,2,0,P|96:272|156:296,1,112.500004291535
320,272,41835,1,0,0:0:0:0:
152,276,42002,2,0,L|80:276,2,56.2500021457673
320,272,42335,1,0,0:0:0:0:
224,276,42502,5,0,0:0:0:0:
188,276,42585,1,0,0:0:0:0:
152,276,42668,2,0,L|32:276,1,112.500004291535
388,176,43002,1,0,0:0:0:0:
216,172,43168,1,0,0:0:0:0:
176,172,43252,1,0,0:0:0:0:
140,172,43335,2,0,L|8:172,1,112.500004291535
84,336,43668,1,0,0:0:0:0:
88,184,43835,6,0,P|108:116|160:88,1,112.500004291535
380,40,44168,1,0,0:0:0:0:
96,112,44335,1,0,0:0:0:0:
92,152,44418,1,0,0:0:0:0:
92,192,44502,2,0,P|116:236|192:256,1,112.500004291535
436,308,44835,1,0,0:0:0:0:
272,128,45002,1,0,0:0:0:0:
260,304,45168,1,0,0:0:0:0:
444,148,45335,5,0,0:0:0:0:
440,296,45502,1,0,0:0:0:0:
272,140,45668,1,0,0:0:0:0:
440,296,45835,1,0,0:0:0:0:
272,232,46002,1,0,0:0:0:0:
240,220,46085,1,0,0:0:0:0:
200,204,46168,1,0,0:0:0:0:
92,156,46335,1,0,0:0:0:0:
188,200,46502,1,0,0:0:0:0:
232,216,46585,1,0,0:0:0:0:
272,232,46668,1,0,0:0:0:0:
464,300,46835,5,0,0:0:0:0:
296,148,47002,2,0,B|228:172|228:172|204:220,1,112.500004291535
244,320,47335,1,0,0:0:0:0:
288,220,47502,2,0,B|252:164|252:164|256:112,1,112.500004291535
288,44,47835,2,0,B|324:100|324:100|320:152,1,112.500004291535
216,228,48168,1,0,0:0:0:0:
184,256,48252,1,0,0:0:0:0:
148,288,48335,1,0,0:0:0:0:
272,336,48502,2,0,L|376:244,1,112.500004291535
360,164,48835,2,0,L|256:256,1,112.500004291535
384,332,49168,2,0,L|488:240,1,112.500004291535
272,44,49502,2,0,L|168:136,1,112.500004291535
108,196,49835,5,0,0:0:0:0:
412,188,50002,1,0,0:0:0:0:
256,324,50168,2,0,L|256:184,1,112.500004291535
412,188,50502,1,0,0:0:0:0:
108,192,50668,1,0,0:0:0:0:
376,112,50835,1,0,0:0:0:0:
312,280,51002,1,0,0:0:0:0:
236,68,51168,1,0,0:0:0:0:
156,236,51335,1,0,0:0:0:0:
380,96,51502,1,0,0:0:0:0:
332,288,51668,5,0,0:0:0:0:
64,192,51835,2,0,P|116:84|244:76,1,225.000008583069
368,120,52335,5,0,0:0:0:0:
340,264,52502,1,0,0:0:0:0:
300,288,52585,1,0,0:0:0:0:
264,308,52668,2,0,P|200:296|180:248,1,112.500004291535
184,88,53002,1,0,0:0:0:0:
280,192,53168,1,0,0:0:0:0:
224,312,53335,1,0,0:0:0:0:
96,312,53502,1,0,0:0:0:0:
52,188,53668,1,0,0:0:0:0:
176,88,53835,2,0,L|304:112,1,112.500004291535
408,140,54168,5,0,0:0:0:0:
424,272,54335,1,0,0:0:0:0:
296,320,54502,1,0,0:0:0:0:
244,188,54668,1,0,0:0:0:0:
244,188,54835,2,0,L|288:304,1,112.500004291535
304,344,55168,1,0,0:0:0:0:
244,188,55335,1,0,0:0:0:0:
232,152,55418,1,0,0:0:0:0:
224,112,55502,2,0,B|252:56|252:56|316:80,1,112.500004291535
392,144,55835,5,0,0:0:0:0:
272,320,56002,1,0,0:0:0:0:
40,216,56168,2,0,L|168:280,1,112.500004291535
272,320,56502,1,0,0:0:0:0:
376,180,56668,2,0,P|376:124|320:108,1,112.500004291535
176,96,57002,2,0,P|132:120|160:184,1,112.500004291535
240,288,57335,1,0,0:0:0:0:
376,196,57502,6,0,L|420:76,1,112.500004291535
304,100,57835,1,0,0:0:0:0:
276,208,58002,1,0,0:0:0:0:
304,100,58168,1,0,0:0:0:0:
180,184,58335,2,0,L|228:56,2,112.500004291535
372,128,58835,1,0,0:0:0:0:
388,168,58919,1,0,0:0:0:0:
400,208,59002,2,0,P|404:272|352:296,1,112.500004291535
228,268,59335,1,0,0:0:0:0:
96,156,59502,2,0,B|180:60,1,112.500004291535
252,120,59835,2,0,B|168:216,1,112.500004291535
296,200,60168,2,0,B|336:240|336:240|336:284|336:284|292:328,1,150
232,268,60668,2,0,B|196:232|196:232|192:176|192:176|232:140,1,150
288,56,61168,5,0,0:0:0:0:
388,152,61335,2,0,P|408:220|376:276,1,112.500004291535
144,308,61668,1,0,0:0:0:0:
144,264,61752,1,0,0:0:0:0:
144,224,61835,1,0,0:0:0:0:
248,228,62002,1,0,0:0:0:0:
248,164,62085,1,0,0:0:0:0:
248,100,62168,1,0,0:0:0:0:
376,116,62335,5,0,0:0:0:0:
376,168,62418,1,0,0:0:0:0:
376,224,62502,1,0,0:0:0:0:
352,276,62585,1,0,0:0:0:0:
304,280,62668,1,0,0:0:0:0:
248,280,62752,1,0,0:0:0:0:
180,280,62835,2,0,B|112:176|112:176|200:100,1,225.000008583069
344,136,63335,2,0,B|416:224|416:224|336:308,1,225.000008583069
232,316,63835,5,0,0:0:0:0:
136,104,64002,1,0,0:0:0:0:
136,104,64085,1,0,0:0:0:0:
136,104,64168,2,0,P|200:72|256:80,2,112.500004291535
164,296,64668,1,0,0:0:0:0:
164,296,64751,1,0,0:0:0:0:
168,300,64835,2,0,P|236:320|288:276,1,112.500004291535
476,184,65168,5,0,0:0:0:0:
376,56,65335,1,0,0:0:0:0:
292,184,65502,2,0,P|324:276|396:328,1,150
176,116,65752,2,0,P|208:208|284:264,1,150
64,72,66002,2,0,P|96:164|176:224,1,150
252,320,66335,1,0,0:0:0:0:
136,176,66502,1,0,0:0:0:0:
276,56,66668,1,0,0:0:0:0:
192,80,66835,2,0,P|120:76|20:168,1,150
184,184,67085,2,0,P|112:180|52:264,1,150
216,272,67335,2,0,P|144:268|128:364,1,150
404,272,67668,1,0,0:0:0:0:
412,120,67835,5,0,0:0:0:0:
272,72,68002,2,0,P|192:88|156:136,1,112.500004291535
116,244,68335,1,0,0:0:0:0:
288,280,68502,1,0,0:0:0:0:
312,256,68586,1,0,0:0:0:0:
332,236,68668,2,0,P|364:184|344:128,1,112.500004291535
208,64,69002,1,0,0:0:0:0:
256,172,69168,2,0,P|328:212|396:200,1,112.500004291535
460,96,69502,1,0,0:0:0:0:
272,136,69668,2,0,P|200:132|160:180,1,112.500004291535
236,200,70002,6,0,B|292:228|344:168,1,112.500004291535
88,156,70335,1,0,0:0:0:0:
88,156,70418,1,0,0:0:0:0:
88,156,70502,1,0,0:0:0:0:
428,80,70668,5,0,0:0:0:0:
304,212,70835,1,0,0:0:0:0:
280,252,70918,1,0,0:0:0:0:
280,288,71002,1,0,0:0:0:0:
312,316,71085,1,0,0:0:0:0:
344,320,71168,1,0,0:0:0:0:
380,296,71252,1,0,0:0:0:0:
392,256,71335,1,0,0:0:0:0:
384,228,71418,1,0,0:0:0:0:
368,200,71502,1,0,0:0:0:0:
336,192,71585,1,0,0:0:0:0:
312,208,71668,1,0,0:0:0:0:
312,244,71752,1,0,0:0:0:0:
336,260,71835,2,0,P|344:312|256:336,1,112.500004291535
156,288,72168,5,0,0:0:0:0:
120,244,72252,1,0,0:0:0:0:
108,184,72335,1,0,0:0:0:0:
120,128,72418,1,0,0:0:0:0:
160,88,72502,1,0,0:0:0:0:
172,144,72585,1,0,0:0:0:0:
200,192,72668,1,0,0:0:0:0:
248,212,72752,1,0,0:0:0:0:
296,216,72835,2,0,P|352:200|392:148,1,112.500004291535
328,76,73168,5,0,0:0:0:0:
272,52,73252,1,0,0:0:0:0:
204,60,73335,1,0,0:0:0:0:
152,104,73418,1,0,0:0:0:0:
128,160,73502,2,0,L|84:312,1,150
260,116,73835,2,0,L|208:300,1,150
360,200,74168,2,0,L|164:224,1,150
84,160,74502,2,0,L|224:256,1,150
280,108,74835,5,0,0:0:0:0:
360,244,75002,1,0,0:0:0:0:
304,280,75085,1,0,0:0:0:0:
248,308,75168,1,0,0:0:0:0:
108,220,75335,1,0,0:0:0:0:
144,80,75502,2,0,L|312:188,1,150
