osu file format v14

[General]
AudioFilename: audio.mp3
AudioLeadIn: 0
PreviewTime: 393784
Countdown: 0
SampleSet: Soft
StackLeniency: 0.7
Mode: 0
LetterboxInBreaks: 0
WidescreenStoryboard: 1

[Editor]
Bookmarks: 9976,12941,35267,46342,57592,68755,79918,91081,113406,124569,135732,146895,152476,163639,174802,185965,191546,215267,226430,248755,259918,271081,282244,293406,304569,315732,326895,338058,349220,360383,371546,382709,393872,405034,417592,428755,439918
DistanceSpacing: 0.6
BeatDivisor: 4
GridSize: 32
TimelineZoom: 4.399999

[Metadata]
Title:Kurayami o Mitsumeshi Hitomi ~ Kurayami ni Hoshi o Atsumeshi Monotachi
TitleUnicode:暗闇を見つめし瞳~暗闇に星を集めし者達
Artist:Revo
ArtistUnicode:Revo
Creator:Thundur
Version:Night's Nexus
Source:BRAVELY DEFAULT II
Tags:yasuo kamanaka jrpg Eyes That Gaze into the Nexus Ones Who Gather Stars in Night sound linked horizon original soundtrack square enix video game instrumental orchestra symphonic rock ブレイブリーデフォルトII
BeatmapID:4446748
BeatmapSetID:2117383

[Difficulty]
HPDrainRate:4
CircleSize:4
OverallDifficulty:9.3
ApproachRate:9.6
SliderMultiplier:2.3
SliderTickRate:1

[Events]
//Background and Video events
0,0,"ses le bg styler.png",0,0
//Break Periods
2,38258,44700
2,153373,159990
2,338432,342956
//Storyboard Layer 0 (Background)
//Storyboard Layer 1 (Fail)
//Storyboard Layer 2 (Pass)
//Storyboard Layer 3 (Foreground)
//Storyboard Layer 4 (Overlay)
//Storyboard Sound Samples

[TimingPoints]
1779,348.837209302325,4,2,1,80,1,0
9976,-125,4,2,1,80,0,0
11546,-66.6666666666667,4,2,1,80,0,0
11895,-62.5,4,2,1,80,0,0
12244,-52.6315789473684,4,2,1,80,0,0
12941,-45.4545454545455,4,2,1,80,0,0
13290,-66.6666666666667,4,2,1,80,0,0
13988,-83.3333333333333,4,2,1,80,0,0
14337,-45.4545454545455,4,2,1,80,0,0
14685,-66.6666666666667,4,2,1,80,0,0
15732,-45.4545454545455,4,2,1,80,0,0
16081,-66.6666666666667,4,2,1,80,0,0
17127,-83.3333333333333,4,2,1,80,0,0
17476,-76.9230769230769,4,2,1,80,0,0
17825,-71.4285714285714,4,2,1,80,0,0
18174,-47.6190476190476,4,2,1,80,0,0
18523,-45.4545454545455,4,2,1,80,0,0
18872,-66.6666666666667,4,2,1,80,0,0
19569,-83.3333333333333,4,2,1,80,0,0
19918,-45.4545454545455,4,2,1,80,0,0
20267,-66.6666666666667,4,2,1,80,0,0
21313,-45.4545454545455,4,2,1,80,0,0
21662,-66.6666666666667,4,2,1,80,0,0
22709,-76.9230769230769,4,2,1,80,0,0
23058,-71.4285714285714,4,2,1,80,0,0
23406,-50,4,2,1,80,0,0
23755,-47.6190476190476,4,2,1,80,0,0
24104,-83.3333333333333,4,2,1,80,0,0
24278,-43.4782608695652,4,2,1,80,0,0
24976,-62.5,4,2,1,80,0,0
25499,-43.4782608695652,4,2,1,80,0,0
25848,-62.5,4,2,1,80,0,0
26895,-43.4782608695652,4,2,1,80,0,0
27244,-62.5,4,2,1,80,0,0
28116,-76.9230769230769,4,2,1,80,0,0
28290,-62.5,4,2,1,80,0,0
28639,-58.8235294117647,4,2,1,80,0,0
28988,-55.5555555555556,4,2,1,80,0,0
29337,-45.4545454545455,4,2,1,80,0,0
29685,-83.3333333333333,4,2,1,80,0,0
29860,-43.4782608695652,4,2,1,80,0,0
30558,-62.5,4,2,1,80,0,0
31081,-43.4782608695652,4,2,1,80,0,0
31430,-62.5,4,2,1,80,0,0
32476,-43.4782608695652,4,2,1,80,0,0
32825,-62.5,4,2,1,80,0,0
33697,-76.9230769230769,4,2,1,80,0,0
33872,-62.5,4,2,1,80,0,0
34220,-58.8235294117647,4,2,1,80,0,0
34569,-47.6190476190476,4,2,1,80,0,0
34918,-45.4545454545455,4,2,1,85,0,0
38058,-45.4545454545455,4,2,1,5,0,0
45209,-100,4,2,1,60,0,0
45906,-83.3333333333333,4,2,1,60,0,0
46081,-76.9230769230769,4,2,1,70,0,0
46430,-45.4545454545455,4,2,1,70,0,0
46778,-66.6666666666667,4,2,1,80,0,0
47825,-45.4545454545455,4,2,1,80,0,0
48174,-66.6666666666667,4,2,1,80,0,0
49220,-45.4545454545455,4,2,1,80,0,0
49569,-50,4,2,1,80,0,0
49918,-48.780487804878,4,2,1,80,0,0
50267,-47.6190476190476,4,2,1,80,0,0
50616,-46.5116279069767,4,2,1,80,0,0
50965,-45.4545454545455,4,2,1,80,0,0
51313,-44.4444444444445,4,2,1,80,0,0
51662,-43.4782608695652,4,2,1,80,0,0
52011,-45.4545454545455,4,2,1,80,0,0
52360,-66.6666666666667,4,2,1,80,0,0
53406,-45.4545454545455,4,2,1,80,0,0
53755,-66.6666666666667,4,2,1,80,0,0
54802,-45.4545454545455,4,2,1,80,0,0
55151,-50,4,2,1,80,0,0
55499,-48.780487804878,4,2,1,80,0,0
55848,-47.6190476190476,4,2,1,80,0,0
56197,-46.5116279069767,4,2,1,80,0,0
56546,-45.4545454545455,4,2,1,80,0,0
56895,-44.4444444444445,4,2,1,80,0,0
57244,-43.4782608695652,4,2,1,80,0,0
58988,-43.4782608695652,4,2,1,70,0,0
63174,-100,4,2,1,60,0,0
67360,-83.3333333333333,4,2,1,70,0,0
67709,-71.4285714285714,4,2,1,70,0,0
68058,-62.5,4,2,1,70,0,0
68406,-55.5555555555556,4,2,1,70,0,0
68755,-66.6666666666667,4,2,1,80,0,0
69453,-62.5,4,2,1,80,0,0
69802,-66.6666666666667,4,2,1,80,0,0
70499,-71.4285714285714,4,2,1,80,0,0
70848,-66.6666666666667,4,2,1,80,0,0
71197,-76.9230769230769,4,2,1,80,0,0
71546,-55.5555555555556,4,2,1,80,0,0
71895,-66.6666666666667,4,2,1,80,0,0
72244,-71.4285714285714,4,2,1,80,0,0
72941,-100,4,2,1,80,0,0
73290,-47.6190476190476,4,2,1,80,0,0
73639,-66.6666666666667,4,2,1,80,0,0
75034,-62.5,4,2,1,80,0,0
75383,-66.6666666666667,4,2,1,80,0,0
76081,-71.4285714285714,4,2,1,80,0,0
76430,-66.6666666666667,4,2,1,80,0,0
76778,-76.9230769230769,4,2,1,80,0,0
77127,-50,4,2,1,80,0,0
77476,-66.6666666666667,4,2,1,80,0,0
79918,-45.4545454545455,4,2,1,80,0,0
80267,-66.6666666666667,4,2,1,80,0,0
81313,-45.4545454545455,4,2,1,80,0,0
81662,-66.6666666666667,4,2,1,80,0,0
82709,-45.4545454545455,4,2,1,80,0,0
83058,-50,4,2,1,80,0,0
83406,-48.780487804878,4,2,1,80,0,0
83755,-47.6190476190476,4,2,1,80,0,0
84104,-46.5116279069767,4,2,1,80,0,0
84453,-45.4545454545455,4,2,1,80,0,0
84802,-44.4444444444445,4,2,1,80,0,0
85151,-43.4782608695652,4,2,1,80,0,0
85499,-45.4545454545455,4,2,1,80,0,0
85848,-66.6666666666667,4,2,1,80,0,0
86895,-45.4545454545455,4,2,1,80,0,0
87244,-66.6666666666667,4,2,1,80,0,0
88290,-45.4545454545455,4,2,1,80,0,0
88639,-50,4,2,1,80,0,0
88988,-48.780487804878,4,2,1,80,0,0
89337,-47.6190476190476,4,2,1,80,0,0
89685,-46.5116279069767,4,2,1,80,0,0
90034,-45.4545454545455,4,2,1,80,0,0
90383,-44.4444444444445,4,2,1,80,0,0
90732,-43.4782608695652,4,2,1,80,0,0
91081,-66.6666666666667,4,2,1,70,0,0
96313,-58.8235294117647,4,2,1,70,0,0
96662,-66.6666666666667,4,2,1,70,0,0
100848,-62.5,4,2,1,70,0,0
101197,-58.8235294117647,4,2,1,70,0,0
101546,-55.5555555555556,4,2,1,70,0,0
102244,-52.6315789473684,4,2,1,70,0,0
102592,-66.6666666666667,4,2,1,70,0,0
103639,-52.6315789473684,4,2,1,70,0,0
103988,-66.6666666666667,4,2,1,70,0,0
105034,-52.6315789473684,4,2,1,70,0,0
105383,-66.6666666666667,4,2,1,70,0,0
106430,-52.6315789473684,4,2,1,70,0,0
106778,-66.6666666666667,4,2,1,70,0,0
107127,-62.5,4,2,1,70,0,0
107476,-58.8235294117647,4,2,1,70,0,0
107825,-50,4,2,1,70,0,0
108174,-62.5,4,2,1,70,0,0
109220,-50,4,2,1,70,0,0
109569,-62.5,4,2,1,70,0,0
110616,-50,4,2,1,70,0,0
110965,-62.5,4,2,1,70,0,0
111313,-50,4,2,1,70,0,0
111662,-62.5,4,2,1,70,0,0
112011,-71.4285714285714,4,2,1,70,0,0
112360,-66.6666666666667,4,2,1,70,0,0
112709,-52.6315789473684,4,2,1,70,0,0
113058,-50,4,2,1,70,0,0
113406,-76.9230769230769,4,2,1,60,0,0
114104,-71.4285714285714,4,2,1,70,0,0
114802,-76.9230769230769,4,2,1,70,0,0
116197,-58.8235294117647,4,2,1,70,0,0
116546,-76.9230769230769,4,2,1,70,0,0
117592,-71.4285714285714,4,2,1,70,0,0
117941,-66.6666666666667,4,2,1,70,0,0
118988,-76.9230769230769,4,2,1,70,0,0
119685,-71.4285714285714,4,2,1,70,0,0
120383,-76.9230769230769,4,2,1,70,0,0
121778,-58.8235294117647,4,2,1,70,0,0
122127,-76.9230769230769,4,2,1,70,0,0
123523,-58.8235294117647,4,2,1,70,0,0
123872,-55.5555555555556,4,2,1,70,0,0
124220,-52.6315789473684,4,2,1,70,0,0
124569,-55.5555555555556,4,2,1,80,0,0
125267,-52.6315789473684,4,2,1,80,0,0
125616,-55.5555555555556,4,2,1,80,0,0
125965,-58.8235294117647,4,2,1,80,0,0
126313,-62.5,4,2,1,80,0,0
127360,-55.5555555555556,4,2,1,80,0,0
128755,-66.6666666666667,4,2,1,80,0,0
129104,-45.4545454545455,4,2,1,80,0,0
129453,-55.5555555555556,4,2,1,80,0,0
130848,-52.6315789473684,4,2,1,80,0,0
131197,-55.5555555555556,4,2,1,80,0,0
131546,-58.8235294117647,4,2,1,80,0,0
131895,-62.5,4,2,1,80,0,0
132941,-47.6190476190476,4,2,1,80,0,0
133290,-58.8235294117647,4,2,1,80,0,0
134337,-71.4285714285714,4,2,1,80,0,0
134685,-47.6190476190476,4,2,1,80,0,0
135034,-58.8235294117647,4,2,1,80,0,0
135383,-52.6315789473684,4,2,1,80,0,0
135732,-43.4782608695652,4,2,1,80,0,0
136081,-66.6666666666667,4,2,1,80,0,0
137127,-43.4782608695652,4,2,1,80,0,0
137476,-66.6666666666667,4,2,1,80,0,0
138523,-43.4782608695652,4,2,1,80,0,0
138872,-47.6190476190476,4,2,1,80,0,0
139220,-46.5116279069767,4,2,1,80,0,0
139569,-45.4545454545455,4,2,1,80,0,0
139918,-44.4444444444445,4,2,1,80,0,0
140267,-43.4782608695652,4,2,1,80,0,0
140616,-42.5531914893617,4,2,1,80,0,0
140965,-41.6666666666667,4,2,1,80,0,0
141313,-43.4782608695652,4,2,1,80,0,0
141662,-66.6666666666667,4,2,1,80,0,0
142709,-43.4782608695652,4,2,1,80,0,0
143058,-66.6666666666667,4,2,1,80,0,0
144104,-43.4782608695652,4,2,1,80,0,0
144453,-47.6190476190476,4,2,1,80,0,0
144802,-46.5116279069767,4,2,1,80,0,0
145151,-45.4545454545455,4,2,1,80,0,0
145499,-44.4444444444445,4,2,1,80,0,0
145848,-43.4782608695652,4,2,1,80,0,0
146197,-42.5531914893617,4,2,1,80,0,0
146546,-41.6666666666667,4,2,1,80,0,0
147767,-66.6666666666667,4,2,1,80,0,0
147941,-55.5555555555556,4,2,1,80,0,0
148290,-50,4,2,1,80,0,0
149337,-47.6190476190476,4,2,1,80,0,0
152215,-47.6190476190476,4,2,1,5,0,0
152302,-62.5,4,2,1,80,0,0
153174,-62.5,4,2,1,5,0,0
160499,-66.6666666666667,4,2,1,80,0,0
160848,-62.5,4,2,1,80,0,0
161895,-58.8235294117647,4,2,1,80,0,0
163290,-45.4545454545455,4,2,1,80,0,0
163639,-58.8235294117647,4,2,1,80,0,0
164337,-55.5555555555556,4,2,1,80,0,0
164685,-58.8235294117647,4,2,1,80,0,0
165383,-55.5555555555556,4,2,1,80,0,0
165732,-58.8235294117647,4,2,1,80,0,0
166081,-62.5,4,2,1,80,0,0
166430,-58.8235294117647,4,2,1,80,0,0
168174,-55.5555555555556,4,2,1,80,0,0
169220,-50,4,2,1,80,0,0
169569,-58.8235294117647,4,2,1,80,0,0
169918,-55.5555555555556,4,2,1,80,0,0
170267,-58.8235294117647,4,2,1,80,0,0
170965,-55.5555555555556,4,2,1,80,0,0
171313,-58.8235294117647,4,2,1,80,0,0
171662,-52.6315789473684,4,2,1,80,0,0
172011,-55.5555555555556,4,2,1,80,0,0
172709,-58.8235294117647,4,2,1,80,0,0
173058,-55.5555555555556,4,2,1,80,0,0
174802,-45.4545454545455,4,2,1,85,0,0
175151,-55.5555555555556,4,2,1,85,0,0
175848,-52.6315789473684,4,2,1,85,0,0
176197,-50,4,2,1,85,0,0
176895,-52.6315789473684,4,2,1,85,0,0
177592,-50,4,2,1,85,0,0
178290,-47.6190476190476,4,2,1,85,0,0
178988,-45.4545454545455,4,2,1,85,0,0
179685,-47.6190476190476,4,2,1,85,0,0
180383,-52.6315789473684,4,2,1,85,0,0
180732,-55.5555555555556,4,2,1,85,0,0
181430,-52.6315789473684,4,2,1,85,0,0
181778,-55.5555555555556,4,2,1,85,0,0
182127,-50,4,2,1,85,0,0
182476,-52.6315789473684,4,2,1,85,0,0
182825,-55.5555555555556,4,2,1,85,0,0
183872,-52.6315789473684,4,2,1,85,0,0
184220,-50,4,2,1,85,0,0
188755,-50,4,2,1,5,0,0
191546,-66.6666666666667,4,2,1,70,0,0
192941,-62.5,4,2,1,70,0,0
194337,-58.8235294117647,4,2,1,70,0,0
195732,-55.5555555555556,4,2,1,70,0,0
197127,-62.5,4,2,1,70,0,0
198523,-58.8235294117647,4,2,1,70,0,0
199918,-55.5555555555556,4,2,1,70,0,0
201313,-52.6315789473684,4,2,1,70,0,0
202011,-100,4,2,1,70,0,0
202709,-58.8235294117647,4,2,1,80,0,0
204104,-55.5555555555556,4,2,1,80,0,0
205499,-52.6315789473684,4,2,1,80,0,0
206895,-50,4,2,1,80,0,0
207302,-50,4,2,1,5,0,0
207360,-50,4,2,1,80,0,0
207418,-50,4,2,1,5,0,0
207476,-50,4,2,1,80,0,0
207534,-50,4,2,1,5,0,0
207592,-50,4,2,1,80,0,0
208290,-55.5555555555556,4,2,1,80,0,0
209685,-52.6315789473684,4,2,1,80,0,0
211081,-50,4,2,1,80,0,0
211488,-50,4,2,1,5,0,0
211546,-50,4,2,1,80,0,0
211604,-50,4,2,1,5,0,0
211662,-50,4,2,1,80,0,0
211720,-50,4,2,1,5,0,0
211778,-50,4,2,1,80,0,0
212476,-100,4,2,1,80,0,0
214395,-71.4285714285714,4,2,1,70,0,0
220848,-100,4,2,1,60,0,0
222854,-100,4,2,1,5,0,0
222941,-100,4,2,1,60,0,0
223290,-76.9230769230769,4,2,1,60,0,0
223639,-100,4,2,1,70,0,0
225034,-66.6666666666667,4,2,1,80,0,0
225383,-62.5,4,2,1,80,0,0
225732,-52.6315789473684,4,2,1,80,0,0
226430,-45.4545454545455,4,2,1,80,0,0
226778,-66.6666666666667,4,2,1,80,0,0
227476,-83.3333333333333,4,2,1,80,0,0
227825,-45.4545454545455,4,2,1,80,0,0
228174,-66.6666666666667,4,2,1,80,0,0
228523,-100,4,2,1,80,0,0
228697,-66.6666666666667,4,2,1,80,0,0
229220,-45.4545454545455,4,2,1,80,0,0
229569,-66.6666666666667,4,2,1,80,0,0
230616,-83.3333333333333,4,2,1,80,0,0
230965,-76.9230769230769,4,2,1,80,0,0
231313,-71.4285714285714,4,2,1,80,0,0
232011,-83.3333333333333,4,2,1,80,0,0
232360,-40,4,2,1,80,0,0
232883,-66.6666666666667,4,2,1,80,0,0
233058,-83.3333333333333,4,2,1,80,0,0
233406,-45.4545454545455,4,2,1,80,0,0
233755,-66.6666666666667,4,2,1,80,0,0
233930,-83.3333333333333,4,2,1,80,0,0
234104,-100,4,2,1,80,0,0
234278,-66.6666666666667,4,2,1,80,0,0
234802,-45.4545454545455,4,2,1,80,0,0
235151,-66.6666666666667,4,2,1,80,0,0
236197,-76.9230769230769,4,2,1,80,0,0
236546,-71.4285714285714,4,2,1,80,0,0
236895,-66.6666666666667,4,2,1,80,0,0
237592,-83.3333333333333,4,2,1,80,0,0
237767,-43.4782608695652,4,2,1,80,0,0
238465,-62.5,4,2,1,80,0,0
238988,-43.4782608695652,4,2,1,80,0,0
239337,-62.5,4,2,1,80,0,0
239685,-100,4,2,1,80,0,0
239860,-62.5,4,2,1,80,0,0
240383,-43.4782608695652,4,2,1,80,0,0
240732,-62.5,4,2,1,80,0,0
242127,-58.8235294117647,4,2,1,80,0,0
242476,-55.5555555555556,4,2,1,80,0,0
243174,-83.3333333333333,4,2,1,80,0,0
243348,-43.4782608695652,4,2,1,80,0,0
244046,-62.5,4,2,1,80,0,0
244569,-43.4782608695652,4,2,1,80,0,0
244918,-62.5,4,2,1,80,0,0
245267,-100,4,2,1,80,0,0
245441,-62.5,4,2,1,80,0,0
245965,-43.4782608695652,4,2,1,80,0,0
246313,-62.5,4,2,1,80,0,0
247185,-76.9230769230769,4,2,1,80,0,0
247360,-62.5,4,2,1,80,0,0
247709,-58.8235294117647,4,2,1,80,0,0
248058,-55.5555555555556,4,2,1,80,0,0
248755,-43.4782608695652,4,2,1,70,0,0
249278,-76.9230769230769,4,2,1,70,0,0
249802,-66.6666666666667,4,2,1,70,0,0
251328,-66.6666666666667,4,2,1,5,0,0
251372,-66.6666666666667,4,2,1,70,0,0
251546,-55.5555555555556,4,2,1,70,0,0
252244,-66.6666666666667,4,2,1,70,0,0
254337,-50,4,2,1,70,0,0
255034,-66.6666666666667,4,2,1,70,0,0
255732,-58.8235294117647,4,2,1,70,0,0
256081,-66.6666666666667,4,2,1,70,0,0
256430,-55.5555555555556,4,2,1,70,0,0
256778,-66.6666666666667,4,2,1,70,0,0
257127,-50,4,2,1,70,0,0
257825,-58.8235294117647,4,2,1,70,0,0
258523,-76.9230769230769,4,2,1,70,0,0
258872,-71.4285714285714,4,2,1,70,0,0
259220,-66.6666666666667,4,2,1,70,0,0
259918,-76.9230769230769,4,2,1,70,0,0
260616,-71.4285714285714,4,2,1,70,0,0
261313,-66.6666666666667,4,2,1,70,0,0
262709,-71.4285714285714,4,2,1,70,0,0
266197,-66.6666666666667,4,2,1,70,0,0
266895,-62.5,4,2,1,70,0,0
268813,-66.6666666666667,4,2,1,70,0,0
269685,-62.5,4,2,1,70,0,0
270034,-58.8235294117647,4,2,1,70,0,0
270383,-55.5555555555556,4,2,1,70,0,0
271081,-52.6315789473684,4,2,1,80,0,0
271430,-66.6666666666667,4,2,1,80,0,0
272476,-52.6315789473684,4,2,1,80,0,0
272825,-66.6666666666667,4,2,1,80,0,0
273872,-52.6315789473684,4,2,1,80,0,0
274220,-66.6666666666667,4,2,1,80,0,0
275267,-52.6315789473684,4,2,1,80,0,0
275616,-66.6666666666667,4,2,1,80,0,0
275965,-62.5,4,2,1,80,0,0
276313,-58.8235294117647,4,2,1,80,0,0
276662,-50,4,2,1,80,0,0
277011,-62.5,4,2,1,80,0,0
278058,-50,4,2,1,80,0,0
278406,-62.5,4,2,1,80,0,0
279453,-50,4,2,1,80,0,0
279802,-62.5,4,2,1,80,0,0
282244,-55.5555555555556,4,2,1,85,0,0
283639,-52.6315789473684,4,2,1,85,0,0
284337,-55.5555555555556,4,2,1,85,0,0
286430,-52.6315789473684,4,2,1,85,0,0
287127,-55.5555555555556,4,2,1,85,0,0
293406,-100,4,2,1,60,0,0
301778,-58.8235294117647,4,2,1,80,0,0
303348,-50,4,2,1,80,0,0
304569,-66.6666666666667,4,2,1,80,0,0
305267,-62.5,4,2,1,80,0,0
305616,-66.6666666666667,4,2,1,80,0,0
306313,-71.4285714285714,4,2,1,80,0,0
306662,-66.6666666666667,4,2,1,80,0,0
307011,-76.9230769230769,4,2,1,80,0,0
307360,-55.5555555555556,4,2,1,80,0,0
307709,-66.6666666666667,4,2,1,80,0,0
308058,-71.4285714285714,4,2,1,80,0,0
308755,-100,4,2,1,80,0,0
309104,-47.6190476190476,4,2,1,80,0,0
309453,-66.6666666666667,4,2,1,80,0,0
310848,-62.5,4,2,1,80,0,0
311197,-66.6666666666667,4,2,1,80,0,0
311895,-71.4285714285714,4,2,1,80,0,0
312244,-66.6666666666667,4,2,1,80,0,0
312592,-76.9230769230769,4,2,1,80,0,0
312941,-50,4,2,1,80,0,0
313290,-66.6666666666667,4,2,1,80,0,0
314685,-62.5,4,2,1,80,0,0
315732,-62.5,4,2,1,85,0,0
316778,-58.8235294117647,4,2,1,85,0,0
317127,-62.5,4,2,1,85,0,0
318174,-58.8235294117647,4,2,1,85,0,0
318523,-62.5,4,2,1,85,0,0
319569,-66.6666666666667,4,2,1,85,0,0
319918,-71.4285714285714,4,2,1,85,0,0
320092,-58.8235294117647,4,2,1,85,0,0
320267,-71.4285714285714,4,2,1,85,0,0
320441,-58.8235294117647,4,2,1,85,0,0
321313,-62.5,4,2,1,85,0,0
322360,-58.8235294117647,4,2,1,85,0,0
323058,-62.5,4,2,1,85,0,0
323755,-58.8235294117647,4,2,1,85,0,0
324104,-62.5,4,2,1,85,0,0
324453,-66.6666666666667,4,2,1,85,0,0
325499,-62.5,4,2,1,85,0,0
326895,-55.5555555555556,4,2,1,80,0,0
327418,-66.6666666666667,4,2,1,80,0,0
327592,-58.8235294117647,4,2,1,80,0,0
328290,-55.5555555555556,4,2,1,80,0,0
328813,-66.6666666666667,4,2,1,80,0,0
329337,-58.8235294117647,4,2,1,80,0,0
329685,-55.5555555555556,4,2,1,80,0,0
330209,-66.6666666666667,4,2,1,80,0,0
330732,-55.5555555555556,4,2,1,80,0,0
331081,-58.8235294117647,4,2,1,80,0,0
332476,-71.4285714285714,4,2,1,80,0,0
332651,-55.5555555555556,4,2,1,80,0,0
332999,-66.6666666666667,4,2,1,80,0,0
333523,-58.8235294117647,4,2,1,80,0,0
333872,-52.6315789473684,4,2,1,80,0,0
334395,-62.5,4,2,1,80,0,0
334918,-58.8235294117647,4,2,1,80,0,0
335267,-55.5555555555556,4,2,1,80,0,0
336313,-62.5,4,2,1,80,0,0
343465,-76.9230769230769,4,2,1,70,0,0
346430,-71.4285714285714,4,2,1,80,0,0
348872,-52.6315789473684,4,2,1,80,0,0
349569,-55.5555555555556,4,2,1,80,0,0
349918,-58.8235294117647,4,2,1,80,0,0
350267,-62.5,4,2,1,80,0,0
350616,-52.6315789473684,4,2,1,80,0,0
350965,-55.5555555555556,4,2,1,80,0,0
351313,-58.8235294117647,4,2,1,80,0,0
351662,-62.5,4,2,1,80,0,0
352011,-52.6315789473684,4,2,1,80,0,0
352360,-55.5555555555556,4,2,1,80,0,0
352709,-58.8235294117647,4,2,1,80,0,0
353058,-62.5,4,2,1,80,0,0
353406,-52.6315789473684,4,2,1,80,0,0
354802,-50,4,2,1,80,0,0
355151,-52.6315789473684,4,2,1,80,0,0
355499,-55.5555555555556,4,2,1,80,0,0
355848,-58.8235294117647,4,2,1,80,0,0
356197,-50,4,2,1,80,0,0
356546,-52.6315789473684,4,2,1,80,0,0
356895,-55.5555555555556,4,2,1,80,0,0
357244,-58.8235294117647,4,2,1,80,0,0
357592,-50,4,2,1,80,0,0
357941,-52.6315789473684,4,2,1,80,0,0
358290,-55.5555555555556,4,2,1,80,0,0
358639,-58.8235294117647,4,2,1,80,0,0
358988,-50,4,2,1,80,0,0
360383,-55.5555555555556,4,2,1,80,0,0
360906,-66.6666666666667,4,2,1,80,0,0
371546,-50,4,2,1,80,0,0
371895,-66.6666666666667,4,2,1,80,0,0
372244,-58.8235294117647,4,2,1,80,0,0
372767,-50,4,2,1,80,0,0
373290,-66.6666666666667,4,2,1,80,0,0
373639,-58.8235294117647,4,2,1,80,0,0
374162,-50,4,2,1,80,0,0
374685,-66.6666666666667,4,2,1,80,0,0
375034,-58.8235294117647,4,2,1,80,0,0
375558,-50,4,2,1,80,0,0
376255,-55.5555555555556,4,2,1,80,0,0
377127,-50,4,2,1,80,0,0
377476,-55.5555555555556,4,2,1,80,0,0
378348,-50,4,2,1,80,0,0
378697,-66.6666666666667,4,2,1,80,0,0
378872,-55.5555555555556,4,2,1,80,0,0
379744,-50,4,2,1,80,0,0
380092,-66.6666666666667,4,2,1,80,0,0
380267,-55.5555555555556,4,2,1,80,0,0
381139,-50,4,2,1,80,0,0
381488,-55.5555555555556,4,2,1,80,0,0
381837,-50,4,2,1,80,0,0
383406,-100,4,2,1,80,0,0
388290,-90.9090909090909,4,2,1,80,0,0
393872,-43.4782608695652,4,2,1,80,0,1
394220,-55.5555555555556,4,2,1,80,0,1
395267,-47.6190476190476,4,2,1,80,0,1
395965,-55.5555555555556,4,2,1,80,0,1
396662,-47.6190476190476,4,2,1,80,0,1
397360,-55.5555555555556,4,2,1,80,0,1
398058,-47.6190476190476,4,2,1,80,0,1
398319,-55.5555555555556,4,2,1,80,0,1
399453,-43.4782608695652,4,2,1,80,0,1
400151,-55.5555555555556,4,2,1,80,0,1
400848,-47.6190476190476,4,2,1,80,0,1
401110,-55.5555555555556,4,2,1,80,0,1
401808,-66.6666666666667,4,2,1,80,0,1
402244,-47.6190476190476,4,2,1,80,0,1
403639,-55.5555555555556,4,2,1,80,0,1
404337,-100,4,2,1,80,0,1
405558,-66.6666666666667,4,2,1,80,0,1
414802,-55.5555555555556,4,2,1,80,0,1
415848,-66.6666666666667,4,2,1,80,0,1
416895,-50,4,2,1,80,0,1
417592,-55.5555555555556,4,2,1,80,0,1
423174,-50,4,2,1,80,0,1
427360,-45.4545454545455,4,2,1,80,0,1
427709,-47.6190476190476,4,2,1,80,0,1
428755,-47.6190476190476,4,2,1,80,0,0
434162,-71.4285714285714,4,2,1,70,0,0
434337,-100,4,2,1,60,0,0
436342,-100,4,2,1,5,0,0
436430,-100,4,2,1,60,0,0
436778,-76.9230769230769,4,2,1,60,0,0
437127,-100,4,2,1,70,0,0
438523,-66.6666666666667,4,2,1,80,0,0
438872,-62.5,4,2,1,80,0,0
439220,-52.6315789473684,4,2,1,80,0,0
439918,-45.4545454545455,4,2,1,80,0,0

[Colours]
Combo1 : 224,202,192
Combo2 : 168,194,61
Combo3 : 112,51,14

[HitObjects]
425,41,9976,5,2,1:2:0:0:
425,41,10063,1,2,1:2:0:0:
482,97,10151,6,0,B|405:47|301:113|405:143|308:224|225:218|166:184|136:119|139:32|192:12|192:12|172:38|189:84,1,552,14|0,2:3|0:0,0:0:0:0:
146,349,11372,1,0,0:0:0:0:
146,349,11460,1,8,0:0:0:0:
70,320,11546,6,0,B|75:183|75:183|77:199|97:213,1,172.500006580353,2|0,1:2|0:0,0:0:0:0:
253,360,11808,1,0,1:2:0:0:
265,374,11895,6,0,P|345:361|338:261,1,184,10|0,1:2|0:0,0:0:0:0:
288,79,12156,1,0,1:2:0:0:
243,146,12244,6,0,B|225:173|239:198|239:198|264:184|272:158,1,109.24999708271,10|0,0:0|0:0,0:0:0:0:
458,220,12418,2,0,B|450:194|425:180|425:180|411:205|429:232,1,109.24999708271,0|0,1:2|0:0,0:0:0:0:
171,335,12592,5,10,1:2:0:0:
158,259,12680,1,8,0:0:0:0:
145,183,12767,1,8,0:0:0:0:
132,107,12854,1,8,0:0:0:0:
54,62,12941,6,0,B|37:57|24:40|24:40|50:337|50:337|63:315|103:302,1,379.500011581421,6|0,1:3|0:0,0:0:0:0:
179,345,13290,6,0,P|226:345|261:300,1,86.2500032901765,10|0,0:0|0:0,0:0:0:0:
279,80,13465,1,0,0:0:0:0:
277,67,13552,1,0,0:0:0:0:
275,54,13639,1,0,1:2:0:0:
410,21,13813,6,0,P|454:13|489:60,1,86.2500032901765,2|0,0:0|0:0,0:0:0:0:
290,211,13988,2,0,L|192:226,1,68.9999978942872,8|0,0:0|0:0,0:0:0:0:
436,311,14162,1,0,0:0:0:0:
436,311,14249,1,8,0:0:0:0:
475,238,14337,6,0,B|442:284|333:320|271:179|358:123|358:123|358:172|408:204,1,379.500011581421,2|0,1:2|0:0,0:0:0:0:
462,153,14685,2,0,P|483:137|446:128,1,86.2500032901765,10|0,0:0|0:0,0:0:0:0:
311,44,14860,1,0,0:0:0:0:
299,46,14947,1,0,0:0:0:0:
287,48,15034,1,0,1:2:0:0:
119,202,15209,6,0,P|99:191|135:177,1,86.2500032901765,2|0,0:0|0:0,0:0:0:0:
371,172,15383,1,10,0:0:0:0:
386,197,15470,1,2,0:0:0:0:
362,237,15558,1,2,0:0:0:0:
398,281,15645,1,2,0:0:0:0:
355,338,15732,6,0,B|304:369|243:343|281:338|200:261|140:312|124:334|124:334|145:368|214:385|251:305,1,379.500011581421,2|0,1:2|0:0,0:0:0:0:
265,246,16081,6,0,P|259:205|221:179,1,86.2500032901765,8|0,0:0|0:0,0:0:0:0:
29,119,16255,1,2,0:0:0:0:
0,188,16342,1,10,0:0:0:0:
45,247,16430,6,0,P|120:196|107:90,1,172.500006580353,2|0,1:2|0:0,0:0:0:0:
0,0,16778,1,8,0:0:0:0:
279,117,16953,2,0,P|248:127|216:175,1,86.2500032901765,2|0,0:0|0:0,0:0:0:0:
232,334,17127,6,0,P|279:352|326:324,1,68.9999978942872,6|0,1:2|0:0,0:0:0:0:
394,361,17301,2,0,P|433:329|432:272,1,68.9999978942872
279,117,17476,6,0,P|328:124|356:174,1,74.7499965782167,6|0,1:2|0:0,0:0:0:0:
433,164,17650,2,0,P|451:211|422:260,1,74.7499965782167
120,342,17825,5,6,1:2:0:0:
85,275,17912,2,0,P|126:214|217:240,1,160.99999508667
295,301,18174,5,14,1:2:0:0:
371,320,18261,1,0,1:0:0:0:
441,283,18348,1,0,1:0:0:0:
469,209,18435,1,8,1:2:0:0:
439,135,18523,6,0,B|385:110|334:139|372:159|278:216|205:167|179:115|220:28|292:31|336:70,1,379.500011581421,6|0,1:2|0:0,0:0:0:0:
409,12,18872,6,0,B|433:9|452:0|452:0|434:9|406:49,1,86.2500032901765,10|0,0:0|0:0,0:0:0:0:
297,279,19046,1,0,0:0:0:0:
296,290,19133,1,0,0:0:0:0:
295,301,19220,1,0,1:2:0:0:
434,340,19395,6,0,B|458:343|477:352|477:352|459:343|431:303,1,86.2500032901765,2|0,0:0|0:0,0:0:0:0:
270,133,19569,2,0,L|279:217,1,68.9999978942872,8|0,0:0|0:0,0:0:0:0:
138,363,19744,1,0,0:0:0:0:
138,363,19831,1,8,0:0:0:0:
81,306,19918,6,0,B|34:266|61:206|88:227|93:170|64:125|64:125|135:171|105:231|95:216|77:269|94:302,1,379.500011581421,2|0,1:2|0:0,0:0:0:0:
221,378,20267,6,0,P|264:366|282:311,1,86.2500032901765,10|0,0:0|0:0,0:0:0:0:
476,222,20441,1,0,0:0:0:0:
468,212,20528,1,0,0:0:0:0:
456,207,20616,1,0,1:2:0:0:
245,134,20790,6,0,P|233:177|277:222,1,86.2500032901765,2|0,0:0|0:0,0:0:0:0:
470,73,20965,1,10,0:0:0:0:
448,55,21052,1,2,0:0:0:0:
414,86,21139,1,2,0:0:0:0:
367,52,21226,1,2,0:0:0:0:
307,94,21313,6,0,B|212:73|212:73|206:75|206:75|143:65|143:65|176:184|176:184|174:184|174:184|256:127,1,379.500011581421,2|0,1:2|0:0,0:0:0:0:
388,157,21662,2,0,P|409:190|392:252,1,86.2500032901765,8|0,0:0|0:0,0:0:0:0:
289,357,21837,1,2,0:0:0:0:
219,326,21924,1,10,0:0:0:0:
169,384,22011,6,0,P|264:326|250:237,1,172.500006580353,2|0,1:2|0:0,0:0:0:0:
352,36,22360,1,8,0:0:0:0:
36,89,22534,2,0,P|81:51|131:77,1,86.2500032901765,2|0,0:0|0:0,0:0:0:0:
186,185,22709,6,0,P|269:164|278:99,1,149.499993156433,6|0,1:2|0:0,0:0:0:0:
200,4,22970,1,0,0:0:0:0:
190,25,23058,6,0,P|182:60|207:132,1,80.499997543335,14|0,0:0|0:0,0:0:0:0:
333,274,23232,2,0,P|340:234|332:195,1,80.499997543335
432,79,23406,5,14,1:2:0:0:
393,53,23494,1,0,1:2:0:0:
347,54,23581,1,0,1:2:0:0:
312,84,23668,1,0,1:2:0:0:
272,148,23755,5,14,1:2:0:0:
213,190,23842,1,0,1:2:0:0:
140,185,23930,1,0,1:2:0:0:
84,136,24017,1,0,1:2:0:0:
78,60,24104,6,0,P|130:77|152:119,1,68.9999978942872,0|0,1:2|0:0,0:0:0:0:
101,266,24278,6,0,B|77:304|48:323|48:323|140:274|201:316|152:328|208:355|328:353|383:299|354:177|268:170|229:221,1,529.000010089874,14|0,0:3|0:0,0:0:0:0:
162,124,24715,1,0,0:0:0:0:
167,101,24802,1,2,1:2:0:0:
385,51,24976,6,0,P|341:102|292:99,1,92,2|0,0:0|0:0,0:0:0:0:
120,17,25151,1,8,0:0:0:0:
346,244,25325,1,0,0:0:0:0:
346,244,25412,1,8,0:0:0:0:
394,184,25499,6,0,B|401:193|413:197|413:197|272:213|272:213|267:219|267:219|91:232|91:232|121:249|145:225,1,396.750007567406,2|0,1:2|0:0,0:0:0:0:
174,127,25848,6,0,P|154:100|160:134,1,92,10|0,0:0|0:0,0:0:0:0:
248,302,26023,1,0,0:0:0:0:
246,313,26110,1,0,0:0:0:0:
244,324,26197,1,0,1:2:0:0:
394,184,26372,6,0,P|414:211|408:177,1,92,2|0,0:0|0:0,0:0:0:0:
135,207,26546,1,10,0:0:0:0:
105,197,26633,1,2,0:0:0:0:
78,157,26720,1,2,0:0:0:0:
78,96,26808,1,2,0:0:0:0:
134,51,26895,6,0,B|189:21|271:58|216:69|255:150|395:119|401:41|401:41|333:-11|278:78,1,396.750007567406,2|0,1:2|0:0,0:0:0:0:
178,118,27244,6,0,P|174:169|209:215,1,92,8|0,0:0|0:0,0:0:0:0:
403,289,27418,1,2,0:0:0:0:
467,247,27505,1,10,0:0:0:0:
510,308,27592,6,0,P|432:269|431:142,1,184,2|0,1:2|0:0,0:0:0:0:
246,0,27941,1,8,0:0:0:0:
457,53,28116,2,0,P|422:48|383:69,1,74.7499965782167,2|0,0:0|0:0,0:0:0:0:
151,149,28290,6,0,B|105:197|90:330|217:346|276:246|181:192,1,276,6|0,1:2|0:0,0:0:0:0:
254,116,28639,6,0,B|308:131|315:185|315:185|343:141|399:156,1,195.500003728867,6|0,1:2|0:0,0:0:0:0:
505,280,28901,1,0,0:0:0:0:
491,291,28988,6,0,P|428:288|397:228,1,103.499996841431,6|0,1:2|0:0,0:0:0:0:
334,370,29162,2,0,P|291:323|312:258,1,103.499996841431
117,237,29337,5,14,0:0:0:0:
84,170,29424,1,8,0:2:0:0:
113,102,29511,1,8,0:2:0:0:
183,79,29598,1,8,0:2:0:0:
246,116,29685,6,0,P|300:131|335:116,1,68.9999978942872,0|0,1:2|0:0,0:0:0:0:
512,13,29860,6,0,B|447:-17|373:11|344:66|353:153|393:184|438:209|454:153|517:201|454:242|501:321|448:336|355:340|319:298|336:211,1,529.000010089874,14|0,0:2|0:0,0:0:0:0:
297,212,30296,1,0,0:0:0:0:
299,199,30383,1,2,1:2:0:0:
177,290,30558,6,0,P|235:336|282:304,1,92,2|0,0:0|0:0,0:0:0:0:
344,124,30732,1,8,0:0:0:0:
132,381,30906,1,0,0:0:0:0:
132,381,30994,1,8,0:0:0:0:
62,335,31081,6,0,B|23:305|-18:240|38:148|142:133|183:214|183:214|132:214|98:264,1,396.750007567406,2|0,1:2|0:0,0:0:0:0:
229,275,31430,6,0,P|258:229|229:159,1,92,10|0,0:0|0:0,0:0:0:0:
116,65,31604,1,0,0:0:0:0:
104,69,31691,1,0,0:0:0:0:
92,73,31778,1,0,1:2:0:0:
343,127,31953,6,0,P|318:89|246:94,1,92,2|0,0:0|0:0,0:0:0:0:
159,305,32127,1,10,0:0:0:0:
177,330,32214,1,2,0:0:0:0:
221,348,32301,1,2,0:0:0:0:
280,339,32388,1,2,0:0:0:0:
324,282,32476,6,0,B|359:280|384:296|384:296|384:255|424:217|424:217|347:196|284:222|336:258|226:289|180:198,1,396.750007567406,2|0,1:2|0:0,0:0:0:0:
103,235,32825,2,0,P|104:188|174:144,1,92,8|0,0:0|0:0,0:0:0:0:
339,54,32999,1,2,0:0:0:0:
405,98,33087,1,10,0:0:0:0:
458,44,33174,6,0,P|368:75|333:197,1,184,2|0,1:2|0:0,0:0:0:0:
442,317,33523,1,8,0:0:0:0:
220,219,33697,2,0,P|221:267|256:304,1,74.7499965782167,2|0,0:0|0:0,0:0:0:0:
469,226,33872,6,0,P|405:199|337:318,1,184,6|0,1:2|0:0,0:0:0:0:
181,352,34133,1,0,0:0:0:0:
121,301,34220,6,0,P|112:245|157:194,1,97.7500018644333,14|0,1:2|0:0,0:0:0:0:
62,133,34395,2,0,P|105:97|172:110,1,97.7500018644333,0|0,1:2|0:0,0:0:0:0:
309,201,34569,5,14,1:2:0:0:
356,211,34656,1,0,1:2:0:0:
401,192,34744,1,0,1:2:0:0:
414,145,34831,1,0,1:2:0:0:
333,57,34918,5,14,1:2:0:0:
340,132,35005,1,8,0:0:0:0:
347,207,35092,1,8,0:0:0:0:
354,282,35180,1,8,0:0:0:0:
432,335,35267,5,14,0:3:0:0:
256,192,35354,12,0,38058,0:0:0:0:
170,38,45209,6,0,L|274:32,1,57.5,2|0,0:0|0:0,0:0:0:0:
167,55,45383,2,0,L|277:48,1,57.5,2|0,0:0|0:0,0:0:0:0:
311,153,45558,6,0,L|207:147,1,57.5,2|0,0:0|0:0,0:0:0:0:
314,170,45732,2,0,L|204:163,1,57.5,2|0,0:0|0:0,0:0:0:0:
231,311,45906,5,0,1:2:0:0:
231,311,45994,1,0,1:2:0:0:
268,373,46081,6,0,P|285:317|369:292,1,149.499993156433,8|0,0:0|0:0,0:0:0:0:
375,302,46342,1,0,0:0:0:0:
390,218,46430,6,0,B|430:175|411:103|354:36|229:91|248:171|248:171|289:152|327:178,1,379.500011581421,6|0,1:3|0:0,0:0:0:0:
207,233,46778,6,0,P|178:192|189:119,1,86.2500032901765,10|0,0:0|0:0,0:0:0:0:
54,52,46953,2,0,P|53:105|23:150,1,86.2500032901765
112,343,47127,5,2,1:2:0:0:
112,343,47215,1,0,1:2:0:0:
112,343,47302,2,0,P|212:314|243:328,1,86.2500032901765
387,313,47476,2,0,P|311:240|308:207,1,86.2500032901765,10|0,0:0|0:0,0:0:0:0:
224,90,47651,2,0,P|199:191|171:210,1,86.2500032901765
435,107,47825,6,0,B|482:91|516:89|516:89|450:66|391:90|339:163|339:163|342:116|365:66,1,379.500011581421,6|0,1:2|0:0,0:0:0:0:
264,14,48174,2,0,P|244:83|252:137,1,86.2500032901765,10|0,0:0|0:0,0:0:0:0:
215,296,48348,2,0,P|216:241|198:190,1,86.2500032901765
37,70,48523,5,2,1:2:0:0:
37,70,48610,1,0,1:2:0:0:
37,70,48697,2,0,P|100:54|176:57,1,86.2500032901765
354,102,48872,2,0,P|299:104|247:119,1,86.2500032901765,10|0,0:0|0:0,0:0:0:0:
6,160,49046,2,0,P|69:144|145:147,1,86.2500032901765
357,282,49220,6,0,B|315:364|206:372|54:322|167:165|245:202|289:275,1,379.500011581421,6|0,1:2|0:0,0:0:0:0:
474,316,49569,6,0,B|456:332|452:344|452:344|444:272|444:272|446:265|446:265|429:77|429:77|421:96|392:124,1,345,10|0,0:0|0:0,0:0:0:0:
276,234,49918,5,6,1:2:0:0:
201,202,50005,2,0,P|174:119|303:64,1,235.75000359726,0|0,1:2|0:0,0:0:0:0:
342,286,50267,6,0,B|382:324|458:294|458:294|452:383|380:410|293:393|256:305,1,362.249988945008,10|0,0:0|0:0,0:0:0:0:
200,202,50616,6,0,P|124:175|96:315,1,247.250003772736,6|0,1:2|0:0,0:0:0:0:
326,142,50877,1,0,0:0:0:0:
327,130,50965,6,0,B|319:85|344:73|344:73|358:95|335:131,1,126.500003860474,14|0,0:0|0:0,0:0:0:0:
182,291,51139,2,0,B|205:327|191:349|191:349|166:337|174:292,1,126.500003860474
31,107,51313,6,0,B|118:94|135:37|135:37|170:82|252:72,1,258.75000987053,6|0,1:2|0:0,0:0:0:0:
404,200,51575,1,0,1:2:0:0:
451,140,51662,6,0,B|509:64|490:-38|372:-25|356:66|412:98,1,264.500005044937,14|0,0:0|0:0,0:0:0:0:
467,299,51924,1,0,1:2:0:0:
456,316,52011,6,0,B|367:407|243:333|331:275|167:222|116:333,1,379.500011581421,6|0,1:2|0:0,0:0:0:0:
9,245,52360,6,0,P|63:212|135:199,1,86.2500032901765,10|0,0:0|0:0,0:0:0:0:
343,166,52534,2,0,P|289:133|217:120,1,86.2500032901765
85,27,52709,5,2,1:2:0:0:
85,27,52796,1,0,1:2:0:0:
85,27,52883,2,0,P|68:102|72:148,1,86.2500032901765
165,260,53058,2,0,P|165:205|180:153,1,86.2500032901765,10|0,0:0|0:0,0:0:0:0:
282,32,53232,2,0,P|265:107|269:153,1,86.2500032901765
388,354,53406,6,0,B|431:374|464:342|464:342|418:297|316:323|386:349|273:407|183:331,1,379.500011581421,6|0,1:2|0:0,0:0:0:0:
18,302,53755,6,0,P|35:233|72:200,1,86.2500032901765,10|0,0:0|0:0,0:0:0:0:
295,206,53930,2,0,P|278:137|241:104,1,86.2500032901765
51,78,54104,5,2,1:2:0:0:
51,78,54191,1,0,1:2:0:0:
51,78,54278,2,0,P|126:98|169:92,1,86.2500032901765
354,133,54453,2,0,P|299:134|248:115,1,86.2500032901765,10|0,0:0|0:0,0:0:0:0:
31,165,54627,2,0,P|106:185|149:179,1,86.2500032901765
351,337,54802,6,0,B|404:383|500:303|484:252|464:202|431:176|383:177|383:177|409:235|366:277,1,379.500011581421,6|0,1:2|0:0,0:0:0:0:
225,265,55151,6,0,B|194:206|212:152|232:182|278:91|244:50|198:23|198:23|156:42|148:95,1,345,10|0,0:0|0:0,0:0:0:0:
126,213,55499,5,6,1:2:0:0:
67,165,55587,2,0,B|173:163|173:163|195:171|195:171|317:168,1,235.75000359726,0|0,1:2|0:0,0:0:0:0:
446,340,55848,6,0,P|383:373|320:243,1,241.499992630005,10|0,0:0|0:0,0:0:0:0:
414,82,56110,1,0,0:0:0:0:
462,141,56197,5,14,0:0:0:0:
428,156,56284,1,0,0:0:0:0:
390,153,56372,1,0,0:0:0:0:
357,135,56459,1,0,1:2:0:0:
324,214,56546,5,14,0:0:0:0:
284,178,56633,1,0,0:0:0:0:
271,129,56720,1,0,0:0:0:0:
286,80,56808,1,0,1:2:0:0:
190,120,56895,5,14,0:0:0:0:
180,57,56982,1,0,0:0:0:0:
224,10,57069,1,0,1:2:0:0:
287,0,57156,1,0,1:2:0:0:
357,135,57244,5,14,0:0:0:0:
327,208,57331,1,8,0:0:0:0:
255,242,57418,1,8,0:0:0:0:
177,226,57505,1,8,0:0:0:0:
122,168,57592,5,14,0:3:0:0:
396,254,58988,5,0,1:2:0:0:
89,338,60383,5,4,1:2:0:0:
194,113,61081,5,4,1:2:0:0:
342,323,61778,5,4,1:2:0:0:
107,239,62127,5,4,1:2:0:0:
384,213,62476,5,4,1:2:0:0:
66,310,62825,5,4,1:2:0:0:
455,325,63174,6,0,P|412:352|347:335,1,115,6|0,1:2|0:0,0:0:0:0:
287,384,63523,2,0,P|242:360|224:295,1,115,0|2,1:2|0:0,0:0:0:0:
151,268,63872,2,0,P|149:217|196:169,1,115,2|2,1:2|0:0,0:0:0:0:
183,92,64220,2,0,P|226:64|291:82,1,115,2|2,1:2|0:0,0:0:0:0:
511,202,64569,6,0,P|456:189|408:217,1,115,6|0,1:2|0:0,0:0:0:0:
257,289,64918,2,0,P|311:303|359:275,1,115,0|2,1:2|0:0,0:0:0:0:
396,119,65267,2,0,P|347:148|333:202,1,115,2|0,1:2|0:0,0:0:0:0:
370,372,65616,2,0,P|418:344|432:290,1,115,0|2,1:2|0:0,0:0:0:0:
185,285,65965,6,0,B|141:335|81:368|-36:351|-50:208|70:189|104:243,1,345,6|2,1:2|0:0,0:0:0:0:
306,324,66662,6,0,B|312:361|399:391|439:332|451:265|408:210|349:246|326:196|344:133|350:115|405:88,1,345,6|2,1:2|0:0,0:0:0:0:
76,133,67360,6,0,B|33:155|0:73|69:31|130:46|166:117,1,206.999993682861,6|0,1:2|0:0,0:0:0:0:
226,232,67709,6,0,B|270:260|210:336|131:294|113:227|161:154,1,241.499992630005,6|0,1:2|0:0,0:0:0:0:
259,37,68058,6,0,B|257:-23|360:-8|362:86|311:139|218:134,1,276,6|0,1:2|0:0,0:0:0:0:
48,87,68406,6,0,L|171:95,1,103.499996841431,14|0,1:2|0:0,0:0:0:0:
314,233,68581,1,2,0:0:0:0:
376,192,68668,1,2,0:0:0:0:
429,248,68755,6,0,P|339:200|341:94,1,172.500006580353,6|0,1:3|0:0,0:0:0:0:
512,99,69017,1,2,0:0:0:0:
506,116,69104,6,0,P|450:116|414:74,1,86.2500032901765,8|0,0:0|0:0,0:0:0:0:
319,0,69278,2,0,P|263:0|226:42,1,86.2500032901765,2|0,0:0|0:0,0:0:0:0:
163,269,69453,5,2,1:2:0:0:
180,276,69540,2,0,P|231:250|195:116,1,184,8|0,0:0|0:0,0:0:0:0:
160,96,69802,2,0,P|136:128|150:129,1,86.2500032901765,10|0,0:0|0:0,0:0:0:0:
375,184,69976,1,2,0:0:0:0:
446,160,70063,1,2,0:0:0:0:
503,208,70151,6,0,P|520:248|418:355,1,172.500006580353,2|0,1:2|0:0,0:0:0:0:
133,230,70499,2,0,P|149:270|271:273,1,160.99999508667,10|0,0:0|0:0,0:0:0:0:
368,188,70761,1,0,1:2:0:0:
309,142,70848,5,10,0:0:0:0:
312,127,70935,2,0,B|359:49|359:49|433:119,1,172.500006580353,8|0,0:0|0:0,0:0:0:0:
449,210,71197,2,0,P|425:246|338:259,1,74.7499965782167,10|0,0:0|0:0,0:0:0:0:
404,357,71372,2,0,P|362:369|287:323,1,74.7499965782167
71,173,71546,6,0,B|51:198|37:261|85:309|149:318|192:270|188:226|188:226|149:232|112:194,1,310.499990524292,6|0,1:2|0:0,0:0:0:0:
159,142,71895,2,0,B|177:84|212:71|212:71|188:94|169:156,1,172.500006580353,10|0,0:0|0:0,0:0:0:0:
328,231,72156,1,0,1:2:0:0:
333,213,72244,5,10,0:0:0:0:
406,188,72331,1,8,0:0:0:0:
469,227,72418,2,0,P|486:257|482:343,1,80.499997543335,0|0,1:2|0:0,0:0:0:0:
196,216,72592,6,0,P|178:183|173:138,1,80.499997543335,10|0,0:0|0:0,0:0:0:0:
356,55,72767,2,0,P|350:91|327:129,1,80.499997543335,2|0,0:0|0:0,0:0:0:0:
144,288,72941,6,0,P|188:333|252:307,1,115,2|0,1:2|0:0,0:0:0:0:
450,278,73290,6,0,B|478:248|464:212|464:212|425:161|327:150|263:184|263:184|238:140|256:111,1,362.249988945008,14|0,0:0|0:0,0:0:0:0:
360,13,73639,6,0,B|370:51|370:51|369:56|369:56|382:105,1,86.2500032901765,6|0,1:2|0:0,0:0:0:0:
304,363,73813,1,8,2:0:0:0:
329,309,73901,1,8,2:0:0:0:
285,271,73988,5,6,1:2:0:0:
334,33,74162,1,8,2:0:0:0:
379,96,74250,1,8,2:0:0:0:
319,141,74336,6,0,P|378:46|478:60,1,172.500006580353,6|0,1:2|0:0,0:0:0:0:
496,212,74598,1,2,0:0:0:0:
489,237,74685,6,0,P|411:268|364:251,1,86.2500032901765,8|0,0:0|0:0,0:0:0:0:
249,38,74860,2,0,P|305:33|354:62,1,86.2500032901765,2|0,0:0|0:0,0:0:0:0:
280,278,75034,5,2,1:2:0:0:
285,257,75122,2,0,P|252:202|134:255,1,184,8|0,0:0|0:0,0:0:0:0:
122,291,75383,2,0,B|107:306|116:331|116:331|132:312|127:281,1,86.2500032901765,10|0,0:0|0:0,0:0:0:0:
24,122,75558,1,2,0:0:0:0:
6,50,75645,1,2,0:0:0:0:
64,0,75732,6,0,B|147:2|147:2|151:5|151:5|234:6,1,172.500006580353,2|0,1:2|0:0,0:0:0:0:
452,188,76081,2,0,B|373:185|373:185|369:183|369:183|292:181,1,160.99999508667,10|2,0:0|0:0,0:0:0:0:
86,158,76342,1,2,1:2:0:0:
33,208,76430,5,10,0:0:0:0:
40,224,76517,2,0,P|115:230|135:98,1,172.500006580353,8|0,0:0|0:0,0:0:0:0:
85,48,76778,6,0,L|200:63,1,74.7499965782167,10|0,0:0|0:0,0:0:0:0:
377,85,76953,2,0,L|262:100,1,74.7499965782167
257,226,77127,6,0,B|280:282|350:312|412:280|437:203|437:203|380:235|315:188,1,345,6|0,1:2|0:0,0:0:0:0:
298,96,77476,2,0,B|314:13|314:13|324:6|324:6|311:81,1,172.500006580353,10|0,0:0|0:0,0:0:0:0:
174,230,77738,1,0,1:2:0:0:
121,177,77825,6,0,P|55:243|103:318,1,172.500006580353,10|0,0:0|0:0,0:0:0:0:
305,226,78087,1,2,0:0:0:0:
315,213,78174,6,0,P|324:177|276:116,1,86.2500032901765,8|0,0:0|0:0,0:0:0:0:
146,14,78348,2,0,P|140:69|179:109,1,86.2500032901765,2|0,0:0|0:0,0:0:0:0:
386,62,78523,5,6,1:2:0:0:
389,73,78610,1,0,0:0:0:0:
392,84,78697,1,0,0:0:0:0:
395,95,78784,1,0,0:0:0:0:
465,149,78872,5,14,1:2:0:0:
390,119,78959,1,0,1:2:0:0:
314,147,79046,1,0,1:2:0:0:
275,217,79133,1,0,1:2:0:0:
295,294,79220,5,14,1:2:0:0:
332,267,79308,1,0,1:2:0:0:
377,261,79395,1,0,1:2:0:0:
420,276,79482,1,0,1:2:0:0:
450,310,79569,5,14,0:0:0:0:
420,359,79656,1,8,0:0:0:0:
353,379,79744,1,8,0:0:0:0:
280,345,79831,1,8,0:0:0:0:
252,257,79918,6,0,B|267:209|302:188|302:188|217:201|175:289|186:339|186:339|155:299|162:253,1,379.500011581421,6|0,0:3|0:0,0:0:0:0:
110,188,80267,6,0,P|60:157|0:174,1,86.2500032901765,10|0,0:0|0:0,0:0:0:0:
278,69,80441,2,0,P|328:38|388:55,1,86.2500032901765
41,25,80616,5,2,1:2:0:0:
41,25,80703,1,0,1:2:0:0:
41,25,80790,2,0,P|112:45|149:6,1,86.2500032901765
160,262,80965,2,0,P|212:210|197:158,1,86.2500032901765,10|0,0:0|0:0,0:0:0:0:
361,47,81139,2,0,P|403:78|406:131,1,86.2500032901765
363,339,81313,6,0,B|441:398|505:313|490:272|385:227|384:282|354:317|320:390|180:281,1,379.500011581421,6|0,1:2|0:0,0:0:0:0:
149,256,81662,6,0,P|68:237|34:254,1,86.2500032901765,10|0,0:0|0:0,0:0:0:0:
197,89,81837,2,0,P|239:89|277:69,1,86.2500032901765
6,12,82011,5,2,1:2:0:0:
6,12,82098,1,0,1:2:0:0:
6,12,82185,2,0,P|21:65|7:129,1,86.2500032901765
149,256,82360,2,0,P|157:202|142:150,1,86.2500032901765,10|0,0:0|0:0,0:0:0:0:
263,2,82534,2,0,P|278:55|264:119,1,86.2500032901765
416,253,82709,6,0,B|421:188|390:161|368:195|337:142|351:91|351:91|364:138|395:176|406:143|439:176|430:258,1,379.500011581421,6|0,1:2|0:0,0:0:0:0:
434,333,83058,6,0,B|439:352|459:358|459:358|295:368|295:368|291:364|291:364|175:370|175:370|181:358|194:350,1,345,10|0,0:0|0:0,0:0:0:0:
223,131,83406,5,6,1:2:0:0:
164,78,83494,2,0,P|100:72|69:230,1,235.75000359726,0|0,1:2|0:0,0:0:0:0:
253,210,83755,6,0,B|347:135|347:135|375:258,1,241.499992630005,10|0,0:0|0:0,0:0:0:0:
278,340,84017,1,0,0:0:0:0:
267,325,84104,6,0,P|224:301|158:339,1,123.625001886368,6|0,1:2|0:0,0:0:0:0:
77,220,84278,2,0,P|34:245|34:321,1,123.625001886368,2|0,0:0|0:0,0:0:0:0:
290,120,84453,6,0,P|326:94|325:11,1,126.500003860474,14|0,0:0|0:0,0:0:0:0:
398,179,84627,2,0,P|441:186|499:126,1,126.500003860474,2|0,0:0|0:0,0:0:0:0:
207,248,84802,5,6,1:2:0:0:
152,192,84889,1,0,1:2:0:0:
154,114,84976,2,0,P|173:77|263:47,1,129.375004935265,0|0,1:2|0:0,0:0:0:0:
420,284,85151,5,14,0:0:0:0:
338,299,85238,1,8,0:0:0:0:
257,315,85325,1,10,0:0:0:0:
176,330,85412,1,8,0:0:0:0:
87,294,85499,6,0,B|56:266|40:232|53:145|131:106|217:142|219:210|219:210|173:211|137:258,1,379.500011581421,6|0,1:2|0:0,0:0:0:0:
286,242,85848,6,0,P|288:177|255:126,1,86.2500032901765,10|0,0:0|0:0,0:0:0:0:
448,26,86023,2,0,P|455:79|434:129,1,86.2500032901765
199,19,86197,5,2,1:2:0:0:
199,19,86284,1,0,1:2:0:0:
199,19,86372,2,0,P|128:0|71:27,1,86.2500032901765
6,180,86546,2,0,P|35:149|76:135,1,86.2500032901765,10|0,0:0|0:0,0:0:0:0:
193,248,86720,2,0,P|174:319|201:376,1,86.2500032901765
492,170,86895,6,0,B|417:124|324:177|387:196|270:253|211:151|211:151|237:120|291:121,1,379.500011581421,6|0,1:2|0:0,0:0:0:0:
347,57,87244,6,0,P|391:35|465:48,1,86.2500032901765,10|0,0:0|0:0,0:0:0:0:
506,261,87418,2,0,P|463:258|425:237,1,86.2500032901765
249,343,87592,5,2,1:2:0:0:
249,343,87680,1,0,1:2:0:0:
249,343,87767,2,0,P|275:288|271:219,1,86.2500032901765
118,235,87941,2,0,P|96:197|63:169,1,86.2500032901765,10|0,0:0|0:0,0:0:0:0:
366,173,88116,2,0,P|371:112|344:48,1,86.2500032901765
156,13,88290,6,0,B|86:51|125:142|147:158|221:189|307:161|299:101|300:70|230:23|194:84,1,379.500011581421,6|0,1:2|0:0,0:0:0:0:
118,235,88639,6,0,B|95:259|78:266|78:266|201:274|201:274|205:278|205:278|374:287,1,345,10|0,0:0|0:0,0:0:0:0:
465,109,88988,5,6,1:2:0:0:
408,54,89075,2,0,P|365:34|316:184,1,235.75000359726,0|0,1:2|0:0,0:0:0:0:
341,373,89337,6,0,P|388:340|381:283,1,120.749996315003,10|0,0:0|0:0,0:0:0:0:
158,198,89511,1,0,1:2:0:0:
158,198,89598,1,0,1:2:0:0:
89,238,89685,5,14,0:0:0:0:
71,270,89773,1,0,0:0:0:0:
75,306,89860,1,0,0:0:0:0:
102,330,89947,1,0,1:2:0:0:
202,249,90034,5,14,0:0:0:0:
149,253,90122,1,0,0:0:0:0:
107,227,90209,1,0,0:0:0:0:
97,178,90296,1,0,1:2:0:0:
225,119,90383,5,14,0:0:0:0:
194,175,90470,1,0,0:0:0:0:
212,237,90558,1,0,1:2:0:0:
273,257,90645,1,0,1:2:0:0:
354,155,90732,5,14,0:0:0:0:
274,174,90819,1,8,0:0:0:0:
199,209,90906,1,8,0:0:0:0:
132,258,90994,1,8,0:0:0:0:
86,326,91081,6,0,B|71:263|71:263|78:206|78:206|63:76,1,172.500006580353,6|0,1:3|0:0,0:0:0:0:
254,45,91430,1,0,1:2:0:0:
211,122,91604,1,2,0:0:0:0:
256,41,91778,1,2,1:2:0:0:
208,125,91952,1,2,0:0:0:0:
258,37,92127,1,2,1:2:0:0:
206,129,92301,1,2,0:0:0:0:
421,323,92476,6,0,B|434:262|434:262|427:207|427:207|442:82,1,172.500006580353,2|0,1:2|0:0,0:0:0:0:
143,235,92825,1,0,1:2:0:0:
249,222,92999,1,2,0:0:0:0:
137,235,93174,1,2,1:2:0:0:
254,221,93348,1,0,0:0:0:0:
132,236,93523,1,0,1:2:0:0:
259,220,93697,1,2,0:0:0:0:
389,49,93872,6,0,B|258:61|258:61|297:96,1,172.500006580353,6|0,1:2|0:0,0:0:0:0:
337,242,94220,1,0,1:2:0:0:
403,186,94395,1,2,0:0:0:0:
488,362,94569,6,0,B|357:349|357:349|396:314,1,172.500006580353,6|0,1:2|0:0,0:0:0:0:
322,157,94918,1,0,1:2:0:0:
337,242,95093,1,2,0:0:0:0:
472,27,95267,6,0,B|337:39|337:39|377:76,1,172.500006580353,6|0,1:2|0:0,0:0:0:0:
451,285,95616,2,0,B|506:162|506:162|454:178,1,172.500006580353,6|0,1:2|0:0,0:0:0:0:
241,165,95965,2,0,B|319:274|319:274|331:221,1,172.500006580353,6|0,1:2|0:0,0:0:0:0:
229,31,96313,6,0,B|79:45|79:45|143:126|143:126|167:71,1,293.2500055933,6|0,1:2|0:0,0:0:0:0:
246,152,96662,6,0,P|299:127|475:121,1,172.500006580353,6|0,1:2|0:0,0:0:0:0:
345,303,97011,1,0,1:2:0:0:
425,327,97185,1,2,0:0:0:0:
406,246,97360,1,2,1:2:0:0:
364,384,97534,1,2,0:0:0:0:
326,222,97709,1,2,1:2:0:0:
486,270,97883,1,2,0:0:0:0:
284,359,98058,6,0,P|181:357|84:321,1,172.500006580353,2|0,1:2|0:0,0:0:0:0:
85,91,98406,1,0,1:2:0:0:
165,207,98581,1,2,0:0:0:0:
207,13,98755,1,2,1:2:0:0:
269,173,98930,1,0,0:0:0:0:
350,88,99104,1,0,1:2:0:0:
416,148,99278,1,2,0:0:0:0:
422,302,99453,6,0,P|347:339|268:258,1,172.500006580353,6|0,1:2|0:0,0:0:0:0:
149,67,99802,1,0,1:2:0:0:
269,173,99976,1,2,0:0:0:0:
155,328,100151,6,0,P|80:291|1:372,1,172.500006580353,6|0,1:2|0:0,0:0:0:0:
239,336,100499,1,0,1:2:0:0:
94,200,100674,1,2,0:0:0:0:
231,101,100848,6,0,P|306:64|385:145,1,184,14|0,1:2|0:0,0:0:0:0:
175,177,101110,1,0,1:2:0:0:
156,176,101197,6,0,P|86:129|117:20,1,195.500003728867,14|0,1:2|0:0,0:0:0:0:
249,186,101459,1,0,1:2:0:0:
258,203,101546,6,0,P|252:286|142:314,1,206.999993682861,14|0,1:2|0:0,0:0:0:0:
231,101,101808,1,0,1:2:0:0:
241,85,101895,5,14,1:2:0:0:
307,57,101982,1,8,1:2:0:0:
378,64,102069,1,0,1:2:0:0:
434,109,102156,1,2,1:2:0:0:
453,179,102244,6,0,B|378:262|271:205|369:196|241:126|159:167|126:263,1,327.749991248131,6|0,1:3|0:0,0:0:0:0:
137,286,102592,6,0,P|131:309|151:285,1,86.2500032901765,10|0,0:0|0:0,0:0:0:0:
100,150,102767,1,0,0:0:0:0:
232,254,102941,1,0,1:2:0:0:
91,58,103116,6,0,P|84:38|105:59,1,86.2500032901765,2|0,0:0|0:0,0:0:0:0:
157,209,103290,1,8,0:0:0:0:
236,36,103465,2,0,P|255:28|225:26,1,86.2500032901765,2|0,0:0|0:0,0:0:0:0:
23,165,103639,6,0,B|141:162|141:162|149:167|149:167|310:162|310:162|257:176,1,327.749991248131,2|0,1:2|0:0,0:0:0:0:
228,264,103988,6,0,B|223:292|233:307|233:307|246:296|252:263,1,86.2500032901765,10|0,0:0|0:0,0:0:0:0:
311,78,104162,1,0,0:0:0:0:
347,231,104337,1,0,1:2:0:0:
200,56,104511,6,0,B|178:37|160:40|160:40|163:55|188:77,1,86.2500032901765,2|0,0:0|0:0,0:0:0:0:
380,141,104685,1,8,0:0:0:0:
127,238,104860,1,2,0:0:0:0:
75,253,104947,1,2,0:0:0:0:
36,215,105034,6,0,B|77:154|62:103|21:146|8:60|62:-22|152:1|176:37|203:117,1,327.749991248131,2|0,1:2|0:0,0:0:0:0:
237,172,105383,6,0,P|294:193|359:166,1,86.2500032901765,10|0,0:0|0:0,0:0:0:0:
429,44,105558,1,0,0:0:0:0:
426,34,105645,1,0,0:0:0:0:
423,24,105732,1,0,1:2:0:0:
510,217,105906,6,0,P|459:209|412:229,1,86.2500032901765,2|0,0:0|0:0,0:0:0:0:
323,330,106081,1,8,0:0:0:0:
233,165,106255,2,0,P|182:172|135:152,1,86.2500032901765,2|0,0:0|0:0,0:0:0:0:
64,344,106430,6,0,B|36:360|33:373|33:373|155:357|155:357|161:359|161:359|322:334,1,327.749991248131,6|0,1:2|0:0,0:0:0:0:
404,235,106778,6,0,P|337:221|291:262,1,86.2500032901765,14|0,0:0|0:0,0:0:0:0:
305,105,106953,2,0,P|247:142|244:203,1,86.2500032901765
0,234,107127,6,0,P|60:202|70:141,1,92,6|0,1:2|0:0,0:0:0:0:
144,263,107302,2,0,P|164:197|128:147,1,92
297,88,107476,6,0,P|350:64|424:98,1,97.7500018644333,14|0,0:0|0:0,0:0:0:0:
443,210,107651,1,2,0:0:0:0:
434,263,107738,1,2,0:0:0:0:
383,280,107825,6,0,B|329:256|270:282|293:308|240:358|131:334|109:251|132:189,1,345,6|0,1:2|0:0,0:0:0:0:
211,80,108174,6,0,P|297:80|333:139,1,92,10|0,0:0|0:0,0:0:0:0:
429,199,108348,1,0,0:0:0:0:
324,3,108523,1,0,1:2:0:0:
140,204,108697,6,0,P|91:227|39:215,1,92,2|0,0:0|0:0,0:0:0:0:
201,67,108872,1,8,0:0:0:0:
0,0,109046,2,0,P|9:52|50:87,1,92,2|0,0:0|0:0,0:0:0:0:
314,113,109220,6,0,B|344:125|355:136|355:136|220:148|220:148|215:144|215:144|94:158|94:158|106:158|135:177,1,345,2|0,1:2|0:0,0:0:0:0:
207,244,109569,6,0,P|226:286|191:349,1,92,10|0,0:0|0:0,0:0:0:0:
19,301,109744,1,0,0:0:0:0:
284,214,109918,1,0,1:2:0:0:
46,152,110092,6,0,P|81:181|151:163,1,92,2|0,0:0|0:0,0:0:0:0:
253,7,110267,1,8,0:0:0:0:
284,214,110441,2,0,P|250:244|180:226,1,92,2|2,0:0|0:0,0:0:0:0:
62,83,110616,6,0,B|33:64|-12:101|-12:101|-45:24|70:-47|169:-5|170:107,1,345,2|0,1:2|0:0,0:0:0:0:
201,118,110965,6,0,P|245:124|308:64,1,92,8|0,0:0|0:0,0:0:0:0:
359,0,111139,2,0,P|386:35|365:119,1,92,2|0,0:0|0:0,0:0:0:0:
282,334,111313,6,0,B|257:410|175:404|97:338|173:206|276:219,1,345,2|0,1:2|0:0,0:0:0:0:
360,216,111662,6,0,P|399:239|493:221,1,92,8|0,0:0|0:0,0:0:0:0:
482,65,111837,2,0,P|434:90|380:87,1,92,2|0,0:0|0:0,0:0:0:0:
215,84,112011,6,0,P|198:147|265:212,1,160.99999508667,6|0,1:2|0:0,0:0:0:0:
511,328,112273,1,0,1:2:0:0:
505,343,112360,6,0,P|451:285|456:232,1,86.2500032901765,14|0,0:0|0:0,0:0:0:0:
356,298,112534,2,0,P|358:218|399:184,1,86.2500032901765,2|0,0:0|0:0,0:0:0:0:
505,144,112709,5,6,1:2:0:0:
494,78,112796,1,2,1:2:0:0:
440,38,112883,1,2,1:2:0:0:
373,42,112970,1,2,1:2:0:0:
315,94,113058,5,14,0:0:0:0:
271,161,113145,1,2,0:0:0:0:
195,188,113232,1,2,0:0:0:0:
108,162,113319,1,10,0:0:0:0:
70,78,113406,6,0,P|133:30|218:62,1,149.499993156433,6|0,1:3|0:0,0:0:0:0:
320,270,113755,2,0,P|331:303|339:345,1,74.7499965782167,2|0,0:0|0:0,0:0:0:0:
202,200,113930,2,0,P|208:162|220:127,1,74.7499965782167,2|0,0:0|0:0,0:0:0:0:
38,340,114104,6,0,P|110:350|136:229,1,160.99999508667,10|0,0:0|0:0,0:0:0:0:
339,343,114453,2,0,P|272:332|250:282,1,80.499997543335,2|0,0:0|0:0,0:0:0:0:
123,129,114627,1,2,0:0:0:0:
123,129,114715,1,2,0:0:0:0:
64,177,114802,6,0,P|145:168|207:232,1,149.499993156433,2|0,1:2|1:2,0:0:0:0:
462,30,115151,2,0,P|381:21|319:85,1,149.499993156433,2|0,1:2|1:2,0:0:0:0:
371,218,115412,1,2,1:2:0:0:
418,155,115499,6,0,P|357:178|293:87,1,149.499993156433,10|8,0:0|0:0,0:0:0:0:
108,322,115848,2,0,P|162:275|230:298,1,149.499993156433,2|0,1:2|1:2,0:0:0:0:
75,60,116197,6,0,B|68:75|54:89|54:89|113:62|160:75|139:90|169:112|225:122|277:100|293:42,1,293.2500055933,10|0,0:0|0:0,0:0:0:0:
353,4,116546,2,0,P|436:23|417:112,1,149.499993156433,2|0,1:2|1:2,0:0:0:0:
224,249,116895,6,0,P|230:334|316:333,1,149.499993156433,10|0,0:0|1:2,0:0:0:0:
368,295,117156,1,2,0:0:0:0:
378,289,117244,2,0,P|438:296|480:319,1,74.7499965782167
352,163,117418,2,0,P|309:180|263:183,1,74.7499965782167,2|0,0:0|0:0,0:0:0:0:
125,182,117592,6,0,P|100:234|116:279,1,80.499997543335,2|0,1:2|0:0,0:0:0:0:
12,266,117767,2,0,P|31:320|74:340,1,80.499997543335,0|0,1:2|0:0,0:0:0:0:
205,89,117941,6,0,P|271:83|323:138,1,86.2500032901765,2|0,0:0|0:0,0:0:0:0:
328,279,118116,1,0,0:0:0:0:
323,299,118203,1,0,1:2:0:0:
318,320,118290,6,0,B|270:323|270:323|215:365|215:365|141:370,1,172.500006580353,14|0,0:0|0:0,0:0:0:0:
105,236,118552,1,0,1:2:0:0:
116,252,118639,6,0,P|171:271|235:230,1,86.2500032901765,10|0,0:0|0:0,0:0:0:0:
360,75,118813,1,0,0:0:0:0:
421,65,118901,1,0,1:2:0:0:
458,115,118988,6,0,P|410:191|440:283,1,149.499993156433,14|0,1:2|0:0,0:0:0:0:
189,118,119337,2,0,P|122:112|78:88,1,74.7499965782167,2|0,0:0|0:0,0:0:0:0:
23,253,119511,2,0,P|62:231|107:223,1,74.7499965782167,2|0,0:0|1:2,0:0:0:0:
173,336,119685,6,0,P|255:360|313:301,1,160.99999508667,10|0,0:0|0:0,0:0:0:0:
260,72,120034,2,0,P|306:71|343:106,1,80.499997543335
461,266,120209,1,2,0:0:0:0:
461,266,120296,1,2,0:0:0:0:
435,194,120383,6,0,P|338:189|307:277,1,149.499993156433,2|0,1:2|1:2,0:0:0:0:
186,329,120732,2,0,P|89:334|58:246,1,149.499993156433,2|0,0:0|0:0,0:0:0:0:
90,125,120994,1,2,1:2:0:0:
153,172,121081,6,0,P|234:154|202:60,1,149.499993156433,10|8,0:0|0:0,0:0:0:0:
113,0,121430,2,0,P|32:18|64:112,1,149.499993156433,2|0,1:2|1:2,0:0:0:0:
102,257,121778,6,0,B|166:291|234:273|207:256|278:201|344:264|344:264|337:298|298:296,1,293.2500055933,10|0,0:0|0:0,0:0:0:0:
245,373,122127,2,0,B|123:378|123:378|155:362,1,149.499993156433,2|0,1:2|1:2,0:0:0:0:
211,156,122476,6,0,B|327:161|327:161|296:145,1,149.499993156433,10|0,0:0|0:0,0:0:0:0:
159,92,122738,1,2,0:0:0:0:
145,95,122825,2,0,P|123:148|141:202,1,74.7499965782167
37,188,122999,2,0,P|58:241|109:266,1,74.7499965782167,2|0,0:0|0:0,0:0:0:0:
250,321,123174,5,2,1:2:0:0:
259,322,123261,1,0,1:2:0:0:
268,323,123348,1,0,1:2:0:0:
277,324,123435,1,0,1:2:0:0:
341,362,123523,5,6,1:2:0:0:
301,319,123610,1,0,0:0:0:0:
305,260,123697,1,0,0:0:0:0:
353,226,123784,1,0,0:0:0:0:
432,301,123872,5,14,0:0:0:0:
370,307,123959,1,0,0:0:0:0:
308,313,124046,1,0,0:0:0:0:
246,319,124133,1,0,0:0:0:0:
168,367,124220,5,14,0:0:0:0:
225,315,124308,1,2,0:0:0:0:
224,238,124395,1,2,0:0:0:0:
171,183,124482,1,2,0:0:0:0:
86,176,124569,6,0,P|39:132|140:47,1,206.999993682861,6|0,1:3|0:0,0:0:0:0:
232,88,124831,1,2,0:0:0:0:
241,99,124918,6,0,P|302:59|309:6,1,103.499996841431,8|0,0:0|0:0,0:0:0:0:
428,126,125092,2,0,P|442:54|410:12,1,103.499996841431,2|0,0:0|0:0,0:0:0:0:
512,294,125267,5,2,1:2:0:0:
503,312,125354,2,0,B|457:344|386:319|425:292|358:258|299:291,1,218.499994165421,0|0,1:2|0:0,0:0:0:0:
226,315,125616,2,0,B|216:334|191:353|191:353|217:338|243:342,1,103.499996841431,10|0,0:0|0:0,0:0:0:0:
298,155,125790,1,2,0:0:0:0:
340,86,125877,1,2,0:0:0:0:
310,15,125965,6,0,P|225:-3|170:115,1,195.500003728867,2|0,1:2|0:0,0:0:0:0:
448,140,126313,2,0,P|513:197|453:310,1,184,10|0,0:0|0:0,0:0:0:0:
265,234,126575,1,0,1:2:0:0:
205,193,126662,5,10,0:0:0:0:
194,189,126749,2,0,B|124:252|124:252|199:319,1,184,8|0,0:0|0:0,0:0:0:0:
337,316,127011,6,0,P|359:254|337:192,1,92,10|0,0:0|0:0,0:0:0:0:
97,61,127185,2,0,P|88:114|110:163,1,92
333,56,127360,6,0,B|395:2|515:42|506:118|459:195|377:132,1,310.499990524292,2|0,1:2|0:0,0:0:0:0:
219,178,127709,2,0,B|166:137|175:91|175:91|227:73|271:121,1,206.999993682861,10|0,0:0|0:0,0:0:0:0:
243,351,127970,1,0,0:0:0:0:
229,364,128058,6,0,P|122:354|132:222,1,206.999993682861,2|0,1:2|0:0,0:0:0:0:
202,174,128319,1,2,0:0:0:0:
211,169,128406,6,0,P|286:172|318:222,1,103.499996841431,8|0,0:0|0:0,0:0:0:0:
395,130,128581,2,0,P|429:196|402:249,1,103.499996841431,2|0,0:0|0:0,0:0:0:0:
502,352,128755,6,0,P|455:381|385:280,1,172.500006580353,2|0,1:2|0:0,0:0:0:0:
432,18,129104,6,0,B|439:43|455:51|455:51|266:63|266:63|264:66|264:66|261:63|261:63|154:69|154:69|167:84|204:89,1,379.500011581421,14|0,0:0|0:0,0:0:0:0:
284,206,129453,6,0,B|325:203|325:203|346:206|346:206|392:201,1,103.499996841431,2|0,1:2|0:0,0:0:0:0:
238,358,129627,1,0,1:2:0:0:
239,346,129715,1,0,1:2:0:0:
299,297,129802,5,14,0:0:0:0:
236,334,129889,1,0,0:0:0:0:
162,321,129976,1,0,0:0:0:0:
119,262,130063,1,0,0:0:0:0:
129,189,130151,6,0,P|151:135|22:78,1,206.999993682861,6|0,1:2|0:0,0:0:0:0:
7,215,130412,1,0,0:0:0:0:
5,229,130499,6,0,P|42:273|136:233,1,103.499996841431,10|0,0:0|0:0,0:0:0:0:
67,358,130674,2,0,P|124:362|162:268,1,103.499996841431
294,88,130848,5,2,1:2:0:0:
311,100,130935,2,0,P|316:218|207:234,1,218.499994165421,0|0,1:2|0:0,0:0:0:0:
169,201,131197,2,0,P|159:177|163:209,1,103.499996841431,10|0,0:0|0:0,0:0:0:0:
301,363,131372,1,2,0:0:0:0:
375,383,131459,1,2,0:0:0:0:
436,337,131546,6,0,P|422:289|471:97,1,195.500003728867,2|0,1:2|0:0,0:0:0:0:
135,24,131895,2,0,P|172:131|155:244,1,184,10|0,0:0|0:0,0:0:0:0:
352,117,132156,1,2,1:2:0:0:
428,135,132244,5,10,0:0:0:0:
440,146,132331,2,0,B|471:231|471:231|387:195,1,184,8|0,0:0|0:0,0:0:0:0:
284,181,132592,6,0,P|286:238|261:299,1,92,10|0,0:0|0:0,0:0:0:0:
142,114,132767,2,0,P|144:57|119:-4,1,92
8,261,132941,6,0,B|-18:328|21:371|91:397|146:373|175:310|142:264|142:264|110:289|61:279,1,362.249988945008,2|0,1:2|0:0,0:0:0:0:
173,180,133290,2,0,B|203:169|233:170|228:184|255:190|273:183|273:183|255:200|223:191|239:186|210:175|171:195,1,195.500003728867,10|0,0:0|0:0,0:0:0:0:
105,26,133552,1,0,0:0:0:0:
116,14,133639,6,0,B|177:9|177:9|240:28|240:28|308:21,1,195.500003728867,2|0,1:2|0:0,0:0:0:0:
435,242,133901,1,2,0:0:0:0:
427,261,133988,6,0,P|381:297|324:284,1,97.7500018644333,8|0,0:0|0:0,0:0:0:0:
307,148,134162,2,0,P|261:111|204:124,1,97.7500018644333,2|0,0:0|0:0,0:0:0:0:
169,299,134337,6,0,P|107:298|93:276,1,80.499997543335,6|0,1:2|0:0,0:0:0:0:
111,208,134511,2,0,P|172:208|186:230,1,80.499997543335,2|0,0:0|0:0,0:0:0:0:
270,342,134685,6,0,B|296:380|350:389|404:368|443:318|450:264|419:213|359:198|312:208|284:257|312:304|372:298,1,362.249988945008,14|0,0:0|0:0,0:0:0:0:
478,232,135034,6,0,P|490:186|434:126,1,97.7500018644333,14|0,0:0|0:0,0:0:0:0:
279,47,135209,2,0,P|267:93|323:153,1,97.7500018644333,2|0,1:2|0:0,0:0:0:0:
472,51,135383,6,0,P|438:17|358:36,1,109.24999708271,14|0,0:0|0:0,0:0:0:0:
288,226,135558,2,0,P|321:259|401:240,1,109.24999708271,2|0,1:2|0:0,0:0:0:0:
112,43,135732,6,0,B|86:45|68:17|68:17|92:167|92:167|90:174|90:174|112:313|112:313|72:295|87:232,1,396.750007567406,6|0,1:3|0:0,0:0:0:0:
190,233,136081,6,0,P|225:211|310:244,1,86.2500032901765,10|0,0:0|0:0,0:0:0:0:
448,359,136255,2,0,P|405:359|369:337,1,86.2500032901765
361,40,136430,5,2,1:2:0:0:
361,40,136517,1,0,1:2:0:0:
361,40,136604,2,0,P|386:98|391:175,1,86.2500032901765
364,328,136778,2,0,P|355:271|332:218,1,86.2500032901765,10|0,0:0|0:0,0:0:0:0:
233,58,136953,2,0,P|258:116|263:193,1,86.2500032901765
38,308,137127,6,0,B|73:328|80:352|80:352|80:328|105:237|171:244|160:266|196:239|205:180|196:133|125:113|93:129|69:168,1,396.750007567406,6|0,1:2|0:0,0:0:0:0:
27,66,137476,6,0,P|76:47|144:53,1,86.2500032901765,10|0,0:0|0:0,0:0:0:0:
380,189,137651,2,0,P|326:169|269:173,1,86.2500032901765
171,364,137825,5,2,1:2:0:0:
171,364,137912,1,0,1:2:0:0:
171,364,138000,2,0,P|215:378|279:338,1,86.2500032901765
215,95,138174,2,0,P|180:126|183:201,1,86.2500032901765,10|0,0:0|0:0,0:0:0:0:
350,316,138348,2,0,P|340:270|274:235,1,86.2500032901765
61,282,138523,6,0,B|8:298|-2:311|-2:311|5:264|-28:237|-28:237|53:198|135:230|84:278|186:288|235:243,1,396.750007567406,6|0,1:2|0:0,0:0:0:0:
310,123,138872,6,0,B|327:56|458:72|495:147|423:271|331:269|265:252|241:131,1,362.249988945008,10|0,0:0|0:0,0:0:0:0:
167,96,139220,5,6,1:2:0:0:
129,30,139308,2,0,B|147:136|147:136|143:147|143:147|173:289,1,247.250003772736,0|0,1:2|0:0,0:0:0:0:
319,342,139569,6,0,P|417:353|448:196,1,253.000007720947,10|0,0:0|0:0,0:0:0:0:
413,78,139831,1,0,1:2:0:0:
397,66,139918,5,14,0:0:0:0:
327,47,140005,1,2,0:0:0:0:
271,100,140092,2,0,P|253:156|302:226,1,129.375004935265,2|0,1:2|0:0,0:0:0:0:
167,347,140267,6,0,P|103:313|120:223,1,132.250002522469,14|0,0:0|0:0,0:0:0:0:
1,284,140441,2,0,P|-20:214|55:163,1,132.250002522469,2|0,1:2|0:0,0:0:0:0:
339,163,140616,6,0,P|361:225|313:282,1,135.124997938156,14|0,0:0|0:0,0:0:0:0:
399,334,140790,2,0,P|356:384|282:370,1,135.124997938156,2|0,1:2|0:0,0:0:0:0:
122,164,140965,6,0,P|178:118|245:131,1,137.999995788574,14|0,0:0|0:0,0:0:0:0:
223,8,141139,2,0,P|290:33|313:98,1,137.999995788574,2|0,1:2|0:0,0:0:0:0:
363,316,141313,6,0,B|390:370|480:394|557:268|485:169|404:106|291:188,1,396.750007567406,6|0,1:2|0:0,0:0:0:0:
239,128,141662,6,0,B|201:126|201:126|195:132|195:132|138:129,1,86.2500032901765,10|0,0:0|0:0,0:0:0:0:
27,284,141837,2,0,B|64:285|64:285|70:279|70:279|127:282,1,86.2500032901765
62,43,142011,5,2,1:2:0:0:
62,43,142098,1,0,1:2:0:0:
62,43,142185,2,0,P|128:46|161:15,1,86.2500032901765
322,188,142360,2,0,P|258:168|238:127,1,86.2500032901765,10|0,0:0|0:0,0:0:0:0:
11,276,142534,2,0,P|63:235|68:190,1,86.2500032901765
227,314,142709,6,0,B|280:350|365:312|311:275|420:221|491:293|491:293|480:358|385:345,1,396.750007567406,6|0,1:2|0:0,0:0:0:0:
270,248,143058,6,0,P|231:193|235:130,1,86.2500032901765,10|0,0:0|0:0,0:0:0:0:
140,8,143232,2,0,P|104:52|99:108,1,86.2500032901765
373,84,143406,5,2,1:2:0:0:
373,84,143494,1,0,1:2:0:0:
373,84,143581,2,0,P|307:63|231:75,1,86.2500032901765
42,206,143755,2,0,P|108:185|184:197,1,86.2500032901765,10|0,0:0|0:0,0:0:0:0:
352,269,143930,2,0,P|286:248|210:260,1,86.2500032901765
3,362,144104,6,0,B|-15:360|-24:345|-24:345|118:354|118:354|126:350|126:350|285:364|285:364|246:350|224:307,1,396.750007567406,6|0,1:2|0:0,0:0:0:0:
230,178,144453,6,0,B|339:169|349:65|349:65|378:165|498:143,1,362.249988945008,10|0,0:0|0:0,0:2:0:0:
512,309,144802,5,6,1:2:0:0:
460,365,144889,2,0,P|369:349|356:204,1,247.250003772736,0|0,1:2|0:0,0:0:0:0:
223,69,145151,6,0,P|132:85|119:230,1,253.000007720947,10|0,0:0|0:0,0:0:0:0:
415,271,145412,1,0,1:2:0:0:
435,262,145499,5,14,0:0:0:0:
464,197,145587,1,2,0:0:0:0:
441,127,145674,2,0,P|380:103|299:145,1,129.375004935265,2|0,1:2|0:0,0:0:0:0:
78,293,145848,6,0,P|122:330|205:298,1,132.250002522469,14|0,0:0|0:0,0:0:0:0:
345,195,146023,2,0,P|327:249|239:266,1,132.250002522469,2|0,1:2|0:0,0:0:0:0:
0,133,146197,6,0,P|67:171|105:229,1,135.124997938156,14|0,0:0|0:0,0:0:0:0:
265,24,146372,2,0,P|236:96|241:165,1,135.124997938156,2|0,1:2|0:0,0:0:0:0:
331,341,146546,5,14,0:0:0:0:
409,365,146633,1,8,0:0:0:0:
478,318,146720,1,10,0:0:0:0:
486,234,146808,1,8,0:0:0:0:
403,282,146895,5,6,0:3:0:0:
230,287,147767,6,0,P|281:262|289:212,1,86.2500032901765
146,159,147941,2,0,B|110:143|81:47|129:8|211:-14|255:111|145:152,1,310.499990524292,2|0,0:0|0:0,0:0:0:0:
37,192,148290,5,12,0:0:0:0:
61,227,148377,1,0,1:2:0:0:
30,256,148465,1,0,1:2:0:0:
137,347,148552,5,8,0:0:0:0:
102,297,148639,1,0,1:2:0:0:
146,256,148727,1,0,1:2:0:0:
214,304,148813,6,0,P|280:305|322:253,1,115,8|0,0:0|0:0,0:0:0:0:
431,171,148988,6,0,B|371:131|356:22|356:22|352:131|270:198,1,345,12|0,0:0|0:0,0:0:0:0:
135,150,149337,6,0,B|97:200|28:165|5:110|54:42|119:20|181:22|233:127,1,362.249988945008,12|0,0:0|0:0,0:0:0:0:
311,267,149685,5,12,0:0:0:0:
256,192,149773,12,0,152215,0:0:0:0:
21,228,152302,6,0,P|22:183|48:146,1,92,0|0,1:2|1:2,0:0:0:0:
140,62,152476,2,0,B|269:39|297:156|356:261|248:361|108:346|38:311|-31:278|-14:145|45:91|155:113|168:243,1,736,4|0,1:3|0:0,0:0:0:0:
128,192,160499,6,0,P|147:239|148:311,1,86.2500032901765,2|0,0:0|0:0,0:0:0:0:
337,136,160674,2,0,P|340:84|359:36,1,86.2500032901765,2|0,0:0|0:0,0:0:0:0:
67,107,160848,6,0,P|178:75|244:149,1,184,14|0,0:3|0:0,0:0:0:0:
270,181,161110,5,0,0:0:0:0:
276,193,161197,2,0,B|271:234|271:234|264:241|264:241|259:300,1,92,10|0,0:2|0:0,0:0:0:0:
56,347,161372,2,0,B|59:306|59:306|66:299|66:299|71:257,1,92,2|0,0:0|0:0,0:0:0:0:
306,360,161546,6,0,P|353:354|368:283,1,92,14|0,0:0|0:0,0:0:0:0:
455,334,161720,2,0,P|473:290|419:241,1,92
275,23,161895,6,0,P|323:42|318:122,1,97.7500018644333,10|0,0:0|0:0,0:0:0:0:
425,92,162069,2,0,P|432:143|360:179,1,97.7500018644333
196,212,162244,6,0,B|126:215|126:215|117:211|117:211|31:216|31:216|78:236,1,195.500003728867,14|0,0:0|0:0,0:0:0:0:
124,291,162505,6,0,L|238:284,1,97.7500018644333,0|8,0:0|0:0,0:0:0:0:
134,136,162680,1,2,0:0:0:0:
119,137,162767,2,0,L|2:144,1,97.7500018644333,2|0,0:0|0:0,0:0:0:0:
216,26,162941,6,0,P|272:139|405:26,1,293.2500055933,2|0,1:2|0:0,0:0:0:0:
341,11,163290,6,0,B|245:74|297:227|366:122|402:244|371:325|260:352,1,379.500011581421,14|0,0:0|0:0,0:0:0:0:
205,290,163639,6,0,P|115:215|26:278,1,195.500003728867,6|0,1:3|0:0,0:0:0:0:
15,339,163901,1,0,0:0:0:0:
23,358,163988,2,0,P|97:332|147:339,1,97.7500018644333,10|0,0:0|0:0,0:0:0:0:
337,182,164162,2,0,P|279:182|227:158,1,97.7500018644333,2|0,0:0|0:0,0:0:0:0:
6,55,164337,5,2,1:2:0:0:
0,73,164424,2,0,P|59:130|151:-2,1,206.999993682861,0|0,1:2|0:0,0:0:0:0:
286,36,164685,2,0,B|313:41|329:56|329:56|314:65|281:62,1,97.7500018644333,10|0,0:0|0:0,0:0:0:0:
171,193,164860,2,0,B|143:198|127:213|127:213|142:222|175:219,1,97.7500018644333
424,300,165034,6,0,B|447:318|483:316|483:316|463:271|394:234|341:253|341:253|376:275|403:226,1,293.2500055933,2|0,1:2|0:0,0:0:0:0:
403,96,165383,2,0,B|381:80|356:21|447:-42|511:-5|520:96|478:149|448:174,1,310.499990524292,10|0,0:0|0:0,0:0:0:0:
490,254,165732,6,0,P|421:261|381:208,1,97.7500018644333,2|0,1:2|0:0,0:0:0:0:
340,320,165906,2,0,P|299:263|325:202,1,97.7500018644333
213,46,166081,6,0,P|172:103|198:164,1,92,10|0,0:0|0:0,0:0:0:0:
73,86,166255,2,0,P|84:155|145:180,1,92
141,321,166430,6,0,B|220:297|203:225|203:225|204:183|241:167,1,195.500003728867,2|0,1:2|0:0,0:0:0:0:
430,206,166691,1,0,0:0:0:0:
440,217,166778,2,0,B|445:229|456:237|456:237|411:221|378:231|396:248|335:275|277:217,1,195.500003728867,10|0,0:0|0:0,0:0:0:0:
159,91,167040,1,0,0:0:0:0:
137,90,167127,6,0,P|85:116|81:187,1,97.7500018644333,2|0,1:2|0:0,0:0:0:0:
159,233,167302,2,0,P|211:207|215:136,1,97.7500018644333
360,19,167476,6,0,P|389:56|384:104,1,97.7500018644333,10|0,0:0|0:0,0:0:0:0:
287,126,167651,2,0,P|257:88|262:40,1,97.7500018644333
460,311,167825,6,0,P|415:328|366:331,1,97.7500018644333,2|0,1:2|0:0,0:0:0:0:
136,261,167999,2,0,P|185:258|232:271,1,97.7500018644333,2|0,0:0|0:0,0:0:0:0:
487,225,168174,6,0,P|409:249|348:243,1,103.499996841431,10|0,0:0|0:0,0:0:0:0:
112,164,168348,2,0,P|177:162|239:184,1,103.499996841431,2|0,0:0|0:0,0:0:0:0:
463,79,168523,5,2,1:2:0:0:
420,8,168610,1,2,0:0:0:0:
348,0,168697,1,2,0:0:0:0:
305,36,168784,1,2,0:0:0:0:
294,73,168872,6,0,P|324:135|252:189,1,103.499996841431,12|0,0:0|0:0,0:0:0:0:
438,170,169046,2,0,P|415:235|326:222,1,103.499996841431,2|0,0:0|0:0,0:0:0:0:
91,252,169220,6,0,B|51:266|37:287|37:287|144:273|144:273|149:276|149:276|260:260|260:260|220:271|202:306,1,345,6|0,1:2|0:0,0:0:0:0:
298,340,169569,2,0,P|353:351|404:286,1,97.7500018644333,10|0,0:0|0:0,0:0:0:0:
456,368,169744,2,0,P|502:336|492:254,1,97.7500018644333,2|0,0:0|0:0,0:0:0:0:
319,56,169918,5,2,1:2:0:0:
299,59,170005,2,0,B|281:53|275:29|275:29|263:104|263:104|261:110|261:110|246:201,1,206.999993682861,0|0,1:2|0:0,0:0:0:0:
166,294,170267,2,0,P|146:316|182:305,1,97.7500018644333,10|0,0:0|0:0,0:0:0:0:
407,208,170441,2,0,P|441:201|406:189,1,97.7500018644333
117,114,170616,6,0,B|144:67|131:51|131:51|108:76|149:141|161:122|174:150|148:203|148:203|138:164|217:133,1,293.2500055933,2|0,1:2|0:0,0:0:0:0:
303,70,170965,2,0,B|341:22|395:-7|477:42|461:107|461:107|404:87|361:121,1,310.499990524292,10|0,0:0|0:0,0:0:0:0:
357,294,171313,5,2,1:2:0:0:
400,300,171401,1,0,0:0:0:0:
425,269,171488,2,0,P|436:218|399:138,1,97.7500018644333
259,11,171662,2,0,P|227:76|257:130,1,109.24999708271,10|0,0:0|0:0,0:0:0:0:
145,111,171837,2,0,P|168:179|227:196,1,109.24999708271
93,326,172011,6,0,P|72:242|131:207,1,103.499996841431,2|0,1:2|0:0,0:0:0:0:
0,189,172185,2,0,P|44:114|111:131,1,103.499996841431
245,258,172360,6,0,P|345:265|324:136,1,206.999993682861,10|0,0:0|0:0,0:0:0:0:
178,1,172622,1,2,0:0:0:0:
128,59,172709,6,0,P|154:104|166:179,1,97.7500018644333,2|0,1:2|0:0,0:0:0:0:
381,156,172883,2,0,P|390:96|419:43,1,97.7500018644333
150,233,173058,6,0,P|230:268|280:245,1,103.499996841431,10|0,0:0|0:0,0:0:0:0:
261,38,173232,2,0,P|341:3|391:26,1,103.499996841431,2|0,0:0|0:0,0:0:0:0:
489,326,173406,5,2,1:2:0:0:
458,332,173494,1,0,1:2:0:0:
407,368,173581,5,2,1:2:0:0:
375,361,173669,1,0,1:2:0:0:
322,313,173755,5,10,0:0:0:0:
275,322,173843,1,0,0:0:0:0:
213,370,173930,5,10,0:0:0:0:
161,359,174017,1,0,0:0:0:0:
99,302,174104,5,10,0:0:0:0:
82,284,174191,1,0,0:0:0:0:
82,259,174278,1,0,0:0:0:0:
99,242,174366,1,0,0:0:0:0:
161,193,174453,5,14,0:0:0:0:
232,183,174540,1,8,0:0:0:0:
303,173,174627,1,8,0:0:0:0:
375,164,174715,1,8,0:0:0:0:
448,217,174802,6,0,B|472:253|505:257|505:257|361:270|361:270|356:273|356:273|246:285|246:285|270:305|311:293,1,379.500011581421,6|0,1:3|0:0,0:0:0:0:
307,161,175151,6,0,P|287:111|204:102,1,103.499996841431,2|0,1:2|0:0,0:0:0:0:
259,17,175325,2,0,P|205:9|156:76,1,103.499996841431,10|0,0:0|0:0,0:0:0:0:
58,269,175499,6,0,P|111:276|160:209,1,103.499996841431,2|0,1:2|0:0,0:0:0:0:
206,299,175673,2,0,P|239:256|205:180,1,103.499996841431,10|0,0:0|0:0,0:0:0:0:
100,0,175848,6,0,P|66:42|100:118,1,109.24999708271,2|0,1:2|0:0,0:0:0:0:
0,113,176022,2,0,P|20:163|103:172,1,109.24999708271,10|0,0:0|0:0,0:0:0:0:
315,78,176197,6,0,P|444:85|448:188,1,230,2|10,1:2|0:0,0:0:0:0:
370,233,176459,1,0,0:0:0:0:
363,243,176546,6,0,P|348:305|392:363,1,115,2|0,1:2|0:0,0:0:0:0:
254,127,176720,2,0,P|239:65|283:7,1,115,10|0,0:0|0:0,0:0:0:0:
268,363,176895,6,0,P|219:384|168:365,1,109.24999708271,2|0,1:2|0:0,0:0:0:0:
51,83,177069,2,0,P|100:106|122:154,1,109.24999708271,10|0,0:0|0:0,0:0:0:0:
269,225,177244,6,0,P|216:217|172:248,1,109.24999708271,2|0,1:2|0:0,0:0:0:0:
0,329,177418,1,10,0:0:0:0:
0,329,177505,1,0,0:0:0:0:
0,329,177592,6,0,B|24:156|24:156|39:193|62:213,1,230,2|8,1:2|0:0,0:0:0:0:
146,342,177854,1,0,0:0:0:0:
157,354,177941,6,0,P|222:346|293:384,1,115,2|0,1:2|0:0,0:0:0:0:
374,214,178116,2,0,P|314:240|249:232,1,115,10|0,0:0|0:0,0:0:0:0:
465,363,178290,6,0,P|499:294|455:237,1,120.749996315003,2|0,1:2|0:0,0:0:0:0:
289,38,178465,2,0,P|255:107|299:164,1,120.749996315003,10|0,0:0|0:0,0:0:0:0:
512,134,178639,6,0,P|443:100|386:144,1,120.749996315003,2|0,1:2|0:0,0:0:0:0:
223,299,178813,2,0,P|279:313|327:280,1,120.749996315003,10|0,0:0|0:0,0:0:0:0:
181,69,178988,5,8,1:2:0:0:
105,42,179075,1,0,0:0:0:0:
47,93,179162,2,0,P|34:152|77:211,1,126.500003860474,8|0,0:0|0:0,0:0:0:0:
364,217,179337,6,0,P|399:266|383:326,1,126.500003860474,10|0,1:2|0:0,0:0:0:0:
182,362,179511,2,0,P|145:312|160:252,1,126.500003860474,10|0,0:0|0:0,0:0:0:0:
248,10,179685,5,14,1:2:0:0:
195,18,179773,1,0,0:0:0:0:
168,64,179860,2,0,P|166:123|236:166,1,120.749996315003,10|0,0:0|0:0,0:0:0:0:
350,86,180034,5,14,1:2:0:0:
423,62,180122,1,8,0:0:0:0:
489,98,180209,1,10,0:0:0:0:
507,172,180296,1,8,0:0:0:0:
472,239,180383,6,0,B|440:266|436:301|436:301|398:265|303:271|347:296|234:344|208:234,1,327.749991248131,6|0,1:2|0:0,0:0:0:0:
201,152,180732,6,0,P|274:133|319:181,1,103.499996841431,2|0,1:2|0:0,0:0:0:0:
438,52,180906,2,0,P|382:74|365:129,1,103.499996841431,10|0,0:0|0:0,0:0:0:0:
391,287,181081,6,0,P|366:221|366:161,1,103.499996841431,2|0,1:2|0:0,0:0:0:0:
270,34,181255,2,0,P|273:93|296:149,1,103.499996841431,10|0,0:0|0:0,0:0:0:0:
230,345,181430,6,0,P|224:290|202:240,1,109.24999708271,2|0,1:2|0:0,0:0:0:0:
101,73,181604,1,10,0:0:0:0:
101,73,181691,1,0,0:0:0:0:
101,73,181778,6,0,P|64:184|147:234,1,206.999993682861,2|10,1:2|0:0,0:0:0:0:
273,153,182040,1,0,0:0:0:0:
285,139,182127,6,0,P|311:75|277:28,1,115,2|0,1:2|0:0,0:0:0:0:
458,110,182302,2,0,P|436:170|375:189,1,115,10|0,0:0|0:0,0:0:0:0:
184,5,182476,6,0,L|198:120,1,109.24999708271,2|0,1:2|0:0,0:0:0:0:
164,327,182651,2,0,L|150:218,1,109.24999708271,10|0,0:0|0:0,0:0:0:0:
8,144,182825,6,0,P|51:117|100:126,1,103.499996841431,2|0,1:2|0:0,0:0:0:0:
353,348,182999,1,10,0:0:0:0:
353,348,183087,1,0,0:0:0:0:
353,348,183174,6,0,P|284:343|288:194,1,206.999993682861,2|10,1:2|0:0,0:0:0:0:
380,112,183435,1,0,0:0:0:0:
390,99,183523,6,0,P|402:50|367:-13,1,103.499996841431,2|0,1:2|0:0,0:0:0:0:
182,26,183697,2,0,P|170:75|205:138,1,103.499996841431,10|0,0:0|0:0,0:0:0:0:
431,311,183872,6,0,B|420:260|420:260|421:254|421:254|412:197,1,109.24999708271,2|0,1:2|0:2,0:0:0:0:
280,6,184046,2,0,B|290:56|290:56|289:62|289:62|298:119,1,109.24999708271,10|0,0:0|0:2,0:0:0:0:
139,215,184220,6,0,P|193:249|265:214,1,115,2|0,1:2|0:0,0:0:0:0:
388,108,184395,1,10,0:0:0:0:
388,108,184482,1,0,0:0:0:0:
422,176,184569,5,14,1:2:0:0:
413,200,184656,1,2,0:0:0:0:
391,215,184744,1,2,0:0:0:0:
364,216,184831,1,2,1:2:0:0:
393,290,184918,5,14,0:0:0:0:
354,302,185005,1,0,0:0:0:0:
316,291,185093,1,0,0:0:0:0:
289,261,185180,1,0,1:2:0:0:
225,308,185267,5,14,0:0:0:0:
183,256,185354,1,0,0:0:0:0:
188,190,185441,1,8,0:0:0:0:
239,148,185528,1,0,1:2:0:0:
347,77,185616,5,14,0:0:0:0:
350,156,185703,1,8,0:0:0:0:
354,235,185790,1,8,0:0:0:0:
359,314,185877,1,8,0:0:0:0:
285,384,185965,5,14,0:3:0:0:
256,192,186052,12,0,188755,0:0:0:0:
22,301,191546,6,0,B|86:277|84:214|84:214|126:263|189:249,1,230.000008773804,14|0,0:3|0:0,0:0:0:0:
247,135,191895,5,2,0:0:0:0:
239,156,192011,1,2,0:0:0:0:
231,178,192127,1,2,0:0:0:0:
237,310,192244,6,0,B|275:368|275:368|464:361,1,230.000008773804,10|0,0:0|0:0,0:0:0:0:
512,294,192592,2,0,B|474:236|474:236|285:243,1,230.000008773804,10|0,0:0|0:0,0:0:0:0:
100,203,192941,6,0,B|33:143|56:49|125:51|181:87|139:167,1,245.333333333333,10|0,0:0|0:0,0:0:0:0:
276,250,193290,5,2,0:0:0:0:
248,298,193406,1,2,0:0:0:0:
192,290,193523,1,2,0:0:0:0:
222,171,193639,6,0,B|407:155|407:155|460:210,1,245.333333333333,10|0,0:0|0:0,0:0:0:0:
475,347,193988,2,0,B|290:363|290:363|237:308,1,245.333333333333,10|0,0:0|0:0,0:0:0:0:
128,127,194337,6,0,B|87:101|13:179|75:245|145:261|209:218|223:160|210:111,1,260.666671638489,10|0,0:0|0:0,0:0:0:0:
278,56,194685,5,2,0:0:0:0:
341,12,194802,1,2,0:0:0:0:
393,68,194918,1,2,0:0:0:0:
511,4,195034,6,0,B|481:190|481:190|382:170,1,260.666671638489,10|0,0:0|0:0,0:0:0:0:
221,352,195383,2,0,B|251:166|251:166|350:186,1,260.666671638489,10|0,0:0|0:0,0:0:0:0:
456,252,195732,6,0,B|515:309|508:364|447:406|412:375|376:308|452:260,1,275.999991577149,10|0,0:0|0:0,0:0:0:0:
209,192,196081,5,2,0:0:0:0:
264,276,196197,1,2,0:0:0:0:
310,187,196313,1,2,0:0:0:0:
150,266,196430,6,0,B|91:310|91:310|137:88,1,275.999991577149,10|0,0:0|0:0,0:0:0:0:
362,266,196778,2,0,B|421:310|421:310|375:88,1,275.999991577149,10|0,0:0|0:0,0:0:0:0:
69,43,197127,6,0,B|117:94|213:60|159:32|218:2|275:19|328:58,1,245.333333333333,14|0,0:3|0:0,0:0:0:0:
392,120,197476,5,2,0:0:0:0:
356,160,197592,1,2,0:0:0:0:
377,211,197709,1,2,0:0:0:0:
307,306,197825,6,0,B|261:278|261:278|28:320,1,245.333333333333,10|0,0:0|0:0,0:0:0:0:
0,187,198174,2,0,B|46:215|46:215|279:173,1,245.333333333333,10|0,0:0|0:0,0:0:0:0:
456,51,198523,6,0,B|408:118|443:184|465:154|510:231|454:296,1,260.666671638489,10|0,0:0|0:0,0:0:0:0:
227,190,198872,5,2,0:0:0:0:
288,234,198988,1,2,0:0:0:0:
332,173,199104,1,2,0:0:0:0:
195,93,199220,6,0,B|163:73|163:73|76:287,1,260.666671638489,10|0,0:0|0:0,0:0:0:0:
326,368,199569,2,0,B|294:388|294:388|207:174,1,260.666671638489,10|0,0:0|0:0,0:0:0:0:
366,81,199918,6,0,B|440:13|513:63|465:96|527:105|455:191|367:123|376:72,1,275.999991577149,10|0,0:0|0:0,0:0:0:0:
186,0,200267,5,2,0:0:0:0:
182,103,200383,1,2,0:0:0:0:
274,55,200499,1,2,0:0:0:0:
107,43,200616,6,0,B|50:77|50:77|28:304,1,275.999991577149,10|0,0:0|0:0,0:0:0:0:
267,354,200965,2,0,B|246:145|246:145|189:111,1,275.999991577149,10|0,0:0|0:0,0:0:0:0:
108,283,201313,6,0,B|151:286|167:299|167:299|225:243|282:273|244:272|322:310|379:248,1,291.333325553894,10|0,0:0|0:0,0:0:0:0:
370,68,201662,5,2,0:0:0:0:
439,185,201778,1,2,0:0:0:0:
473,27,201895,1,2,0:0:0:0:
354,149,202011,6,0,L|295:157,1,57.5,14|0,1:2|1:2,0:0:0:0:
245,76,202185,2,0,L|186:68,1,57.5,0|0,1:2|1:2,0:0:0:0:
108,108,202360,5,10,1:2:0:0:
109,118,202447,1,0,1:2:0:0:
110,129,202534,1,0,1:2:0:0:
111,140,202622,1,0,1:2:0:0:
93,224,202709,6,0,B|11:250|10:373|87:391|160:348|126:293,1,260.666671638489,14|0,0:3|0:0,0:0:0:0:
222,222,203058,5,2,0:0:0:0:
286,177,203174,1,2,0:0:0:0:
336,237,203290,1,2,0:0:0:0:
456,129,203406,6,0,B|423:84|423:84|210:103,1,260.666671638489,10|0,0:0|0:0,0:0:0:0:
139,318,203755,2,0,B|172:363|172:363|385:344,1,260.666671638489,10|0,0:0|0:0,0:0:0:0:
122,92,204104,6,0,B|52:56|-9:99|-9:99|2:168|87:194,1,275.999991577149,14|0,0:0|0:0,0:0:0:0:
296,167,204453,5,2,0:0:0:0:
202,213,204569,1,2,0:0:0:0:
209,109,204685,1,2,0:0:0:0:
281,252,204802,6,0,B|348:288|348:288|506:162,1,275.999991577149,10|0,0:0|0:0,0:0:0:0:
229,338,205151,2,0,B|162:374|162:374|4:248,1,275.999991577149,10|0,0:0|0:0,0:0:0:0:
36,18,205499,6,0,B|74:21|74:21|102:25|121:48|117:78|117:78|108:135|108:135|102:167|115:191|147:196|147:196|200:204,1,291.333325553894,14|0,0:0|0:0,0:0:0:0:
339,10,205848,5,2,0:0:0:0:
457,56,205965,1,2,0:0:0:0:
285,81,206081,1,2,0:0:0:0:
406,158,206197,6,0,B|443:298|443:298|293:250,1,291.333325553894,10|0,0:0|0:0,0:0:0:0:
49,152,206546,2,0,B|151:49|151:49|185:203,1,291.333325553894,10|0,0:0|0:0,0:0:0:0:
81,345,206895,6,0,B|14:382|-47:304|-16:236|83:175|183:233|149:367,1,306.666666666667,14|0,0:0|0:0,0:0:0:0:
361,336,207244,6,0,P|397:348|445:337,1,76.6666666666667,2|0,0:0|0:0,0:0:0:0:
308,202,207360,2,0,P|300:164|266:128,1,76.6666666666667,2|0,0:0|0:0,0:0:0:0:
219,315,207476,2,0,P|190:340|176:387,1,76.6666666666667,2|0,0:0|0:0,0:0:0:0:
404,230,207592,6,0,B|467:195|467:195|446:18|446:18|426:80,1,306.666666666667,14|0,0:0|0:0,0:0:0:0:
183,210,207941,2,0,B|120:175|120:175|141:-2|141:-2|161:60,1,306.666666666667,10|0,0:0|0:0,0:0:0:0:
331,272,208290,6,0,B|371:267|388:313|388:313|346:372|277:356|295:326|235:295|186:340,1,275.999991577149,14|0,0:3|0:0,0:0:0:0:
15,349,208639,5,2,0:0:0:0:
62,259,208755,1,2,0:0:0:0:
116,344,208872,1,2,0:0:0:0:
4,206,208988,6,0,B|21:158|21:158|284:137,1,275.999991577149,14|0,0:0|0:0,0:0:0:0:
450,260,209337,2,0,B|433:308|433:308|170:329,1,275.999991577149,10|0,0:0|0:0,0:0:0:0:
330,86,209685,6,0,B|383:-9|512:16|537:120|421:205|374:81,1,291.333325553894,14|0,0:0|0:0,0:0:0:0:
231,128,210034,5,2,0:0:0:0:
132,199,210151,1,2,0:0:0:0:
296,222,210267,1,2,0:0:0:0:
158,69,210383,6,0,B|20:22|20:22|-1:179,1,291.333325553894,14|0,0:0|0:0,0:0:0:0:
279,305,210732,2,0,B|141:352|141:352|120:195,1,291.333325553894,10|0,0:0|0:0,0:0:0:0:
400,96,211081,6,0,B|453:163|517:66|474:6|393:-15|324:-4|312:123,1,306.666666666667,14|0,0:0|0:0,0:0:0:0:
379,316,211430,6,0,P|407:333|498:334,1,76.6666666666667,2|0,0:0|0:0,0:0:0:0:
300,223,211546,2,0,P|301:189|256:110,1,76.6666666666667,2|0,0:0|0:0,0:0:0:0:
259,338,211662,2,0,P|230:353|183:432,1,76.6666666666667,2|0,0:0|0:0,0:0:0:0:
444,266,211778,6,0,B|533:137|533:137|378:103,1,306.666666666667,14|0,0:0|0:0,0:0:0:0:
186,293,212127,6,0,B|114:309|114:309|0:164,1,230,14|0,0:0|0:0,0:0:0:0:
91,32,212389,1,10,0:0:0:0:
116,110,212476,6,0,B|186:183|264:142|224:115|332:71|408:121|423:203|379:272|327:295|301:270|284:337|316:380|358:386|358:386|417:348|420:269|338:236|243:208|182:204|119:245|211:313|120:376|39:373|-25:315|-14:241|-12:201|41:168,1,1150,6|0,1:3|0:0,0:0:0:0:
238,17,214395,1,0,0:0:0:0:
238,17,214482,1,0,0:0:0:0:
238,17,214569,6,0,P|291:37|352:1,1,80.499997543335,2|0,1:2|0:0,0:0:0:0:
363,128,214744,2,0,P|414:104|432:36,1,80.499997543335,2|0,0:0|0:0,0:0:0:0:
512,51,214918,6,0,P|476:7|405:7,1,80.499997543335,10|0,0:0|0:0,0:0:0:0:
276,128,215093,2,0,P|283:167|310:196,1,80.499997543335,2|0,0:0|0:0,0:0:0:0:
503,270,215267,5,6,1:3:0:0:
256,192,215354,12,0,218058,0:0:0:0:
89,139,219802,5,2,1:2:0:0:
469,227,220325,5,2,1:2:0:0:
428,40,220674,2,0,L|416:152,1,80.499997543335,0|0,1:2|1:2,0:0:0:0:
400,271,220848,6,0,B|388:331|388:331|312:339|312:339|344:186|344:186|269:195|269:195|235:346|235:346|157:356|157:356|208:140|208:140|131:150|131:150|80:364|80:364|3:372|3:372|34:243,1,1322.5,6|0,0:0|0:0,0:0:0:0:
38,238,222941,5,8,0:0:0:0:
64,52,223116,1,10,1:2:0:0:
96,77,223204,1,10,1:2:0:0:
141,57,223290,2,0,P|176:54|217:75,1,74.7499965782167,2|0,1:2|1:2,0:0:0:0:
295,120,223465,5,10,0:0:0:0:
354,67,223553,1,10,0:0:0:0:
418,106,223639,6,0,P|422:163|366:226,1,115,6|0,1:3|0:0,0:0:0:0:
453,258,223988,2,0,P|405:289|322:273,1,115,0|0,1:2|0:0,0:0:0:0:
338,364,224337,2,0,P|286:338|259:259,1,115,0|0,1:2|0:0,0:0:0:0:
188,317,224685,1,0,1:2:0:0:
233,60,224860,5,0,0:0:0:0:
233,60,224947,1,8,0:0:0:0:
295,107,225034,6,0,P|226:89|176:197,1,172.500006580353,2|0,1:2|0:0,0:0:0:0:
357,198,225296,1,0,1:2:0:0:
365,179,225383,6,0,B|505:157|505:157|486:173|483:193,1,184,10|0,0:0|0:0,0:0:0:0:
324,331,225645,1,0,1:2:0:0:
280,266,225732,6,0,B|264:244|265:214|265:214|259:244|228:264,1,109.24999708271,10|0,0:0|0:0,0:0:0:0:
44,90,225906,2,0,B|28:111|29:141|29:141|23:111|-7:91,1,109.24999708271,0|0,1:2|0:0,0:0:0:0:
70,361,226081,5,10,0:0:0:0:
80,286,226168,1,8,0:0:0:0:
91,211,226255,1,8,0:0:0:0:
102,136,226342,1,8,0:0:0:0:
165,72,226430,6,0,B|231:-12|343:89|276:155|218:137|202:175|210:250|244:268|326:294|352:194,1,379.500011581421,4|0,1:3|0:0,0:0:0:0:
397,180,226778,6,0,P|434:174|496:222,1,86.2500032901765,10|0,0:0|0:0,0:0:0:0:
369,359,226953,1,0,0:0:0:0:
365,343,227040,1,0,0:0:0:0:
361,327,227127,1,0,1:2:0:0:
309,118,227302,6,0,P|272:112|210:160,1,86.2500032901765,2|0,0:0|0:0,0:0:0:0:
414,261,227476,2,0,L|492:270,1,68.9999978942872,8|0,0:0|0:0,0:0:0:0:
246,353,227651,1,0,0:0:0:0:
246,353,227738,1,8,0:0:0:0:
192,292,227825,6,0,B|148:237|82:199|-23:280|24:375|24:375|96:369|101:297,1,379.500011581421,2|0,1:2|0:0,0:0:0:0:
101,158,228174,6,0,P|80:131|92:164,1,86.2500032901765,10|0,0:0|0:0,0:0:0:0:
278,241,228348,1,0,0:0:0:0:
292,239,228435,1,0,0:0:0:0:
306,237,228523,2,0,L|367:226,1,57.5,0|8,1:2|0:0,0:0:0:0:
267,40,228697,2,0,P|284:11|288:45,1,86.2500032901765,2|0,0:0|0:0,0:0:0:0:
195,232,228872,5,10,0:0:0:0:
180,253,228959,1,2,0:0:0:0:
136,266,229046,1,2,0:0:0:0:
80,244,229133,1,2,0:0:0:0:
56,172,229220,6,0,B|9:128|12:-58|158:-21|206:82|41:182,1,379.500011581421,2|0,1:2|0:0,0:0:0:0:
16,295,229569,6,0,P|46:330|101:335,1,86.2500032901765,8|0,0:0|0:0,0:0:0:0:
191,217,229744,1,2,0:0:0:0:
258,183,229831,1,2,0:0:0:0:
324,212,229918,6,0,P|426:210|435:191,2,86.2500032901765,2|8|0,1:2|0:0|0:0,0:0:0:0:
201,21,230267,1,8,0:0:0:0:
103,247,230441,2,0,P|148:250|191:215,1,86.2500032901765,2|0,0:0|0:0,0:0:0:0:
296,94,230616,6,0,P|330:91|361:117,1,68.9999978942872,6|0,1:2|0:0,0:0:0:0:
426,62,230790,2,0,P|452:84|455:125,1,68.9999978942872
308,346,230965,6,0,P|334:323|338:281,1,74.7499965782167,14|0,0:0|0:0,0:0:0:0:
436,298,231139,2,0,P|438:263|411:231,1,74.7499965782167
205,139,231313,6,0,L|184:233,1,80.499997543335,6|0,1:2|0:0,0:0:0:0:
112,336,231488,2,0,L|91:242,1,80.499997543335
6,80,231662,5,14,0:0:0:0:
77,71,231749,1,8,0:0:0:0:
149,62,231837,1,8,0:0:0:0:
220,54,231924,1,8,0:0:0:0:
237,67,232011,6,0,B|292:43|345:77|318:94|381:119|433:88,1,206.999993682861,2|0,1:2|0:0,0:0:0:0:
395,25,232360,6,0,B|377:0|355:-1|355:-1|376:184|376:184|374:189|374:189|393:348|393:348|386:336|363:318,1,431.25,14|0,0:2|0:0,0:0:0:0:
359,319,232709,1,0,1:2:0:0:
199,205,232883,6,0,P|242:195|293:211,1,86.2500032901765,2|0,0:0|0:0,0:0:0:0:
495,253,233058,2,0,L|412:262,1,68.9999978942872,8|0,0:0|0:0,0:0:0:0:
279,354,233232,1,0,0:0:0:0:
279,354,233319,1,8,0:0:0:0:
209,310,233406,6,0,B|138:290|96:313|126:337|97:371|8:360|-34:328|-37:226|16:211|65:166|122:210,1,379.500011581421,2|0,1:2|0:0,0:0:0:0:
84,94,233755,6,0,P|127:106|165:152,1,86.2500032901765,10|0,0:0|0:0,0:0:0:0:
283,278,233930,1,0,0:0:0:0:
300,276,234017,1,0,0:0:0:0:
317,274,234104,2,0,L|378:263,1,57.5,0|8,1:2|0:0,0:0:0:0:
414,110,234278,6,0,P|371:122|333:168,1,86.2500032901765,2|0,0:0|0:0,0:0:0:0:
207,321,234453,1,10,0:0:0:0:
184,337,234540,1,2,0:0:0:0:
144,341,234627,1,2,0:0:0:0:
94,320,234715,1,2,0:0:0:0:
60,253,234802,6,0,B|14:172|116:76|223:118|232:203|232:203|178:197|133:235,1,379.500011581421,2|0,1:2|0:0,0:0:0:0:
275,266,235151,6,0,P|309:221|302:179,1,86.2500032901765,8|0,0:0|0:0,0:0:0:0:
364,73,235325,1,2,0:0:0:0:
431,34,235412,1,2,0:0:0:0:
503,62,235499,6,0,P|512:118|468:174,2,86.2500032901765,2|8|0,1:2|0:0|0:0,0:0:0:0:
376,255,235848,1,8,0:0:0:0:
196,47,236023,2,0,P|232:24|274:22,1,86.2500032901765,2|0,0:0|0:0,0:0:0:0:
400,329,236197,6,0,P|333:339|266:287,1,149.499993156433,6|0,1:2|0:0,0:0:0:0:
255,143,236459,1,0,1:2:0:0:
319,97,236546,6,0,P|362:118|403:117,1,80.499997543335,14|0,0:0|0:0,0:0:0:0:
165,213,236720,2,0,P|129:232|90:234,1,80.499997543335
173,343,236895,5,14,0:0:0:0:
221,344,236982,1,0,0:0:0:0:
258,317,237069,1,0,0:0:0:0:
263,267,237156,1,0,0:0:0:0:
217,206,237244,5,14,0:0:0:0:
173,148,237331,1,8,0:0:0:0:
194,79,237418,1,8,0:0:0:0:
258,47,237505,1,8,0:0:0:0:
325,73,237592,6,0,P|391:91|404:86,1,68.9999978942872,0|0,1:2|0:0,0:0:0:0:
498,249,237767,6,0,B|379:190|310:285|392:266|277:347|152:321|146:235|146:235|221:167|295:263,1,529.000010089874,14|0,0:3|0:0,0:0:0:0:
372,354,238203,1,0,0:0:0:0:
368,370,238290,1,0,1:2:0:0:
99,384,238465,6,0,P|80:331|96:284,1,92,2|0,0:0|0:0,0:0:0:0:
308,169,238639,1,8,0:0:0:0:
77,52,238813,1,0,0:0:0:0:
77,52,238901,1,8,0:0:0:0:
116,117,238988,6,0,B|181:172|253:128|221:113|291:32|397:74|441:179|332:249,1,396.750007567406,2|0,1:2|0:0,0:0:0:0:
297,286,239337,6,0,B|295:310|288:330|288:330|301:314|331:303,1,92,10|0,0:0|0:0,0:0:0:0:
482,222,239511,1,0,0:0:0:0:
479,205,239598,1,0,0:0:0:0:
476,187,239685,2,0,L|469:114,1,57.5,0|8,1:2|0:0,0:0:0:0:
351,60,239860,6,0,B|349:35|342:15|342:15|355:31|385:42,1,92,2|0,0:0|0:0,0:0:0:0:
238,217,240034,1,10,0:0:0:0:
214,237,240122,1,2,0:0:0:0:
163,246,240209,1,2,0:0:0:0:
106,218,240296,1,2,0:0:0:0:
92,148,240383,6,0,B|79:116|52:105|52:105|345:78|345:78|323:67|283:79,1,396.750007567406,2|0,1:2|0:0,0:0:0:0:
352,152,240732,2,0,P|364:190|335:245,1,92,8|0,0:0|0:0,0:0:0:0:
205,344,240906,1,2,0:0:0:0:
138,318,240994,1,2,0:0:0:0:
74,355,241081,6,0,P|59:371|-7:372,2,92,2|8|0,1:2|0:0|0:0,0:0:0:0:
178,166,241430,1,8,0:0:0:0:
391,343,241604,2,0,P|346:349|311:322,1,92,2|0,0:0|0:0,0:0:0:0:
172,143,241778,6,0,P|212:165|270:151,1,92,6|0,1:2|0:0,0:0:0:0:
289,235,241953,2,0,P|328:211|344:154,1,92
459,0,242127,6,0,P|411:35|398:82,1,97.7500018644333,14|0,0:2|0:2,0:2:0:0:
301,11,242302,2,0,P|291:69|315:112,1,97.7500018644333
510,224,242476,6,0,L|402:237,1,103.499996841431,14|0,0:0|0:0,0:0:0:0:
305,328,242651,2,0,L|197:315,1,103.499996841431,0|0,1:2|0:0,0:0:0:0:
76,188,242825,5,14,0:0:0:0:
122,131,242912,1,8,0:0:0:0:
195,118,242999,1,8,0:0:0:0:
256,159,243087,1,8,0:0:0:0:
273,232,243174,6,0,P|309:252|351:255,1,68.9999978942872,0|0,1:2|0:0,0:0:0:0:
487,47,243348,6,0,B|372:115|351:279|421:355|504:326|536:234|480:139|404:106|367:105,1,529.000010089874,14|0,0:0|0:0,0:0:0:0:
262,137,243784,1,0,0:0:0:0:
256,159,243872,1,0,1:2:0:0:
119,48,244046,6,0,P|169:68|189:113,1,92,2|0,0:0|0:0,0:0:0:0:
210,284,244220,1,8,0:0:0:0:
413,190,244395,1,0,0:0:0:0:
413,190,244482,1,0,0:0:0:0:
443,257,244569,6,0,B|409:209|297:172|233:317|322:375|322:375|322:324|374:291,1,396.750007567406,2|0,1:2|0:0,0:0:0:0:
423,358,244918,6,0,P|480:353|499:316,1,92,10|0,0:0|0:0,0:0:0:0:
379,82,245092,1,0,0:0:0:0:
365,84,245180,1,0,0:0:0:0:
351,86,245267,2,0,L|279:95,1,57.5,0|8,1:2|0:0,0:0:0:0:
204,293,245441,6,0,P|147:288|128:251,1,92,2|0,0:0|0:0,0:0:0:0:
230,36,245616,1,10,0:0:0:0:
256,52,245703,1,2,0:0:0:0:
274,90,245790,1,2,0:0:0:0:
245,140,245877,1,2,0:0:0:0:
172,159,245965,6,0,B|133:171|127:187|127:187|254:177|254:177|264:180|264:180|406:173|406:173|371:179|352:207,1,396.750007567406,2|0,1:2|0:0,0:0:0:0:
457,233,246313,6,0,P|487:175|459:123,1,92,8|0,0:0|0:0,0:0:0:0:
352,27,246488,1,2,0:0:0:0:
284,0,246575,1,2,0:0:0:0:
217,29,246662,6,0,P|174:28|132:6,2,92,2|8|0,1:2|0:0|0:0,0:0:0:0:
411,107,247011,1,8,0:0:0:0:
156,195,247185,2,0,P|190:172|242:164,1,74.7499965782167,2|0,0:0|0:0,0:0:0:0:
457,233,247360,6,0,P|384:261|312:182,1,184,6|0,1:2|0:0,0:0:0:0:
204,27,247622,1,0,1:2:0:0:
131,5,247709,6,0,P|97:41|93:100,1,97.7500018644333,14|0,0:0|0:0,0:0:0:0:
227,157,247883,2,0,P|261:121|265:62,1,97.7500018644333,0|0,1:2|0:0,0:0:0:0:
79,169,248058,6,0,P|115:203|174:207,1,103.499996841431,14|0,0:0|0:0,0:0:0:0:
300,0,248232,2,0,P|337:31|349:89,1,103.499996841431,2|0,1:2|0:0,0:0:0:0:
439,262,248406,5,14,0:0:0:0:
360,273,248494,1,10,0:0:0:0:
281,284,248581,1,10,0:0:0:0:
202,295,248668,1,10,0:0:0:0:
120,259,248755,6,0,B|36:261|4:102|80:6|196:-12|330:1|361:156|262:280|126:167|129:98|170:76,1,529.000010089874,6|8,0:3|0:0,0:0:0:0:
322,38,249278,5,0,0:0:0:0:
332,34,249337,1,2,0:0:0:0:
344,35,249395,1,2,0:0:0:0:
363,47,249453,2,0,P|354:114|401:211,1,149.499993156433,2|0,1:2|0:0,0:0:0:0:
202,295,249802,6,0,B|262:217|224:111|143:129|133:200|230:211,1,258.75000987053,10|0,0:0|0:0,0:0:0:0:
311,236,250151,6,0,P|371:220|412:232,1,86.2500032901765,2|0,1:2|0:0,0:0:0:0:
391,303,250325,2,0,P|444:334|465:371,1,86.2500032901765,2|0,0:0|0:0,0:0:0:0:
265,138,250499,6,0,P|232:165|214:204,1,86.2500032901765,10|0,0:0|0:0,0:0:0:0:
112,229,250674,1,2,0:0:0:0:
109,272,250761,1,0,0:0:0:0:
124,312,250848,1,0,1:2:0:0:
374,141,251023,6,0,P|397:96|393:55,1,86.2500032901765,2|0,0:0|0:0,0:0:0:0:
280,10,251197,2,0,L|149:30,1,129.375004935265,10|0,0:0|0:0,0:0:0:0:
144,40,251372,2,0,P|186:39|223:61,1,86.2500032901765,2|0,0:0|0:0,0:0:0:0:
305,206,251546,6,0,B|404:239|411:353|319:428|139:387|151:275|250:227|278:292,1,413.999987365723,2|8,1:2|0:0,0:0:0:0:
392,168,252069,1,2,0:0:0:0:
443,174,252156,1,2,0:0:0:0:
474,212,252244,6,0,P|478:267|453:301,1,86.2500032901765,2|0,1:2|0:0,0:0:0:0:
512,353,252418,2,0,P|466:383|424:379,1,86.2500032901765,2|0,0:0|0:0,0:0:0:0:
266,275,252592,6,0,P|220:245|178:249,1,86.2500032901765,10|0,0:0|0:0,0:0:0:0:
161,153,252767,2,0,P|112:177|94:216,1,86.2500032901765,2|0,0:0|0:0,0:0:0:0:
30,368,252941,5,2,1:2:0:0:
71,379,253028,1,2,0:0:0:0:
110,361,253116,1,0,0:0:0:0:
122,319,253203,1,2,1:2:0:0:
78,228,253290,5,10,0:0:0:0:
88,276,253377,1,2,0:0:0:0:
129,307,253465,1,0,0:0:0:0:
180,297,253552,1,2,1:2:0:0:
245,184,253639,5,14,0:0:0:0:
198,228,253726,1,2,0:0:0:0:
192,293,253814,1,0,1:2:0:0:
238,341,253901,1,2,1:2:0:0:
341,293,253988,5,14,0:0:0:0:
271,261,254075,1,10,0:0:0:0:
192,257,254162,1,10,0:0:0:0:
121,288,254249,1,10,0:0:0:0:
68,357,254337,6,0,B|168:363|165:250|106:155|76:243|-6:160|48:75|82:52|82:52|138:92|118:145,1,460,6|8,1:2|0:0,0:0:0:0:
211,263,254860,1,2,0:0:0:0:
248,306,254947,1,2,0:0:0:0:
290,308,255034,6,0,P|325:263|329:213,1,86.2500032901765,2|0,1:2|0:0,0:0:0:0:
452,117,255209,2,0,P|463:158|492:189,1,86.2500032901765,2|0,0:0|0:0,0:0:0:0:
360,16,255383,6,0,P|317:17|279:37,1,86.2500032901765,10|0,0:0|0:0,0:0:0:0:
211,124,255558,1,2,0:0:0:0:
211,124,255645,1,8,0:0:0:0:
150,71,255732,6,0,B|162:61|168:46|168:46|207:278|207:278|216:263|201:232,1,293.2500055933,2|0,1:2|0:0,0:0:0:0:
112,240,256081,2,0,L|20:258,1,86.2500032901765,10|0,0:0|0:0,0:0:0:0:
167,349,256255,2,0,L|259:367,1,86.2500032901765,2|0,0:0|0:0,0:0:0:0:
439,315,256430,6,0,P|468:247|322:202,1,206.999993682861,2|0,1:2|0:0,0:0:0:0:
293,234,256691,1,2,0:0:0:0:
289,242,256778,6,0,P|355:282|402:264,1,86.2500032901765,8|0,0:0|0:0,0:0:0:0:
401,100,256953,2,0,P|350:101|313:136,1,86.2500032901765,2|0,0:0|0:0,0:0:0:0:
203,302,257127,6,0,B|141:344|-2:290|7:237|13:126|76:94|164:151|180:218|36:274,1,460,2|8,1:2|0:0,0:0:0:0:
15,89,257651,1,2,0:0:0:0:
42,37,257738,1,2,0:0:0:0:
100,29,257825,6,0,P|208:60|246:164,1,195.500003728867,2|0,1:2|0:0,0:0:0:0:
395,106,258087,2,0,P|287:137|249:241,1,195.500003728867,2|0,0:0|0:0,0:0:0:0:
286,271,258348,2,0,P|290:305|264:271,1,97.7500018644333,2|0,1:2|0:0,0:0:0:0:
86,190,258523,6,0,L|41:181,1,37.3749982891084,2|0,1:2|0:0,0:0:0:0:
86,197,258610,2,0,L|41:188,1,37.3749982891084,2|0,0:0|0:0,0:0:0:0:
86,204,258697,2,0,L|41:195,1,37.3749982891084,2|0,0:0|0:0,0:0:0:0:
86,211,258784,2,0,L|41:202,1,37.3749982891084,2|0,0:0|0:0,0:0:0:0:
119,240,258872,6,0,L|164:231,1,40.2499987716675,10|0,0:0|0:0,0:0:0:0:
119,247,258959,2,0,L|164:238,1,40.2499987716675,2|0,0:0|0:0,0:0:0:0:
119,254,259046,2,0,L|164:245,1,40.2499987716675,2|0,0:0|0:0,0:0:0:0:
119,261,259133,2,0,L|164:252,1,40.2499987716675,2|0,0:0|0:0,0:0:0:0:
83,302,259220,6,0,L|-7:283,1,86.2500032901765,14|0,0:0|0:0,0:0:0:0:
167,380,259395,2,0,L|257:361,1,86.2500032901765,0|0,1:2|0:0,0:0:0:0:
343,225,259569,5,12,0:0:0:0:
374,157,259656,1,8,0:0:0:0:
336,87,259744,1,8,0:0:0:0:
259,82,259831,1,8,0:0:0:0:
186,113,259918,6,0,P|170:143|203:133,1,74.7499965782167,6|0,1:3|0:0,0:0:0:0:
231,210,260092,2,0,P|241:242|257:212,1,74.7499965782167,2|0,0:0|0:0,0:0:0:0:
331,245,260267,2,0,P|361:261|351:229,1,74.7499965782167,10|0,0:0|0:0,0:0:0:0:
427,199,260441,2,0,P|459:188|428:173,1,74.7499965782167,2|0,0:0|0:0,0:0:0:0:
231,41,260616,6,0,P|261:25|250:57,1,80.499997543335,2|8,1:2|0:0,0:0:0:0:
318,125,260790,2,0,P|351:132|322:150,1,80.499997543335,2|0,0:0|0:0,0:0:0:0:
331,245,260965,2,0,P|351:272|317:267,1,80.499997543335,10|0,0:0|0:0,0:0:0:0:
264,345,261139,2,0,P|262:379|239:353,1,80.499997543335,2|0,0:0|0:0,0:0:0:0:
81,201,261313,6,0,P|84:132|130:183,1,172.500006580353,2|0,1:2|0:0,0:0:0:0:
145,210,261546,1,2,0:0:0:0:
143,224,261604,1,2,0:0:0:0:
142,238,261662,1,8,0:0:0:0:
22,312,261837,1,2,0:0:0:0:
193,120,262011,6,0,P|248:116|287:146,1,86.2500032901765,2|0,1:2|0:0,0:0:0:0:
345,252,262185,2,0,P|400:256|450:161,1,172.500006580353,2|8,0:0|0:0,0:0:0:0:
189,110,262534,5,0,0:0:0:0:
126,63,262622,1,2,0:0:0:0:
63,106,262709,2,0,P|21:137|-28:144,1,80.499997543335,2|0,1:2|0:0,0:0:0:0:
154,196,262883,2,0,P|196:227|245:234,1,80.499997543335,2|0,0:0|0:0,0:0:0:0:
7,308,263058,5,10,0:0:0:0:
67,354,263145,1,2,0:0:0:0:
111,320,263232,1,2,0:0:0:0:
143,345,263319,1,2,0:0:0:0:
162,333,263406,6,0,P|234:329|259:354,1,80.499997543335,2|8,1:2|0:0,0:0:0:0:
252,226,263581,2,0,P|305:274|305:309,1,80.499997543335,2|0,0:0|0:0,0:0:0:0:
367,371,263755,2,0,P|420:322|420:287,1,80.499997543335,10|0,0:0|0:0,0:0:0:0:
358,126,263930,5,0,0:0:0:0:
345,117,263988,1,2,0:0:0:0:
330,113,264046,1,2,0:0:0:0:
305,117,264104,6,0,P|249:136|192:81,1,80.499997543335,2|0,1:2|0:0,0:0:0:0:
149,27,264278,1,0,0:0:0:0:
35,201,264453,2,0,P|91:220|148:165,1,80.499997543335,10|0,0:0|0:0,0:0:0:0:
159,19,264627,1,0,0:0:0:0:
274,220,264802,6,0,P|308:278|247:362,1,160.99999508667,2|0,1:2|0:0,0:0:0:0:
153,307,265063,1,0,0:0:0:0:
105,365,265151,6,0,L|14:374,1,80.499997543335,10|0,0:0|0:0,0:0:0:0:
109,214,265325,2,0,L|200:223,1,80.499997543335
276,349,265499,6,0,B|295:354|309:371|309:371|305:349|310:329,1,80.499997543335,6|0,1:2|0:0,0:0:0:0:
385,331,265674,2,0,B|403:321|425:323|425:323|406:309|395:292,1,80.499997543335,2|0,0:0|0:0,0:0:0:0:
449,241,265848,2,0,B|454:221|471:207|471:207|449:211|429:206,1,80.499997543335,10|0,0:0|0:0,0:0:0:0:
430,132,266023,2,0,B|420:113|422:91|422:91|408:110|391:121,1,80.499997543335,2|0,0:0|0:0,0:0:0:0:
278,226,266197,6,0,B|269:244|270:267|270:267|257:247|239:237,1,86.2500032901765,2|8,1:2|0:0,0:0:0:0:
160,269,266372,2,0,B|139:269|120:282|120:282|131:261|131:240,1,86.2500032901765,2|0,0:0|0:0,0:0:0:0:
63,187,266546,2,0,B|52:169|32:159|32:159|56:157|73:147,1,86.2500032901765,10|0,0:0|0:0,0:0:0:0:
86,62,266720,2,0,B|95:44|94:21|94:21|107:40|125:51,1,86.2500032901765,2|0,0:0|0:0,0:0:0:0:
278,226,266895,6,0,B|288:245|286:269|286:269|300:248|319:237,1,92,2|0,1:2|0:0,0:0:0:0:
380,75,267069,2,0,B|390:55|388:31|388:31|402:52|421:63,1,92,2|0,0:0|0:0,0:0:0:0:
512,219,267244,1,10,0:0:0:0:
479,284,267331,1,2,0:0:0:0:
439,222,267418,2,0,B|420:210|405:190|405:190|407:214|397:233,1,92,2|0,0:0|0:0,0:0:0:0:
231,163,267592,6,0,B|154:207|97:291|97:291|104:194|62:115,1,368,2|8,1:2|0:0,0:0:0:0:
242,47,268116,1,2,0:0:0:0:
312,15,268203,1,2,0:0:0:0:
375,60,268290,6,0,P|400:121|377:158,1,92,2|0,1:2|0:0,0:0:0:0:
214,244,268465,2,0,P|206:199|230:162,1,92,2|0,0:0|0:0,0:0:0:0:
436,251,268639,1,10,0:0:0:0:
435,265,268697,1,2,0:0:0:0:
430,279,268755,1,2,0:0:0:0:
420,288,268813,2,0,P|363:296|317:284,1,86.2500032901765,2|0,0:0|0:0,0:0:0:0:
230,162,268988,6,0,P|173:154|127:166,1,86.2500032901765,2|8,1:2|0:0,0:0:0:0:
51,289,269162,1,2,0:0:0:0:
52,303,269220,1,2,0:0:0:0:
57,317,269278,1,2,0:0:0:0:
80,332,269337,5,10,0:0:0:0:
279,227,269511,1,2,0:0:0:0:
318,163,269598,1,0,0:0:0:0:
279,98,269685,6,0,B|278:82|288:67|288:67|189:75|189:75|184:78|184:78|78:88|78:88|89:75|130:68,1,276,6|0,1:2|0:0,0:0:0:0:
155,7,270034,6,0,B|225:54|192:158|131:134|107:205|165:283,1,293.2500055933,14|0,0:0|0:0,0:0:0:0:
182,340,270383,6,0,B|196:363|220:374|220:374|222:350|206:325,1,103.499996841431,6|0,1:2|0:0,0:0:0:0:
325,217,270558,1,2,0:0:0:0:
316,199,270645,1,0,0:0:0:0:
309,180,270732,5,14,0:0:0:0:
237,186,270819,1,2,0:0:0:0:
165,193,270906,1,2,0:0:0:0:
92,200,270994,1,2,0:0:0:0:
21,136,271081,6,0,B|10:115|0:113|0:113|197:101|197:101|202:103|202:103|321:97,1,327.749991248131,6|0,1:3|0:0,0:0:0:0:
364,33,271430,6,0,P|393:75|386:126,1,86.2500032901765,10|0,0:0|0:0,0:0:0:0:
309,180,271604,1,0,0:0:0:0:
460,10,271778,1,0,1:2:0:0:
489,163,271953,6,0,P|467:209|419:228,1,86.2500032901765,2|0,0:0|0:0,0:0:0:0:
294,98,272127,1,8,0:0:0:0:
373,305,272302,2,0,P|322:309|281:277,1,86.2500032901765,2|0,0:0|0:0,0:0:0:0:
214,139,272476,6,0,B|160:74|75:109|58:158|56:207|103:241|103:241|115:197|162:187,1,327.749991248131,2|0,1:2|0:0,0:0:0:0:
201,254,272825,6,0,P|205:282|182:254,1,86.2500032901765,10|0,0:0|0:0,0:0:0:0:
87,364,272999,1,0,0:0:0:0:
289,282,273174,1,0,1:2:0:0:
185,131,273348,6,0,P|181:103|204:131,1,86.2500032901765,2|0,0:0|0:0,0:0:0:0:
300,290,273523,1,8,0:0:0:0:
357,85,273697,1,2,0:0:0:0:
407,92,273784,1,2,0:0:0:0:
429,135,273872,6,0,B|453:228|422:278|400:246|376:334|437:381|437:381|482:356|478:313,1,327.749991248131,6|0,1:2|0:0,0:0:0:0:
337,217,274220,6,0,P|293:205|252:232,1,86.2500032901765,10|0,0:0|0:0,0:0:0:0:
202,352,274395,1,0,0:0:0:0:
206,368,274482,1,0,0:0:0:0:
210,384,274569,1,4,1:2:0:0:
67,276,274744,6,0,P|104:294|145:281,1,86.2500032901765,2|0,0:0|0:0,0:0:0:0:
234,106,274918,1,8,0:0:0:0:
362,303,275092,2,0,P|324:321|283:308,1,86.2500032901765,2|0,0:0|0:0,0:0:0:0:
225,94,275267,6,0,B|205:83|198:56|198:56|186:186|186:186|181:192|181:192|167:304|167:304|150:291|161:260,1,327.749991248131,6|0,1:2|0:0,0:0:0:0:
104,205,275616,6,0,P|95:182|39:141,1,86.2500032901765,14|0,0:0|0:0,0:0:0:0:
88,77,275790,2,0,P|65:67|-3:77,1,86.2500032901765
212,223,275965,6,0,P|257:232|301:218,1,92,6|0,1:2|0:0,0:0:0:0:
343,301,276139,2,0,P|373:266|383:220,1,92
279,9,276313,6,0,P|246:44|236:91,1,97.7500018644333,14|0,0:0|0:0,0:0:0:0:
203,229,276488,1,2,0:0:0:0:
234,300,276575,1,2,0:0:0:0:
173,353,276662,6,0,B|111:401|26:357|54:232|108:260|159:211|89:100,1,345,6|0,1:2|0:0,0:0:0:0:
19,47,277011,6,0,B|-7:37|-27:42|-27:42|-16:62|8:73,1,92,10|0,0:0|0:0,0:0:0:0:
200,132,277185,1,0,0:0:0:0:
8,223,277360,1,0,1:2:0:0:
154,37,277534,6,0,B|156:11|144:-8|144:-8|128:8|125:35,1,92,2|0,0:0|0:0,0:0:0:0:
211,219,277709,1,8,0:0:0:0:
45,333,277883,2,0,B|21:347|13:367|13:367|36:370|60:357,1,92,2|0,0:0|0:0,0:0:0:0:
282,174,278058,6,0,B|302:180|336:224|336:224|312:144|230:114|193:107|193:107|240:82|341:125,1,345,2|0,1:2|0:0,0:0:0:0:
373,130,278406,6,0,P|413:187|422:227,1,92,10|0,0:0|0:0,0:0:0:0:
325,324,278581,1,0,0:0:0:0:
497,206,278755,1,0,1:2:0:0:
386,28,278930,6,0,P|340:21|295:29,1,92,2|0,0:0|0:0,0:0:0:0:
258,250,279104,1,8,0:0:0:0:
92,21,279278,1,2,0:0:0:0:
63,63,279366,1,2,0:0:0:0:
74,113,279453,6,0,B|113:175|219:212|293:185|313:140|287:94|227:83|199:168,1,345,6|0,1:2|0:0,0:0:0:0:
265,246,279802,6,0,P|310:260|360:225,1,92,8|0,0:0|0:0,0:0:0:0:
437,129,279976,2,0,P|394:114|353:133,1,92,2|0,0:0|0:0,0:0:0:0:
299,336,280151,6,0,P|256:350|215:331,1,92,6|0,1:2|0:0,0:0:0:0:
80,256,280325,1,0,0:0:0:0:
33,243,280412,1,0,0:0:0:0:
0,279,280499,6,0,P|42:293|83:274,1,92,8|0,0:0|0:0,0:0:0:0:
297,247,280674,1,2,0:0:0:0:
344,234,280761,1,0,0:0:0:0:
377,270,280848,5,14,0:0:0:0:
344,287,280935,1,0,0:0:0:0:
307,279,281023,1,0,0:0:0:0:
284,249,281110,1,0,1:2:0:0:
207,281,281197,5,14,0:0:0:0:
172,242,281284,1,0,0:0:0:0:
169,189,281372,1,0,0:0:0:0:
201,148,281459,1,0,1:2:0:0:
150,81,281546,5,14,0:0:0:0:
183,27,281633,1,0,0:0:0:0:
245,7,281721,1,0,1:2:0:0:
302,31,281808,1,0,1:2:0:0:
351,138,281895,5,14,0:0:0:0:
269,154,281982,1,10,0:0:0:0:
187,170,282069,1,10,0:0:0:0:
105,186,282156,1,10,0:0:0:0:
8,135,282244,6,0,P|116:121|138:37,1,206.999993682861,6|8,1:3|0:0,0:0:0:0:
399,267,282592,2,0,P|301:262|268:170,1,206.999993682861,2|8,1:2|0:0,0:0:0:0:
323,58,282854,1,0,0:0:0:0:
398,94,282941,6,0,P|417:143|418:206,1,103.499996841431,2|0,1:2|0:0,0:0:0:0:
321,384,283116,2,0,P|318:332|299:284,1,103.499996841431,10|0,0:0|0:0,0:0:0:0:
135,47,283290,2,0,P|170:137|171:253,1,206.999993682861,2|8,1:2|0:0,0:0:0:0:
116,331,283552,1,0,0:0:0:0:
60,281,283639,6,0,P|49:231|89:189,1,109.24999708271,2|0,1:2|0:2,0:2:0:0:
0,145,283813,2,0,P|27:101|85:100,1,109.24999708271,10|0,0:0|0:0,0:0:0:0:
324,204,283988,6,0,P|310:153|262:131,1,109.24999708271,2|0,1:2|0:2,0:2:0:0:
313,56,284162,2,0,P|267:29|218:48,1,109.24999708271,10|0,0:0|0:0,0:0:0:0:
215,332,284337,5,2,1:2:0:0:
215,332,284424,1,0,0:0:0:0:
215,332,284511,2,0,P|283:352|318:324,1,103.499996841431,10|0,0:0|0:0,0:0:0:0:
481,221,284685,6,0,P|413:241|378:213,1,103.499996841431,2|0,1:2|0:0,0:0:0:0:
155,140,284860,2,0,P|223:160|258:132,1,103.499996841431,10|0,0:0|0:0,0:0:0:0:
472,48,285034,6,0,P|355:48|239:78,1,206.999993682861,2|8,1:2|0:0,0:0:0:0:
103,339,285383,2,0,P|220:339|336:309,1,206.999993682861,2|8,1:2|0:0,0:0:0:0:
425,241,285645,1,0,0:0:0:0:
379,220,285732,6,0,P|308:216|274:256,1,103.499996841431,2|0,1:2|0:0,0:0:0:0:
141,148,285906,2,0,P|212:144|246:184,1,103.499996841431,10|0,0:0|0:0,0:0:0:0:
443,24,286081,2,0,P|372:20|312:129,1,206.999993682861,2|8,1:2|0:0,0:0:0:0:
434,251,286342,1,0,0:0:0:0:
489,196,286430,6,0,P|500:158|500:68,1,109.24999708271,2|0,1:2|0:0,0:0:0:0:
350,241,286604,2,0,P|361:279|361:369,1,109.24999708271,10|0,0:0|0:0,0:0:0:0:
287,110,286778,6,0,P|276:72|276:-18,1,109.24999708271,2|0,1:2|0:0,0:0:0:0:
478,205,286953,2,0,P|467:243|467:333,1,109.24999708271,10|0,0:0|0:0,0:0:0:0:
239,286,287127,5,2,1:2:0:0:
239,286,287215,1,0,0:0:0:0:
239,286,287302,2,0,P|194:242|205:171,1,103.499996841431,10|0,0:0|0:0,0:0:0:0:
395,154,287476,6,0,P|395:204|363:243,1,103.499996841431,2|0,1:2|0:0,0:0:0:0:
389,326,287651,2,0,P|345:351|295:343,1,103.499996841431,10|0,0:0|0:0,0:0:0:0:
145,320,287825,6,0,P|57:297|0:387,1,206.999993682861,2|8,1:2|0:0,0:0:0:0:
94,106,288174,2,0,P|145:189|239:168,1,206.999993682861,2|8,1:2|0:0,0:0:0:0:
420,287,288436,1,0,0:0:0:0:
409,283,288523,6,0,P|342:277|302:308,1,103.499996841431,2|0,1:2|0:0,0:0:0:0:
244,375,288697,2,0,P|215:313|168:294,1,103.499996841431,10|0,0:0|0:0,0:0:0:0:
81,278,288872,2,0,P|119:222|83:95,1,206.999993682861,2|8,1:2|0:0,0:0:0:0:
205,19,289133,1,0,0:0:0:0:
227,93,289221,6,0,P|238:165|306:196,1,103.499996841431,2|0,1:2|0:0,0:0:0:0:
414,132,289395,2,0,P|403:60|335:29,1,103.499996841431,10|0,0:0|0:0,0:0:0:0:
298,248,289569,6,0,P|287:320|219:351,1,103.499996841431,2|0,1:2|0:0,0:0:0:0:
90,280,289744,2,0,P|101:208|169:177,1,103.499996841431,10|0,0:0|0:0,0:0:0:0:
380,220,289918,5,2,1:2:0:0:
391,227,289976,1,0,0:0:0:0:
404,230,290034,1,0,0:0:0:0:
431,224,290092,6,0,P|466:182|457:106,1,103.499996841431,10|0,0:0|0:0,0:0:0:0:
267,72,290267,2,0,P|271:122|305:161,1,103.499996841431,2|0,1:2|0:0,0:0:0:0:
447,307,290441,1,10,0:0:0:0:
420,379,290528,1,0,0:0:0:0:
370,319,290616,5,14,1:2:0:0:
257,254,290790,1,0,1:3:0:0:
232,294,290877,1,0,1:3:0:0:
257,335,290965,5,2,1:2:0:0:
433,191,291139,1,0,1:3:0:0:
364,224,291226,1,0,1:3:0:0:
313,167,291313,5,14,0:0:0:0:
159,194,291488,1,0,1:3:0:0:
106,168,291575,1,0,1:3:0:0:
67,212,291662,5,2,1:2:0:0:
164,347,291837,1,0,1:3:0:0:
239,326,291924,1,0,1:3:0:0:
184,272,292011,5,14,1:2:0:0:
147,211,292098,1,0,1:3:0:0:
163,142,292185,1,0,1:3:0:0:
224,104,292273,1,0,1:3:0:0:
323,130,292360,5,14,0:0:0:0:
309,169,292447,1,0,0:0:0:0:
272,188,292534,1,0,0:0:0:0:
230,180,292622,1,0,0:0:0:0:
184,78,292709,5,14,0:0:0:0:
220,120,292796,1,0,1:3:0:0:
217,174,292883,1,0,0:0:0:0:
179,214,292971,1,0,1:3:0:0:
39,195,293058,5,14,0:0:0:0:
111,181,293145,1,8,0:0:0:0:
171,221,293232,1,8,0:0:0:0:
192,291,293320,1,8,0:0:0:0:
246,367,293406,6,0,B|327:391|376:365|341:339|411:329|469:347,1,230,6|0,1:3|0:0,0:0:0:0:
465,346,293930,1,0,0:0:0:0:
381,244,294104,6,0,P|369:176|410:234,2,172.5,10|2|2,0:0|0:0|0:0,0:0:0:0:
417,62,294802,5,2,1:2:0:0:
327,25,294976,1,0,0:0:0:0:
231,40,295151,1,0,0:0:0:0:
171,117,295325,2,0,P|157:158|164:188,1,57.5
381,189,295499,6,0,P|369:256|410:198,2,172.5,10|2|2,0:0|0:0|0:0,0:0:0:0:
280,346,296197,5,2,1:2:0:0:
183,348,296371,1,0,0:0:0:0:
99,299,296546,1,0,0:0:0:0:
70,206,296720,2,0,P|71:162|88:137,1,57.5
239,74,296895,6,0,B|269:41|275:21|275:21|271:74|289:110|310:83|323:162|274:215,1,230,10|0,0:0|0:0,0:0:0:0:
282,189,297331,1,2,0:0:0:0:
294,216,297418,1,2,0:0:0:0:
277,249,297505,1,2,0:0:0:0:
307,289,297592,5,2,1:2:0:0:
157,228,297767,2,0,P|181:290|259:313,1,115,0|0,1:2|0:0,0:0:0:0:
379,202,298116,1,0,0:0:0:0:
379,202,298203,1,0,0:0:0:0:
379,202,298290,5,8,0:0:0:0:
196,137,298465,1,8,0:0:0:0:
334,121,298639,1,0,0:0:0:0:
287,254,298813,1,2,0:0:0:0:
278,277,298901,1,2,0:0:0:0:
286,308,298988,6,0,P|344:341|406:313,1,115,2|0,1:2|0:0,0:0:0:0:
221,207,299337,1,2,0:0:0:0:
342,113,299511,1,2,0:0:0:0:
268,69,299685,5,8,0:0:0:0:
381,217,299860,2,0,P|445:199|469:135,1,115,2|0,0:0|0:0,0:0:0:0:
191,21,300209,6,0,P|174:85|217:138,1,115,2|0,0:0|1:2,0:0:0:0:
342,113,300558,2,0,P|358:48|315:-4,1,115,2|0,0:0|0:0,0:0:0:0:
136,174,300906,1,2,0:0:0:0:
163,202,300993,1,0,0:0:0:0:
203,202,301081,5,8,0:0:0:0:
409,269,301255,2,0,P|327:299|249:225,1,172.5,2|0,0:0|0:0,0:0:0:0:
126,163,301604,5,2,0:0:0:0:
59,197,301691,1,2,0:0:0:0:
60,275,301778,6,0,B|131:241|107:149|79:114|17:153|3:82|28:24|51:4,1,293.2500055933,14|0,0:0|0:0,0:0:0:0:
57,12,302127,2,0,P|37:69|58:118,1,97.7500018644333,2|0,1:2|0:0,0:0:0:0:
194,200,302302,6,0,P|203:152|184:108,1,97.7500018644333,14|0,0:0|0:0,0:0:0:0:
45,283,302476,1,0,1:2:0:0:
276,205,302651,2,0,P|258:249|218:276,1,97.7500018644333,2|0,1:2|0:0,0:0:0:0:
37,111,302825,6,0,L|28:177,2,65.1666679096222,14|0|0,1:2|1:2|1:2,0:0:0:0:
47,102,302999,2,0,L|38:36,2,65.1666679096222,0|0|0,1:2|1:2|1:2,0:0:0:0:
63,111,303174,1,0,1:2:0:0:
307,87,303348,6,0,B|324:81|333:54|333:54|316:205|316:205|312:211|312:211|298:330|298:330|312:324|313:290,1,345,14|0,0:0|0:0,0:0:0:0:
220,245,303697,1,2,1:2:0:0:
146,225,303784,1,2,1:2:0:0:
96,283,303872,5,14,0:0:0:0:
123,296,303959,1,0,0:0:0:0:
150,309,304046,1,0,0:0:0:0:
177,322,304133,1,0,0:0:0:0:
125,380,304220,5,14,0:0:0:0:
194,345,304308,1,2,0:0:0:0:
263,310,304395,1,2,0:0:0:0:
332,275,304482,1,2,0:0:0:0:
411,324,304569,6,0,P|498:312|491:232,1,172.500006580353,6|0,1:3|0:0,0:0:0:0:
388,152,304831,1,2,0:0:0:0:
381,141,304918,6,0,P|396:97|450:67,1,86.2500032901765,8|0,0:0|0:0,0:0:0:0:
256,109,305092,2,0,P|252:151|272:189,1,86.2500032901765,2|0,0:0|0:0,0:0:0:0:
207,332,305267,5,2,1:2:0:0:
194,345,305354,2,0,P|108:370|58:270,1,184,8|0,0:0|0:0,0:0:0:0:
24,238,305616,2,0,B|31:218|30:195|30:195|38:217|55:230,1,86.2500032901765,10|0,0:0|0:0,0:0:0:0:
292,333,305790,1,2,0:0:0:0:
361,312,305877,1,2,0:0:0:0:
371,241,305965,6,0,P|354:160|365:63,1,172.500006580353,2|0,1:2|0:0,0:0:0:0:
157,10,306313,2,0,P|163:95|145:179,1,160.99999508667,10|0,0:0|0:0,0:0:0:0:
203,305,306575,1,0,1:2:0:0:
234,239,306662,5,10,0:0:0:0:
228,217,306749,2,0,B|262:137|262:137|327:191,1,172.500006580353,8|0,0:0|0:0,0:0:0:0:
402,275,307011,2,0,P|393:331|358:360,1,74.7499965782167,10|0,0:0|0:0,0:0:0:0:
497,180,307185,2,0,P|488:124|453:95,1,74.7499965782167
234,239,307360,6,0,B|215:211|162:189|162:189|244:200|244:200|249:205|249:205|346:221|346:221|334:210|328:192,1,310.499990524292,6|0,1:2|0:0,0:0:0:0:
343,92,307709,2,0,P|401:56|478:116,1,172.500006580353,10|0,0:0|0:0,0:0:0:0:
379,283,307970,1,0,1:2:0:0:
364,297,308058,5,10,0:0:0:0:
399,364,308145,1,8,0:0:0:0:
472,376,308232,2,0,P|512:315|500:262,1,80.499997543335,0|2,0:0|0:0,0:0:0:0:
354,100,308406,6,0,P|381:129|391:168,1,80.499997543335,8|0,0:0|0:0,0:0:0:0:
207,321,308581,2,0,P|216:282|243:253,1,80.499997543335,2|0,0:0|0:0,0:0:0:0:
168,115,308755,6,0,P|246:149|291:126,1,115,2|0,1:2|0:0,0:0:0:0:
497,60,309104,6,0,B|457:51|443:6|443:6|451:72|419:121|370:91|340:160|365:213|365:213|388:197|400:169,1,362.249988945008,14|0,0:0|0:0,0:0:0:0:
511,252,309453,6,0,B|485:253|485:253|458:260|458:260|421:260,1,86.2500032901765,2|0,1:2|0:0,0:0:0:0:
236,312,309627,1,8,0:0:0:0:
282,343,309715,1,8,0:0:0:0:
338,326,309802,5,6,0:0:0:0:
461,127,309976,1,8,0:0:0:0:
399,168,310064,1,8,0:0:0:0:
327,146,310151,6,0,P|269:136|213:239,1,172.500006580353,6|0,1:2|0:0,0:0:0:0:
236,312,310412,1,2,0:0:0:0:
243,330,310499,6,0,P|192:351|141:345,1,86.2500032901765,8|0,0:0|0:0,0:0:0:0:
310,231,310674,2,0,P|352:232|391:251,1,86.2500032901765,2|0,0:0|0:0,0:0:0:0:
182,83,310848,5,2,1:2:0:0:
161,75,310935,2,0,P|69:113|71:194,1,184,8|0,0:0|0:0,0:0:0:0:
88,260,311197,2,0,P|121:277|122:241,1,86.2500032901765,10|0,0:0|0:0,0:0:0:0:
247,130,311372,1,2,0:0:0:0:
321,112,311459,1,2,0:0:0:0:
374,167,311546,6,0,P|470:187|512:108,1,172.500006580353,2|0,1:2|0:0,0:0:0:0:
327,308,311895,2,0,P|268:250|190:277,1,160.99999508667,8|2,0:0|0:0,0:0:0:0:
114,346,312156,1,2,1:2:0:0:
59,287,312244,5,10,0:0:0:0:
47,272,312331,2,0,P|29:218|123:149,1,172.500006580353,8|0,0:0|0:0,0:0:0:0:
177,181,312592,6,0,P|235:183|258:156,1,74.7499965782167,10|0,0:0|0:0,0:0:0:0:
311,248,312767,2,0,P|341:198|329:165,1,74.7499965782167
436,165,312941,6,0,B|455:155|465:133|465:133|470:265|470:265|465:273|465:273|470:380|470:380|491:356|460:306,1,345,6|0,1:2|0:0,0:0:0:0:
386,285,313290,2,0,B|340:288|340:288|276:317|276:317|216:320,1,172.500006580353,10|0,0:0|0:0,0:0:0:0:
63,308,313552,1,0,1:2:0:0:
81,326,313639,5,10,0:0:0:0:
134,274,313726,1,8,0:0:0:0:
107,205,313813,2,0,P|77:180|24:183,1,86.2500032901765
117,69,313988,6,0,P|159:69|192:43,1,86.2500032901765,10|0,0:0|0:0,0:0:0:0:
315,147,314162,2,0,P|272:151|243:182,1,86.2500032901765,2|0,0:0|0:0,0:0:0:0:
144,282,314337,6,0,B|197:335|296:307|244:282|327:237|421:301,1,258.75000987053,2|0,1:2|0:0,0:0:0:0:
482,308,314685,6,0,P|488:266|484:201,1,92,14|0,0:0|0:0,0:0:0:0:
404,48,314860,2,0,P|405:93|399:139,1,92,0|0,1:2|0:0,0:0:0:0:
342,345,315034,6,0,P|313:372|258:376,1,92,14|0,0:0|0:0,0:0:0:0:
173,146,315209,1,0,1:2:0:0:
119,136,315296,1,0,1:2:0:0:
71,164,315383,5,14,0:0:0:0:
119,219,315470,1,8,0:0:0:0:
191,231,315558,1,10,0:0:0:0:
250,190,315645,1,8,0:0:0:0:
258,117,315732,5,6,1:3:0:0:
323,84,315819,1,0,0:0:0:0:
393,104,315906,2,0,P|442:162|433:224,1,92,8|0,0:0|0:0,0:0:0:0:
350,336,316081,5,2,1:2:0:0:
407,365,316168,1,0,0:0:0:0:
468,348,316255,2,0,P|511:297|503:243,1,92,8|0,0:0|0:0,0:0:0:0:
318,237,316430,6,0,P|284:252|231:232,1,92,2|0,1:2|0:0,0:0:0:0:
207,330,316604,2,0,P|172:316|149:264,1,92,10|0,0:0|0:0,0:0:0:0:
182,90,316778,6,0,P|144:87|101:124,1,97.7500018644333,2|0,1:2|0:0,0:0:0:0:
45,40,316952,2,0,P|16:64|12:121,1,97.7500018644333,10|0,0:0|0:0,0:0:0:0:
180,170,317127,5,2,1:2:0:0:
229,159,317215,1,0,0:0:0:0:
259,118,317302,2,0,P|262:69|226:27,1,92,8|0,0:0|0:0,0:0:0:0:
18,129,317476,5,2,1:2:0:0:
3,176,317564,1,0,0:0:0:0:
23,223,317651,2,0,P|63:250|118:239,1,92,8|0,0:0|0:0,0:0:0:0:
255,232,317825,6,0,P|307:218|379:218,1,92,2|0,1:2|0:0,0:0:0:0:
512,302,317999,2,0,P|466:306|422:318,1,92,10|0,0:0|0:0,0:0:0:0:
344,141,318174,6,0,P|396:127|468:127,1,97.7500018644333,2|0,1:2|0:0,0:0:0:0:
363,364,318348,2,0,P|314:367|267:380,1,97.7500018644333,10|0,0:0|0:0,0:0:0:0:
209,157,318523,5,2,1:2:0:0:
169,133,318610,1,0,0:0:0:0:
123,141,318697,2,0,P|82:195|102:249,1,92,8|0,0:0|0:0,0:0:0:0:
219,273,318872,5,2,1:2:0:0:
259,297,318959,1,0,0:0:0:0:
305,289,319046,2,0,P|346:235|326:181,1,92,8|0,0:0|0:0,0:0:0:0:
301,9,319220,6,0,P|290:50|284:128,1,92,2|0,1:2|0:0,0:0:0:0:
465,294,319395,2,0,P|459:248|448:203,1,92,10|0,0:0|0:0,0:0:0:0:
472,26,319569,6,0,P|483:67|489:145,1,86.2500032901765,2|0,1:2|0:0,0:0:0:0:
352,219,319744,2,0,P|358:173|369:128,1,86.2500032901765,10|0,0:0|0:0,0:0:0:0:
200,26,319918,6,0,P|158:12|97:34,1,80.499997543335,0|0,1:2|0:0,0:0:0:0:
80,272,320092,2,0,P|130:298|188:265,1,97.7500018644333,14|0,0:0|0:0,0:0:0:0:
52,105,320267,6,0,P|94:91|155:114,1,80.499997543335,0|0,1:2|0:0,0:0:0:0:
184,286,320441,2,0,P|134:312|76:279,1,97.7500018644333,10|0,0:0|0:0,0:0:0:0:
273,68,320616,6,0,P|319:74|349:111,1,97.7500018644333,6|0,1:2|0:0,0:0:0:0:
261,358,320790,2,0,P|307:367|348:342,1,97.7500018644333,10|0,0:0|0:0,0:0:0:0:
466,89,320965,5,2,1:2:0:0:
512,150,321052,1,0,0:0:0:0:
498,227,321139,1,10,0:0:0:0:
431,268,321226,1,0,0:0:0:0:
357,234,321313,5,6,1:2:0:0:
295,213,321401,1,0,0:0:0:0:
240,246,321488,2,0,P|202:287|196:343,1,92,8|0,0:0|0:0,0:0:0:0:
39,138,321662,5,2,1:2:0:0:
90,97,321750,1,0,0:0:0:0:
153,109,321837,2,0,P|202:134|227:185,1,92,8|0,0:0|0:0,0:0:0:0:
302,328,322011,6,0,B|332:325|332:325|370:333|370:333|403:330,1,92,2|0,1:2|0:0,0:0:0:0:
437,154,322185,2,0,B|414:156|414:156|376:148|376:148|346:151,1,92,10|0,0:0|0:0,0:0:0:0:
500,316,322360,6,0,P|475:247|474:203,1,97.7500018644333,2|0,1:2|0:0,0:0:0:0:
307,19,322534,2,0,P|299:67|280:111,1,97.7500018644333,10|0,0:0|0:0,0:0:0:0:
124,313,322709,5,2,1:2:0:0:
195,332,322796,1,0,0:0:0:0:
258,297,322883,2,0,P|291:249|290:204,1,97.7500018644333,8|0,0:0|0:0,0:0:0:0:
138,48,323058,6,0,P|119:92|108:152,1,92,2|0,1:2|0:0,0:0:0:0:
0,294,323232,2,0,P|10:249|28:207,1,92,10|0,0:0|0:0,0:0:0:0:
227,31,323406,5,2,1:2:0:0:
208,73,323493,1,0,0:0:0:0:
198,117,323581,2,0,P|187:165|196:229,1,92,8|0,0:0|0:0,0:0:0:0:
364,301,323755,6,0,P|316:307|246:309,1,97.7500018644333,2|0,1:2|0:0,0:0:0:0:
17,125,323930,2,0,P|63:118|114:118,1,97.7500018644333,10|0,0:0|0:0,0:0:0:0:
328,20,324104,5,2,1:2:0:0:
369,68,324191,1,0,0:0:0:0:
367,132,324278,2,0,P|315:173|272:159,1,92,8|0,0:0|0:0,0:0:0:0:
117,132,324453,5,2,1:2:0:0:
79,175,324540,1,0,0:0:0:0:
81,234,324627,2,0,P|128:271|167:258,1,86.2500032901765,8|0,0:0|0:0,0:0:0:0:
275,380,324802,6,0,P|288:317|286:291,1,86.2500032901765,2|0,1:2|0:0,0:0:0:0:
200,74,324976,2,0,P|200:117|211:158,1,86.2500032901765,10|0,0:0|0:0,0:0:0:0:
376,208,325151,6,0,P|342:182|299:185,1,86.2500032901765,2|0,1:2|0:0,0:0:0:0:
81,309,325325,2,0,P|142:302|165:269,1,86.2500032901765,10|0,0:0|0:0,0:0:0:0:
304,86,325499,5,14,0:0:0:0:
360,54,325587,1,0,0:0:0:0:
421,72,325674,2,0,P|451:122|446:167,1,92,0|0,1:2|1:2,0:0:0:0:
511,269,325848,6,0,P|482:319|441:338,1,92,2|0,1:2|1:2,0:0:0:0:
304,261,326023,1,2,1:2:0:0:
222,250,326110,1,2,1:2:0:0:
140,237,326197,5,14,0:0:0:0:
149,309,326284,1,8,0:0:0:0:
215,341,326372,1,8,0:0:0:0:
284,316,326459,1,8,0:0:0:0:
308,246,326546,5,2,1:2:0:0:
282,187,326633,1,0,1:2:0:0:
303,126,326720,1,2,1:2:0:0:
364,105,326808,1,2,1:2:0:0:
422,131,326895,6,0,B|403:210|302:204|254:180|297:74|164:103|140:166,1,310.499990524292,6|0,1:3|0:0,0:0:0:0:
153,150,327244,1,8,0:0:0:0:
115,324,327418,2,0,P|167:325|211:281,1,86.2500032901765,2|2,0:0|0:0,0:0:0:0:
94,17,327592,6,0,P|124:123|117:220,1,195.500003728867,2|0,1:2|0:0,0:0:0:0:
386,308,327941,2,0,P|383:210|411:117,1,195.500003728867,10|0,0:0|0:0,0:0:0:0:
52,237,328290,6,0,B|26:246|16:260|16:260|171:244|171:244|178:248|178:248|248:243|248:243|219:254|211:271,1,310.499990524292,2|0,1:2|0:0,0:0:0:0:
215,273,328639,1,8,0:0:0:0:
392,320,328813,2,0,P|421:281|408:229,1,86.2500032901765,2|2,0:0|0:0,0:0:0:0:
303,66,328988,5,2,1:2:0:0:
345,111,329075,1,8,0:0:0:0:
405,105,329162,1,0,1:2:0:0:
200,303,329337,2,0,P|128:222|23:268,1,195.500003728867,10|0,0:0|0:0,0:0:0:0:
195,40,329685,6,0,B|168:96|206:187|315:171|344:137|336:92|336:92|299:93|268:56,1,310.499990524292,2|0,1:2|0:0,0:0:0:0:
286,66,330034,1,8,0:0:0:0:
471,14,330209,2,0,P|493:61|474:125,1,86.2500032901765,2|2,0:0|0:0,0:0:0:0:
392,252,330383,5,2,1:2:0:0:
364,305,330470,1,8,0:0:0:0:
373,365,330558,1,0,1:2:0:0:
142,217,330732,2,0,B|221:120|189:21|135:19|104:2|95:123|196:101,1,310.499990524292,10|0,0:0|0:0,0:0:0:0:
278,162,331081,5,6,1:2:0:0:
335,172,331168,1,2,0:0:0:0:
381,135,331255,2,0,P|403:79|376:34,1,97.7500018644333,2|0,0:0|0:0,0:0:0:0:
461,223,331430,5,10,0:0:0:0:
489,273,331517,1,2,0:0:0:0:
470,329,331604,2,0,P|424:368|373:358,1,97.7500018644333,2|0,0:0|0:0,0:0:0:0:
236,231,331778,6,0,P|196:231|131:287,1,97.7500018644333,6|2,1:2|0:0,0:0:0:0:
58,179,331953,2,0,P|38:213|53:297,1,97.7500018644333,2|0,1:2|0:0,0:0:0:0:
297,312,332127,5,10,0:0:0:0:
335,251,332215,1,10,0:0:0:0:
328,178,332302,1,10,0:0:0:0:
277,125,332389,1,8,0:0:0:0:
258,138,332476,6,0,P|213:148|170:128,1,80.499997543335,0|0,1:2|0:0,0:0:0:0:
101,16,332651,6,0,B|87:32|56:45|56:45|206:36|206:36|212:41|212:41|314:34,1,310.499990524292,14|0,0:0|0:0,0:0:0:0:
395,0,332999,2,0,P|395:71|363:97,1,86.2500032901765,2|2,0:0|0:0,0:0:0:0:
254,221,333174,5,2,1:2:0:0:
244,280,333261,1,8,0:0:0:0:
288,321,333348,1,0,1:2:0:0:
239,119,333523,2,0,B|166:84|103:110|150:137|68:174|-26:95|38:26,1,293.2500055933,10|0,0:0|0:0,0:0:0:0:
113,7,333872,6,0,B|102:116|102:116|46:204|46:204|34:316,1,327.749991248131,2|0,1:2|0:0,0:0:0:0:
33,331,334220,1,8,0:0:0:0:
173,188,334395,2,0,P|229:197|267:263,1,92,2|2,0:0|0:0,0:0:0:0:
378,363,334569,5,2,1:2:0:0:
439,380,334656,1,8,0:0:0:0:
489,338,334744,1,0,1:2:0:0:
333,111,334918,2,0,P|255:98|175:185,1,195.500003728867,10|0,0:0|0:0,0:0:0:0:
395,273,335267,6,0,B|420:253|467:255|467:255|401:235|360:271|374:286|308:317|238:254,1,310.499990524292,2|0,1:2|0:0,0:0:0:0:
236,256,335616,5,10,0:0:0:0:
135,341,335732,1,2,0:0:0:0:
111,211,335848,1,2,0:0:0:0:
269,336,335965,5,2,1:2:0:0:
309,304,336052,1,8,0:0:0:0:
360,298,336139,1,0,1:2:0:0:
407,317,336226,1,0,0:0:0:0:
431,362,336313,6,0,P|484:385|530:345,1,92,10|0,0:0|0:0,0:0:0:0:
432,189,336488,1,0,0:0:0:0:
432,189,336575,1,0,0:0:0:0:
432,189,336662,6,0,P|462:140|449:83,1,92,6|8,1:2|0:0,0:0:0:0:
303,114,336837,2,0,P|295:69|264:36,1,92,0|0,1:2|0:0,0:0:0:0:
153,213,337011,5,10,0:0:0:0:
272,247,337127,1,10,0:0:0:0:
87,277,337244,1,10,0:0:0:0:
184,353,337360,5,6,1:2:0:0:
177,289,337447,1,8,0:0:0:0:
170,225,337534,1,0,1:2:0:0:
163,160,337622,1,0,1:2:0:0:
157,95,337709,2,0,L|147:0,1,92,14|2,0:0|0:0,0:0:0:0:
413,96,337883,1,8,0:0:0:0:
391,168,337971,1,0,1:2:0:0:
338,115,338058,5,14,0:3:0:0:
87,277,338232,1,8,0:0:0:0:
255,191,343465,6,0,P|205:187|172:159,1,74.7499965782167,2|0,1:2|1:3,0:0:0:0:
136,45,343639,1,6,1:3:0:0:
105,276,343813,1,2,1:2:0:0:
52,209,343988,1,8,0:0:0:0:
52,209,344685,1,8,0:0:0:0:
189,309,344860,6,0,P|221:291|258:292,1,74.7499965782167,2|0,1:2|1:2,0:0:0:0:
328,101,345034,1,2,1:2:0:0:
359,332,345208,1,2,1:2:0:0:
412,265,345383,1,8,0:0:0:0:
248,217,345558,6,0,P|210:217|178:200,1,74.7499965782167,2|0,1:2|1:2,0:0:0:0:
340,21,345732,1,2,1:2:0:0:
121,128,345906,1,2,1:2:0:0:
338,229,346081,5,10,0:0:0:0:
138,50,346255,2,0,P|100:49|68:66,1,74.7499965782167,2|0,1:2|1:2,0:0:0:0:
176,291,346430,6,0,L|189:210,1,80.499997543335,2|0,0:0|0:0,0:0:0:0:
219,39,346604,2,0,L|206:118,1,80.499997543335,0|0,1:2|0:0,0:0:0:0:
355,318,346778,6,0,L|342:237,1,80.499997543335,10|0,0:0|0:0,0:0:0:0:
312,66,346952,2,0,L|324:145,1,80.499997543335,0|0,1:2|0:0,0:0:0:0:
44,244,347127,5,10,0:0:0:0:
99,291,347215,1,0,1:2:0:0:
170,281,347302,1,0,1:2:0:0:
213,223,347389,1,0,1:2:0:0:
191,154,347476,5,10,0:0:0:0:
58,360,347651,1,0,0:0:0:0:
7,95,347825,5,14,0:0:0:0:
225,229,348000,1,0,1:2:0:0:
282,233,348087,1,0,1:2:0:0:
309,179,348175,1,2,0:0:0:0:
158,92,348348,5,0,1:2:0:0:
135,135,348435,1,0,1:2:0:0:
94,44,348523,5,10,0:0:0:0:
417,35,348872,6,0,B|473:73|447:188|409:132|370:194|356:282|444:333,1,327.749991248131,14|0,0:0|0:0,0:0:0:0:
496,266,349220,6,0,P|456:212|404:208,1,109.24999708271,6|0,1:3|0:0,0:0:0:0:
253,247,349395,1,0,0:0:0:0:
353,81,349569,6,0,P|286:88|256:131,1,103.499996841431,10|0,0:0|0:0,0:0:0:0:
258,258,349744,1,0,0:0:0:0:
142,107,349918,6,0,P|115:168|137:215,1,97.7500018644333,2|0,1:2|0:0,0:0:0:0:
263,269,350092,1,0,0:0:0:0:
103,290,350267,6,0,P|142:344|194:347,1,92,14|0,0:0|0:0,0:0:0:0:
338,178,350441,1,2,0:0:0:0:
405,142,350529,1,2,0:0:0:0:
462,190,350616,6,0,P|441:255|401:264,1,109.24999708271,6|0,1:2|0:0,0:0:0:0:
287,55,350790,1,0,0:0:0:0:
335,255,350965,6,0,P|274:286|239:264,1,103.499996841431,10|0,0:0|0:0,0:0:0:0:
292,46,351139,1,0,0:0:0:0:
197,219,351313,6,0,P|132:197|123:157,1,97.7500018644333,2|8,1:2|0:0,0:0:0:0:
297,37,351488,1,0,0:0:0:0:
166,112,351662,6,0,P|134:51|156:16,1,92,14|0,0:0|0:0,0:0:0:0:
405,140,351837,1,2,0:0:0:0:
422,211,351924,1,2,0:0:0:0:
379,271,352011,6,0,P|309:265|280:222,1,109.24999708271,6|0,1:2|0:0,0:0:0:0:
214,0,352185,1,0,0:0:0:0:
64,237,352360,6,0,P|134:231|163:188,1,103.499996841431,10|0,0:0|0:0,0:0:0:0:
218,12,352534,1,0,0:0:0:0:
373,172,352709,6,0,P|303:166|274:123,1,97.7500018644333,2|0,1:2|1:2,0:0:0:0:
222,24,352883,1,0,0:0:0:0:
64,144,353058,6,0,P|134:138|163:95,1,92,14|0,0:0|0:0,0:0:0:0:
320,31,353232,1,2,0:0:0:0:
387,2,353319,1,2,0:0:0:0:
447,43,353406,6,0,P|460:109|432:149,1,109.24999708271,6|0,1:2|0:0,0:0:0:0:
224,103,353581,1,8,0:0:0:0:
150,235,353755,6,0,P|200:279|249:275,1,109.24999708271,10|0,0:0|0:0,0:0:0:0:
306,376,353930,2,0,P|369:354|390:310,1,109.24999708271,2|0,0:0|0:0,0:0:0:0:
506,311,354104,2,0,P|519:245|490:204,1,109.24999708271,6|8,1:2|0:0,0:0:0:0:
307,156,354278,1,0,0:0:0:0:
340,89,354366,1,0,0:0:0:0:
409,116,354453,6,0,P|409:185|362:229,1,109.24999708271,14|0,0:0|0:0,0:0:0:0:
198,58,354627,2,0,P|257:23|319:42,1,109.24999708271,10|0,0:0|0:0,0:0:0:0:
254,270,354802,6,0,P|194:235|179:172,1,115,6|0,1:2|0:0,0:0:0:0:
134,7,354976,1,0,0:0:0:0:
265,271,355151,6,0,P|208:286|161:257,1,109.24999708271,10|0,0:0|0:0,0:0:0:0:
33,172,355325,1,0,0:0:0:0:
274,266,355499,6,0,P|247:311|199:322,1,103.499996841431,2|8,1:2|0:0,0:0:0:0:
73,340,355673,1,0,0:0:0:0:
279,257,355848,6,0,P|292:307|266:349,1,97.7500018644333,14|0,0:0|0:0,0:0:0:0:
123,164,356023,1,2,0:0:0:0:
175,106,356110,1,2,0:0:0:0:
245,139,356197,6,0,P|320:162|378:109,1,115,6|0,1:2|0:0,0:0:0:0:
490,0,356372,1,0,0:0:0:0:
512,188,356546,6,0,P|444:208|392:173,1,109.24999708271,10|0,0:0|0:0,0:0:0:0:
291,69,356721,1,0,0:0:0:0:
270,245,356895,6,0,P|330:267|384:238,1,103.499996841431,2|8,1:2|0:0,0:0:0:0:
458,132,357070,1,0,0:0:0:0:
512,308,357244,6,0,P|444:328|392:293,1,97.7500018644333,14|0,0:0|0:0,0:0:0:0:
228,171,357418,1,2,0:0:0:0:
150,161,357505,1,2,0:0:0:0:
105,224,357592,6,0,P|123:290|195:296,1,115,6|0,1:2|0:0,0:0:0:0:
214,40,357767,1,0,0:0:0:0:
239,288,357941,6,0,P|305:305|346:246,1,109.24999708271,10|0,0:0|0:0,0:0:0:0:
206,31,358116,1,0,0:0:0:0:
358,213,358290,6,0,P|406:164|375:99,1,103.499996841431,2|8,1:2|0:0,0:0:0:0:
198,22,358465,1,0,0:0:0:0:
339,95,358639,6,0,P|321:29|249:23,1,97.7500018644333,14|0,0:0|0:0,0:0:0:0:
88,97,358813,1,2,0:0:0:0:
48,165,358901,1,2,0:0:0:0:
90,230,358988,6,0,P|175:227|191:160,1,115,6|0,1:2|0:0,0:0:0:0:
267,87,359162,1,0,0:0:0:0:
480,345,359337,6,0,P|395:342|379:275,1,115,10|0,0:0|0:0,0:0:0:0:
405,231,359511,2,0,P|490:234|506:301,1,115,2|0,0:0|0:0,0:0:0:0:
301,376,359685,2,0,P|241:314|276:255,1,115,6|0,1:2|0:0,0:0:0:0:
243,69,359860,1,0,1:2:0:0:
193,50,359947,1,0,1:2:0:0:
141,74,360034,5,14,0:0:0:0:
183,135,360122,1,10,0:0:0:0:
257,142,360209,1,10,0:0:0:0:
316,97,360296,1,10,0:0:0:0:
322,23,360383,6,0,B|249:-8|195:41|226:55|156:94|110:105|50:78|28:24,1,310.499990524292,6|0,1:3|0:0,0:0:0:0:
35,31,360732,1,10,0:0:0:0:
40,306,360906,2,0,B|44:251|44:251|3:202|3:202|9:148,1,172.500006580353,2|0,0:0|1:2,0:0:0:0:
326,274,361255,5,2,0:0:0:0:
164,202,361430,1,10,0:0:0:0:
122,375,361604,1,2,0:0:0:0:
17,139,361778,5,2,1:2:0:0:
179,211,361953,1,2,0:0:0:0:
221,38,362127,1,10,0:0:0:0:
95,219,362302,2,0,P|160:295|249:254,1,172.500006580353,2|0,0:0|1:2,0:0:0:0:
354,93,362651,5,2,0:0:0:0:
152,81,362825,2,0,P|130:69|112:38,2,57.500002193451,10|0|0,0:0|0:0|0:0,0:0:0:0:
214,43,362999,1,2,0:0:0:0:
361,271,363174,5,2,1:2:0:0:
219,370,363348,1,2,0:0:0:0:
283,202,363523,1,10,0:0:0:0:
396,341,363697,2,0,P|439:284|385:198,1,172.500006580353,2|0,0:0|1:2,0:0:0:0:
86,178,364046,5,2,0:0:0:0:
228,277,364220,1,10,0:0:0:0:
164,109,364395,1,2,0:0:0:0:
16,267,364569,6,0,P|16:313|26:357,1,86.2500032901765,2|0,1:2|0:0,0:0:0:0:
166,206,364744,2,0,P|174:163|174:120,1,86.2500032901765,0|0,0:0|1:2,0:0:0:0:
285,343,364918,5,10,0:0:0:0:
355,312,365005,1,8,0:0:0:0:
426,281,365092,1,0,1:2:0:0:
435,292,365180,1,0,1:2:0:0:
444,303,365267,5,14,0:0:0:0:
410,352,365354,1,8,0:0:0:0:
350,344,365441,1,8,0:0:0:0:
329,287,365528,1,8,0:0:0:0:
362,236,365616,5,2,1:2:0:0:
375,195,365703,1,0,1:2:0:0:
356,156,365790,1,0,1:2:0:0:
314,143,365877,1,0,1:2:0:0:
275,163,365965,5,6,1:2:0:0:
85,246,366139,1,2,0:0:0:0:
2,56,366313,1,10,0:0:0:0:
204,239,366488,2,0,P|243:300|197:388,1,172.500006580353,2|0,0:0|1:2,0:0:0:0:
323,147,366837,5,2,0:0:0:0:
103,22,367011,1,10,0:0:0:0:
120,20,367069,1,0,0:0:0:0:
137,18,367127,1,0,0:0:0:0:
154,16,367185,1,2,0:0:0:0:
93,238,367360,5,2,1:2:0:0:
257,75,367534,1,2,0:0:0:0:
316,298,367709,1,10,0:0:0:0:
162,128,367883,2,0,P|71:116|9:193,1,172.500006580353,2|0,0:0|1:2,0:0:0:0:
217,289,368232,5,2,0:0:0:0:
272,66,368406,1,10,0:0:0:0:
277,82,368465,1,0,0:0:0:0:
282,98,368523,1,0,0:0:0:0:
287,114,368581,1,2,0:0:0:0:
126,238,368755,5,2,1:2:0:0:
340,185,368930,1,2,0:0:0:0:
508,324,369104,1,10,0:0:0:0:
238,269,369278,2,0,P|218:214|306:124,1,172.500006580353,2|0,0:0|1:2,0:0:0:0:
393,351,369627,5,2,0:0:0:0:
501,146,369802,1,10,0:0:0:0:
498,128,369860,1,0,0:0:0:0:
496,110,369918,1,0,0:0:0:0:
494,92,369976,1,2,0:0:0:0:
300,296,370151,6,0,P|397:321|426:222,1,172.500006580353,6|2,1:2|0:0,0:0:0:0:
370,170,370412,1,0,1:2:0:0:
413,111,370500,5,14,0:0:0:0:
431,92,370587,1,8,0:0:0:0:
455,83,370674,1,10,0:0:0:0:
480,82,370761,1,8,0:0:0:0:
499,179,370848,5,6,1:2:0:0:
481,151,370935,1,0,1:2:0:0:
454,134,371022,1,2,1:2:0:0:
425,128,371109,1,0,1:2:0:0:
365,179,371197,5,14,0:0:0:0:
340,200,371284,1,2,1:2:0:0:
294,184,371372,1,2,1:2:0:0:
245,216,371459,1,10,0:0:0:0:
182,155,371546,6,0,B|164:140|135:133|135:133|303:121|303:121|311:124|311:124|399:116|399:116|372:100|346:98,1,345,14|0,0:3|0:0,0:0:0:0:
318,38,371895,2,0,P|290:105|359:186,1,172.500006580353,2|0,1:2|0:0,0:0:0:0:
488,264,372244,6,0,P|422:255|378:285,1,97.7500018644333,2|0,1:2|0:0,0:0:0:0:
231,325,372418,2,0,P|288:291|340:303,1,97.7500018644333,2|0,0:0|0:0,0:0:0:0:
379,346,372592,1,0,1:2:0:0:
466,83,372767,6,0,B|457:172|360:205|269:137|268:67|299:19|353:12|411:34|381:99,1,345,10|0,1:2|0:0,0:0:0:0:
387,65,373116,1,0,0:0:0:0:
262,189,373290,2,0,B|209:192|209:192|159:156|159:156|86:160,1,172.500006580353,2|0,1:2|0:0,0:0:0:0:
25,293,373639,6,0,L|123:284,1,97.7500018644333,2|0,1:2|0:0,0:0:0:0:
360,327,373813,2,0,L|262:336,1,97.7500018644333,2|0,0:0|0:0,0:0:0:0:
193,310,373988,1,0,1:2:0:0:
383,147,374162,6,0,B|419:157|437:176|437:176|437:148|453:117|453:117|389:119|341:143|364:158|329:184|277:193|237:178|225:133,1,345,10|0,0:0|0:0,0:0:0:0:
238,154,374511,1,0,0:0:0:0:
53,65,374685,2,0,P|141:39|203:101,1,172.500006580353,2|0,1:2|0:0,0:0:0:0:
0,384,375034,6,0,B|-11:319|-11:319|8:287,1,97.7500018644333,2|0,1:2|0:0,0:0:0:0:
153,163,375209,2,0,B|164:228|164:228|145:260,1,97.7500018644333,2|0,0:0|0:0,0:0:0:0:
78,275,375383,1,0,1:2:0:0:
271,360,375558,6,0,B|332:396|414:354|421:277|394:184|305:188|281:215|249:160|247:63|295:33|356:8,1,460,14|0,0:0|0:0,0:0:0:0:
384,16,375994,1,0,0:0:0:0:
384,16,376081,1,2,1:2:0:0:
246,168,376255,6,0,P|207:184|134:123,1,103.499996841431,14|0,0:0|0:0,0:0:0:0:
109,6,376430,2,0,P|77:34|100:126,1,103.499996841431
144,256,376604,1,0,1:2:0:0:
142,276,376662,1,2,0:0:0:0:
140,296,376720,1,2,0:0:0:0:
139,316,376778,6,0,P|81:347|38:329,1,103.499996841431,10|0,0:0|0:0,0:0:0:0:
252,284,376953,1,2,0:0:0:0:
252,284,377040,1,0,0:0:0:0:
306,334,377127,6,0,B|405:385|508:327|500:268|475:174|353:242|398:338,1,345,14|0,0:0|0:0,0:0:0:0:
384,317,377476,2,0,B|371:222|371:222|366:215|366:215|353:113,1,206.999993682861,2|0,1:2|0:0,0:0:0:0:
501,24,377825,6,0,P|443:21|407:48,1,103.499996841431,2|0,1:2|0:0,0:0:0:0:
189,155,377999,2,0,P|234:181|286:174,1,103.499996841431,2|0,0:0|0:0,0:0:0:0:
325,16,378174,1,0,1:2:0:0:
468,268,378348,6,0,B|354:276|354:276|348:281|348:281|160:297|160:297|179:312|201:311,1,345,10|0,0:0|0:0,0:0:0:0:
206,316,378697,2,0,P|228:260|217:194,1,86.2500032901765,2|0,0:0|0:0,0:0:0:0:
126,58,378872,2,0,B|64:58|38:112|38:112|91:70|157:94,1,206.999993682861,2|0,1:2|0:0,0:0:0:0:
406,176,379220,6,0,L|290:188,1,103.499996841431,2|0,1:2|0:0,0:0:0:0:
205,13,379395,2,0,L|307:2,1,103.499996841431,2|0,0:0|0:0,0:0:0:0:
142,161,379569,1,0,1:2:0:0:
408,288,379744,6,0,B|331:263|268:310|306:348|206:372|135:313|135:313|145:291|196:288,1,345,10|0,0:0|0:0,0:0:0:0:
182,281,380092,2,0,P|205:313|198:369,1,86.2500032901765,2|0,0:0|0:0,0:0:0:0:
315,193,380267,2,0,P|360:106|267:16,1,206.999993682861,2|0,1:2|0:0,0:0:0:0:
49,224,380616,6,0,B|102:236|102:236|156:197,1,103.499996841431,2|0,1:2|0:0,0:0:0:0:
208,0,380790,2,0,B|155:-12|155:-12|101:27,1,103.499996841431,2|0,0:0|0:0,0:0:0:0:
258,249,380965,1,2,1:2:0:0:
454,74,381139,6,0,B|468:85|474:96|474:96|299:107|299:107|295:111|295:111|193:118|193:118|214:123|242:151,1,345,14|0,0:0|0:0,0:0:0:0:
307,188,381488,6,0,P|337:237|309:299,1,103.499996841431,2|0,1:2|0:0,0:0:0:0:
424,265,381662,2,0,P|410:320|346:344,1,103.499996841431,2|0,1:2|0:0,0:0:0:0:
187,215,381837,6,0,B|108:189|103:234|84:226|53:271|-20:278|-113:167|92:82|68:238,1,345,14|0,0:0|0:0,0:0:0:0:
37,347,382185,5,10,0:0:0:0:
55,332,382273,1,2,0:0:0:0:
87,320,382360,1,2,1:2:0:0:
132,311,382447,1,2,0:0:0:0:
189,306,382534,1,2,0:0:0:0:
258,308,382622,1,2,0:0:0:0:
333,333,382709,5,6,1:3:0:0:
408,305,382796,1,2,0:0:0:0:
416,236,382883,1,2,0:0:0:0:
379,191,382970,1,2,0:0:0:0:
333,184,383058,1,10,0:0:0:0:
300,196,383145,1,0,0:0:0:0:
265,193,383232,1,0,0:0:0:0:
237,172,383319,1,0,0:0:0:0:
227,138,383406,2,0,P|232:108|256:74,1,57.5,0|0,1:2|1:2,0:0:0:0:
427,21,383581,1,2,0:0:0:0:
445,76,383668,1,2,0:0:0:0:
463,131,383755,5,10,0:0:0:0:
388,99,383842,1,2,0:0:0:0:
325,128,383930,1,2,0:0:0:0:
309,183,384017,1,2,0:0:0:0:
335,220,384104,5,2,1:2:0:0:
356,297,384191,1,2,0:0:0:0:
316,353,384278,1,2,0:0:0:0:
259,366,384366,1,2,0:0:0:0:
216,349,384453,1,10,0:0:0:0:
195,321,384540,1,0,0:0:0:0:
172,295,384627,1,0,0:0:0:0:
139,282,384715,1,0,0:0:0:0:
104,285,384802,2,0,P|77:302|58:348,1,57.5,0|0,1:2|1:2,0:0:0:0:
272,284,384976,5,2,0:0:0:0:
268,249,385063,1,2,0:0:0:0:
324,195,385151,5,10,0:0:0:0:
327,163,385238,1,2,0:0:0:0:
274,115,385325,5,2,0:0:0:0:
270,87,385412,1,2,0:0:0:0:
334,30,385499,5,2,1:2:0:0:
409,0,385587,1,2,0:0:0:0:
469,31,385674,1,2,0:0:0:0:
479,87,385761,1,2,0:0:0:0:
456,126,385848,1,10,0:0:0:0:
430,149,385935,1,0,0:0:0:0:
417,181,386023,1,0,0:0:0:0:
420,215,386110,1,0,0:0:0:0:
438,243,386197,2,0,P|471:256|501:247,1,57.5,0|8,1:2|0:0,0:0:0:0:
379,80,386372,1,2,0:0:0:0:
322,88,386459,1,2,0:0:0:0:
265,97,386546,5,10,0:0:0:0:
301,168,386633,1,2,0:0:0:0:
277,232,386720,1,2,0:0:0:0:
222,252,386808,1,2,0:0:0:0:
179,235,386895,5,6,1:2:0:0:
145,225,386982,1,2,0:0:0:0:
111,233,387069,1,2,0:0:0:0:
87,257,387156,1,2,0:0:0:0:
0,274,387244,5,14,0:0:0:0:
41,263,387331,1,0,0:0:0:0:
81,272,387418,1,2,0:0:0:0:
110,301,387505,1,2,0:0:0:0:
215,316,387592,5,6,1:2:0:0:
167,302,387679,1,2,0:0:0:0:
119,313,387766,1,2,1:2:0:0:
86,346,387853,1,2,1:2:0:0:
13,382,387941,5,14,0:0:0:0:
13,302,388028,1,10,0:0:0:0:
47,229,388115,1,10,0:0:0:0:
107,176,388202,1,10,0:0:0:0:
183,152,388289,5,6,1:2:0:0:
160,239,388377,1,2,0:0:0:0:
211,296,388465,1,2,0:0:0:0:
274,298,388552,1,2,0:0:0:0:
314,267,388639,1,10,0:0:0:0:
348,250,388726,1,0,0:0:0:0:
385,246,388813,1,0,0:0:0:0:
419,262,388901,1,0,0:0:0:0:
439,293,388988,2,0,P|451:347|442:372,1,63.2500019302369,0|8,1:2|0:0,0:0:0:0:
275,188,389162,1,2,0:0:0:0:
262,126,389249,1,2,0:0:0:0:
302,76,389337,5,10,0:0:0:0:
355,146,389424,1,2,0:0:0:0:
330,217,389511,1,2,0:0:0:0:
268,231,389598,1,2,0:0:0:0:
220,213,389685,5,2,1:2:0:0:
131,221,389773,1,2,0:0:0:0:
86,282,389860,1,2,0:0:0:0:
102,342,389947,1,2,0:0:0:0:
146,365,390034,1,10,0:0:0:0:
183,356,390122,1,0,0:0:0:0:
207,327,390209,1,0,0:0:0:0:
206,289,390296,1,0,0:0:0:0:
183,258,390383,2,0,P|152:244|110:258,1,63.2500019302369,0|0,1:2|1:2,0:0:0:0:
20,108,390558,5,2,0:0:0:0:
57,101,390645,1,2,0:0:0:0:
120,44,390732,5,10,0:0:0:0:
150,50,390819,1,2,0:0:0:0:
202,109,390906,5,2,0:0:0:0:
226,103,390994,1,2,0:0:0:0:
283,51,391081,5,2,1:2:0:0:
364,17,391168,1,2,0:0:0:0:
433,47,391255,1,2,0:0:0:0:
444,109,391342,1,2,0:0:0:0:
421,154,391430,1,10,0:0:0:0:
388,173,391517,1,0,0:0:0:0:
368,205,391604,1,0,0:0:0:0:
365,242,391691,1,0,0:0:0:0:
382,275,391778,2,0,P|409:300|462:297,1,63.2500019302369,0|0,1:2|1:2,0:0:0:0:
276,170,391953,1,2,0:0:0:0:
213,179,392040,1,2,0:0:0:0:
150,189,392127,5,10,0:0:0:0:
188,269,392215,1,2,0:0:0:0:
154,337,392302,1,2,0:0:0:0:
94,358,392389,1,2,0:0:0:0:
45,344,392476,5,6,1:2:0:0:
25,311,392563,1,2,0:0:0:0:
30,273,392651,1,2,0:0:0:0:
56,246,392738,1,2,1:2:0:0:
55,152,392825,5,14,0:0:0:0:
49,198,392912,1,2,0:0:0:0:
74,237,393000,1,2,0:0:0:0:
120,253,393087,1,2,1:2:0:0:
204,331,393174,5,14,1:2:0:0:
153,300,393261,1,2,1:2:0:0:
137,245,393348,2,0,P|148:188|177:170,1,63.2500019302369,2|0,1:2|1:2,0:0:0:0:
313,267,393523,5,14,0:0:0:0:
403,285,393610,1,10,0:0:0:0:
475,228,393697,1,10,0:0:0:0:
478,137,393784,1,10,0:0:0:0:
413,70,393872,6,0,B|343:0|188:69|227:181|227:181|304:200|331:134,1,396.750007567406,6|0,1:3|0:0,0:0:0:0:
479,239,394220,6,0,P|477:334|380:372,1,206.999993682861,2|8,1:2|0:0,0:0:0:0:
304,256,394482,1,2,0:0:0:0:
242,306,394569,6,0,B|91:312|91:312|135:298|168:238,1,206.999993682861,2|8,1:2|0:0,0:0:0:0:
327,143,394918,2,0,B|376:125|416:138|393:154|435:169|487:206|516:145|519:102|489:71|442:60|398:98|394:141,1,310.499990524292,2|0,1:2|0:0,0:0:0:0:
304,256,395267,6,0,B|327:337|428:352|466:294|466:294|429:313|394:293,2,241.499992630005,2|8|0,1:2|0:0|1:2,0:0:0:0:
213,68,395703,1,2,0:0:0:0:
177,64,395790,1,10,0:0:0:0:
146,79,395877,1,2,0:0:0:0:
188,138,395965,6,0,B|205:195|156:244|156:244|193:185|139:114,1,206.999993682861,2|8,1:2|0:0,0:0:0:0:
439,88,396313,5,0,1:2:0:0:
433,132,396401,1,0,1:2:0:0:
389,167,396488,1,8,0:0:0:0:
326,162,396575,1,2,0:0:0:0:
295,99,396662,6,0,B|336:32|408:40|383:59|481:82|504:-10,2,241.499992630005,2|8|0,1:2|0:0|1:2,0:0:0:0:
229,284,397098,1,2,0:0:0:0:
243,315,397185,1,10,0:0:0:0:
274,333,397273,1,2,0:0:0:0:
298,263,397360,6,0,P|346:241|403:256,1,103.499996841431,2|0,1:2|0:0,0:0:0:0:
512,384,397534,1,10,0:0:0:0:
401,162,397709,6,0,P|450:180|480:231,1,103.499996841431,2|0,1:2|0:0,0:0:0:0:
436,355,397883,1,10,0:0:0:0:
490,45,398058,6,0,B|433:57|379:12|379:12|371:77|299:109,1,241.499992630005,6|8,1:2|0:0,0:0:0:0:
203,253,398319,2,0,P|303:191|395:164,1,206.999993682861,6|0,0:0|0:0,0:0:0:0:
468,233,398581,2,0,P|476:274|448:243,1,103.499996841431,14|0,0:0|0:0,0:0:0:0:
227,126,398755,6,0,B|123:67|9:85|9:85|67:92|103:139,1,310.499990524292,6|0,1:2|0:0,0:0:0:0:
203,253,399104,5,0,1:2:0:0:
210,271,399191,1,0,1:2:0:0:
197,296,399278,5,10,0:0:0:0:
234,255,399366,1,2,0:0:0:0:
295,262,399453,6,0,B|389:273|438:212|441:126|409:94|339:74|339:74|357:129|322:182,1,396.750007567406,6|0,1:3|0:0,0:0:0:0:
327,163,399802,1,0,1:2:0:0:
39,132,399976,1,8,0:0:0:0:
50,127,400034,1,2,0:0:0:0:
69,130,400092,1,2,0:0:0:0:
84,118,400151,6,0,B|102:97|96:76|96:76|89:187|89:187|87:193|87:193|82:299|82:299|86:281|109:262,1,310.499990524292,2|0,1:2|0:0,0:0:0:0:
177,208,400499,6,0,B|202:193|212:169|212:169|209:194|222:221,1,103.499996841431,2|0,1:2|0:0,0:0:0:0:
306,349,400674,2,0,B|331:363|341:387|341:387|338:362|351:335,1,103.499996841431,10|0,0:0|0:0,0:0:0:0:
436,171,400848,6,0,B|450:155|476:150|476:150|356:131|356:131|349:135|349:135|273:125,1,241.499992630005,6|8,1:2|0:0,0:0:0:0:
125,10,401110,2,0,P|155:86|178:224,1,206.999993682861,6|0,0:0|0:0,0:0:0:0:
161,288,401372,2,0,B|153:311|126:326|126:326|115:304|135:273,1,103.499996841431,14|0,0:0|0:0,0:0:0:0:
395,42,401546,6,0,P|365:118|342:256,1,206.999993682861,6|8,1:2|0:0,0:0:0:0:
490,345,401808,1,0,0:0:0:0:
496,334,401895,6,0,L|409:342,1,86.2500032901765,0|0,1:2|0:0,0:0:0:0:
266,213,402069,1,10,0:0:0:0:
224,224,402156,1,2,0:0:0:0:
186,201,402244,6,0,B|111:185|42:248|39:312|68:364|68:364|149:361|169:285,1,362.249988945008,2|0,1:2|0:0,0:0:0:0:
163,300,402592,1,0,1:2:0:0:
282,41,402767,1,10,0:0:0:0:
208,71,402854,1,2,0:0:0:0:
271,121,402941,6,0,P|321:67|491:-1,1,241.499992630005,6|8,1:2|0:0,0:0:0:0:
512,164,403203,2,0,B|452:158|406:110|406:110|415:178|397:229,1,241.499992630005,6|0,0:0|0:0,0:0:0:0:
329,313,403465,2,0,B|309:330|298:364|298:364|289:330|274:309,1,120.749996315003,14|0,0:0|0:0,0:0:0:0:
110,74,403639,6,0,P|140:144|157:292,1,206.999993682861,6|8,1:2|0:0,0:0:0:0:
340,99,403901,1,0,0:0:0:0:
291,36,403988,6,0,P|261:106|244:254,1,206.999993682861,0|8,1:2|0:0,0:0:0:0:
52,141,404249,1,2,0:0:0:0:
103,80,404337,5,10,0:0:0:0:
130,85,404424,1,2,1:2:0:0:
157,105,404511,1,2,1:2:0:0:
169,144,404598,1,2,1:2:0:0:
157,187,404685,1,10,0:0:0:0:
123,226,404773,1,10,0:0:0:0:
108,281,404860,1,10,0:0:0:0:
139,337,404947,1,10,0:0:0:0:
210,356,405034,5,6,1:3:0:0:
233,284,405122,1,0,0:0:0:0:
197,218,405209,1,8,0:0:0:0:
124,201,405296,1,0,0:0:0:0:
55,171,405383,1,0,1:2:0:0:
19,105,405470,1,0,0:0:0:0:
42,33,405558,2,0,P|94:5|162:33,1,86.2500032901765,10|0,0:0|0:0,0:0:0:0:
243,123,405732,5,2,1:2:0:0:
314,141,405819,1,0,0:0:0:0:
377,102,405906,2,0,P|413:51|406:8,1,86.2500032901765,8|0,0:0|0:0,0:0:0:0:
118,80,406081,1,2,1:2:0:0:
120,97,406168,1,0,0:0:0:0:
123,114,406255,1,8,0:0:0:0:
127,130,406342,1,0,0:0:0:0:
120,159,406430,5,2,1:2:0:0:
175,118,406517,1,0,0:0:0:0:
243,123,406604,1,8,0:0:0:0:
284,178,406691,1,0,0:0:0:0:
281,246,406778,1,0,1:2:0:0:
322,301,406866,1,0,0:0:0:0:
390,306,406953,2,0,P|439:261|434:215,1,86.2500032901765,10|0,0:0|0:0,0:0:0:0:
234,129,407127,5,2,1:2:0:0:
166,168,407215,1,0,0:0:0:0:
172,245,407302,2,0,P|201:294|240:306,1,86.2500032901765,8|0,0:0|0:0,0:0:0:0:
382,53,407476,5,0,1:2:0:0:
402,109,407563,1,0,0:0:0:0:
371,161,407651,2,0,P|319:188|283:174,1,86.2500032901765,8|0,0:0|0:0,0:0:0:0:
122,61,407825,5,2,1:2:0:0:
81,104,407912,1,0,0:0:0:0:
83,164,407999,1,8,0:0:0:0:
124,208,408087,1,0,0:0:0:0:
165,252,408174,1,0,1:2:0:0:
167,312,408261,1,0,0:0:0:0:
126,355,408348,2,0,P|81:364|33:333,1,86.2500032901765,10|0,0:0|0:0,0:0:0:0:
171,134,408523,5,2,1:2:0:0:
211,139,408610,1,0,0:0:0:0:
254,195,408697,5,10,0:0:0:0:
287,187,408784,1,0,0:0:0:0:
321,134,408872,5,2,1:2:0:0:
348,142,408959,1,0,0:0:0:0:
385,182,409046,5,10,0:0:0:0:
405,173,409133,1,0,0:0:0:0:
460,112,409220,5,6,1:2:0:0:
421,45,409308,1,0,0:0:0:0:
345,61,409395,1,8,0:0:0:0:
309,143,409482,5,6,0:0:0:0:
287,178,409570,1,0,1:2:0:0:
246,170,409657,1,0,0:0:0:0:
189,125,409744,5,14,0:0:0:0:
148,133,409831,1,0,0:0:0:0:
124,163,409918,5,6,1:2:0:0:
132,147,410005,1,0,0:0:0:0:
135,130,410092,1,8,0:0:0:0:
131,112,410180,1,0,0:0:0:0:
121,98,410267,5,2,1:2:0:0:
109,179,410354,1,2,0:0:0:0:
157,245,410441,1,10,0:0:0:0:
239,250,410528,1,2,0:0:0:0:
294,188,410616,5,6,1:3:0:0:
238,139,410703,1,0,0:0:0:0:
166,129,410790,1,8,0:0:0:0:
101,164,410877,1,0,0:0:0:0:
68,229,410965,1,0,1:2:0:0:
79,301,411052,1,0,0:0:0:0:
129,355,411139,2,0,P|182:370|235:338,1,86.2500032901765,10|0,0:0|0:0,0:0:0:0:
302,182,411313,5,2,1:2:0:0:
304,164,411401,1,0,0:0:0:0:
306,146,411488,1,8,0:0:0:0:
308,129,411575,1,0,0:0:0:0:
376,71,411662,5,2,1:2:0:0:
381,96,411749,1,0,0:0:0:0:
434,147,411837,5,10,0:0:0:0:
428,181,411924,1,0,0:0:0:0:
372,243,412011,5,6,1:2:0:0:
334,310,412098,1,0,0:0:0:0:
385,366,412185,1,8,0:0:0:0:
454,334,412273,5,6,0:0:0:0:
480,299,412360,1,0,1:2:0:0:
455,262,412447,1,0,0:0:0:0:
364,233,412534,5,14,0:0:0:0:
320,235,412622,1,0,0:0:0:0:
262,288,412709,5,6,1:2:0:0:
221,301,412796,1,0,0:0:0:0:
182,282,412883,1,8,0:0:0:0:
154,216,412970,5,2,0:0:0:0:
127,207,413058,1,0,1:2:0:0:
102,219,413144,1,0,0:0:0:0:
66,262,413232,5,10,0:0:0:0:
71,275,413319,1,0,0:0:0:0:
128,336,413406,5,6,1:2:0:0:
174,284,413494,1,0,0:0:0:0:
160,216,413581,1,8,0:0:0:0:
103,176,413668,1,0,0:0:0:0:
46,136,413755,1,0,1:2:0:0:
32,68,413842,1,0,0:0:0:0:
78,16,413930,2,0,P|141:18|168:51,1,86.2500032901765,10|0,0:0|0:0,0:0:0:0:
205,125,414104,5,6,1:2:0:0:
237,150,414191,1,0,0:0:0:0:
273,129,414279,1,8,0:0:0:0:
324,72,414366,5,6,0:0:0:0:
386,89,414453,1,0,1:2:0:0:
391,154,414541,1,0,0:0:0:0:
338,216,414627,5,14,0:0:0:0:
374,283,414715,1,0,0:0:0:0:
448,269,414802,6,0,P|348:242|126:262,1,310.499990524292,6|0,1:3|0:0,0:0:0:0:
4,196,415151,6,0,B|50:159|51:108|51:108|82:151|159:153,1,206.999993682861,2|8,1:2|0:0,0:0:0:0:
338,216,415412,1,0,0:0:0:0:
396,170,415499,6,0,P|405:141|358:65,1,103.499996841431,2|0,1:2|0:0,0:0:0:0:
184,216,415674,1,8,0:0:0:0:
184,216,415761,1,0,0:0:0:0:
124,266,415848,6,0,P|102:214|124:165,1,86.2500032901765,2|0,1:2|0:0,0:0:0:0:
239,161,416023,2,0,P|261:213|239:262,1,86.2500032901765,10|0,0:0|0:0,0:0:0:0:
201,333,416197,5,2,1:2:0:0:
241,365,416284,1,0,0:0:0:0:
291,378,416372,1,8,0:0:0:0:
338,357,416459,1,0,0:0:0:0:
363,312,416546,1,0,1:2:0:0:
409,289,416633,1,0,0:0:0:0:
459,301,416720,2,0,P|485:358|476:381,1,86.2500032901765,10|0,0:0|0:0,0:0:0:0:
313,244,416895,5,6,1:2:0:0:
261,197,416982,1,0,0:0:0:0:
192,199,417069,1,8,0:0:0:0:
144,248,417156,5,14,0:0:0:0:
63,223,417243,1,8,0:0:0:0:
44,140,417331,1,8,0:0:0:0:
106,82,417418,1,14,0:0:0:0:
187,107,417506,1,8,0:0:0:0:
255,207,417592,6,0,P|240:287|260:331,1,103.499996841431,6|0,1:3|0:0,0:0:0:0:
389,140,417767,2,0,P|404:60|384:16,1,103.499996841431,8|0,0:0|0:0,0:0:0:0:
505,220,417941,6,0,P|429:305|337:257,1,206.999993682861,2|10,1:2|0:0,0:0:0:0:
242,68,418203,1,2,0:0:0:0:
182,117,418290,6,0,B|175:144|153:157|153:157|313:171,1,206.999993682861,2|10,1:2|0:0,0:0:0:0:
476,74,418552,1,2,0:0:0:0:
409,33,418639,6,0,B|362:27|362:27|356:31|356:31|304:27,1,103.499996841431,2|0,1:2|0:0,0:0:0:0:
176,251,418813,2,0,B|224:247|224:247|230:251|230:251|277:245,1,103.499996841431,10|0,0:0|0:0,0:0:0:0:
506,149,418988,6,0,P|520:221|504:267,1,103.499996841431,6|0,1:2|0:0,0:0:0:0:
385,370,419162,2,0,P|377:319|391:270,1,103.499996841431,8|0,0:0|0:0,0:0:0:0:
280,114,419337,6,0,P|166:87|58:103,1,206.999993682861,2|10,1:2|0:0,0:0:0:0:
51,320,419598,1,2,0:0:0:0:
0,267,419685,6,0,B|46:237|48:176|48:176|70:234|126:243,1,206.999993682861,2|10,1:2|0:0,0:0:0:0:
287,350,419947,1,2,0:0:0:0:
344,302,420035,6,0,B|353:208|353:208|337:186,1,103.499996841431,2|0,1:2|0:0,0:0:0:0:
283,12,420209,2,0,B|273:105|273:105|290:128,1,103.499996841431,10|0,0:0|0:0,0:0:0:0:
456,129,420383,6,0,P|401:101|351:115,1,103.499996841431,6|0,1:2|0:0,0:0:0:0:
180,283,420558,2,0,P|230:288|273:262,1,103.499996841431,8|0,0:0|0:0,0:0:0:0:
206,5,420732,6,0,L|194:115,1,103.499996841431,2|0,1:2|0:0,0:0:0:0:
385,295,420906,1,10,0:0:0:0:
428,264,420994,1,2,0:0:0:0:
422,208,421081,5,2,1:2:0:0:
363,230,421168,1,2,0:0:0:0:
348,291,421255,1,10,0:0:0:0:
376,346,421342,1,2,0:0:0:0:
437,361,421430,6,0,P|505:340|521:282,1,103.499996841431,2|0,1:2|0:0,0:0:0:0:
350,108,421604,2,0,P|307:135|295:184,1,103.499996841431,10|0,0:0|0:0,0:0:0:0:
215,340,421778,6,0,L|186:237,1,103.499996841431,6|0,1:2|0:0,0:0:0:0:
188,114,421953,2,0,L|113:190,1,103.499996841431,8|0,0:0|0:0,0:0:0:0:
7,250,422128,2,0,L|110:276,1,103.499996841431,0|0,1:2|0:0,0:0:0:0:
358,195,422302,5,10,0:0:0:0:
316,120,422389,1,2,0:0:0:0:
276,192,422476,2,0,P|370:262|431:341,1,206.999993682861,6|8,1:2|0:0,0:0:0:0:
463,127,422738,1,2,0:0:0:0:
411,66,422825,6,0,P|361:115|303:122,1,103.499996841431,2|0,1:2|0:0,0:0:0:0:
266,309,422999,2,0,P|216:260|158:253,1,103.499996841431,10|0,0:0|0:0,0:0:0:0:
150,21,423174,6,0,P|185:89|191:143,1,115,6|0,1:3|0:0,0:0:0:0:
348,349,423348,2,0,P|359:293|388:243,1,115,8|0,0:0|0:0,0:0:0:0:
484,38,423523,6,0,P|466:121|337:91,1,230,2|10,1:2|0:0,0:0:0:0:
150,21,423784,1,2,0:0:0:0:
225,0,423872,6,0,B|207:173|207:173|197:145|158:111,1,230,6|10,1:2|0:0,0:0:0:0:
68,286,424133,1,2,0:0:0:0:
20,223,424220,6,0,B|41:202|41:202|131:186,1,115,2|0,1:2|0:0,0:0:0:0:
177,349,424395,2,0,B|198:370|198:370|281:384,1,115,10|0,0:0|0:0,0:0:0:0:
334,145,424569,6,0,P|362:196|355:275,1,115,6|0,1:2|0:0,0:0:0:0:
86,384,424744,2,0,P|87:327|114:277,1,115,8|0,0:0|0:0,0:0:0:0:
290,269,424918,6,0,P|335:321|430:221,1,230,2|10,1:2|0:0,0:0:0:0:
349,69,425180,1,2,0:0:0:0:
412,20,425267,6,0,B|438:2|449:-21|449:-21|471:162,1,230,6|10,1:2|0:0,0:0:0:0:
190,29,425528,1,2,0:0:0:0:
167,105,425616,6,0,B|152:182|152:182|168:224,1,115,2|0,1:2|0:0,0:0:0:0:
360,362,425790,2,0,B|375:285|375:285|359:243,1,115,10|0,0:0|0:0,0:0:0:0:
114,277,425965,6,0,P|162:295|224:269,1,115,6|0,1:2|0:0,0:0:0:0:
417,194,426139,2,0,P|364:172|311:190,1,115,8|0,0:0|0:0,0:0:0:0:
136,131,426313,6,0,P|157:54|288:95,1,230,2|10,1:2|0:0,0:0:0:0:
361,250,426575,1,2,0:0:0:0:
410,184,426662,6,0,P|411:124|385:69,1,115,6|0,1:2|0:0,0:0:0:0:
211,112,426837,2,0,P|210:172|236:227,1,115,8|0,0:0|0:0,0:0:0:0:
444,259,427011,6,0,P|490:215|477:148,1,115,2|0,1:2|0:0,0:0:0:0:
180,39,427185,2,0,P|137:75|136:131,1,115,10|0,0:0|0:0,0:0:0:0:
229,346,427360,6,0,B|191:397|97:406|8:332|33:264|33:264|116:233|150:304,1,379.500011581421,6|0,1:2|0:0,0:0:0:0:
329,359,427709,5,14,0:0:0:0:
409,383,427796,1,0,1:2:0:0:
486,349,427883,1,0,1:2:0:0:
512,268,427970,1,0,1:2:0:0:
474,191,428058,5,14,0:0:0:0:
451,181,428145,1,0,1:2:0:0:
427,177,428232,1,0,1:2:0:0:
403,179,428319,1,0,1:2:0:0:
381,190,428406,5,14,0:0:0:0:
342,266,428494,1,8,0:0:0:0:
256,293,428581,1,8,0:0:0:0:
166,259,428668,1,8,0:0:0:0:
136,162,428755,5,14,2:3:0:0:
256,192,428842,12,0,431546,0:0:0:0:
423,139,433290,5,2,1:2:0:0:
43,227,433813,5,2,1:2:0:0:
84,40,434162,2,0,L|96:152,1,80.499997543335,0|0,1:2|1:2,0:0:0:0:
126,328,434337,6,0,B|210:361|284:317|246:291|314:224|454:214|466:352|466:352|381:379|335:355|303:240|321:203|356:228|344:160|310:124|199:80|142:194|142:194|231:247|285:221|362:141|324:141|383:93|449:103|449:103|474:135|448:173,1,1322.5,6|0,0:0|0:0,0:0:0:0:
444,168,436430,5,8,0:0:0:0:
360,39,436604,1,10,0:0:0:0:
322,52,436691,1,10,0:0:0:0:
285,36,436778,2,0,P|249:26|207:36,1,74.7499965782167,2|0,1:2|1:2,0:0:0:0:
165,107,436953,5,10,0:0:0:0:
106,62,437040,1,10,0:0:0:0:
39,94,437127,6,0,P|17:166|59:210,1,115,6|0,1:2|0:0,0:0:0:0:
0,262,437476,2,0,P|51:317|110:302,1,115,2|0,1:2|0:0,0:0:0:0:
125,379,437825,2,0,P|198:362|215:303,1,115,2|0,1:2|0:0,0:0:0:0:
288,329,438174,1,2,1:2:0:0:
134,92,438348,5,0,0:0:0:0:
134,92,438435,1,8,0:0:0:0:
114,161,438523,6,0,P|199:104|267:151,1,172.500006580353,2|0,1:2|0:0,0:0:0:0:
417,268,438784,1,0,1:2:0:0:
424,256,438872,6,0,B|433:236|462:220|462:220|332:236,1,184,10|0,0:0|0:0,0:0:0:0:
214,331,439133,1,0,1:2:0:0:
166,276,439220,6,0,P|171:231|209:261,1,109.24999708271,10|0,0:0|0:0,0:0:0:0:
369,134,439395,2,0,P|363:88|325:114,1,109.24999708271,0|0,1:2|0:0,0:0:0:0:
33,53,439569,5,10,0:0:0:0:
39,129,439656,1,8,0:0:0:0:
45,205,439744,1,8,0:0:0:0:
51,281,439831,1,8,0:0:0:0:
111,346,439918,5,6,0:3:0:0:
