osu file format v14

[General]
AudioFilename: audio.mp3
AudioLeadIn: 0
PreviewTime: 320534
Countdown: 0
SampleSet: Soft
StackLeniency: 0.7
Mode: 2
LetterboxInBreaks: 0
WidescreenStoryboard: 0

[Editor]
Bookmarks: 15899,26686,37473,48259,59046,69832,91405,96798,107585,118371,129158,139944,150731,172304,177697,188484,199270,214102,218147,228933,239720,250506,266686,280169,290956,299046,309832,320619,331430,340843,351630,358371,369158
DistanceSpacing: 1
BeatDivisor: 4
GridSize: 4
TimelineZoom: 4.099998

[Metadata]
Title:Chihei o Kurau Hebi
TitleUnicode:地平を喰らう蛇
Artist:Revo
ArtistUnicode:Revo
Creator:ZiRoX
Version:Infernal Realm
Source:ブレイブリーデフォルト フライングフェアリー
Tags:鎌仲泰郎 Kamanaka Yasuo Uroboros, the Serpent That Devours the Horizon Serpent Eating the Horizon bravely default flying fairy where the fairy flies square enix linked horizon ouroboros tiz arrior ティズ・オーリア agnes oblige アニエス・オブリージュ ringabel リングアベル edea lee イデア・リー Xiila videogame instrumental symphonic rock metal
BeatmapID:3401738
BeatmapSetID:1666185

[Difficulty]
HPDrainRate:5
CircleSize:5
OverallDifficulty:9.2
ApproachRate:9.2
SliderMultiplier:1.9
SliderTickRate:2

[Events]
//Background and Video events
0,0,"3925327.jpg",0,0
//Break Periods
2,218324,228340
//Storyboard Layer 0 (Background)
//Storyboard Layer 1 (Fail)
//Storyboard Layer 2 (Pass)
//Storyboard Layer 3 (Foreground)
//Storyboard Layer 4 (Overlay)
//Storyboard Sound Samples

[TimingPoints]
15877,337.078651685393,4,2,2,70,1,0
15961,-100,4,2,1,70,0,0
18236,-66.6666666666667,4,2,1,70,0,0
18573,-100,4,2,1,70,0,0
20933,-66.6666666666667,4,2,1,70,0,0
21270,-100,4,2,1,70,0,0
22281,-66.6666666666667,4,2,1,70,0,0
22618,-100,4,2,1,70,0,0
23629,-66.6666666666667,4,2,1,70,0,0
23966,-100,4,2,1,70,0,0
37450,-100,4,2,1,75,0,0
46551,-100,4,2,2,70,0,0
48236,-100,4,2,1,75,0,0
69809,-83.3333333333333,4,2,4,80,0,1
80259,-83.3333333333333,4,2,4,70,0,1
80764,-83.3333333333333,4,2,4,80,0,1
91045,-83.3333333333333,4,2,4,70,0,1
91382,-100,4,2,1,70,0,0
99135,-66.6666666666667,4,2,1,70,0,0
99472,-100,4,2,1,70,0,0
101832,-66.6666666666667,4,2,1,70,0,0
102169,-100,4,2,1,70,0,0
103180,-66.6666666666667,4,2,1,70,0,0
103517,-100,4,2,1,70,0,0
104528,-66.6666666666667,4,2,1,70,0,0
104865,-100,4,2,1,70,0,0
118348,-100,4,2,1,75,0,0
118854,-58.8235294117647,4,2,1,75,0,0
119360,-100,4,2,1,75,0,0
121551,-58.8235294117647,4,2,1,75,0,0
122057,-100,4,2,1,75,0,0
124247,-58.8235294117647,4,2,1,75,0,0
124753,-100,4,2,1,75,0,0
140427,-58.8235294117647,4,2,1,75,0,0
140933,-100,4,2,1,75,0,0
143124,-58.8235294117647,4,2,1,75,0,0
143630,-100,4,2,1,75,0,0
145820,-58.8235294117647,4,2,1,75,0,0
146326,-100,4,2,1,75,0,0
150708,-83.3333333333333,4,2,4,80,0,1
160989,-83.3333333333333,4,2,4,70,0,1
161663,-83.3333333333333,4,2,4,80,0,1
171775,-83.3333333333333,4,2,4,70,0,1
172281,-100,4,2,1,70,0,0
177674,-117.647058823529,4,2,2,60,0,0
187787,-117.647058823529,4,2,1,60,0,0
188461,-100,4,2,4,80,0,1
198910,-100,4,2,4,70,0,1
199247,-100,4,2,4,80,0,1
204641,-90.9090909090909,4,2,4,80,0,1
206663,-100,4,2,4,80,0,1
210708,-93.4579439252336,4,2,4,82,0,1
211382,-86.9565217391304,4,2,4,84,0,1
212056,-81.9672131147541,4,2,4,86,0,1
212730,-76.9230769230769,4,2,4,88,0,1
213405,-71.4285714285714,4,2,4,90,0,1
214079,-100,4,2,1,80,0,1
215427,-100,4,2,1,75,0,0
237000,-100,4,2,2,75,0,0
239023,-100,4,2,1,65,0,0
239697,-100,4,2,1,75,0,0
249809,-100,4,2,5,75,0,0
250146,-100,4,2,1,75,0,0
266326,-100,4,2,4,65,0,0
266663,-100,4,2,1,75,0,0
280820,-83.3333333333333,4,2,1,75,0,0
281157,-100,4,2,1,75,0,0
282169,-83.3333333333333,4,2,1,75,0,0
282506,-100,4,2,1,75,0,0
283517,-83.3333333333333,4,2,1,75,0,0
283854,-100,4,2,1,75,0,0
284865,-83.3333333333333,4,2,1,75,0,0
285202,-100,4,2,1,75,0,0
286214,-71.4285714285714,4,2,1,75,0,0
286551,-100,4,2,1,75,0,0
287562,-71.4285714285714,4,2,1,75,0,0
287899,-100,4,2,1,75,0,0
288910,-71.4285714285714,4,2,1,75,0,0
289247,-100,4,2,1,75,0,0
290933,337.078651685393,6,2,1,75,1,0
299022,337.078651685393,4,2,1,75,1,0
319920,-100,4,2,1,60,0,0
320595,-83.3333333333333,4,2,4,90,0,1
350259,-83.3333333333333,4,2,1,80,0,1
352955,-83.3333333333333,4,2,4,80,0,1
357000,-83.3333333333333,4,2,2,80,0,1
358347,-100,4,2,1,70,0,0
360708,-66.6666666666667,4,2,1,70,0,0
361045,-100,4,2,1,70,0,0
363405,-66.6666666666667,4,2,1,70,0,0
363742,-100,4,2,1,70,0,0
364753,-66.6666666666667,4,2,1,70,0,0
365090,-100,4,2,1,70,0,0
366101,-66.6666666666667,4,2,1,70,0,0
366438,-100,4,2,1,70,0,0
369134,-100,4,2,1,80,0,0
370415,340.909090909091,4,2,1,80,1,0
370670,375,4,2,1,80,1,0
371185,281.69014084507,4,2,1,80,1,0
371748,303.030303030303,4,2,1,80,1,0
372051,324.324324324324,4,2,1,80,1,0
372375,363.636363636364,4,2,1,80,1,0
372738,428.571428571429,4,2,1,80,1,0
372952,508.474576271186,4,2,2,70,1,0
373206,526.315789473684,4,2,2,70,1,0
373469,326.086956521739,4,2,2,70,1,0
374121,312.5,4,2,2,70,1,0
374433,320.855614973262,4,2,2,70,1,0
375074,375,4,2,2,70,1,0
375261,307.692307692308,4,2,2,70,1,0
375337,326.086956521739,4,2,2,70,1,0
375663,338.983050847458,4,2,2,60,1,0
376001,344.827586206897,4,2,2,60,1,0
376345,387.096774193548,4,2,2,60,1,0
376732,454.545454545455,4,2,2,60,1,0
377186,431.654676258993,4,2,2,60,1,0
377617,379.746835443038,4,2,2,60,1,0
377996,348.837209302326,4,2,2,60,1,0
378344,317.460317460317,4,2,2,60,1,0
378661,252.100840336134,4,2,2,60,1,0
378913,244.897959183673,4,2,2,60,1,0
379157,216.606498194946,4,2,2,60,1,0
379373,203.389830508475,4,2,2,60,1,0
379576,193.548387096774,4,2,2,60,1,0
380350,181.818181818182,4,2,2,60,1,0
381077,174.927113702624,4,2,2,60,1,0
382476,163.934426229508,4,2,2,60,1,0
382967,327.868852459016,4,2,2,60,1,0
383295,272.727272727273,4,2,2,60,1,0
383567,303.030303030303,4,2,2,60,1,0
383870,319.148936170213,4,2,2,60,1,0
384189,285.714285714286,4,2,2,60,1,0
384474,294.117647058824,4,2,2,60,1,0
384768,306.122448979592,4,2,2,70,1,0
385074,400,4,2,2,60,1,0
385174,461.538461538462,4,2,2,60,1,0
385289,521.739130434783,4,2,2,60,1,0
385419,666.666666666667,4,2,2,60,1,0
385585,800,4,2,2,60,1,0
385785,967.741935483871,4,2,2,60,1,0
386026,1200,4,2,2,60,1,0
386326,1463.41463414634,4,2,2,60,1,0
386691,1714.28571428571,4,2,2,60,1,0
387119,1764.70588235294,4,2,2,60,1,0
388001,394.736842105263,4,2,2,60,1,0
388199,329.67032967033,4,2,1,85,1,0
389173,338.983050847457,4,2,1,85,1,0
389511,297.029702970297,4,2,1,85,1,0
389808,338.983050847457,4,2,1,85,1,0
389977,392.156862745097,4,2,1,85,1,0
390174,342.857142857142,4,2,1,85,1,0
390459,365.853658536585,4,2,1,85,1,0
390641,377.358490566037,4,2,1,85,1,0
391018,327.868852459016,4,2,1,85,1,0
391673,500,4,2,1,70,1,0
391756,-100,4,2,1,55,0,0
391839,-100,4,2,1,45,0,0
391923,-100,4,2,1,35,0,0

[Colours]
Combo1 : 128,64,0
Combo2 : 192,192,192
Combo3 : 110,110,110

[HitObjects]
256,192,11832,12,0,15539,0:0:0:0:
60,284,15876,6,0,L|60:176,1,95,0|0,0:0|0:0,0:0:0:0:
192,200,16214,2,0,L|192:92,1,95,0|0,3:0|0:0,0:0:0:0:
324,156,16551,2,0,L|324:48,1,95,0|0,3:0|0:0,0:0:0:0:
456,120,16888,2,0,L|456:12,1,95,0|0,3:0|0:0,0:0:0:0:
324,156,17225,6,0,L|324:48,1,95,0|0,3:0|0:0,0:0:0:0:
192,120,17562,2,0,L|192:12,1,95,0|0,3:0|0:0,0:0:0:0:
60,164,17899,2,0,L|60:272,1,95,0|0,3:0|0:0,0:0:0:0:
296,308,18236,2,0,P|356:236|288:137,1,213.750008153916,12|0,0:0|0:0,0:0:0:0:
60,280,18573,6,0,L|60:172,1,95,4|0,3:2|0:0,0:0:0:0:
192,252,18911,2,0,L|192:144,1,95,0|0,3:0|0:0,0:0:0:0:
60,164,19248,2,0,L|60:56,1,95,0|0,3:0|0:0,0:0:0:0:
192,128,19585,2,0,L|192:20,1,95,0|0,3:0|0:0,0:0:0:0:
320,152,19922,6,0,L|320:44,1,95,0|0,3:0|0:0,0:0:0:0:
192,220,20259,2,0,L|192:112,1,95,0|0,3:0|0:0,0:0:0:0:
320,152,20596,2,0,L|320:260,1,95,0|0,3:0|0:0,0:0:0:0:
92,276,20933,2,0,P|30:205|95:108,1,213.750008153916,12|0,0:0|0:0,0:0:0:0:
344,268,21270,6,0,L|344:160,1,95,4|0,3:2|0:0,0:0:0:0:
476,168,21608,2,0,L|476:60,1,95,0|0,3:0|0:0,0:0:0:0:
344,144,21945,2,0,L|344:36,1,95,0|0,3:0|0:0,0:0:0:0:
92,276,22281,2,0,P|32:204|98:110,1,213.750008153916,12|0,0:0|0:0,0:0:0:0:
344,144,22618,6,0,L|344:36,1,95,4|0,3:2|0:0,0:0:0:0:
212,172,22956,2,0,L|212:64,1,95,0|0,3:0|0:0,0:0:0:0:
80,188,23293,2,0,L|80:80,1,95,0|0,3:0|0:0,0:0:0:0:
304,184,23629,2,0,P|364:112|300:9,1,213.750008153916,12|0,0:0|0:0,0:0:0:0:
136,44,23966,6,0,L|76:44,2,47.5,2|0|2,3:2|0:0|0:3,0:0:0:0:
284,240,24303,2,0,L|344:240,2,47.5,0|0|2,3:0|0:0|0:3,0:0:0:0:
136,240,24641,1,0,3:0:0:0:
136,292,24725,1,2,0:0:0:0:
136,332,24809,1,2,0:3:0:0:
296,236,24978,1,0,3:0:0:0:
296,288,25062,1,2,0:0:0:0:
296,328,25146,1,2,0:3:0:0:
460,232,25315,5,0,3:0:0:0:
460,284,25399,1,2,0:0:0:0:
460,324,25483,1,2,0:3:0:0:
288,232,25652,1,0,3:0:0:0:
333,232,25736,1,2,0:0:0:0:
378,232,25820,1,2,0:3:0:0:
188,224,25989,2,0,L|184:156,1,47.5,4|0,3:2|0:0,0:0:0:0:
324,224,26157,2,0,L|328:156,1,47.5,8|8,0:0|0:0,0:0:0:0:
172,172,26326,2,0,L|160:112,1,47.5,8|8,0:0|0:0,0:0:0:0:
340,172,26494,2,0,L|352:112,1,47.5,8|8,0:0|0:0,0:0:0:0:
80,136,26663,6,0,L|80:236,1,95,4|0,3:2|0:0,0:0:0:0:
224,236,27000,2,0,L|224:336,1,95,10|0,0:0|0:0,0:0:0:0:
52,300,27337,2,0,L|152:300,1,95,2|0,3:0|0:0,0:0:0:0:
52,360,27674,2,0,L|160:360,1,95,10|0,0:0|0:0,0:0:0:0:
416,224,28011,6,0,L|300:224,1,95,2|0,3:0|0:0,0:0:0:0:
96,224,28348,2,0,L|212:224,1,95,10|0,0:0|0:0,0:0:0:0:
416,224,28685,2,0,L|300:224,1,95,2|0,3:0|0:0,0:0:0:0:
96,224,29022,2,0,L|96:124,1,95,12|0,0:0|0:0,0:0:0:0:
144,92,29275,1,2,0:3:0:0:
408,136,29360,6,0,L|296:136,1,95,2|0,3:0|0:0,0:0:0:0:
464,220,29697,2,0,L|344:220,1,95,10|0,0:0|0:0,0:0:0:0:
224,300,30034,2,0,L|344:300,1,95,2|0,3:0|0:0,0:0:0:0:
460,360,30371,2,0,L|352:360,1,95,10|0,0:0|0:0,0:0:0:0:
96,224,30708,6,0,L|212:224,1,95,2|0,3:0|0:0,0:0:0:0:
416,224,31045,2,0,L|300:224,1,95,10|0,0:0|0:0,0:0:0:0:
96,224,31382,2,0,L|212:224,1,95,2|0,3:0|0:0,0:0:0:0:
416,224,31719,2,0,L|416:124,1,95,12|0,0:0|0:0,0:0:0:0:
368,92,31972,1,2,0:3:0:0:
100,84,32056,6,0,L|100:192,1,95,2|0,3:0|0:0,0:0:0:0:
256,144,32393,2,0,L|256:252,1,95,10|0,0:0|0:0,0:0:0:0:
412,84,32730,2,0,L|412:200,1,95,2|0,3:0|0:0,0:0:0:0:
172,148,33068,2,0,L|172:272,1,95,12|0,0:0|0:0,0:0:0:0:
172,296,33320,1,0,0:0:0:0:
412,84,33405,6,0,L|412:188,1,95,2|0,3:0|0:0,0:0:0:0:
256,144,33742,2,0,L|256:256,1,95,10|0,0:0|0:0,0:0:0:0:
100,84,34079,2,0,L|100:188,1,95,2|0,3:0|0:0,0:0:0:0:
336,152,34417,2,0,L|336:264,1,95,12|0,0:0|0:0,0:0:0:0:
336,308,34669,1,2,3:0:0:0:
160,288,34753,5,0,3:0:0:0:
116,252,34837,1,2,0:3:0:0:
116,208,34921,1,2,0:3:0:0:
160,180,35005,1,0,0:0:0:0:
352,288,35090,1,8,0:0:0:0:
396,252,35174,1,0,0:0:0:0:
396,208,35258,1,2,0:3:0:0:
352,180,35342,1,2,0:3:0:0:
160,140,35427,2,0,L|160:88,1,47.5,2|0,3:0|0:0,0:0:0:0:
200,84,35596,2,0,L|252:84,1,47.5,2|0,0:3|0:0,0:0:0:0:
388,100,35764,2,0,L|388:160,1,47.5,12|0,0:0|0:0,0:0:0:0:
340,168,35933,2,0,L|288:168,1,47.5,2|0,0:3|0:0,0:0:0:0:
136,180,36101,6,0,L|136:296,1,95,2|0,3:0|0:0,0:0:0:0:
376,180,36438,2,0,L|376:296,1,95,10|0,0:0|0:0,0:0:0:0:
136,180,36775,2,0,L|136:296,1,95,2|8,3:0|0:0,0:0:0:0:
392,180,37112,2,0,L|392:232,1,47.5,2|8,3:0|0:0,0:0:0:0:
224,224,37281,2,0,L|168:224,1,47.5,8|8,0:0|0:0,0:0:0:0:
320,312,37450,6,0,L|440:316,2,95,12|2|8,3:2|3:0|0:0,0:0:0:0:
100,316,37955,2,0,L|100:112,1,190,2|2,3:0|3:0,0:0:0:0:
260,144,38461,1,8,0:0:0:0:
32,144,38629,1,2,3:0:0:0:
464,148,38966,6,0,L|464:348,1,190,4|0,3:1|3:0,0:0:0:0:
332,328,39472,2,0,L|232:328,1,95,8|0,0:0|3:0,0:0:0:0:
464,328,39809,2,0,L|464:168,1,142.5,8|0,0:0|0:0,0:0:0:0:
188,312,40146,6,0,L|80:312,2,95,12|2|8,3:2|3:0|0:0,0:0:0:0:
412,316,40651,2,0,L|412:112,1,190,2|0,3:0|3:0,0:0:0:0:
252,144,41157,1,8,0:0:0:0:
480,144,41325,1,2,3:3:0:0:
48,148,41662,6,0,L|48:348,1,190,4|0,3:1|3:0,0:0:0:0:
180,328,42168,2,0,L|280:328,1,95,8|0,0:0|3:0,0:0:0:0:
48,328,42506,2,0,L|48:172,1,142.5,8|0,0:0|0:0,0:0:0:0:
324,312,42843,6,0,L|436:312,2,95,12|0|8,3:2|3:0|0:0,0:0:0:0:
100,316,43348,2,0,L|100:112,1,190,0|0,3:0|3:0,0:0:0:0:
260,144,43854,1,10,0:0:0:0:
32,144,44022,1,0,3:0:0:0:
464,148,44359,6,0,L|252:148,1,190,4|0,3:1|3:0,0:0:0:0:
448,216,44865,2,0,L|348:216,1,95,10|2,0:0|3:0,0:0:0:0:
128,212,45202,2,0,L|128:52,1,142.5,8|0,0:0|0:0,0:0:0:0:
324,136,45539,6,0,L|432:136,2,95,12|2|8,0:0|3:0|0:0,0:0:0:0:
148,132,46045,2,0,L|244:100,2,95,8|2|8,0:0|3:0|0:0,0:0:0:0:
376,132,46551,2,0,L|300:68,2,95,12|0|2,0:0|3:0|3:0,0:0:0:0:
136,132,47056,1,12,0:0:0:0:
276,132,47225,1,2,3:0:0:0:
416,132,47393,1,2,0:0:0:0:
76,176,47562,1,8,0:0:0:0:
464,180,47899,1,12,0:0:0:0:
76,176,48236,6,0,L|76:288,1,95,2|0,3:0|0:0,0:0:0:0:
248,272,48573,2,0,L|144:272,1,95,10|0,0:0|0:0,0:0:0:0:
320,204,48910,2,0,L|216:204,1,95,2|0,3:0|0:0,0:0:0:0:
468,132,49247,2,0,L|468:32,1,95,10|0,0:0|0:0,0:0:0:0:
164,132,49584,6,0,L|264:132,1,95,2|0,3:0|0:0,0:0:0:0:
428,224,49921,2,0,L|428:328,1,95,10|0,0:0|0:0,0:0:0:0:
200,324,50259,2,0,L|308:324,1,95,2|0,3:0|0:0,0:0:0:0:
48,324,50596,2,0,L|152:324,1,95,12|0,0:0|0:0,0:0:0:0:
196,324,50848,1,2,0:3:0:0:
436,176,50933,6,0,L|436:288,1,95,2|0,3:0|0:0,0:0:0:0:
264,272,51270,2,0,L|368:272,1,95,10|0,0:0|0:0,0:0:0:0:
192,204,51607,2,0,L|296:204,1,95,2|0,3:0|0:0,0:0:0:0:
44,132,51944,2,0,L|44:32,1,95,10|0,0:0|0:0,0:0:0:0:
348,132,52281,6,0,L|248:132,1,95,2|0,3:0|0:0,0:0:0:0:
84,220,52618,2,0,L|84:328,1,95,10|0,0:0|0:0,0:0:0:0:
312,324,52956,2,0,L|200:324,1,95,2|0,3:0|0:0,0:0:0:0:
464,324,53293,2,0,L|360:324,1,95,12|0,0:0|0:0,0:0:0:0:
316,324,53545,1,2,0:3:0:0:
96,232,53629,6,0,L|96:124,1,95,2|0,3:0|0:0,0:0:0:0:
356,128,53966,2,0,L|244:128,1,95,10|0,0:0|0:0,0:0:0:0:
96,232,54303,2,0,L|208:232,1,95,2|0,3:0|0:0,0:0:0:0:
416,232,54641,2,0,L|416:124,1,95,14|0,0:0|0:0,0:0:0:0:
368,132,54893,1,2,0:3:0:0:
96,232,54978,6,0,L|96:124,1,95,2|0,3:0|0:0,0:0:0:0:
264,140,55315,2,0,L|364:140,1,95,10|0,0:0|0:0,0:0:0:0:
192,232,55652,2,0,L|300:232,1,95,2|0,3:0|0:0,0:0:0:0:
48,304,55989,2,0,L|48:204,1,95,12|0,0:0|0:0,0:0:0:0:
96,192,56242,1,2,0:3:0:0:
308,100,56326,6,0,L|392:100,2,63.3333333333333,2|2|2,3:0|0:0|0:3,0:0:0:0:
180,100,56663,2,0,L|92:100,2,63.3333333333333,8|2|2,0:0|0:0|0:3,0:0:0:0:
308,180,57000,2,0,L|228:180,2,63.3333333333333,2|2|2,3:0|0:0|0:3,0:0:0:0:
180,180,57337,2,0,L|260:180,2,63.3333333333333,8|2|2,0:0|0:0|0:3,0:0:0:0:
348,256,57674,6,0,L|428:256,2,63.3333333333333,2|2|0,3:0|0:0|0:3,0:0:0:0:
164,256,58011,2,0,L|80:256,2,63.3333333333333,8|2|2,0:0|0:0|0:3,0:0:0:0:
348,320,58348,2,0,L|348:232,1,63.3333333333333,2|0,3:2|0:0,0:0:0:0:
296,204,58573,1,2,0:0:0:0:
96,204,58685,2,0,L|96:152,1,47.5,2|8,3:0|0:0,0:0:0:0:
296,204,58854,2,0,L|360:204,1,47.5,8|8,0:0|0:0,0:0:0:0:
180,312,59023,6,0,L|72:312,2,95,12|0|8,0:0|3:0|0:0,0:0:0:0:
404,316,59528,2,0,L|404:112,1,190,2|2,3:0|3:0,0:0:0:0:
240,144,60034,1,8,0:0:0:0:
468,144,60202,1,2,3:0:0:0:
48,148,60539,6,0,L|256:148,1,190,4|2,3:1|3:0,0:0:0:0:
64,148,61045,2,0,L|64:264,1,95,8|2,0:0|3:0,0:0:0:0:
220,168,61382,2,0,L|68:168,1,142.5,8|0,0:0|0:0,0:0:0:0:
328,312,61719,6,0,L|224:312,2,95,12|2|8,0:0|3:0|0:0,0:0:0:0:
92,316,62225,2,0,L|92:124,1,190,2|2,3:0|3:0,0:0:0:0:
260,144,62730,1,8,0:0:0:0:
32,144,62898,1,2,3:0:0:0:
464,148,63235,6,0,L|268:148,1,190,4|2,3:1|3:0,0:0:0:0:
444,148,63741,2,0,L|444:264,1,95,8|2,0:0|3:0,0:0:0:0:
292,168,64079,2,0,L|444:168,1,142.5,8|0,0:0|0:0,0:0:0:0:
196,312,64416,6,0,L|100:312,2,95,12|2|8,0:0|3:0|0:0,0:0:0:0:
420,316,64921,2,0,L|420:116,1,190,2|2,3:0|3:0,0:0:0:0:
252,144,65427,1,8,0:0:0:0:
480,144,65595,1,2,3:0:0:0:
48,148,65932,6,0,L|260:148,1,190,4|2,3:1|3:0,0:0:0:0:
80,148,66438,2,0,L|80:264,1,95,10|0,0:0|0:0,0:0:0:0:
384,212,66775,2,0,L|384:52,1,142.5,8|0,0:0|0:0,0:0:0:0:
188,136,67112,5,2,3:0:0:0:
312,136,67281,1,2,0:0:0:0:
444,136,67450,1,2,0:3:0:0:
188,200,67618,1,2,3:2:0:0:
320,200,67787,1,2,0:0:0:0:
452,200,67956,1,2,0:3:0:0:
188,272,68124,1,0,3:2:0:0:
328,272,68293,1,2,0:3:0:0:
468,272,68462,1,2,0:3:0:0:
188,336,68629,1,2,3:2:0:0:
336,336,68798,1,2,3:0:0:0:
484,336,68967,1,2,0:3:0:0:
80,336,69135,1,4,0:1:0:0:
492,336,69472,1,12,3:2:0:0:
96,104,69809,5,4,0:0:0:0:
67,138,69893,1,0,0:0:0:0:
65,182,69977,1,0,0:3:0:0:
91,218,70061,1,0,0:0:0:0:
128,240,70146,1,8,0:0:0:0:
172,235,70230,1,0,0:0:0:0:
308,252,70314,1,0,0:0:0:0:
336,292,70398,1,0,0:0:0:0:
290,305,70483,1,0,0:0:0:0:
252,264,70567,1,0,0:0:0:0:
252,219,70651,1,0,0:0:0:0:
284,182,70735,1,0,0:0:0:0:
424,144,70820,1,8,0:0:0:0:
440,100,70904,1,0,0:0:0:0:
400,60,70988,1,0,0:0:0:0:
354,56,71072,1,0,0:0:0:0:
212,68,71157,5,4,0:0:0:0:
202,111,71241,1,0,0:0:0:0:
220,156,71325,1,0,0:0:0:0:
252,192,71409,1,0,0:0:0:0:
296,216,71494,1,8,0:0:0:0:
340,224,71578,1,0,0:0:0:0:
172,176,71663,1,0,0:0:0:0:
168,220,71747,1,0,0:0:0:0:
188,264,71831,1,0,0:0:0:0:
224,304,71915,1,0,0:0:0:0:
268,328,72000,1,0,0:0:0:0:
320,336,72084,1,0,0:0:0:0:
140,352,72169,1,8,0:0:0:0:
96,328,72253,1,0,0:0:0:0:
76,288,72337,1,0,0:0:0:0:
91,246,72421,1,0,0:0:0:0:
328,216,72506,5,4,0:0:0:0:
331,171,72590,1,0,0:0:0:0:
309,133,72674,1,0,0:0:0:0:
268,116,72758,1,0,0:0:0:0:
220,104,72843,1,8,0:0:0:0:
180,72,72927,1,0,0:0:0:0:
376,64,73011,1,0,0:0:0:0:
325,80,73095,1,0,0:0:0:0:
291,121,73179,1,0,0:0:0:0:
283,174,73263,1,0,0:0:0:0:
304,223,73348,1,0,0:0:0:0:
347,254,73432,1,0,0:0:0:0:
192,120,73517,2,0,L|180:184,1,56.9999982604981,8|0,0:0|0:0,0:0:0:0:
224,188,73685,2,0,L|284:200,1,56.9999982604981,0|0,0:0|0:0,0:0:0:0:
124,216,73854,5,4,0:1:0:0:
109,267,73938,1,0,0:0:0:0:
123,318,74022,1,0,0:0:0:0:
163,354,74106,1,0,0:0:0:0:
215,365,74191,1,8,0:0:0:0:
265,346,74275,1,0,0:0:0:0:
413,295,74360,1,0,0:0:0:0:
414,241,74444,1,0,0:0:0:0:
383,198,74528,1,0,0:0:0:0:
336,172,74612,1,0,0:0:0:0:
287,151,74697,1,0,0:0:0:0:
264,112,74781,1,0,0:0:0:0:
428,112,74865,2,0,L|440:172,1,56.9999982604981,12|0,0:0|0:0,0:0:0:0:
400,176,75034,2,0,L|336:184,1,56.9999982604981,8|8,0:0|0:0,0:0:0:0:
172,188,75202,6,0,L|164:252,1,56.9999982604981,4|0,0:0|0:0,0:0:0:0:
220,264,75371,2,0,L|212:336,1,56.9999982604981,0|0,0:0|0:0,0:0:0:0:
152,320,75539,2,0,L|144:380,1,56.9999982604981,8|0,0:0|0:0,0:0:0:0:
336,264,75708,2,0,L|332:200,1,56.9999982604981,0|0,0:0|0:0,0:0:0:0:
276,196,75876,2,0,L|276:136,1,56.9999982604981,0|0,0:0|0:0,0:0:0:0:
340,140,76045,2,0,L|344:76,1,56.9999982604981,0|0,0:0|0:0,0:0:0:0:
204,92,76214,2,0,L|140:92,1,56.9999982604981,8|0,0:0|0:0,0:0:0:0:
204,148,76382,2,0,L|268:148,1,56.9999982604981,0|0,0:0|0:0,0:0:0:0:
76,184,76551,6,0,L|76:248,1,56.9999982604981,4|0,0:0|0:0,0:0:0:0:
140,244,76719,2,0,L|152:304,1,56.9999982604981,0|0,0:0|0:0,0:0:0:0:
216,308,76888,2,0,L|228:368,1,56.9999982604981,8|0,0:0|0:0,0:0:0:0:
424,220,77056,2,0,L|428:160,1,56.9999982604981,0|0,0:0|0:0,0:0:0:0:
372,160,77225,2,0,L|372:96,1,56.9999982604981,0|0,0:0|0:0,0:0:0:0:
436,108,77393,2,0,L|428:44,1,56.9999982604981,0|0,0:0|0:0,0:0:0:0:
260,80,77562,2,0,L|196:80,1,56.9999982604981,8|0,0:0|0:0,0:0:0:0:
152,128,77730,2,0,L|152:204,1,56.9999982604981,0|0,0:0|0:0,0:0:0:0:
320,180,77899,6,0,L|324:244,1,56.9999982604981,4|0,0:0|0:0,0:0:0:0:
260,248,78068,2,0,L|324:244,1,56.9999982604981,0|0,0:0|0:0,0:0:0:0:
256,272,78236,2,0,L|260:336,1,56.9999982604981,8|0,0:0|0:0,0:0:0:0:
428,280,78405,2,0,L|436:208,1,56.9999982604981,0|0,0:0|0:0,0:0:0:0:
372,204,78573,2,0,L|380:144,1,56.9999982604981,0|0,0:0|0:0,0:0:0:0:
452,148,78742,2,0,L|444:88,1,56.9999982604981,0|0,0:0|0:0,0:0:0:0:
256,72,78910,2,0,L|196:72,1,56.9999982604981,8|0,0:0|0:0,0:0:0:0:
260,76,79079,2,0,L|264:144,1,56.9999982604981,0|0,0:0|0:0,0:0:0:0:
80,112,79247,6,0,L|64:172,1,56.9999982604981,4|0,0:1|0:0,0:0:0:0:
124,176,79416,2,0,L|188:192,1,56.9999982604981,0|0,0:0|0:0,0:0:0:0:
124,176,79584,2,0,L|124:240,1,56.9999982604981,8|0,0:0|0:0,0:0:0:0:
316,252,79753,2,0,L|316:316,1,56.9999982604981,0|0,0:0|0:0,0:0:0:0:
176,280,79921,2,0,L|112:280,1,56.9999982604981,8|8,0:0|0:0,0:0:0:0:
304,288,80090,2,0,L|380:288,1,56.9999982604981,8|8,0:0|0:0,0:0:0:0:
164,256,80259,2,0,L|164:196,1,56.9999982604981,4|8,3:0|3:0,0:0:0:0:
348,200,80427,2,0,L|412:200,1,56.9999982604981,8|4,3:0|3:0,0:0:0:0:
158,201,80764,6,0,L|158:138,1,56.9999982604981,12|0,1:1|0:0,0:0:0:0:
212,120,80933,2,0,L|148:120,1,56.9999982604981,0|0,0:0|0:0,0:0:0:0:
352,120,81101,2,0,L|352:192,1,56.9999982604981,8|0,0:0|0:0,0:0:0:0:
292,192,81270,2,0,L|288:264,1,56.9999982604981,0|0,0:0|0:0,0:0:0:0:
228,264,81438,2,0,L|220:332,1,56.9999982604981,8|0,0:0|0:0,0:0:0:0:
452,192,81607,2,0,L|456:128,1,56.9999982604981,0|0,0:0|0:0,0:0:0:0:
400,124,81775,2,0,L|340:120,1,56.9999982604981,8|0,0:0|0:0,0:0:0:0:
128,120,81944,6,0,L|124:188,1,56.9999982604981,4|0,0:0|0:0,0:0:0:0:
184,192,82112,2,0,L|180:252,1,56.9999982604981,8|0,0:0|0:0,0:0:0:0:
116,272,82281,2,0,L|176:280,1,56.9999982604981,0|0,0:0|0:0,0:0:0:0:
384,268,82450,2,0,L|376:324,1,56.9999982604981,8|0,0:0|0:0,0:0:0:0:
320,320,82618,2,0,L|264:312,1,56.9999982604981,0|0,0:0|0:0,0:0:0:0:
320,320,82787,2,0,L|332:256,1,56.9999982604981,8|0,0:0|0:0,0:0:0:0:
128,168,82955,2,0,L|68:160,1,56.9999982604981,4|0,0:0|0:0,0:0:0:0:
128,104,83124,2,0,L|204:112,1,56.9999982604981,8|0,0:0|0:0,0:0:0:0:
360,108,83292,6,0,L|360:176,1,56.9999982604981,4|0,0:0|0:0,0:0:0:0:
304,152,83461,2,0,L|304:224,1,56.9999982604981,8|0,0:0|0:0,0:0:0:0:
364,240,83629,2,0,L|296:240,1,56.9999982604981,0|0,0:0|0:0,0:0:0:0:
96,188,83798,2,0,L|96:252,1,56.9999982604981,8|0,0:0|0:0,0:0:0:0:
156,260,83966,2,0,L|160:324,1,56.9999982604981,0|0,0:0|0:0,0:0:0:0:
96,324,84135,2,0,L|100:384,1,56.9999982604981,8|0,0:0|0:0,0:0:0:0:
320,252,84303,2,0,L|240:252,1,56.9999982604981,0|0,0:0|0:0,0:0:0:0:
204,256,84472,2,0,L|204:176,1,56.9999982604981,8|0,0:0|0:0,0:0:0:0:
408,160,84641,6,0,L|420:100,1,56.9999982604981,4|0,0:1|0:0,0:0:0:0:
352,108,84809,2,0,L|352:44,1,56.9999982604981,8|0,0:0|0:0,0:0:0:0:
420,52,84978,2,0,L|344:52,1,56.9999982604981,0|0,0:0|0:0,0:0:0:0:
184,56,85146,2,0,L|180:116,1,56.9999982604981,8|0,0:0|0:0,0:0:0:0:
244,124,85315,2,0,L|240:196,1,56.9999982604981,0|0,0:0|0:0,0:0:0:0:
180,184,85483,2,0,L|176:248,1,56.9999982604981,8|0,0:0|0:0,0:0:0:0:
412,268,85652,2,0,L|440:196,1,56.9999982604981,0|0,0:0|0:0,0:0:0:0:
392,200,85820,2,0,L|316:200,1,56.9999982604981,8|8,0:0|0:0,0:0:0:0:
128,92,85989,6,0,L|120:156,1,56.9999982604981,12|0,0:1|0:0,0:0:0:0:
180,160,86157,2,0,L|172:224,1,56.9999982604981,8|0,0:0|0:0,0:0:0:0:
232,224,86326,2,0,L|224:296,1,56.9999982604981,0|0,0:0|0:0,0:0:0:0:
416,288,86494,2,0,L|424:360,1,56.9999982604981,8|0,0:0|0:0,0:0:0:0:
360,292,86663,2,0,L|368:356,1,56.9999982604981,0|0,0:0|0:0,0:0:0:0:
308,292,86832,2,0,L|316:356,1,56.9999982604981,8|0,0:0|0:0,0:0:0:0:
148,284,87000,2,0,L|156:212,1,56.9999982604981,0|0,0:0|0:0,0:0:0:0:
220,220,87169,2,0,L|228:140,1,56.9999982604981,8|0,0:0|0:0,0:0:0:0:
388,88,87337,6,0,L|392:156,1,56.9999982604981,4|0,0:0|0:0,0:0:0:0:
328,156,87506,2,0,L|332:224,1,56.9999982604981,8|0,0:0|0:0,0:0:0:0:
400,212,87674,2,0,L|408:272,1,56.9999982604981,0|0,0:0|0:0,0:0:0:0:
184,272,87843,2,0,L|176:204,1,56.9999982604981,8|0,0:0|0:0,0:0:0:0:
236,192,88011,2,0,L|168:200,1,56.9999982604981,0|0,0:0|0:0,0:0:0:0:
236,192,88180,2,0,L|240:132,1,56.9999982604981,8|0,0:0|0:0,0:0:0:0:
68,120,88348,2,0,L|64:192,1,56.9999982604981,0|0,0:0|0:0,0:0:0:0:
116,192,88517,2,0,L|176:196,1,56.9999982604981,8|0,0:0|0:0,0:0:0:0:
416,160,88685,6,0,L|340:160,1,56.9999982604981,4|0,0:0|0:0,0:0:0:0:
300,160,88854,2,0,L|300:224,1,56.9999982604981,8|0,0:0|0:0,0:0:0:0:
360,240,89023,2,0,L|284:240,1,56.9999982604981,0|0,0:0|0:0,0:0:0:0:
128,240,89191,2,0,L|124:176,1,56.9999982604981,8|0,0:0|0:0,0:0:0:0:
172,176,89360,2,0,L|176:108,1,56.9999982604981,0|0,0:0|0:0,0:0:0:0:
116,116,89528,2,0,L|112:40,1,56.9999982604981,8|0,0:0|0:0,0:0:0:0:
352,80,89697,2,0,L|292:80,1,56.9999982604981,0|0,0:0|0:0,0:0:0:0:
236,80,89865,2,0,L|164:80,1,56.9999982604981,8|0,0:0|0:0,0:0:0:0:
368,116,90034,6,0,L|372:176,1,56.9999982604981,4|0,0:1|0:0,0:0:0:0:
304,180,90202,2,0,L|300:240,1,56.9999982604981,8|0,0:0|0:0,0:0:0:0:
376,240,90371,2,0,L|380:304,1,56.9999982604981,0|8,0:0|0:0,0:0:0:0:
224,296,90539,2,0,L|168:296,1,56.9999982604981,8|0,0:0|0:0,0:0:0:0:
360,148,90708,2,0,L|364:88,1,56.9999982604981,8|0,0:0|0:0,0:0:0:0:
228,96,90876,2,0,L|160:92,1,56.9999982604981,8|8,0:0|0:0,0:0:0:0:
360,84,91045,2,0,L|368:24,1,56.9999982604981,8|4,3:0|3:0,0:0:0:0:
224,36,91214,2,0,L|144:32,1,56.9999982604981,4|8,3:0|3:0,0:0:0:0:
448,292,91382,6,0,L|448:188,1,95,4|0,3:2|0:0,0:0:0:0:
328,292,91719,2,0,L|328:188,1,95,2|0,3:0|0:0,0:0:0:0:
208,292,92056,2,0,L|208:188,1,95,2|0,3:0|0:0,0:0:0:0:
88,292,92393,2,0,L|88:188,1,95,2|0,3:0|0:0,0:0:0:0:
208,292,92730,6,0,L|208:188,1,95,2|0,3:0|0:0,0:0:0:0:
328,292,93067,2,0,L|328:188,1,95,2|0,3:0|0:0,0:0:0:0:
448,292,93404,2,0,L|448:188,1,95,2|0,3:0|0:0,0:0:0:0:
328,208,93742,2,0,L|328:148,1,47.5,8|8,0:0|0:0,0:0:0:0:
480,140,93910,2,0,L|480:80,1,47.5,8|8,0:0|0:0,0:0:0:0:
208,292,94079,6,0,L|208:188,1,95,2|0,3:0|0:0,0:0:0:0:
328,292,94416,2,0,L|328:188,1,95,2|0,3:0|0:0,0:0:0:0:
208,292,94753,2,0,L|208:188,1,95,2|0,3:0|0:0,0:0:0:0:
328,188,95090,2,0,L|328:120,1,47.5,2|2,3:0|0:3,0:0:0:0:
168,124,95259,2,0,L|168:72,1,47.5,8|8,0:0|0:0,0:0:0:0:
400,120,95427,6,0,L|400:232,1,95,4|2,3:2|0:0,0:0:0:0:
348,224,95680,1,8,0:0:0:0:
192,224,95764,1,10,0:0:0:0:
148,256,95848,1,2,3:0:0:0:
148,300,95932,1,2,3:0:0:0:
192,332,96016,1,8,3:0:0:0:
356,224,96101,2,0,L|356:156,1,47.5,8|4,0:0|3:0,0:0:0:0:
220,168,96270,2,0,L|168:168,1,47.5,8|8,3:0|3:0,0:0:0:0:
364,128,96438,2,0,L|416:128,1,47.5,4|4,3:0|3:0,0:0:0:0:
212,112,96607,2,0,L|164:112,1,47.5,12|12,3:0|3:0,0:0:0:0:
452,284,96775,6,0,L|452:176,1,95,4|0,3:1|0:0,0:0:0:0:
320,200,97113,2,0,L|320:92,1,95,2|0,3:0|0:0,0:0:0:0:
188,156,97450,2,0,L|188:48,1,95,2|0,3:0|0:0,0:0:0:0:
56,120,97787,2,0,L|56:12,1,95,2|0,3:0|0:0,0:0:0:0:
188,156,98124,6,0,L|188:48,1,95,2|0,3:0|0:0,0:0:0:0:
320,120,98461,2,0,L|320:12,1,95,2|0,3:0|0:0,0:0:0:0:
452,164,98798,2,0,L|452:272,1,95,2|0,3:0|0:0,0:0:0:0:
216,308,99135,2,0,P|156:236|224:137,1,213.750008153916,4|0,3:2|0:0,0:0:0:0:
452,280,99472,6,0,L|452:172,1,95,6|0,3:2|0:0,0:0:0:0:
320,252,99810,2,0,L|320:144,1,95,2|0,3:0|0:0,0:0:0:0:
452,164,100147,2,0,L|452:56,1,95,2|0,3:0|0:0,0:0:0:0:
320,128,100484,2,0,L|320:20,1,95,2|0,3:0|0:0,0:0:0:0:
192,152,100821,6,0,L|192:44,1,95,2|0,3:0|0:0,0:0:0:0:
320,220,101158,2,0,L|320:112,1,95,2|0,3:0|0:0,0:0:0:0:
192,152,101495,2,0,L|192:260,1,95,2|0,3:0|0:0,0:0:0:0:
420,276,101832,2,0,P|482:205|417:108,1,213.750008153916,4|0,3:2|0:0,0:0:0:0:
168,268,102169,6,0,L|168:160,1,95,4|0,3:2|0:0,0:0:0:0:
36,168,102507,2,0,L|36:60,1,95,2|0,3:0|0:0,0:0:0:0:
168,144,102844,2,0,L|168:36,1,95,2|0,3:0|0:0,0:0:0:0:
420,276,103180,2,0,P|480:204|414:110,1,213.750008153916,4|0,3:2|0:0,0:0:0:0:
168,144,103517,6,0,L|168:36,1,95,4|0,3:2|0:0,0:0:0:0:
300,172,103855,2,0,L|300:64,1,95,2|0,3:0|0:0,0:0:0:0:
432,188,104192,2,0,L|432:80,1,95,2|0,3:0|0:0,0:0:0:0:
208,184,104528,2,0,P|148:112|212:9,1,213.750008153916,4|0,3:2|0:0,0:0:0:0:
376,44,104865,6,0,L|436:44,2,47.5,4|0|2,3:2|0:3|0:0,0:0:0:0:
220,240,105202,2,0,L|160:240,2,47.5,0|0|2,3:0|0:3|0:0,0:0:0:0:
376,240,105540,1,0,3:0:0:0:
331,240,105624,1,2,0:0:0:0:
286,240,105708,1,2,0:3:0:0:
460,324,105877,1,0,3:0:0:0:
415,324,105961,1,2,0:0:0:0:
370,324,106045,1,2,0:3:0:0:
136,240,106214,5,0,3:0:0:0:
181,240,106298,1,2,0:0:0:0:
226,240,106382,1,2,0:3:0:0:
52,324,106551,1,0,3:0:0:0:
97,324,106635,1,2,0:0:0:0:
142,324,106719,1,2,0:3:0:0:
312,224,106888,2,0,L|316:156,1,47.5,4|0,3:2|3:0,0:0:0:0:
176,224,107056,2,0,L|172:156,1,47.5,8|8,0:0|0:0,0:0:0:0:
328,172,107225,2,0,L|340:112,1,47.5,8|8,0:0|0:0,0:0:0:0:
160,172,107393,2,0,L|148:112,1,47.5,8|8,0:0|0:0,0:0:0:0:
328,128,107562,6,0,L|204:128,1,95,4|0,3:2|0:0,0:0:0:0:
384,192,107899,2,0,L|264:192,1,95,8|0,0:0|0:0,0:0:0:0:
440,256,108236,2,0,L|340:256,1,95,2|0,3:0|0:0,0:0:0:0:
500,308,108573,2,0,L|392:308,1,95,8|0,0:0|0:0,0:0:0:0:
96,224,108910,6,0,L|212:224,1,95,2|0,3:0|0:0,0:0:0:0:
416,224,109247,2,0,L|300:224,1,95,8|0,0:0|0:0,0:0:0:0:
96,224,109584,2,0,L|212:224,1,95,2|0,3:0|0:0,0:0:0:0:
416,224,109921,2,0,L|416:124,1,95,12|0,0:0|0:0,0:0:0:0:
416,92,110174,1,2,0:3:0:0:
184,128,110259,6,0,L|308:128,1,95,2|0,3:0|0:0,0:0:0:0:
128,192,110596,2,0,L|248:192,1,95,8|0,0:0|0:0,0:0:0:0:
72,256,110933,2,0,L|172:256,1,95,2|0,3:0|0:0,0:0:0:0:
12,308,111270,2,0,L|120:308,1,95,8|0,0:0|0:0,0:0:0:0:
416,224,111607,6,0,L|300:224,1,95,2|0,3:0|0:0,0:0:0:0:
96,224,111944,2,0,L|212:224,1,95,8|0,0:0|0:0,0:0:0:0:
416,224,112281,2,0,L|300:224,1,95,2|0,3:0|0:0,0:0:0:0:
96,224,112618,2,0,L|96:124,1,95,12|0,0:0|0:0,0:0:0:0:
148,96,112871,1,2,0:3:0:0:
412,84,112955,6,0,L|412:192,1,95,2|0,3:0|0:0,0:0:0:0:
256,144,113292,2,0,L|256:252,1,95,8|0,0:0|0:0,0:0:0:0:
100,84,113629,2,0,L|208:84,1,95,2|0,3:0|0:0,0:0:0:0:
488,296,113967,2,0,L|384:296,1,95,12|0,0:0|0:0,0:0:0:0:
340,296,114219,1,2,3:0:0:0:
100,84,114304,6,0,L|100:188,1,95,2|0,3:0|0:0,0:0:0:0:
256,144,114641,2,0,L|256:256,1,95,8|0,0:0|0:0,0:0:0:0:
412,84,114978,2,0,L|312:84,1,95,2|0,3:0|0:0,0:0:0:0:
28,308,115316,2,0,L|148:308,1,95,12|0,0:0|0:0,0:0:0:0:
176,308,115568,1,2,0:3:0:0:
336,140,115652,6,0,L|336:88,1,47.5,2|0,3:2|0:0,0:0:0:0:
296,84,115821,2,0,L|244:84,1,47.5,2|0,0:3|0:0,0:0:0:0:
103,100,115989,2,0,L|103:160,1,47.5,10|0,0:0|0:0,0:0:0:0:
151,168,116158,2,0,L|203:168,1,47.5,2|0,0:3|0:0,0:0:0:0:
352,288,116326,2,0,L|352:228,1,47.5,2|0,3:0|0:0,0:0:0:0:
292,228,116494,2,0,L|292:176,1,47.5,2|0,0:3|0:0,0:0:0:0:
132,252,116663,2,0,L|132:176,1,47.5,10|0,0:0|0:0,0:0:0:0:
188,184,116831,2,0,L|188:108,1,47.5,10|8,0:0|0:0,0:0:0:0:
376,180,117000,6,0,L|256:180,1,95,4|0,3:2|0:0,0:0:0:0:
56,180,117337,2,0,L|156:180,1,95,8|0,0:0|0:0,0:0:0:0:
376,180,117674,2,0,L|376:296,1,95,12|2,0:0|0:0,0:0:0:0:
120,180,118011,2,0,L|120:232,1,47.5,10|0,0:0|0:0,0:0:0:0:
288,224,118180,2,0,L|344:224,1,47.5,8|8,0:0|0:0,0:0:0:0:
188,312,118349,6,0,L|68:316,2,95,12|0|8,0:0|3:0|0:0,0:0:0:0:
412,316,118854,2,0,B|516:256|412:216|412:216|284:168|412:112,1,323.000006160736,2|0,3:0|3:0,0:0:0:0:
260,144,119360,1,8,0:0:0:0:
480,144,119528,1,2,3:0:0:0:
48,148,119865,6,0,L|48:348,1,190,4|0,3:1|3:0,0:0:0:0:
180,328,120371,2,0,L|280:328,1,95,8|0,0:0|3:0,0:0:0:0:
48,328,120708,2,0,L|48:168,1,142.5,8|0,0:0|0:0,0:0:0:0:
324,312,121045,6,0,L|432:312,2,95,12|0|8,0:0|3:0|0:0,0:0:0:0:
100,316,121551,2,0,B|-20:256|100:216|100:216|224:168|100:116,1,323.000006160736,2|0,3:0|3:0,0:0:0:0:
252,144,122056,1,8,0:0:0:0:
32,144,122224,1,2,3:0:0:0:
464,148,122561,6,0,L|464:348,1,190,4|0,3:1|3:0,0:0:0:0:
332,328,123067,2,0,L|232:328,1,95,8|0,0:0|3:0,0:0:0:0:
464,328,123405,2,0,L|464:172,1,142.5,8|0,0:0|0:0,0:0:0:0:
188,312,123742,6,0,L|76:312,2,95,12|2|8,0:0|3:0|0:0,0:0:0:0:
412,316,124247,2,0,B|532:256|412:216|412:216|288:168|412:116,1,323.000006160736,2|0,3:0|3:0,0:0:0:0:
260,144,124753,1,8,0:0:0:0:
480,144,124921,1,0,3:0:0:0:
48,148,125258,6,0,L|260:148,1,190,4|0,3:1|3:0,0:0:0:0:
64,216,125764,2,0,L|164:216,1,95,8|0,0:0|3:0,0:0:0:0:
384,212,126101,2,0,L|384:52,1,142.5,8|0,0:0|0:0,0:0:0:0:
188,136,126438,6,0,L|188:244,1,95,12|0,0:0|3:0,0:0:0:0:
240,228,126691,1,2,0:3:0:0:
384,228,126775,1,8,0:0:0:0:
156,192,126944,2,0,L|156:300,1,95,4|0,3:2|3:0,0:0:0:0:
208,284,127197,1,2,0:3:0:0:
352,284,127281,1,8,0:0:0:0:
120,248,127450,2,0,L|120:356,1,95,4|8,3:2|0:0,0:0:0:0:
172,340,127703,1,2,0:3:0:0:
316,340,127787,5,8,0:0:0:0:
92,340,127955,1,2,3:0:0:0:
356,272,128124,2,0,L|356:164,1,95,2|2,3:2|0:0,0:0:0:0:
304,180,128377,1,2,0:3:0:0:
160,180,128461,2,0,L|108:180,1,47.5,2|0,3:0|0:0,0:0:0:0:
304,124,128629,2,0,L|304:76,1,47.5,2|0,0:0|0:0,0:0:0:0:
228,124,128798,2,0,L|228:76,1,47.5,2|0,3:2|0:0,0:0:0:0:
152,124,128966,2,0,L|152:76,1,47.5,2|0,0:0|0:0,0:0:0:0:
436,176,129135,6,0,L|436:288,1,95,6|0,3:2|0:0,0:0:0:0:
264,272,129472,2,0,L|368:272,1,95,8|0,0:0|0:0,0:0:0:0:
192,204,129809,2,0,L|296:204,1,95,2|0,3:0|0:0,0:0:0:0:
44,132,130146,2,0,L|44:32,1,95,8|0,0:0|0:0,0:0:0:0:
348,132,130483,6,0,L|248:132,1,95,2|0,3:0|0:0,0:0:0:0:
84,224,130820,2,0,L|84:328,1,95,8|0,0:0|0:0,0:0:0:0:
312,324,131158,2,0,L|204:324,1,95,2|0,3:0|0:0,0:0:0:0:
464,324,131495,2,0,L|360:324,1,95,12|0,0:0|0:0,0:0:0:0:
316,324,131747,1,2,0:3:0:0:
76,176,131832,6,0,L|76:288,1,95,2|0,3:0|0:0,0:0:0:0:
248,272,132169,2,0,L|144:272,1,95,8|0,0:0|0:0,0:0:0:0:
320,204,132506,2,0,L|216:204,1,95,2|0,3:0|0:0,0:0:0:0:
468,132,132843,2,0,L|468:32,1,95,8|0,0:0|0:0,0:0:0:0:
164,132,133180,6,0,L|264:132,1,95,2|0,3:0|0:0,0:0:0:0:
428,220,133517,2,0,L|428:328,1,95,8|0,0:0|0:0,0:0:0:0:
200,324,133855,2,0,L|312:324,1,95,0|0,3:0|0:0,0:0:0:0:
48,324,134192,2,0,L|152:324,1,95,12|0,0:0|0:0,0:0:0:0:
196,324,134444,1,2,0:3:0:0:
416,232,134528,6,0,L|416:124,1,95,2|0,3:0|0:0,0:0:0:0:
156,128,134865,2,0,L|268:128,1,95,10|0,0:0|0:0,0:0:0:0:
416,232,135202,2,0,L|304:232,1,95,2|0,3:0|0:0,0:0:0:0:
96,232,135540,2,0,L|96:124,1,95,12|0,0:0|0:0,0:0:0:0:
144,132,135792,1,2,0:3:0:0:
416,232,135877,6,0,L|416:124,1,95,2|0,3:0|0:0,0:0:0:0:
248,140,136214,2,0,L|148:140,1,95,10|0,0:0|0:0,0:0:0:0:
320,232,136551,2,0,L|212:232,1,95,2|0,3:0|0:0,0:0:0:0:
464,304,136888,2,0,L|464:204,1,95,12|0,0:0|0:0,0:0:0:0:
416,192,137141,1,2,0:3:0:0:
224,100,137225,5,2,3:0:0:0:
160,100,137337,1,0,0:0:0:0:
97,100,137449,1,2,0:0:0:0:
228,172,137562,1,8,0:0:0:0:
164,172,137674,1,2,0:0:0:0:
101,172,137786,1,2,0:0:0:0:
228,248,137899,1,2,3:0:0:0:
164,248,138011,1,2,0:0:0:0:
101,248,138123,1,2,0:0:0:0:
332,180,138236,2,0,L|252:180,2,63.3333333333333,8|2|2,0:0|0:0|0:3,0:0:0:0:
152,256,138573,6,0,L|232:256,2,63.3333333333333,4|2|2,3:2|0:0|0:3,0:0:0:0:
376,252,138910,2,0,L|292:252,2,63.3333333333333,8|2|2,0:0|0:0|0:3,0:0:0:0:
164,320,139247,2,0,L|164:232,1,63.3333333333333,2|0,3:0|0:0,0:0:0:0:
216,204,139472,1,2,0:0:0:0:
416,204,139584,2,0,L|416:152,1,47.5,10|8,0:0|0:0,0:0:0:0:
216,204,139753,2,0,L|152:204,1,47.5,8|8,0:0|0:0,0:0:0:0:
340,312,139922,6,0,L|448:312,2,95,12|2|8,0:0|3:0|0:0,0:0:0:0:
100,316,140427,2,0,B|-4:256|100:216|100:216|228:168|100:112,1,323.000006160736,2|0,3:0|3:0,0:0:0:0:
272,144,140933,1,8,0:0:0:0:
44,144,141101,1,2,3:0:0:0:
464,148,141438,6,0,L|256:148,1,190,4|0,3:1|3:0,0:0:0:0:
448,148,141944,2,0,L|448:264,1,95,8|0,0:0|3:0,0:0:0:0:
292,168,142281,2,0,L|444:168,1,142.5,8|0,0:0|0:0,0:0:0:0:
176,312,142618,6,0,L|280:312,2,95,12|2|8,0:0|3:0|0:0,0:0:0:0:
412,316,143124,2,0,B|516:256|412:216|412:216|284:168|412:112,1,323.000006160736,2|0,3:0|3:0,0:0:0:0:
252,144,143629,1,8,0:0:0:0:
480,144,143797,1,2,3:0:0:0:
48,148,144134,6,0,L|244:148,1,190,4|0,3:1|3:0,0:0:0:0:
68,148,144640,2,0,L|68:264,1,95,8|0,0:0|3:0,0:0:0:0:
220,168,144978,2,0,L|68:168,1,142.5,8|0,0:0|0:0,0:0:0:0:
320,312,145315,6,0,L|416:312,2,95,10|2|8,0:0|3:0|0:0,0:0:0:0:
100,316,145820,2,0,B|-4:256|100:216|100:216|228:168|100:112,1,323.000006160736,2|0,3:0|3:0,0:0:0:0:
252,144,146326,1,8,0:0:0:0:
32,144,146494,1,0,3:0:0:0:
464,148,146831,6,0,L|252:148,1,190,4|0,3:2|3:0,0:0:0:0:
432,148,147337,2,0,L|432:264,1,95,8|0,0:0|3:0,0:0:0:0:
128,212,147674,2,0,L|128:52,1,142.5,8|0,0:0|0:0,0:0:0:0:
324,136,148011,5,8,0:0:0:0:
200,136,148180,1,2,0:3:0:0:
68,136,148349,1,2,0:0:0:0:
324,200,148517,1,2,3:2:0:0:
192,200,148686,1,2,0:3:0:0:
60,200,148855,1,2,0:0:0:0:
324,272,149023,1,2,3:2:0:0:
184,272,149192,1,2,0:3:0:0:
44,272,149361,1,2,0:3:0:0:
324,336,149528,1,2,3:2:0:0:
176,336,149697,1,2,0:3:0:0:
28,336,149866,1,2,0:0:0:0:
432,336,150034,1,4,0:1:0:0:
20,336,150371,1,12,0:0:0:0:
416,104,150708,5,4,0:0:0:0:
445,138,150792,1,0,0:0:0:0:
447,182,150876,1,0,0:0:0:0:
421,218,150960,1,0,0:0:0:0:
384,240,151045,1,8,0:0:0:0:
340,235,151129,1,0,0:0:0:0:
204,252,151213,1,0,0:0:0:0:
176,292,151297,1,0,0:0:0:0:
222,305,151382,1,0,0:0:0:0:
260,264,151466,1,0,0:0:0:0:
260,219,151550,1,0,0:0:0:0:
228,182,151634,1,0,0:0:0:0:
88,144,151719,1,8,0:0:0:0:
72,100,151803,1,0,0:0:0:0:
112,60,151887,1,0,0:0:0:0:
158,56,151971,1,0,0:0:0:0:
300,68,152056,5,4,0:0:0:0:
310,111,152140,1,0,0:0:0:0:
292,156,152224,1,0,0:0:0:0:
260,192,152308,1,0,0:0:0:0:
216,216,152393,1,8,0:0:0:0:
172,224,152477,1,0,0:0:0:0:
340,176,152562,1,0,0:0:0:0:
344,220,152646,1,0,0:0:0:0:
324,264,152730,1,0,0:0:0:0:
288,304,152814,1,0,0:0:0:0:
244,328,152899,1,0,0:0:0:0:
192,336,152983,1,0,0:0:0:0:
372,352,153068,1,8,0:0:0:0:
416,328,153152,1,0,0:0:0:0:
436,288,153236,1,0,0:0:0:0:
421,246,153320,1,0,0:0:0:0:
184,216,153405,5,4,0:0:0:0:
181,171,153489,1,0,0:0:0:0:
203,133,153573,1,0,0:0:0:0:
244,116,153657,1,0,0:0:0:0:
292,104,153742,1,8,0:0:0:0:
332,72,153826,1,0,0:0:0:0:
136,64,153910,1,0,0:0:0:0:
187,80,153994,1,0,0:0:0:0:
221,121,154078,1,0,0:0:0:0:
229,174,154162,1,0,0:0:0:0:
208,223,154247,1,0,0:0:0:0:
165,254,154331,1,0,0:0:0:0:
320,120,154416,2,0,L|332:184,1,56.9999982604981,8|0,0:0|0:0,0:0:0:0:
288,188,154584,2,0,L|228:200,1,56.9999982604981,0|0,0:0|0:0,0:0:0:0:
388,216,154753,5,4,0:1:0:0:
403,267,154837,1,0,0:0:0:0:
389,318,154921,1,0,0:0:0:0:
349,354,155005,1,0,0:0:0:0:
297,365,155090,1,8,0:0:0:0:
247,346,155174,1,0,0:0:0:0:
99,295,155259,1,0,0:0:0:0:
98,241,155343,1,0,0:0:0:0:
129,198,155427,1,0,0:0:0:0:
176,172,155511,1,0,0:0:0:0:
225,151,155596,1,0,0:0:0:0:
248,112,155680,1,0,0:0:0:0:
84,112,155764,2,0,L|72:172,1,56.9999982604981,8|0,0:0|0:0,0:0:0:0:
112,176,155933,2,0,L|176:184,1,56.9999982604981,8|8,0:0|0:0,0:0:0:0:
340,188,156101,6,0,L|348:252,1,56.9999982604981,4|0,0:0|0:0,0:0:0:0:
292,264,156270,2,0,L|300:336,1,56.9999982604981,0|0,0:0|0:0,0:0:0:0:
360,320,156438,2,0,L|368:380,1,56.9999982604981,8|0,0:0|0:0,0:0:0:0:
176,264,156607,2,0,L|180:200,1,56.9999982604981,0|0,0:0|0:0,0:0:0:0:
236,196,156775,2,0,L|236:136,1,56.9999982604981,0|0,0:0|0:0,0:0:0:0:
172,140,156944,2,0,L|168:76,1,56.9999982604981,0|0,0:0|0:0,0:0:0:0:
308,92,157113,2,0,L|372:92,1,56.9999982604981,8|0,0:0|0:0,0:0:0:0:
308,148,157281,2,0,L|244:148,1,56.9999982604981,0|0,0:0|0:0,0:0:0:0:
436,184,157450,6,0,L|436:248,1,56.9999982604981,4|0,0:0|0:0,0:0:0:0:
372,244,157618,2,0,L|360:304,1,56.9999982604981,0|0,0:0|0:0,0:0:0:0:
296,308,157787,2,0,L|284:368,1,56.9999982604981,8|0,0:0|0:0,0:0:0:0:
88,220,157955,2,0,L|84:160,1,56.9999982604981,0|0,0:0|0:0,0:0:0:0:
140,160,158124,2,0,L|140:96,1,56.9999982604981,0|0,0:0|0:0,0:0:0:0:
76,108,158292,2,0,L|84:44,1,56.9999982604981,0|0,0:0|0:0,0:0:0:0:
252,80,158461,2,0,L|316:80,1,56.9999982604981,8|0,0:0|0:0,0:0:0:0:
360,128,158629,2,0,L|360:204,1,56.9999982604981,0|0,0:0|0:0,0:0:0:0:
192,180,158798,6,0,L|188:244,1,56.9999982604981,4|0,0:0|0:0,0:0:0:0:
252,248,158967,2,0,L|188:244,1,56.9999982604981,0|0,0:0|0:0,0:0:0:0:
256,272,159135,2,0,L|252:336,1,56.9999982604981,8|0,0:0|0:0,0:0:0:0:
84,280,159304,2,0,L|76:208,1,56.9999982604981,0|0,0:0|0:0,0:0:0:0:
140,204,159472,2,0,L|132:144,1,56.9999982604981,0|0,0:0|0:0,0:0:0:0:
60,148,159641,2,0,L|68:88,1,56.9999982604981,0|0,0:0|0:0,0:0:0:0:
256,72,159809,2,0,L|316:72,1,56.9999982604981,8|0,0:0|0:0,0:0:0:0:
252,76,159978,2,0,L|248:144,1,56.9999982604981,0|0,0:0|0:0,0:0:0:0:
432,112,160146,6,0,L|448:172,1,56.9999982604981,4|0,0:1|0:0,0:0:0:0:
388,176,160315,2,0,L|324:192,1,56.9999982604981,0|0,0:0|0:0,0:0:0:0:
388,176,160483,2,0,L|388:240,1,56.9999982604981,8|0,0:0|0:0,0:0:0:0:
196,252,160652,2,0,L|196:316,1,56.9999982604981,0|0,0:0|0:0,0:0:0:0:
336,280,160820,2,0,L|400:280,1,56.9999982604981,8|0,0:0|0:0,0:0:0:0:
208,288,160989,2,0,L|132:288,1,56.9999982604981,8|8,3:0|3:0,0:0:0:0:
348,256,161158,2,0,L|348:196,1,56.9999982604981,4|4,3:0|3:0,0:0:0:0:
164,200,161326,2,0,L|100:200,1,56.9999982604981,8|4,3:0|3:0,0:0:0:0:
354,201,161663,6,0,L|354:138,1,56.9999982604981,12|0,0:0|0:0,0:0:0:0:
300,120,161832,2,0,L|364:120,1,56.9999982604981,0|0,0:0|0:0,0:0:0:0:
160,120,162000,2,0,L|160:192,1,56.9999982604981,8|0,0:0|0:0,0:0:0:0:
220,192,162169,2,0,L|224:264,1,56.9999982604981,0|0,0:0|0:0,0:0:0:0:
284,264,162337,2,0,L|292:332,1,56.9999982604981,8|0,0:0|0:0,0:0:0:0:
60,192,162506,2,0,L|56:128,1,56.9999982604981,0|0,0:0|0:0,0:0:0:0:
112,124,162674,2,0,L|172:120,1,56.9999982604981,8|0,0:0|0:0,0:0:0:0:
384,120,162843,6,0,L|388:188,1,56.9999982604981,4|0,0:0|0:0,0:0:0:0:
328,192,163011,2,0,L|332:252,1,56.9999982604981,8|0,0:0|0:0,0:0:0:0:
396,272,163180,2,0,L|336:280,1,56.9999982604981,0|0,0:0|0:0,0:0:0:0:
128,268,163349,2,0,L|136:324,1,56.9999982604981,8|0,0:0|0:0,0:0:0:0:
192,320,163517,2,0,L|248:312,1,56.9999982604981,0|0,0:0|0:0,0:0:0:0:
192,320,163686,2,0,L|180:256,1,56.9999982604981,8|0,0:0|0:0,0:0:0:0:
384,168,163854,2,0,L|444:160,1,56.9999982604981,4|0,0:0|0:0,0:0:0:0:
384,104,164023,2,0,L|308:112,1,56.9999982604981,8|0,0:0|0:0,0:0:0:0:
152,108,164191,6,0,L|152:176,1,56.9999982604981,4|0,0:0|0:0,0:0:0:0:
208,152,164360,2,0,L|208:224,1,56.9999982604981,8|0,0:0|0:0,0:0:0:0:
148,240,164528,2,0,L|216:240,1,56.9999982604981,0|0,0:0|0:0,0:0:0:0:
416,188,164697,2,0,L|416:252,1,56.9999982604981,8|0,0:0|0:0,0:0:0:0:
356,260,164865,2,0,L|352:324,1,56.9999982604981,0|0,0:0|0:0,0:0:0:0:
416,324,165034,2,0,L|412:384,1,56.9999982604981,8|0,0:0|0:0,0:0:0:0:
192,252,165202,2,0,L|272:252,1,56.9999982604981,0|0,0:0|0:0,0:0:0:0:
308,256,165371,2,0,L|308:176,1,56.9999982604981,8|0,0:0|0:0,0:0:0:0:
104,160,165540,6,0,L|92:100,1,56.9999982604981,4|0,0:1|0:0,0:0:0:0:
160,108,165708,2,0,L|160:44,1,56.9999982604981,8|0,0:0|0:0,0:0:0:0:
92,52,165877,2,0,L|168:52,1,56.9999982604981,0|0,0:0|0:0,0:0:0:0:
328,56,166045,2,0,L|332:116,1,56.9999982604981,8|0,0:0|0:0,0:0:0:0:
268,124,166214,2,0,L|272:196,1,56.9999982604981,0|0,0:0|0:0,0:0:0:0:
332,184,166382,2,0,L|336:248,1,56.9999982604981,8|0,0:0|0:0,0:0:0:0:
100,268,166551,2,0,L|72:196,1,56.9999982604981,0|0,0:0|0:0,0:0:0:0:
120,200,166719,2,0,L|196:200,1,56.9999982604981,8|8,0:0|0:0,0:0:0:0:
384,92,166888,6,0,L|392:156,1,56.9999982604981,4|0,0:0|0:0,0:0:0:0:
332,160,167056,2,0,L|340:224,1,56.9999982604981,8|0,0:0|0:0,0:0:0:0:
280,224,167225,2,0,L|288:296,1,56.9999982604981,0|0,0:0|0:0,0:0:0:0:
88,288,167393,2,0,L|80:360,1,56.9999982604981,8|0,0:0|0:0,0:0:0:0:
144,288,167562,2,0,L|136:352,1,56.9999982604981,0|0,0:0|0:0,0:0:0:0:
196,292,167731,2,0,L|188:356,1,56.9999982604981,8|0,0:0|0:0,0:0:0:0:
364,284,167899,2,0,L|356:212,1,56.9999982604981,0|0,0:0|0:0,0:0:0:0:
296,220,168068,2,0,L|288:140,1,56.9999982604981,8|0,0:0|0:0,0:0:0:0:
124,88,168236,6,0,L|120:156,1,56.9999982604981,4|0,0:0|0:0,0:0:0:0:
184,156,168405,2,0,L|180:224,1,56.9999982604981,8|0,0:0|0:0,0:0:0:0:
112,212,168573,2,0,L|104:272,1,56.9999982604981,0|0,0:0|0:0,0:0:0:0:
328,272,168742,2,0,L|336:204,1,56.9999982604981,8|0,0:0|0:0,0:0:0:0:
276,192,168910,2,0,L|344:200,1,56.9999982604981,0|0,0:0|0:0,0:0:0:0:
276,192,169079,2,0,L|272:132,1,56.9999982604981,8|0,0:0|0:0,0:0:0:0:
444,120,169247,2,0,L|448:192,1,56.9999982604981,0|0,0:0|0:0,0:0:0:0:
396,192,169416,2,0,L|336:196,1,56.9999982604981,8|0,0:0|0:0,0:0:0:0:
96,160,169584,6,0,L|172:160,1,56.9999982604981,4|0,0:0|0:0,0:0:0:0:
212,160,169753,2,0,L|212:224,1,56.9999982604981,8|0,0:0|0:0,0:0:0:0:
152,240,169922,2,0,L|228:240,1,56.9999982604981,0|0,0:0|0:0,0:0:0:0:
384,240,170090,2,0,L|388:176,1,56.9999982604981,8|0,0:0|0:0,0:0:0:0:
340,176,170259,2,0,L|336:108,1,56.9999982604981,0|0,0:0|0:0,0:0:0:0:
396,116,170427,2,0,L|400:40,1,56.9999982604981,8|0,0:0|0:0,0:0:0:0:
160,80,170596,2,0,L|220:80,1,56.9999982604981,0|0,0:0|0:0,0:0:0:0:
276,80,170764,2,0,L|348:80,1,56.9999982604981,8|0,0:0|0:0,0:0:0:0:
144,116,170933,6,0,L|140:176,1,56.9999982604981,4|0,0:0|0:0,0:0:0:0:
208,180,171101,2,0,L|212:240,1,56.9999982604981,8|0,0:0|0:0,0:0:0:0:
136,240,171270,2,0,L|132:304,1,56.9999982604981,8|0,0:0|0:0,0:0:0:0:
288,296,171438,2,0,L|344:296,1,56.9999982604981,8|0,0:0|0:0,0:0:0:0:
152,148,171607,2,0,L|148:88,1,56.9999982604981,0|0,0:0|0:0,0:0:0:0:
284,96,171775,2,0,L|352:92,1,56.9999982604981,8|8,3:0|3:0,0:0:0:0:
152,84,171944,2,0,L|144:24,1,56.9999982604981,4|4,3:0|3:0,0:0:0:0:
288,36,172113,2,0,L|368:32,1,56.9999982604981,8|4,3:0|3:0,0:0:0:0:
64,292,172281,6,0,L|64:188,1,95,4|0,3:2|0:0,0:0:0:0:
184,292,172618,2,0,L|184:188,1,95,2|0,3:0|0:0,0:0:0:0:
304,292,172955,2,0,L|304:188,1,95,2|0,3:0|0:0,0:0:0:0:
424,292,173292,2,0,L|424:188,1,95,2|0,3:0|0:0,0:0:0:0:
304,292,173629,6,0,L|304:188,1,95,2|0,3:0|0:0,0:0:0:0:
184,292,173966,2,0,L|184:188,1,95,2|0,3:0|0:0,0:0:0:0:
64,292,174303,2,0,L|64:188,1,95,2|0,3:0|0:0,0:0:0:0:
184,208,174641,2,0,L|184:148,1,47.5,8|8,0:0|0:0,0:0:0:0:
32,140,174809,2,0,L|32:80,1,47.5,8|8,0:0|0:0,0:0:0:0:
304,292,174978,6,0,L|304:188,1,95,4|0,3:2|0:0,0:0:0:0:
184,292,175315,2,0,L|184:188,1,95,2|0,3:0|0:0,0:0:0:0:
304,292,175652,2,0,L|304:188,1,95,2|0,3:0|0:0,0:0:0:0:
184,188,175989,2,0,L|184:120,1,47.5,8|8,3:0|3:0,0:0:0:0:
344,124,176158,2,0,L|344:72,1,47.5,8|8,0:0|0:0,0:0:0:0:
112,120,176326,6,0,L|112:232,1,95,6|0,3:2|0:0,0:0:0:0:
164,224,176579,1,2,0:3:0:0:
320,224,176663,1,0,3:0:0:0:
364,256,176747,1,8,0:0:0:0:
364,300,176831,1,8,0:0:0:0:
320,332,176915,1,8,0:0:0:0:
156,224,177000,2,0,L|76:224,2,63.3333333333333,8|2|2,3:0|0:3|0:0,0:0:0:0:
356,224,177337,2,0,L|436:224,2,63.3333333333333,4|2|2,3:0|0:0|0:3,0:0:0:0:
84,272,177674,6,0,P|56:184|236:68,1,323.000006160736,4|8,3:2|0:0,0:0:0:0:
320,84,178517,1,0,0:3:0:0:
216,84,178685,2,0,L|216:176,1,80.750001540184,2|2,0:0|0:3,0:0:0:0:
372,180,179023,6,0,P|384:232|176:312,1,323.000006160736,2|8,3:2|0:0,0:0:0:0:
352,336,180034,1,2,0:0:0:0:
104,344,180371,6,0,B|100:240|164:200|164:200|248:156|236:48,1,323.000006160736,4|8,3:2|0:0,0:0:0:0:
140,72,181214,1,0,0:3:0:0:
52,72,181382,2,0,L|52:152,1,80.750001540184,2|2,0:0|0:3,0:0:0:0:
232,152,181719,6,0,P|336:164|392:308,1,242.250004620552,2|2,3:0|0:0,0:0:0:0:
384,312,182309,1,2,0:0:0:0:
336,340,182393,1,8,0:0:0:0:
160,344,182730,1,2,0:0:0:0:
432,280,183068,6,0,P|448:236|264:92,1,323.000006160736,4|8,3:2|0:0,0:0:0:0:
176,120,183910,1,0,0:3:0:0:
284,128,184079,2,0,L|284:216,1,80.750001540184,2|0,0:0|3:0,0:0:0:0:
104,216,184416,6,0,P|104:276|312:376,1,323.000006160736,2|10,3:0|0:0,0:0:0:0:
460,348,185427,1,2,0:0:0:0:
168,164,185764,6,0,L|424:164,1,242.250004620552,2|2,3:0|3:2,0:0:0:0:
252,164,186438,2,0,P|184:200|232:344,1,242.250004620552,10|2,0:0|0:0,0:0:0:0:
388,320,187112,6,0,P|400:232|280:148,1,242.250004620552,10|0,0:0|3:0,0:0:0:0:
240,148,187702,1,2,0:3:0:0:
88,156,187787,2,0,L|88:244,1,80.750001540184,12|0,0:0|3:0,0:0:0:0:
136,256,188039,1,0,3:0:0:0:
284,264,188124,2,0,L|336:264,1,40.375000770092,8|8,0:0|0:0,0:0:0:0:
168,220,188292,2,0,L|168:168,1,40.375000770092,8|8,0:0|0:0,0:0:0:0:
416,220,188461,5,4,0:1:0:0:
422,173,188545,1,0,0:0:0:0:
414,126,188629,1,8,0:0:0:0:
393,84,188713,1,0,0:0:0:0:
361,49,188798,1,0,0:0:0:0:
320,26,188882,1,0,0:0:0:0:
274,15,188966,1,8,0:0:0:0:
226,18,189050,1,0,0:0:0:0:
182,35,189135,1,0,0:0:0:0:
144,63,189219,1,0,0:0:0:0:
292,128,189303,2,0,L|300:180,1,47.5,10|0,0:0|0:0,0:0:0:0:
164,200,189472,2,0,L|100:212,1,47.5,2|0,0:1|0:0,0:0:0:0:
312,236,189641,2,0,L|324:288,1,47.5,10|0,0:0|0:0,0:0:0:0:
144,292,189809,6,0,L|208:296,1,47.5,2|0,0:1|0:0,0:0:0:0:
364,276,189978,2,0,L|436:268,1,47.5,10|0,0:0|0:0,0:0:0:0:
212,252,190146,2,0,L|204:200,1,47.5,2|0,0:3|0:0,0:0:0:0:
260,192,190315,2,0,L|264:128,1,47.5,8|0,0:0|0:0,0:0:0:0:
100,160,190483,2,0,L|92:108,1,47.5,2|0,0:1|0:0,0:0:0:0:
152,104,190652,2,0,L|208:92,1,47.5,8|0,0:0|0:0,0:0:0:0:
48,92,190820,2,0,L|104:80,1,47.5,2|0,0:1|0:0,0:0:0:0:
148,72,190989,2,0,L|204:60,1,47.5,8|0,0:0|0:0,0:0:0:0:
36,104,191157,5,4,0:1:0:0:
30,151,191241,1,0,0:0:0:0:
38,198,191325,1,8,0:0:0:0:
59,240,191409,1,0,0:0:0:0:
91,275,191494,1,0,0:0:0:0:
132,298,191578,1,0,0:0:0:0:
178,309,191662,1,8,0:0:0:0:
226,306,191746,1,0,0:0:0:0:
270,289,191831,1,0,0:0:0:0:
308,261,191915,1,0,0:0:0:0:
168,256,191999,2,0,L|160:204,1,47.5,10|0,0:0|0:0,0:0:0:0:
296,184,192168,2,0,L|360:172,1,47.5,2|0,0:1|0:0,0:0:0:0:
148,148,192337,2,0,L|136:96,1,47.5,10|0,0:0|0:0,0:0:0:0:
316,92,192505,6,0,L|252:88,1,47.5,2|0,0:1|0:0,0:0:0:0:
96,108,192674,2,0,L|24:116,1,47.5,10|0,0:0|0:0,0:0:0:0:
248,132,192842,2,0,L|256:184,1,47.5,2|0,0:3|0:0,0:0:0:0:
204,200,193011,2,0,L|200:264,1,47.5,8|0,0:0|0:0,0:0:0:0:
432,224,193179,2,0,L|440:276,1,47.5,2|0,0:1|0:0,0:0:0:0:
384,276,193348,2,0,L|380:340,1,47.5,8|0,0:0|0:0,0:0:0:0:
440,320,193516,2,0,L|448:392,1,47.5,0|0,0:0|0:0,0:0:0:0:
304,368,193685,1,10,0:0:0:0:
164,372,193770,1,10,0:0:0:0:
24,280,193854,5,4,0:1:0:0:
18,233,193938,1,0,0:0:0:0:
26,186,194022,1,8,0:0:0:0:
47,144,194106,1,0,0:0:0:0:
79,109,194191,1,0,0:0:0:0:
120,86,194275,1,0,0:0:0:0:
166,75,194359,1,8,0:0:0:0:
214,78,194443,1,0,0:0:0:0:
258,95,194528,1,0,0:0:0:0:
296,123,194612,1,0,0:0:0:0:
156,128,194696,2,0,L|148:180,1,47.5,10|0,0:0|0:0,0:0:0:0:
284,200,194865,2,0,L|348:212,1,47.5,2|0,0:1|0:0,0:0:0:0:
136,236,195034,2,0,L|124:288,1,47.5,10|0,0:0|0:0,0:0:0:0:
336,284,195202,6,0,L|340:344,1,47.5,2|0,0:1|0:0,0:0:0:0:
176,228,195371,2,0,L|104:232,1,47.5,8|0,0:0|0:0,0:0:0:0:
308,200,195539,2,0,L|316:132,1,47.5,2|0,0:3|0:0,0:0:0:0:
168,140,195708,2,0,L|96:144,1,47.5,10|0,0:0|0:0,0:0:0:0:
340,112,195876,2,0,L|268:116,1,47.5,2|0,0:1|0:0,0:0:0:0:
136,136,196045,2,0,L|140:200,1,47.5,10|0,0:0|0:0,0:0:0:0:
304,212,196214,2,0,L|308:276,1,47.5,2|0,0:3|0:0,0:0:0:0:
120,280,196382,2,0,L|176:288,1,47.5,10|0,0:0|0:0,0:0:0:0:
332,304,196551,6,0,L|408:304,2,63.3333333333333,4|2|2,0:1|0:3|0:3,0:0:0:0:
160,192,196888,2,0,L|84:192,2,63.3333333333333,2|2|2,0:0|0:3|0:3,0:0:0:0:
368,160,197225,2,0,L|292:160,2,63.3333333333333,2|2|2,0:1|0:0|0:3,0:0:0:0:
148,100,197562,2,0,L|72:100,2,63.3333333333333,2|2|2,0:0|0:0|0:0,0:0:0:0:
332,120,197899,6,0,L|336:232,1,95,4|8,0:1|0:0,0:0:0:0:
172,228,198236,2,0,L|172:276,1,47.5,0|8,3:0|0:0,0:0:0:0:
340,228,198489,1,0,3:0:0:0:
176,252,198573,1,2,0:1:0:0:
136,216,198657,1,0,0:0:0:0:
134,169,198741,1,8,0:0:0:0:
168,127,198825,1,8,0:0:0:0:
328,108,198910,1,8,3:0:0:0:
368,144,198994,1,8,3:0:0:0:
376,190,199078,1,4,3:0:0:0:
347,231,199162,1,8,3:0:0:0:
132,124,199247,5,6,0:1:0:0:
98,156,199331,1,0,0:0:0:0:
87,201,199415,1,8,0:0:0:0:
100,246,199499,1,0,0:0:0:0:
136,277,199584,1,2,0:0:0:0:
182,284,199668,1,2,0:0:0:0:
328,284,199753,2,0,L|397:284,1,47.5,10|0,0:0|0:0,0:0:0:0:
180,336,199921,5,2,0:1:0:0:
220,310,200005,1,0,0:0:0:0:
247,272,200089,1,8,0:0:0:0:
257,225,200173,1,0,0:0:0:0:
248,179,200258,1,0,0:0:0:0:
221,140,200342,1,0,0:0:0:0:
80,132,200427,2,0,L|80:68,1,47.5,8|0,0:0|0:0,0:0:0:0:
248,68,200596,6,0,L|324:72,1,47.5,2|0,0:1|0:0,0:0:0:0:
308,128,200764,1,8,0:0:0:0:
120,120,200848,2,0,L|116:172,1,47.5,2|0,0:1|0:0,0:0:0:0:
172,208,201017,1,0,0:0:0:0:
324,252,201101,2,0,L|260:252,1,47.5,10|0,0:1|0:0,0:0:0:0:
448,300,201270,5,2,0:1:0:0:
471,258,201354,1,0,0:0:0:0:
477,211,201438,1,8,0:0:0:0:
464,166,201522,1,0,0:0:0:0:
435,128,201607,1,0,0:0:0:0:
394,104,201691,1,0,0:0:0:0:
348,98,201775,1,8,0:0:0:0:
302,109,201859,1,0,0:0:0:0:
148,124,201944,6,0,L|152:200,1,47.5,2|0,0:1|0:0,0:0:0:0:
204,200,202112,2,0,L|208:264,1,47.5,8|0,0:0|0:0,0:0:0:0:
148,272,202281,2,0,L|152:332,1,47.5,2|2,0:3|0:3,0:0:0:0:
296,316,202450,2,0,L|360:320,1,47.5,8|2,0:0|0:3,0:0:0:0:
120,180,202618,5,2,0:1:0:0:
91,216,202702,1,0,0:0:0:0:
83,263,202786,1,8,0:0:0:0:
98,307,202870,1,0,0:0:0:0:
132,340,202955,1,0,0:0:0:0:
178,352,203039,1,0,0:0:0:0:
328,348,203124,2,0,L|404:344,1,47.5,8|0,0:0|0:0,0:0:0:0:
208,240,203292,6,0,L|300:232,1,47.5,2|0,0:1|0:0,0:0:0:0:
312,228,203461,1,8,0:0:0:0:
456,216,203545,2,0,L|460:144,1,47.5,2|0,0:1|0:0,0:0:0:0:
412,144,203714,1,0,0:0:0:0:
264,108,203798,2,0,L|204:104,1,47.5,10|0,0:1|0:0,0:0:0:0:
452,144,203966,6,0,L|456:200,1,47.5,2|0,0:1|0:0,0:0:0:0:
400,200,204135,2,0,L|400:248,1,47.5,8|0,0:0|0:0,0:0:0:0:
464,256,204303,2,0,L|468:308,1,47.5,0|0,0:0|0:0,0:0:0:0:
400,312,204472,2,0,L|396:364,1,47.5,8|0,0:0|0:0,0:0:0:0:
216,280,204641,5,4,0:0:0:0:
216,224,204725,2,0,L|268:224,1,52.2500015945435,0|8,0:0|0:0,0:0:0:0:
124,188,204893,1,2,0:1:0:0:
124,128,204978,2,0,L|180:128,1,52.2500015945435,0|0,0:0|0:0,0:0:0:0:
32,128,205146,2,0,L|36:60,1,52.2500015945435,10|0,0:0|0:0,0:0:0:0:
228,96,205315,5,4,0:0:0:0:
228,148,205399,2,0,L|168:148,1,52.2500015945435,0|8,0:0|0:0,0:0:0:0:
320,188,205568,1,2,0:1:0:0:
320,240,205652,2,0,L|252:240,1,52.2500015945435,0|0,0:0|0:0,0:0:0:0:
412,248,205820,2,0,L|408:320,1,52.2500015945435,10|0,0:0|0:0,0:0:0:0:
180,312,205989,5,4,1:0:0:0:
180,256,206073,2,0,L|256:256,1,52.2500015945435,0|8,0:0|0:0,0:0:0:0:
372,228,206242,1,2,0:1:0:0:
372,172,206326,2,0,L|300:172,1,52.2500015945435,0|0,0:0|0:0,0:0:0:0:
464,152,206494,2,0,L|468:88,1,52.2500015945435,10|0,0:0|0:0,0:0:0:0:
260,92,206663,5,2,1:0:0:0:
219,113,206747,1,0,0:0:0:0:
191,151,206831,1,8,0:0:0:0:
183,198,206915,1,0,0:0:0:0:
196,243,207000,1,0,0:0:0:0:
229,277,207084,1,0,0:0:0:0:
368,288,207169,2,0,L|424:288,1,47.5,10|0,0:0|0:0,0:0:0:0:
196,296,207337,6,0,L|136:296,1,47.5,6|0,0:1|0:0,0:0:0:0:
140,248,207506,1,8,0:0:0:0:
284,232,207590,2,0,L|288:156,1,47.5,2|0,0:1|0:0,0:0:0:0:
240,168,207759,1,0,0:0:0:0:
80,136,207843,2,0,L|84:72,1,47.5,10|0,0:0|0:0,0:0:0:0:
316,88,208011,6,0,L|376:88,1,47.5,2|0,0:1|0:0,0:0:0:0:
372,136,208180,1,8,0:0:0:0:
228,152,208264,2,0,L|224:228,1,47.5,2|0,0:1|0:0,0:0:0:0:
272,216,208433,1,0,0:0:0:0:
432,248,208517,2,0,L|428:312,1,47.5,10|0,0:0|0:0,0:0:0:0:
224,316,208685,5,6,0:1:0:0:
266,294,208769,1,0,0:0:0:0:
292,255,208853,1,8,0:0:0:0:
295,208,208937,1,0,0:0:0:0:
274,166,209022,1,0,0:0:0:0:
234,140,209106,1,0,0:0:0:0:
88,144,209191,2,0,L|84:216,1,47.5,10|2,0:0|0:3,0:0:0:0:
288,316,209360,5,2,0:1:0:0:
247,294,209444,1,0,0:0:0:0:
221,255,209528,1,8,0:0:0:0:
218,208,209612,1,0,0:0:0:0:
239,166,209697,1,0,0:0:0:0:
279,140,209781,1,0,0:0:0:0:
100,144,209865,2,0,L|96:216,1,47.5,8|0,0:0|0:0,0:0:0:0:
312,284,210034,6,0,L|312:228,1,47.5,12|0,0:0|0:0,0:0:0:0:
264,204,210202,2,0,L|208:204,1,47.5,0|0,0:0|0:0,0:0:0:0:
164,204,210371,2,0,L|164:152,1,47.5,8|0,0:0|0:0,0:0:0:0:
336,168,210539,2,0,L|336:112,1,47.5,2|2,0:3|0:3,0:0:0:0:
144,144,210708,6,0,L|144:89,1,50.8249984489441,10|0,0:0|0:0,0:0:0:0:
195,84,210876,2,0,L|249:84,1,50.8249984489441,0|0,0:0|0:0,0:0:0:0:
296,84,211045,2,0,L|356:84,1,50.8249984489441,8|0,0:0|0:0,0:0:0:0:
164,140,211214,2,0,L|164:192,1,50.8249984489441,2|2,0:3|0:3,0:0:0:0:
376,264,211382,6,0,L|316:264,1,54.6250010418892,10|0,0:0|0:0,0:0:0:0:
264,264,211551,2,0,L|208:264,1,54.6250010418892,0|0,0:0|0:0,0:0:0:0:
152,264,211719,2,0,L|92:264,1,54.6250010418892,8|0,0:0|0:0,0:0:0:0:
264,192,211888,2,0,L|320:192,1,54.6250010418892,2|2,0:3|0:3,0:0:0:0:
72,288,212056,6,0,L|136:288,1,57.9499976125337,10|0,0:0|0:0,0:0:0:0:
188,288,212225,2,0,L|252:288,1,57.9499976125337,0|0,0:0|0:0,0:0:0:0:
304,288,212393,2,0,L|376:288,1,57.9499976125337,8|0,0:0|0:0,0:0:0:0:
180,216,212562,2,0,L|120:216,1,57.9499976125337,2|2,0:3|0:3,0:0:0:0:
352,224,212730,6,0,L|352:152,1,61.7499971733095,12|0,0:0|0:0,0:0:0:0:
288,144,212899,2,0,L|224:144,1,61.7499971733095,0|0,0:0|0:0,0:0:0:0:
288,112,213068,2,0,L|288:40,1,61.7499971733095,8|0,0:0|0:0,0:0:0:0:
136,48,213236,2,0,L|136:120,1,61.7499971733095,2|2,0:0|0:0,0:0:0:0:
344,112,213405,6,0,L|420:112,1,66.4999979705811,12|0,0:0|0:0,0:0:0:0:
216,172,213573,2,0,L|144:172,1,66.4999979705811,8|8,0:0|0:0,0:0:0:0:
348,232,213742,2,0,L|348:308,1,66.4999979705811,8|0,0:0|0:0,0:0:0:0:
188,300,213910,2,0,L|116:300,1,66.4999979705811,8|8,0:0|0:0,0:0:0:0:
364,304,214079,6,0,L|364:184,1,95,12|2,0:0|0:0,0:0:0:0:
152,220,214332,1,8,0:0:0:0:
304,220,214500,1,8,0:0:0:0:
152,136,214669,1,2,3:0:0:0:
312,132,214837,1,0,3:0:0:0:
124,136,214921,1,10,0:0:0:0:
380,132,215090,2,0,L|380:288,1,142.5,12|0,0:0|0:0,0:0:0:0:
156,264,215427,5,4,1:0:0:0:
188,164,216438,6,0,L|95:164,2,63.3333333333333,8|2|2,0:0|0:0|0:3,0:0:0:0:
324,164,216775,2,0,L|417:164,2,63.3333333333333,2|2|2,3:2|0:3|0:0,0:0:0:0:
160,164,217112,2,0,L|160:232,1,63.3333333333333,2|2,0:0|0:3,0:0:0:0:
220,256,217337,1,0,0:0:0:0:
384,220,217450,2,0,L|384:152,1,63.3333333333333,10|2,0:0|0:3,0:0:0:0:
324,128,217675,1,0,0:0:0:0:
112,164,217787,2,0,L|112:312,1,142.5,4|0,3:2|0:0,0:0:0:0:
360,316,218124,1,4,3:1:0:0:
256,192,228910,5,0,0:0:0:0:
256,192,229584,1,0,0:0:0:0:
256,192,229669,12,0,231438,0:0:0:0:
256,192,231607,5,2,0:0:0:0:
256,192,232281,1,0,0:0:0:0:
256,192,232365,12,0,234135,0:0:0:0:
256,192,234303,5,2,0:0:0:0:
256,192,234977,1,0,0:0:0:0:
256,192,235062,12,0,236326,0:0:0:0:
256,192,236494,5,0,0:0:0:0:
88,192,236663,2,0,L|88:304,1,95,8|0,3:0|0:0,0:0:0:0:
336,356,237000,6,0,B|492:352|496:76|248:124|248:124|76:168|64:-16,1,712.5,4|0,0:1|0:0,0:0:0:0:
300,32,238348,6,0,P|324:116|144:312,1,380,4|0,0:0|3:0,0:0:0:0:
60,312,239191,2,0,L|60:264,1,47.5,0|8,3:0|3:0,0:0:0:0:
224,312,239360,2,0,L|308:312,2,63.3333333333333,4|8|8,3:0|3:0|3:0,0:0:0:0:
56,312,239697,6,0,L|56:168,1,126.666666666667,2|0,3:0|0:0,0:0:0:0:
188,208,240034,2,0,L|188:64,1,126.666666666667,10|0,0:0|0:0,0:0:0:0:
320,160,240371,1,0,3:0:0:0:
320,228,240483,1,0,0:0:0:0:
320,292,240596,1,0,0:0:0:0:
452,184,240708,2,0,L|452:328,1,126.666666666667,10|0,0:0|0:0,0:0:0:0:
320,160,241045,5,0,3:0:0:0:
320,228,241157,1,0,0:0:0:0:
320,292,241270,1,0,0:0:0:0:
188,208,241382,2,0,L|188:64,1,126.666666666667,10|0,0:0|0:0,0:0:0:0:
320,92,241719,2,0,L|388:92,2,63.3333333333333,0|2|0,3:0|0:3|0:3,0:0:0:0:
188,92,242056,2,0,L|120:92,2,63.3333333333333,8|2|0,0:0|0:3|3:0,0:0:0:0:
456,312,242393,6,0,L|456:168,1,126.666666666667,4|0,3:2|0:0,0:0:0:0:
324,208,242730,2,0,L|324:64,1,126.666666666667,10|0,0:0|0:0,0:0:0:0:
192,160,243067,1,0,3:0:0:0:
192,228,243179,1,0,0:0:0:0:
192,292,243292,1,0,0:0:0:0:
60,184,243404,2,0,L|60:328,1,126.666666666667,10|0,0:0|0:0,0:0:0:0:
192,160,243741,5,0,3:0:0:0:
192,228,243853,1,0,0:0:0:0:
192,292,243966,1,0,0:0:0:0:
324,208,244078,2,0,L|324:64,1,126.666666666667,10|0,0:0|0:0,0:0:0:0:
192,92,244416,2,0,L|124:92,2,63.3333333333333,0|2|0,3:0|0:3|0:0,0:0:0:0:
324,92,244753,2,0,L|392:92,2,63.3333333333333,8|2|0,0:0|0:3|3:0,0:0:0:0:
152,192,245090,6,0,L|152:336,1,126.666666666667,4|0,3:2|0:0,0:0:0:0:
284,180,245427,2,0,L|156:180,1,126.666666666667,10|0,0:0|0:0,0:0:0:0:
288,180,245764,1,0,3:0:0:0:
288,243,245876,1,0,0:0:0:0:
288,306,245988,1,0,0:0:0:0:
156,180,246101,2,0,L|284:180,1,126.666666666667,10|0,0:0|0:0,0:0:0:0:
152,180,246438,5,0,3:0:0:0:
152,243,246550,1,0,0:0:0:0:
152,306,246662,1,0,0:0:0:0:
284,180,246775,2,0,L|156:180,1,126.666666666667,10|0,0:0|0:0,0:0:0:0:
288,92,247112,2,0,L|224:92,2,63.3333333333333,0|2|0,3:0|0:3|0:0,0:0:0:0:
156,92,247449,2,0,L|219:92,2,63.3333333333333,8|2|0,0:0|0:3|0:0,0:0:0:0:
360,88,247787,6,0,P|444:176|96:248,1,760,2|0,0:0|0:0,0:0:0:0:
304,284,249809,6,0,L|304:227,1,47.5,8|2,0:0|0:0,0:0:0:0:
192,232,249978,2,0,L|192:168,1,47.5,0|0,3:0|3:0,0:0:0:0:
328,144,250146,2,0,L|388:144,1,47.5,8|8,3:0|3:0,0:0:0:0:
152,140,250315,2,0,L|96:140,1,47.5,4|4,3:0|3:0,0:0:0:0:
396,144,250483,6,0,L|396:248,1,95,6|0,3:2|0:0,0:0:0:0:
256,144,250820,2,0,L|256:248,1,95,2|0,3:0|0:0,0:0:0:0:
116,140,251157,2,0,L|116:244,1,95,2|0,3:0|0:0,0:0:0:0:
256,144,251494,2,0,L|256:248,1,95,2|2,3:2|0:3,0:0:0:0:
400,232,251832,6,0,L|292:232,1,95,2|0,3:0|0:0,0:0:0:0:
152,232,252169,2,0,L|268:232,1,95,2|0,3:0|0:0,0:0:0:0:
400,232,252506,2,0,L|292:232,1,95,2|0,3:0|0:0,0:0:0:0:
152,232,252843,2,0,L|268:232,1,95,2|2,3:2|0:3,0:0:0:0:
60,176,253180,6,0,L|60:72,1,95,2|0,3:2|0:0,0:0:0:0:
236,176,253517,2,0,L|236:72,1,95,2|0,3:0|0:0,0:0:0:0:
412,276,253854,2,0,L|412:172,1,95,2|0,3:0|0:0,0:0:0:0:
236,208,254191,2,0,L|236:312,1,95,2|2,3:2|0:3,0:0:0:0:
64,212,254528,6,0,L|172:212,1,95,2|0,3:0|0:0,0:0:0:0:
332,212,254865,2,0,L|216:212,1,95,2|0,3:0|0:0,0:0:0:0:
64,212,255202,2,0,L|172:212,1,95,14|0,3:2|0:0,0:0:0:0:
332,212,255539,2,0,L|332:276,1,47.5,8|8,0:0|0:0,0:0:0:0:
184,268,255708,2,0,L|124:268,1,47.5,8|8,0:0|0:0,0:0:0:0:
344,272,255876,6,0,L|452:272,2,95,2|8|2,3:0|0:0|3:0,0:0:0:0:
184,168,256382,2,0,L|184:360,1,190,10|10,0:0|0:0,0:0:0:0:
344,168,256888,1,2,3:0:0:0:
184,168,257056,2,0,L|384:168,1,190,10|10,0:0|0:0,0:0:0:0:
372,168,257562,1,2,3:0:0:0:
192,168,257730,2,0,L|192:368,1,190,10|10,0:0|0:0,0:0:0:0:
432,344,258236,2,0,L|432:240,1,95,2|8,3:0|0:0,0:0:0:0:
380,240,258489,1,8,0:0:0:0:
168,272,258573,6,0,L|60:272,2,95,4|8|2,3:2|0:0|3:0,0:0:0:0:
320,168,259079,2,0,L|128:168,1,190,10|10,0:0|0:0,0:0:0:0:
36,168,259585,1,2,3:0:0:0:
192,236,259753,2,0,L|0:236,1,190,10|10,0:0|0:0,0:0:0:0:
164,168,260259,1,2,3:0:0:0:
320,168,260427,2,0,L|320:368,1,190,10|10,0:0|0:0,0:0:0:0:
80,344,260933,2,0,L|80:240,1,95,2|8,3:0|0:0,0:0:0:0:
132,240,261186,1,8,0:0:0:0:
344,212,261270,6,0,L|236:212,2,95,4|8|2,3:2|0:0|3:0,0:0:0:0:
184,120,261775,2,0,L|376:120,1,190,10|10,0:0|0:0,0:0:0:0:
216,120,262281,1,2,3:0:0:0:
376,120,262450,2,0,L|184:120,1,190,10|10,0:0|0:0,0:0:0:0:
340,120,262955,1,2,3:0:0:0:
184,120,263124,2,0,L|376:120,1,190,10|10,0:0|0:0,0:0:0:0:
216,120,263629,2,0,L|316:120,1,95,2|8,3:0|0:0,0:0:0:0:
360,120,263882,1,8,0:0:0:0:
124,120,263966,6,0,L|224:120,2,95,4|8|2,3:2|0:0|3:0,0:0:0:0:
420,120,264472,2,0,L|220:120,1,190,10|10,0:0|0:0,0:0:0:0:
396,120,264978,1,2,3:0:0:0:
104,120,265146,2,0,L|316:120,1,190,10|10,0:0|0:0,0:0:0:0:
396,120,265652,1,2,3:0:0:0:
104,116,265820,2,0,L|312:116,1,190,10|10,0:0|0:0,0:0:0:0:
124,116,266326,2,0,L|124:176,1,47.5,8|8,3:0|3:0,0:0:0:0:
264,164,266494,2,0,L|336:164,1,47.5,4|8,3:0|3:0,0:0:0:0:
124,163,266663,6,0,L|124:260,1,95,4|8,3:1|0:0,0:0:0:0:
276,252,267000,1,2,3:0:0:0:
104,256,267169,2,0,L|104:312,1,47.5,8|2,0:0|0:0,0:0:0:0:
200,304,267421,1,2,0:0:0:0:
368,148,267590,2,0,L|316:148,1,47.5,2|0,0:0|3:0,0:0:0:0:
220,148,267843,1,10,0:0:0:0:
444,148,268011,6,0,L|444:245,1,95,4|8,3:2|0:0,0:0:0:0:
284,248,268348,1,2,3:0:0:0:
120,300,268517,2,0,L|120:228,1,47.5,8|2,0:0|0:0,0:0:0:0:
212,196,268770,1,2,0:0:0:0:
376,252,268939,2,0,L|376:300,1,47.5,2|0,0:0|3:0,0:0:0:0:
212,308,269191,1,10,0:0:0:0:
440,164,269360,6,0,L|340:164,1,95,4|8,3:2|0:0,0:0:0:0:
180,168,269697,1,2,3:0:0:0:
352,220,269866,2,0,L|276:220,1,47.5,8|2,0:0|0:0,0:0:0:0:
180,224,270118,1,2,0:0:0:0:
344,328,270287,2,0,L|276:328,1,47.5,2|0,0:0|3:0,0:0:0:0:
428,328,270540,1,10,0:0:0:0:
124,163,270708,6,0,L|124:260,1,95,4|2,3:1|0:0,0:0:0:0:
288,264,271045,1,2,3:0:0:0:
124,163,271214,2,0,L|124:115,1,47.5,8|0,0:0|0:0,0:0:0:0:
216,116,271466,1,0,3:0:0:0:
264,116,271551,2,0,L|320:116,1,47.5,8|8,0:0|0:0,0:0:0:0:
164,176,271719,2,0,L|164:232,1,47.5,8|8,3:0|0:0,0:0:0:0:
300,216,271888,2,0,L|352:216,1,47.5,8|8,0:0|0:0,0:0:0:0:
124,163,272056,6,0,L|124:260,1,95,4|8,3:1|0:0,0:0:0:0:
284,256,272393,1,2,3:0:0:0:
124,258,272562,2,0,L|124:306,1,47.5,8|2,0:0|0:0,0:0:0:0:
284,308,272814,1,2,0:0:0:0:
124,258,272983,2,0,L|124:206,1,47.5,2|0,0:0|3:0,0:0:0:0:
284,256,273236,1,10,0:0:0:0:
48,140,273405,6,0,L|152:140,1,95,4|8,3:2|0:0,0:0:0:0:
300,140,273742,1,2,3:0:0:0:
143,140,273911,2,0,L|191:140,1,47.5,8|2,0:0|0:0,0:0:0:0:
36,144,274163,1,2,0:0:0:0:
191,140,274332,2,0,L|191:200,1,47.5,2|0,0:0|3:0,0:0:0:0:
36,228,274585,1,10,0:0:0:0:
340,168,274753,6,0,L|236:168,1,95,4|8,3:2|0:0,0:0:0:0:
400,168,275090,1,2,3:0:0:0:
245,168,275259,2,0,L|300:168,1,47.5,8|2,0:0|0:0,0:0:0:0:
140,172,275511,1,2,0:0:0:0:
292,236,275680,2,0,L|225:236,1,47.5,2|0,0:0|3:0,0:0:0:0:
400,232,275933,1,10,0:0:0:0:
100,164,276101,6,0,L|100:261,1,95,4|2,3:1|0:0,0:0:0:0:
264,260,276438,1,2,3:0:0:0:
32,264,276607,2,0,L|88:264,1,47.5,8|0,0:0|0:0,0:0:0:0:
184,268,276859,1,2,0:0:0:0:
284,272,277028,1,2,0:0:0:0:
116,268,277112,2,0,L|116:168,1,95,4|8,3:2|0:0,0:0:0:0:
352,264,277450,6,0,L|352:167,1,95,4|8,3:1|0:0,0:0:0:0:
304,168,277703,1,2,0:0:0:0:
128,168,277787,1,8,0:0:0:0:
352,168,277956,2,0,L|352:120,1,47.5,10|4,3:0|3:0,0:0:0:0:
312,108,278124,1,8,3:0:0:0:
268,108,278208,1,8,0:0:0:0:
220,108,278292,1,4,3:0:0:0:
452,208,278461,6,0,L|452:305,1,95,4|8,3:1|0:0,0:0:0:0:
404,304,278714,1,2,0:0:0:0:
228,304,278798,1,8,0:0:0:0:
464,304,278966,2,0,L|464:256,1,47.5,10|8,0:0|3:0,0:0:0:0:
424,244,279134,1,4,3:0:0:0:
380,244,279218,1,8,0:0:0:0:
188,248,279302,1,4,3:0:0:0:
468,188,279472,1,12,0:0:0:0:
44,188,279809,1,12,0:0:0:0:
472,80,280146,6,0,L|276:80,1,190,4|8,3:1|0:0,0:0:0:0:
88,188,280820,2,0,L|12:188,2,56.9999982604981,2|2|2,3:0|0:3|0:0,0:0:0:0:
316,168,281157,2,0,L|316:296,1,95,10|2,0:0|0:3,0:0:0:0:
96,184,281494,6,0,L|304:184,1,190,2|8,3:0|0:0,0:0:0:0:
96,120,282169,2,0,L|176:120,2,56.9999982604981,2|2|2,3:0|0:3|0:0,0:0:0:0:
316,108,282506,2,0,L|316:212,1,95,10|2,0:0|0:3,0:0:0:0:
68,80,282843,6,0,L|288:80,1,190,2|8,3:0|0:0,0:0:0:0:
72,176,283517,2,0,L|8:176,2,56.9999982604981,2|2|2,3:0|0:3|0:0,0:0:0:0:
292,176,283854,2,0,L|184:176,1,95,10|2,0:0|0:3,0:0:0:0:
444,80,284191,6,0,L|224:80,1,190,2|8,3:0|0:0,0:0:0:0:
408,176,284865,2,0,L|472:176,2,56.9999982604981,2|2|2,3:0|0:3|0:0,0:0:0:0:
164,180,285202,2,0,L|164:68,1,95,10|2,0:0|0:3,0:0:0:0:
408,271,285539,6,0,L|408:171,1,95,4|0,3:2|0:0,0:0:0:0:
184,180,285876,2,0,L|184:80,1,95,10|0,0:0|0:0,0:0:0:0:
344,88,286214,2,0,L|264:88,2,66.4999979705811,2|2|2,3:0|0:3|0:0,0:0:0:0:
116,76,286551,2,0,L|116:196,1,95,10|2,0:0|0:3,0:0:0:0:
412,252,286888,6,0,L|312:252,1,95,2|0,3:2|0:0,0:0:0:0:
144,252,287225,2,0,L|260:252,1,95,10|0,0:0|0:0,0:0:0:0:
396,120,287562,2,0,L|320:120,2,66.4999979705811,2|2|2,3:0|0:3|0:0,0:0:0:0:
172,116,287899,2,0,L|296:116,1,95,10|2,0:0|0:3,0:0:0:0:
40,120,288236,6,0,L|40:252,1,95,2|0,3:2|0:0,0:0:0:0:
268,196,288573,2,0,L|376:196,1,95,10|0,0:0|0:0,0:0:0:0:
200,280,288910,2,0,L|272:280,2,66.4999979705811,2|2|2,3:0|0:3|0:0,0:0:0:0:
432,276,289247,2,0,L|432:148,1,95,10|2,0:0|0:3,0:0:0:0:
168,168,289584,6,0,L|96:168,2,47.5,8|4|8,0:0|3:0|3:0,0:0:0:0:
352,168,289921,2,0,L|352:68,1,95,10|8,0:0|3:0,0:0:0:0:
304,76,290174,1,4,3:0:0:0:
160,76,290259,2,0,L|52:76,1,95,2|2,0:0|0:3,0:0:0:0:
304,76,290596,2,0,L|304:144,1,47.5,8|8,3:0|0:0,0:0:0:0:
160,132,290764,2,0,L|76:132,1,47.5,10|8,0:0|0:0,0:0:0:0:
340,172,290933,6,0,P|300:287|200:292,1,190,2|8,3:0|0:0,0:0:0:0:
55,303,291607,2,0,L|247:303,1,190,2|10,3:3|0:0,0:0:0:0:
56,132,292281,2,0,L|56:232,1,95,2|2,3:0|0:0,0:0:0:0:
84,228,292506,2,0,L|128:228,1,31.6666666666667,0|0,0:0|0:0,0:0:0:0:
224,224,292618,2,0,L|336:224,1,95,8|8,0:0|0:0,0:0:0:0:
92,104,292955,6,0,L|292:104,1,190,4|8,3:2|0:0,0:0:0:0:
92,104,293629,1,2,3:2:0:0:
396,124,293966,2,0,L|296:124,1,95,10|2,0:0|0:3,0:0:0:0:
396,192,294303,2,0,L|360:192,1,31.6666666666667,2|0,0:0|0:0,0:0:0:0:
332,192,294416,2,0,L|292:192,1,31.6666666666667,0|0,0:0|0:0,0:0:0:0:
128,188,294641,1,8,0:0:0:0:
448,124,294978,6,0,L|448:320,1,190,6|8,3:2|0:0,0:0:0:0:
144,116,295652,2,0,L|144:312,1,190,2|10,3:3|0:0,0:0:0:0:
344,132,296326,2,0,L|444:132,1,95,2|2,3:0|0:0,0:0:0:0:
392,168,296579,1,0,0:0:0:0:
344,204,296663,2,0,L|444:204,1,95,8|8,0:0|0:0,0:0:0:0:
188,152,297000,6,0,P|88:216|104:304,1,190,4|8,3:1|0:0,0:0:0:0:
360,200,297674,2,0,L|432:200,2,47.5,2|2|2,3:0|0:3|0:0,0:0:0:0:
124,192,298011,2,0,L|124:292,1,95,10|0,0:0|0:0,0:0:0:0:
168,288,298264,1,2,0:0:0:0:
348,292,298348,2,0,L|348:228,1,47.5,8|8,0:0|0:3,0:0:0:0:
204,200,298517,2,0,L|204:140,1,47.5,4|8,0:3|0:3,0:0:0:0:
384,152,298685,1,2,0:0:0:0:
411,169,298741,1,2,0:0:0:0:
430,194,298797,1,2,0:0:0:0:
438,224,298853,1,10,0:0:0:0:
436,256,298909,1,2,0:0:0:0:
422,284,298965,1,2,0:0:0:0:
236,288,299023,6,0,L|136:288,2,95,4|2|8,3:2|0:3|0:0,0:0:0:0:
336,288,299528,1,2,0:3:0:0:
164,140,299697,2,0,L|272:140,1,95,2|0,0:0|0:0,0:0:0:0:
408,140,300034,2,0,L|300:140,1,95,10|0,0:0|0:0,0:0:0:0:
92,76,300371,6,0,L|192:76,1,95,2|0,3:3|0:0,0:0:0:0:
284,76,300708,1,8,0:0:0:0:
56,168,300876,2,0,L|156:168,1,95,2|0,0:0|3:0,0:0:0:0:
312,172,301214,2,0,P|388:216|388:340,1,190,2|0,0:0|0:0,0:0:0:0:
156,312,301719,5,2,3:3:0:0:
316,224,301888,2,0,L|220:224,2,95,2|8|2,0:0|0:0|0:3,0:0:0:0:
96,224,302393,2,0,L|216:224,1,95,2|0,0:0|0:0,0:0:0:0:
96,140,302730,2,0,L|204:140,1,95,10|0,0:0|0:0,0:0:0:0:
420,76,303066,6,0,L|320:76,1,95,2|2,3:0|0:0,0:0:0:0:
228,76,303404,1,8,0:0:0:0:
456,168,303572,2,0,L|356:168,1,95,2|0,0:0|3:0,0:0:0:0:
200,172,303909,2,0,P|124:216|124:340,1,190,2|0,0:0|0:0,0:0:0:0:
360,312,304416,5,4,3:2:0:0:
204,312,304584,1,2,0:3:0:0:
360,312,304753,2,0,L|360:200,1,95,10|2,0:0|0:3,0:0:0:0:
132,168,305090,2,0,L|248:168,1,95,2|0,3:2|0:0,0:0:0:0:
64,172,305427,2,0,L|64:276,1,95,10|0,0:0|0:0,0:0:0:0:
420,76,305764,6,0,L|320:76,1,95,2|0,3:3|0:0,0:0:0:0:
228,76,306101,1,8,0:0:0:0:
456,168,306269,2,0,L|356:168,1,95,2|0,0:0|3:0,0:0:0:0:
200,172,306607,2,0,P|124:216|124:340,1,190,2|0,0:0|0:0,0:0:0:0:
388,312,307112,5,4,3:2:0:0:
164,312,307281,1,2,0:3:0:0:
388,312,307448,2,0,L|284:312,1,95,10|2,0:0|0:3,0:0:0:0:
72,168,307786,2,0,L|180:168,1,95,2|0,3:2|0:0,0:0:0:0:
336,168,308123,2,0,L|232:168,1,95,10|0,0:0|0:0,0:0:0:0:
20,60,308461,6,0,L|20:156,1,95,2|2,3:0|0:0,0:0:0:0:
244,156,308798,1,8,0:0:0:0:
20,208,308966,2,0,L|124:208,1,95,2|8,0:0|0:0,0:0:0:0:
160,208,309219,1,8,0:0:0:0:
328,208,309303,2,0,L|328:292,1,47.5,8|8,0:0|0:3,0:0:0:0:
160,256,309472,2,0,L|160:128,1,95,10|2,0:0|0:0,0:0:0:0:
208,156,309725,1,2,0:0:0:0:
360,240,309809,5,4,3:1:0:0:
360,240,309978,1,2,0:0:0:0:
132,240,310315,1,2,0:0:0:0:
360,240,310652,1,2,0:3:0:0:
360,240,310820,1,10,0:0:0:0:
52,240,311157,5,2,3:2:0:0:
52,240,311326,1,2,0:0:0:0:
280,240,311663,1,2,0:0:0:0:
52,240,312000,1,2,0:3:0:0:
52,240,312168,1,10,0:0:0:0:
460,240,312506,5,2,3:2:0:0:
460,240,312673,1,2,0:0:0:0:
232,240,313010,1,2,0:0:0:0:
460,240,313347,1,2,0:3:0:0:
308,240,313516,1,10,0:0:0:0:
52,240,313854,5,2,3:2:0:0:
52,240,314023,1,2,0:0:0:0:
280,240,314360,1,2,0:0:0:0:
52,240,314697,1,2,0:3:0:0:
204,240,314865,1,10,0:0:0:0:
460,240,315202,5,6,3:2:0:0:
460,240,315371,1,2,0:0:0:0:
232,240,315708,1,2,0:0:0:0:
460,240,316045,1,2,0:3:0:0:
196,240,316213,1,10,0:0:0:0:
460,240,316550,5,2,3:2:0:0:
460,240,316719,1,2,0:0:0:0:
232,240,317056,1,2,0:0:0:0:
460,240,317393,1,2,0:3:0:0:
88,240,317561,1,10,0:0:0:0:
372,244,317899,5,4,3:1:0:0:
140,244,318066,1,2,0:0:0:0:
372,244,318404,1,2,0:0:0:0:
140,244,318741,1,2,0:3:0:0:
372,244,318909,1,10,0:0:0:0:
140,244,319246,5,2,3:2:0:0:
372,244,319415,1,2,0:0:0:0:
140,244,319753,1,2,0:0:0:0:
372,244,319921,2,0,L|372:176,1,47.5,8|8,0:0|0:0,0:0:0:0:
224,192,320090,2,0,L|224:136,1,47.5,8|8,0:0|0:0,0:0:0:0:
392,120,320257,2,0,L|328:100,1,47.5,8|8,0:0|0:0,0:0:0:0:
176,80,320426,2,0,L|120:64,1,47.5,8|8,0:0|0:0,0:0:0:0:
384,324,320595,5,4,0:1:0:0:
429,288,320679,1,0,0:0:0:0:
455,238,320763,1,8,0:0:0:0:
460,182,320848,1,0,0:0:0:0:
441,129,320933,1,0,0:0:0:0:
402,88,321017,1,0,0:0:0:0:
349,66,321101,1,8,0:0:0:0:
196,64,321185,1,0,0:0:0:0:
40,68,321270,5,4,0:0:0:0:
28,124,321354,1,0,0:0:0:0:
36,180,321438,1,8,0:0:0:0:
68,224,321522,1,0,0:0:0:0:
112,248,321607,1,0,0:0:0:0:
160,256,321691,1,0,0:0:0:0:
316,256,321775,2,0,L|320:324,1,56.9999982604981,8|0,0:0|0:0,0:0:0:0:
116,228,321944,6,0,L|112:152,1,56.9999982604981,2|0,0:0|0:0,0:0:0:0:
112,124,322112,1,8,0:0:0:0:
276,196,322197,2,0,L|272:120,1,56.9999982604981,2|0,0:0|0:0,0:0:0:0:
272,92,322365,1,0,0:0:0:0:
436,120,322448,2,0,L|432:44,1,56.9999982604981,10|0,0:0|0:0,0:0:0:0:
152,80,322617,5,2,0:3:0:0:
134,133,322701,1,0,0:0:0:0:
138,189,322786,1,8,0:0:0:0:
164,239,322870,1,0,0:0:0:0:
208,275,322955,1,0,0:0:0:0:
263,289,323039,1,0,0:0:0:0:
319,280,323123,1,8,0:0:0:0:
367,250,323207,1,0,0:0:0:0:
176,72,323292,5,4,0:1:0:0:
232,85,323376,1,0,0:0:0:0:
281,112,323460,1,8,0:0:0:0:
322,152,323544,1,0,0:0:0:0:
349,202,323629,1,0,0:0:0:0:
362,257,323713,1,0,0:0:0:0:
359,314,323797,1,8,0:0:0:0:
204,320,323882,1,0,0:0:0:0:
48,320,323966,6,0,L|48:224,1,56.9999982604981,2|0,0:3|0:0,0:0:0:0:
108,240,324135,1,8,0:0:0:0:
272,240,324219,2,0,L|272:176,1,56.9999982604981,2|0,0:3|0:0,0:0:0:0:
224,152,324388,1,0,0:0:0:0:
388,152,324472,2,0,L|388:96,1,56.9999982604981,2|0,0:3|0:0,0:0:0:0:
168,80,324639,5,4,0:1:0:0:
223,95,324725,1,0,0:0:0:0:
270,127,324808,1,8,0:0:0:0:
304,172,324893,1,0,0:0:0:0:
321,226,324978,1,0,0:0:0:0:
319,283,325062,1,0,0:0:0:0:
300,336,325146,1,8,0:0:0:0:
263,380,325230,1,0,0:0:0:0:
60,296,325315,6,0,L|56:232,1,56.9999982604981,2|0,0:0|0:0,0:0:0:0:
196,240,325483,2,0,L|192:176,1,56.9999982604981,10|0,0:0|0:0,0:0:0:0:
52,140,325652,2,0,L|48:76,1,56.9999982604981,2|0,0:0|0:0,0:0:0:0:
188,92,325820,2,0,L|184:28,1,56.9999982604981,10|0,0:0|0:0,0:0:0:0:
368,84,325989,6,0,L|368:164,1,56.9999982604981,4|0,0:0|0:0,0:0:0:0:
312,168,326157,1,8,0:0:0:0:
148,164,326242,2,0,L|148:244,1,56.9999982604981,2|0,0:0|0:0,0:0:0:0:
204,252,326410,1,0,0:0:0:0:
44,264,326494,2,0,L|44:332,1,56.9999982604981,10|0,0:0|0:0,0:0:0:0:
264,324,326663,5,4,0:0:0:0:
274,268,326747,1,0,0:0:0:0:
248,219,326831,1,8,0:0:0:0:
199,189,326915,1,0,0:0:0:0:
147,167,327000,1,0,0:0:0:0:
98,139,327084,1,0,0:0:0:0:
63,94,327168,1,8,0:0:0:0:
62,39,327252,1,0,0:0:0:0:
256,80,327337,6,0,L|256:160,1,56.9999982604981,2|0,0:3|0:0,0:0:0:0:
200,168,327505,1,8,0:0:0:0:
368,164,327590,2,0,L|368:244,1,56.9999982604981,2|0,0:3|0:0,0:0:0:0:
312,252,327758,1,0,0:0:0:0:
476,264,327842,2,0,L|476:332,1,56.9999982604981,2|0,0:3|0:0,0:0:0:0:
284,324,328011,5,4,0:0:0:0:
228,315,328095,1,0,0:0:0:0:
179,287,328179,1,8,0:0:0:0:
144,242,328263,1,0,0:0:0:0:
127,188,328348,1,0,0:0:0:0:
131,132,328432,1,0,0:0:0:0:
154,80,328516,1,8,0:0:0:0:
195,41,328600,1,0,0:0:0:0:
380,80,328685,6,0,L|316:80,1,56.9999982604981,4|0,0:0|0:0,0:0:0:0:
268,80,328854,1,8,0:0:0:0:
116,188,328938,2,0,L|116:248,1,56.9999982604981,0|0,0:0|0:0,0:0:0:0:
172,248,329107,1,0,0:0:0:0:
328,248,329191,2,0,L|392:248,1,56.9999982604981,8|0,0:0|0:0,0:0:0:0:
160,80,329360,6,0,L|160:152,1,56.9999982604981,2|0,0:0|0:0,0:0:0:0:
216,160,329528,1,8,0:0:0:0:
364,200,329612,2,0,L|364:256,1,56.9999982604981,2|0,0:3|0:0,0:0:0:0:
316,272,329781,1,0,0:0:0:0:
136,328,329865,2,0,L|192:328,1,56.9999982604981,2|0,0:3|0:0,0:0:0:0:
364,332,330034,5,4,0:1:0:0:
361,275,330118,1,0,0:0:0:0:
341,221,330202,1,8,0:0:0:0:
307,176,330286,1,0,0:0:0:0:
262,141,330371,1,0,0:0:0:0:
209,121,330455,1,0,0:0:0:0:
372,120,330539,2,0,L|372:44,1,56.9999982604981,10|2,0:0|0:0,0:0:0:0:
172,72,330708,6,0,L|172:168,1,56.9999982604981,4|0,0:1|0:0,0:0:0:0:
352,176,330876,2,0,L|352:236,1,56.9999982604981,8|0,0:0|0:0,0:0:0:0:
112,256,331045,2,0,L|176:288,1,56.9999982604981,2|2,0:0|0:0,0:0:0:0:
400,300,331214,2,0,L|340:324,1,56.9999982604981,10|2,0:0|0:0,0:0:0:0:
128,324,331382,6,0,L|120:256,1,56.9999982604981,4|0,0:1|0:0,0:0:0:0:
176,256,331551,2,0,L|168:184,1,56.9999982604981,8|0,0:0|0:0,0:0:0:0:
104,208,331719,2,0,L|96:132,1,56.9999982604981,0|0,0:0|0:0,0:0:0:0:
163,66,331887,1,8,0:0:0:0:
316,64,331971,1,0,0:0:0:0:
472,68,332056,6,0,L|480:128,1,56.9999982604981,4|0,0:0|0:0,0:0:0:0:
416,136,332225,2,0,L|412:200,1,56.9999982604981,8|0,0:0|0:0,0:0:0:0:
472,244,332393,2,0,L|400:248,1,56.9999982604981,0|0,0:0|0:0,0:0:0:0:
196,256,332561,2,0,L|192:324,1,56.9999982604981,8|0,0:0|0:0,0:0:0:0:
396,228,332730,6,0,L|400:152,1,56.9999982604981,2|0,0:0|0:0,0:0:0:0:
400,124,332898,1,8,0:0:0:0:
236,196,332983,2,0,L|240:120,1,56.9999982604981,2|0,0:0|0:0,0:0:0:0:
240,92,333151,1,0,0:0:0:0:
76,120,333236,2,0,L|80:44,1,56.9999982604981,10|0,0:0|0:0,0:0:0:0:
348,64,333405,6,0,L|352:136,1,56.9999982604981,2|0,0:3|0:0,0:0:0:0:
292,140,333573,2,0,L|296:200,1,56.9999982604981,8|0,0:0|0:0,0:0:0:0:
236,212,333742,2,0,L|240:272,1,56.9999982604981,0|0,0:0|0:0,0:0:0:0:
176,288,333910,2,0,L|180:348,1,56.9999982604981,8|0,0:0|0:0,0:0:0:0:
400,76,334079,6,0,L|408:144,1,56.9999982604981,4|0,0:1|0:0,0:0:0:0:
348,148,334247,2,0,L|348:208,1,56.9999982604981,8|0,0:0|0:0,0:0:0:0:
412,216,334416,2,0,L|412:292,1,56.9999982604981,0|0,0:0|0:0,0:0:0:0:
344,260,334584,1,8,0:0:0:0:
192,264,334669,1,0,0:0:0:0:
44,264,334752,6,0,L|44:168,1,56.9999982604981,2|0,0:3|0:0,0:0:0:0:
88,180,334921,1,8,0:0:0:0:
280,136,335005,2,0,L|200:136,1,56.9999982604981,2|0,0:3|0:0,0:0:0:0:
176,136,335174,1,0,0:0:0:0:
28,136,335258,2,0,L|28:80,1,56.9999982604981,2|0,0:3|0:0,0:0:0:0:
260,72,335427,6,0,L|336:96,1,56.9999982604981,4|0,0:1|0:0,0:0:0:0:
260,72,335596,2,0,L|260:136,1,56.9999982604981,8|0,0:0|0:0,0:0:0:0:
200,140,335764,2,0,L|200:208,1,56.9999982604981,0|0,0:0|0:0,0:0:0:0:
140,260,335933,2,0,L|208:256,1,56.9999982604981,8|0,0:0|0:0,0:0:0:0:
388,296,336101,6,0,L|392:232,1,56.9999982604981,2|0,0:0|0:0,0:0:0:0:
252,240,336269,2,0,L|256:176,1,56.9999982604981,10|0,0:0|0:0,0:0:0:0:
396,140,336438,2,0,L|400:76,1,56.9999982604981,2|0,0:0|0:0,0:0:0:0:
260,92,336606,2,0,L|264:28,1,56.9999982604981,10|0,0:0|0:0,0:0:0:0:
112,84,336775,6,0,L|192:84,1,56.9999982604981,4|0,0:0|0:0,0:0:0:0:
228,92,336943,1,8,0:0:0:0:
76,160,337028,2,0,L|148:160,1,56.9999982604981,2|0,0:0|0:0,0:0:0:0:
184,160,337196,1,0,0:0:0:0:
36,224,337280,2,0,L|36:288,1,56.9999982604981,10|0,0:0|0:0,0:0:0:0:
264,324,337448,5,4,0:0:0:0:
311,294,337533,1,0,0:0:0:0:
323,240,337618,1,8,0:0:0:0:
297,190,337702,1,0,0:0:0:0:
247,163,337787,1,0,0:0:0:0:
200,131,337871,1,0,0:0:0:0:
173,83,337955,1,8,0:0:0:0:
187,28,338039,1,0,0:0:0:0:
400,84,338124,6,0,L|320:84,1,56.9999982604981,2|0,0:3|0:0,0:0:0:0:
284,92,338292,1,8,0:0:0:0:
436,160,338375,2,0,L|364:160,1,56.9999982604981,2|0,0:3|0:0,0:0:0:0:
328,160,338545,1,0,0:0:0:0:
476,224,338629,2,0,L|476:288,1,56.9999982604981,2|0,0:3|0:0,0:0:0:0:
228,324,338798,6,0,L|220:252,1,56.9999982604981,4|0,0:0|0:0,0:0:0:0:
280,272,338966,2,0,L|272:212,1,56.9999982604981,8|0,0:0|0:0,0:0:0:0:
332,232,339135,2,0,L|320:152,1,56.9999982604981,0|0,0:0|0:0,0:0:0:0:
376,168,339303,2,0,L|368:108,1,56.9999982604981,8|0,0:0|0:0,0:0:0:0:
132,80,339471,6,0,L|196:80,1,56.9999982604981,4|0,0:0|0:0,0:0:0:0:
244,80,339640,1,8,0:0:0:0:
388,248,339724,2,0,L|320:248,1,56.9999982604981,0|0,0:0|0:0,0:0:0:0:
276,248,339893,1,0,0:0:0:0:
108,252,339977,2,0,L|108:312,1,56.9999982604981,8|0,0:0|0:0,0:0:0:0:
352,80,340146,6,0,L|352:152,1,56.9999982604981,2|0,0:0|0:0,0:0:0:0:
296,160,340314,1,8,0:0:0:0:
148,200,340398,2,0,L|224:200,1,56.9999982604981,2|0,0:3|0:0,0:0:0:0:
256,200,340567,1,0,0:0:0:0:
92,316,340651,2,0,L|148:316,1,56.9999982604981,12|0,0:0|0:0,0:0:0:0:
324,324,340820,5,0,0:0:0:0:
368,288,340904,1,0,0:0:0:0:
394,237,340988,1,8,0:0:0:0:
396,181,341072,1,0,0:0:0:0:
375,128,341157,1,0,0:0:0:0:
334,89,341241,1,0,0:0:0:0:
188,88,341326,2,0,L|124:88,1,56.9999982604981,8|0,0:0|0:0,0:0:0:0:
334,89,341494,5,4,0:0:0:0:
333,146,341578,1,0,0:0:0:0:
316,200,341662,1,8,0:0:0:0:
285,248,341746,1,0,0:0:0:0:
242,284,341831,1,0,0:0:0:0:
190,307,341915,1,0,0:0:0:0:
364,320,342000,2,0,L|364:256,1,56.9999982604981,8|0,0:0|0:0,0:0:0:0:
152,100,342169,6,0,L|152:160,1,56.9999982604981,4|0,0:0|0:0,0:0:0:0:
288,184,342337,2,0,L|352:184,1,56.9999982604981,10|0,0:0|0:0,0:0:0:0:
348,240,342506,1,0,0:0:0:0:
144,216,342590,2,0,L|144:284,1,56.9999982604981,2|8,0:0|0:0,0:0:0:0:
200,280,342757,1,0,0:0:0:0:
380,180,342843,6,0,L|304:180,1,56.9999982604981,6|0,0:0|0:0,0:0:0:0:
272,184,343011,1,8,0:0:0:0:
424,224,343096,2,0,L|424:280,1,56.9999982604981,2|0,0:0|0:0,0:0:0:0:
372,292,343264,1,0,0:0:0:0:
208,304,343348,2,0,L|208:244,1,56.9999982604981,10|0,0:0|0:0,0:0:0:0:
352,220,343517,6,0,L|352:160,1,56.9999982604981,6|0,0:0|0:0,0:0:0:0:
160,112,343685,2,0,L|232:112,1,56.9999982604981,10|0,0:0|0:0,0:0:0:0:
372,112,343854,1,2,0:0:0:0:
415,148,343938,1,0,0:0:0:0:
427,203,344022,1,8,0:0:0:0:
406,255,344106,1,0,0:0:0:0:
204,240,344191,6,0,L|200:300,1,56.9999982604981,4|0,0:0|0:0,0:0:0:0:
264,316,344360,2,0,L|260:376,1,56.9999982604981,8|0,0:0|0:0,0:0:0:0:
204,240,344528,2,0,L|200:300,1,56.9999982604981,0|0,0:0|0:0,0:0:0:0:
264,316,344697,2,0,L|260:376,1,56.9999982604981,8|0,0:0|0:0,0:0:0:0:
104,304,344865,5,4,0:0:0:0:
69,260,344949,1,0,0:0:0:0:
68,204,345033,1,8,0:0:0:0:
101,159,345117,1,0,0:0:0:0:
296,132,345202,2,0,L|300:192,1,56.9999982604981,2|2,0:0|0:0,0:0:0:0:
152,212,345371,2,0,L|156:272,1,56.9999982604981,10|2,0:0|0:0,0:0:0:0:
428,200,345539,6,0,L|432:260,1,56.9999982604981,6|0,0:0|0:0,0:0:0:0:
288,276,345708,2,0,L|292:336,1,56.9999982604981,10|0,0:0|0:0,0:0:0:0:
137,325,345876,2,0,L|145:261,1,56.9999982604981,2|0,0:0|0:0,0:0:0:0:
284,248,346045,2,0,L|292:188,1,56.9999982604981,10|0,0:0|0:0,0:0:0:0:
88,300,346214,5,6,0:0:0:0:
65,248,346298,1,0,0:0:0:0:
60,192,346382,1,8,0:0:0:0:
75,137,346466,1,0,0:0:0:0:
108,91,346551,1,0,0:0:0:0:
155,59,346635,1,0,0:0:0:0:
210,45,346719,1,8,0:0:0:0:
266,51,346803,1,0,0:0:0:0:
96,44,346888,5,4,0:0:0:0:
80,97,346972,1,0,0:0:0:0:
98,150,347056,1,8,0:0:0:0:
145,181,347140,1,0,0:0:0:0:
304,188,347225,2,0,L|308:256,1,56.9999982604981,2|2,0:0|0:0,0:0:0:0:
244,264,347393,2,0,L|248:320,1,56.9999982604981,10|2,0:0|0:0,0:0:0:0:
432,272,347562,6,0,L|444:196,1,56.9999982604981,6|0,0:0|0:0,0:0:0:0:
384,200,347730,2,0,L|392:136,1,56.9999982604981,10|0,0:0|0:0,0:0:0:0:
196,136,347899,2,0,L|188:76,1,56.9999982604981,2|0,0:0|0:0,0:0:0:0:
248,96,348066,2,0,L|240:32,1,56.9999982604981,10|0,0:0|0:0,0:0:0:0:
388,144,348236,6,0,L|380:212,1,56.9999982604981,6|0,0:0|0:0,0:0:0:0:
324,212,348405,2,0,L|324:268,1,56.9999982604981,10|0,0:0|0:0,0:0:0:0:
100,280,348573,2,0,L|104:336,1,56.9999982604981,2|0,0:0|0:0,0:0:0:0:
160,312,348742,2,0,L|164:376,1,56.9999982604981,10|0,0:0|0:0,0:0:0:0:
368,200,348910,6,0,L|372:124,1,56.9999982604981,6|0,0:0|0:0,0:0:0:0:
232,128,349079,2,0,L|236:52,1,56.9999982604981,10|0,0:0|0:0,0:0:0:0:
376,108,349247,2,0,L|380:44,1,56.9999982604981,2|0,0:0|0:0,0:0:0:0:
232,128,349416,2,0,L|228:192,1,56.9999982604981,10|0,0:0|0:0,0:0:0:0:
92,192,349584,6,0,L|84:272,1,56.9999982604981,6|0,0:0|0:0,0:0:0:0:
224,264,349753,2,0,L|220:344,1,56.9999982604981,10|0,0:0|0:0,0:0:0:0:
380,304,349921,2,0,L|376:376,1,56.9999982604981,2|0,0:0|0:0,0:0:0:0:
220,368,350090,2,0,L|156:368,1,56.9999982604981,10|0,0:0|0:0,0:0:0:0:
376,248,350257,6,0,L|376:128,1,113.999996520996,6|10,3:2|0:0,0:0:0:0:
136,248,350595,2,0,L|136:128,1,113.999996520996,2|2,0:0|0:3,0:0:0:0:
376,248,350933,2,0,L|376:128,1,113.999996520996,8|8,0:0|3:0,0:0:0:0:
320,136,351185,1,8,3:0:0:0:
160,136,351270,2,0,L|92:136,1,56.9999982604981,8|4,0:0|3:0,0:0:0:0:
300,200,351438,2,0,L|304:268,1,56.9999982604981,4|8,3:0|3:0,0:0:0:0:
80,280,351607,6,0,P|40:204|116:96,1,227.999993041992,4|8,3:1|0:0,0:0:0:0:
236,96,352056,1,8,0:0:0:0:
114,96,352169,1,8,0:0:0:0:
384,280,352281,2,0,P|424:204|348:96,1,227.999993041992,12|8,0:0|0:0,0:0:0:0:
136,96,352843,1,8,0:0:0:0:
344,96,352955,6,0,L|352:160,1,56.9999982604981,6|0,0:0|0:0,0:0:0:0:
288,176,353124,2,0,L|232:188,1,56.9999982604981,8|0,0:0|0:0,0:0:0:0:
88,200,353292,2,0,L|80:280,1,56.9999982604981,6|0,0:0|0:0,0:0:0:0:
148,200,353461,2,0,L|140:264,1,56.9999982604981,8|0,0:0|0:0,0:0:0:0:
208,200,353629,2,0,L|200:264,1,56.9999982604981,0|0,0:0|0:0,0:0:0:0:
268,200,353798,2,0,L|260:264,1,56.9999982604981,8|0,0:0|0:0,0:0:0:0:
196,268,353966,2,0,L|188:332,1,56.9999982604981,0|0,0:0|0:0,0:0:0:0:
248,328,354135,2,0,L|240:392,1,56.9999982604981,8|0,0:0|0:0,0:0:0:0:
34,96,354303,6,0,L|26:160,1,56.9999982604981,6|0,0:0|0:0,0:0:0:0:
90,176,354472,2,0,L|146:188,1,56.9999982604981,8|0,0:0|0:0,0:0:0:0:
290,200,354640,2,0,L|298:280,1,56.9999982604981,6|0,0:0|0:0,0:0:0:0:
230,200,354809,2,0,L|238:264,1,56.9999982604981,8|0,0:0|0:0,0:0:0:0:
170,200,354977,2,0,L|178:264,1,56.9999982604981,0|0,0:0|0:0,0:0:0:0:
110,200,355146,2,0,L|118:264,1,56.9999982604981,8|0,0:0|0:0,0:0:0:0:
182,268,355314,2,0,L|190:332,1,56.9999982604981,0|0,0:0|0:0,0:0:0:0:
130,328,355483,2,0,L|138:392,1,56.9999982604981,8|0,0:0|0:0,0:0:0:0:
328,224,355652,6,0,L|384:224,1,56.9999982604981,6|0,0:0|0:0,0:0:0:0:
328,168,355820,2,0,L|268:168,1,56.9999982604981,8|0,0:0|0:0,0:0:0:0:
72,168,355989,2,0,L|72:96,1,56.9999982604981,6|0,0:0|0:0,0:0:0:0:
128,96,356157,2,0,L|192:96,1,56.9999982604981,8|0,0:0|0:0,0:0:0:0:
360,96,356326,2,0,L|360:156,1,56.9999982604981,0|0,0:0|0:0,0:0:0:0:
164,188,356494,2,0,L|228:188,1,56.9999982604981,8|0,0:0|0:0,0:0:0:0:
360,188,356663,2,0,L|416:188,1,56.9999982604981,0|0,0:0|0:0,0:0:0:0:
236,280,356830,2,0,L|296:280,1,56.9999982604981,8|0,0:0|0:0,0:0:0:0:
120,320,356999,6,0,P|56:252|152:56,1,341.999989562989,6|2,3:2|0:0,0:0:0:0:
200,48,357590,1,2,0:0:0:0:
388,48,357674,2,0,P|436:160|256:332,1,398.999987823487,12|0,0:0|0:0,0:0:0:0:
60,284,358348,6,0,L|60:176,1,95,4|0,3:2|0:0,0:0:0:0:
192,200,358684,2,0,L|192:92,1,95,0|0,3:0|0:0,0:0:0:0:
324,156,359021,2,0,L|324:48,1,95,0|0,3:0|0:0,0:0:0:0:
456,120,359359,2,0,L|456:12,1,95,0|0,3:0|0:0,0:0:0:0:
324,156,359697,6,0,L|324:48,1,95,0|0,3:0|0:0,0:0:0:0:
192,120,360034,2,0,L|192:12,1,95,0|0,3:0|0:0,0:0:0:0:
60,164,360371,2,0,L|60:272,1,95,0|0,3:0|0:0,0:0:0:0:
296,308,360708,2,0,P|356:236|288:137,1,213.750008153916,12|0,0:0|0:0,0:0:0:0:
60,280,361045,6,0,L|60:172,1,95,4|0,3:2|0:0,0:0:0:0:
192,252,361381,2,0,L|192:144,1,95,0|0,3:0|0:0,0:0:0:0:
60,164,361718,2,0,L|60:56,1,95,0|0,3:0|0:0,0:0:0:0:
192,128,362055,2,0,L|192:20,1,95,0|0,3:0|0:0,0:0:0:0:
320,152,362392,6,0,L|320:44,1,95,0|0,3:0|0:0,0:0:0:0:
192,220,362729,2,0,L|192:112,1,95,0|0,3:0|0:0,0:0:0:0:
320,152,363066,2,0,L|320:260,1,95,0|0,3:0|0:0,0:0:0:0:
92,276,363405,2,0,P|30:205|95:108,1,213.750008153916,12|0,0:0|0:0,0:0:0:0:
344,268,363742,6,0,L|344:160,1,95,4|0,3:2|0:0,0:0:0:0:
476,168,364078,2,0,L|476:60,1,95,0|0,3:0|0:0,0:0:0:0:
344,144,364415,2,0,L|344:36,1,95,0|0,3:0|0:0,0:0:0:0:
92,276,364753,2,0,P|32:204|98:110,1,213.750008153916,12|0,0:0|0:0,0:0:0:0:
344,144,365090,6,0,L|344:36,1,95,4|0,3:2|0:0,0:0:0:0:
212,172,365426,2,0,L|212:64,1,95,0|0,3:0|0:0,0:0:0:0:
80,188,365763,2,0,L|80:80,1,95,0|0,3:0|0:0,0:0:0:0:
304,184,366101,2,0,P|364:112|300:9,1,213.750008153916,12|0,0:0|0:0,0:0:0:0:
136,44,366438,6,0,L|72:44,3,47.5,2|0|2|0,3:2|0:0|0:3|0:0,0:0:0:0:
292,240,366775,2,0,L|352:240,3,47.5,0|0|2|0,3:0|0:0|0:3|0:0,0:0:0:0:
140,236,367112,2,0,L|72:236,3,47.5,2|0|2|0,3:2|0:0|0:3|0:0,0:0:0:0:
292,240,367448,2,0,L|352:240,3,47.5,2|0|2|0,3:2|0:0|0:3|0:0,0:0:0:0:
136,240,367787,5,0,3:0:0:0:
181,240,367871,1,10,0:0:0:0:
226,240,367955,1,8,0:3:0:0:
276,240,368039,1,8,0:3:0:0:
460,324,368124,1,2,3:0:0:0:
415,324,368208,1,2,0:0:0:0:
370,324,368292,1,10,0:3:0:0:
320,324,368376,1,8,0:3:0:0:
136,224,368461,2,0,L|132:156,1,47.5,8|4,3:0|3:0,0:0:0:0:
272,224,368629,2,0,L|276:156,1,47.5,8|8,0:0|0:0,0:0:0:0:
120,172,368798,2,0,L|108:112,1,47.5,8|8,0:0|0:0,0:0:0:0:
288,172,368966,2,0,L|368:172,1,47.5,8|8,0:0|0:0,0:0:0:0:
164,88,369134,6,0,P|126:151|442:272,1,570,4|0,3:1|0:0,0:0:0:0:
264,268,370415,2,8,L|264:160,1,95,0|0,0:0|0:0,0:0:0:0:
412,184,370670,6,0,P|456:128|412:76,1,142.5,0|0,0:0|0:0,0:0:0:0:
368,76,371045,1,0,0:0:0:0:
268,72,371185,1,0,0:0:0:0:
440,76,371255,2,0,P|482:150|384:256,1,237.5,2|0,0:3|0:0,0:0:0:0:
352,264,371677,1,0,0:0:0:0:
140,136,371748,5,0,0:0:0:0:
110,172,371823,1,0,0:0:0:0:
111,218,371899,1,0,0:0:0:0:
141,254,371975,1,0,0:0:0:0:
192,264,372051,1,0,0:0:0:0:
224,264,372132,1,0,0:0:0:0:
240,264,372172,1,0,0:0:0:0:
256,264,372213,1,0,0:0:0:0:
272,264,372253,1,0,0:0:0:0:
340,268,372375,5,0,0:0:0:0:
353,248,372420,1,0,0:0:0:0:
357,225,372465,1,0,0:0:0:0:
352,202,372511,1,0,0:0:0:0:
339,182,372556,1,0,0:0:0:0:
280,184,372647,1,0,0:0:0:0:
256,176,372693,1,0,0:0:0:0:
240,160,372738,1,0,0:0:0:0:
220,140,372791,1,0,0:0:0:0:
216,112,372845,1,0,0:0:0:0:
220,80,372898,1,0,0:0:0:0:
376,160,372952,5,0,0:0:0:0:
392,144,372983,1,0,0:0:0:0:
404,120,373015,1,0,0:0:0:0:
272,120,373079,1,0,0:0:0:0:
232,152,373142,1,0,0:0:0:0:
232,192,373206,2,0,L|272:192,1,23.75,0|0,0:0|0:0,0:0:0:0:
288,192,373337,2,0,L|320:192,1,23.75,0|0,0:0|0:0,0:0:0:0:
172,100,373469,5,0,0:0:0:0:
130,122,373550,1,0,0:0:0:0:
101,159,373632,1,0,0:0:0:0:
90,205,373713,1,0,0:0:0:0:
98,251,373795,1,0,0:0:0:0:
125,290,373876,1,0,0:0:0:0:
165,315,373958,1,0,0:0:0:0:
212,321,374039,1,0,0:0:0:0:
356,364,374121,5,0,0:0:0:0:
384,328,374199,1,0,0:0:0:0:
360,300,374277,1,0,0:0:0:0:
328,276,374355,1,0,0:0:0:0:
272,256,374433,1,0,0:0:0:0:
240,228,374513,1,0,0:0:0:0:
268,200,374593,1,0,0:0:0:0:
300,172,374673,1,0,0:0:0:0:
372,152,374753,1,0,0:0:0:0:
404,124,374833,1,0,0:0:0:0:
376,96,374913,1,0,0:0:0:0:
344,68,374993,1,0,0:0:0:0:
204,72,375074,5,0,0:0:0:0:
186,88,375120,1,0,0:0:0:0:
178,110,375167,1,0,0:0:0:0:
181,133,375214,1,0,0:0:0:0:
193,153,375261,1,0,0:0:0:0:
236,168,375337,1,0,0:0:0:0:
268,184,375402,1,0,0:0:0:0:
292,216,375467,1,0,0:0:0:0:
300,252,375532,1,0,0:0:0:0:
297,288,375597,1,0,0:0:0:0:
152,292,375663,5,0,3:2:0:0:
104,292,375747,1,0,3:2:0:0:
152,292,375832,1,0,3:2:0:0:
200,292,375917,1,0,3:2:0:0:
152,244,376001,1,0,3:2:0:0:
104,244,376087,1,0,3:2:0:0:
152,244,376173,1,0,3:2:0:0:
200,244,376259,1,0,3:2:0:0:
152,188,376345,5,0,3:2:0:0:
104,188,376441,1,0,3:2:0:0:
152,188,376538,1,0,3:2:0:0:
204,188,376635,1,0,3:2:0:0:
152,188,376732,1,0,3:2:0:0:
124,164,376822,1,0,3:2:0:0:
108,128,376913,1,0,3:2:0:0:
104,92,377004,1,0,3:2:0:0:
116,56,377095,1,0,3:2:0:0:
288,56,377186,5,8,3:2:0:0:
336,56,377272,1,0,3:2:0:0:
288,56,377358,1,0,3:2:0:0:
240,56,377444,1,0,3:2:0:0:
288,56,377531,1,0,3:2:0:0:
336,56,377617,1,8,3:2:0:0:
288,56,377692,1,0,3:2:0:0:
240,56,377768,1,0,3:2:0:0:
288,56,377844,1,0,3:2:0:0:
336,56,377920,1,0,3:2:0:0:
164,140,377996,6,0,L|164:92,1,47.5,8|0,3:2|3:2,0:0:0:0:
164,140,378170,2,0,L|164:72,1,47.5,0|0,3:2|3:2,0:0:0:0:
256,140,378344,2,0,L|256:76,1,47.5,8|0,3:2|3:2,0:0:0:0:
256,140,378502,2,0,L|256:88,1,47.5,0|0,3:2|3:2,0:0:0:0:
344,140,378661,6,0,L|344:76,2,63.3333333333333,8|0|0,3:2|3:2|3:2,0:0:0:0:
256,140,378913,2,0,L|256:72,2,63.3333333333333,8|0|0,3:2|3:2|3:2,0:0:0:0:
164,140,379157,2,0,L|164:76,2,63.3333333333333,8|0|0,3:2|3:2|3:2,0:0:0:0:
220,140,379373,2,0,L|220:76,2,63.3333333333333,8|0|0,3:2|3:2|3:2,0:0:0:0:
164,140,379576,6,0,L|164:72,2,63.3333333333333,8|0|0,3:2|3:2|3:2,0:0:0:0:
220,140,379769,2,0,L|220:76,2,63.3333333333333,8|0|0,3:2|3:2|3:2,0:0:0:0:
104,244,379963,2,0,L|104:180,2,63.3333333333333,8|0|0,3:2|3:2|3:2,0:0:0:0:
244,208,380156,2,0,L|244:144,2,63.3333333333333,8|0|0,3:2|3:2|3:2,0:0:0:0:
112,152,380350,6,0,L|112:88,2,63.3333333333333,8|0|0,3:2|3:2|3:2,0:0:0:0:
240,100,380531,2,0,L|240:32,2,63.3333333333333,8|0|0,3:2|3:2|3:2,0:0:0:0:
368,72,380713,2,0,L|368:4,2,63.3333333333333,8|0|0,3:2|3:2|3:2,0:0:0:0:
244,160,380895,2,0,L|244:92,2,63.3333333333333,8|0|0,3:2|3:2|3:2,0:0:0:0:
384,172,381077,6,0,L|384:108,2,63.3333333333333,8|0|0,3:2|3:2|3:2,0:0:0:0:
248,220,381251,2,0,L|248:148,2,63.3333333333333,8|0|0,3:2|3:2|3:2,0:0:0:0:
112,248,381426,2,0,L|112:180,2,63.3333333333333,8|0|0,3:2|3:2|3:2,0:0:0:0:
256,284,381601,2,0,L|256:216,2,63.3333333333333,8|0|0,3:2|3:2|3:2,0:0:0:0:
132,200,381776,5,8,3:2:0:0:
84,200,381835,1,0,3:2:0:0:
132,200,381893,1,0,3:2:0:0:
172,200,381951,1,8,3:2:0:0:
132,200,382009,1,0,3:2:0:0:
92,200,382068,1,0,3:2:0:0:
132,200,382126,1,8,3:2:0:0:
168,200,382184,1,0,3:2:0:0:
132,200,382243,1,0,3:2:0:0:
96,200,382301,1,8,3:2:0:0:
132,200,382359,1,0,3:2:0:0:
168,200,382418,1,0,3:2:0:0:
352,328,382476,5,12,3:2:0:0:
409,301,382530,1,0,3:2:0:0:
451,255,382585,1,0,3:2:0:0:
474,196,382639,1,0,3:2:0:0:
473,133,382694,1,0,3:2:0:0:
449,75,382749,1,0,3:2:0:0:
404,30,382803,1,0,3:2:0:0:
347,5,382858,1,0,3:2:0:0:
284,4,382913,1,0,3:2:0:0:
152,32,382967,5,12,3:2:0:0:
104,32,383032,1,0,3:2:0:0:
152,32,383098,1,0,3:2:0:0:
196,32,383163,1,0,3:2:0:0:
236,32,383229,1,0,3:2:0:0:
384,40,383294,1,8,3:2:0:0:
412,60,383349,1,8,3:2:0:0:
424,88,383404,1,8,3:2:0:0:
432,120,383458,1,8,3:2:0:0:
424,148,383513,1,8,3:2:0:0:
248,120,383567,5,8,3:0:0:0:
209,144,383642,1,8,3:0:0:0:
209,190,383718,1,8,3:0:0:0:
247,215,383794,1,8,3:0:0:0:
376,212,383870,1,4,3:0:0:0:
411,240,383949,1,4,3:0:0:0:
413,286,384029,1,4,3:0:0:0:
379,318,384109,1,4,3:0:0:0:
240,328,384189,5,12,3:0:0:0:
200,304,384260,1,12,3:0:0:0:
198,259,384331,1,12,3:0:0:0:
235,232,384403,1,12,3:0:0:0:
376,212,384474,1,4,3:0:0:0:
416,192,384547,1,4,3:0:0:0:
418,147,384621,1,4,3:0:0:0:
380,124,384694,1,4,3:0:0:0:
224,92,384768,5,0,3:0:0:0:
183,111,384844,1,0,3:0:0:0:
179,156,384921,1,0,3:0:0:0:
217,181,384997,1,0,3:0:0:0:
352,188,385074,5,8,3:0:0:0:
444,192,385174,1,8,3:0:0:0:
352,188,385289,1,4,3:0:0:0:
256,192,385419,1,4,3:0:0:0:
156,188,385585,1,8,0:0:0:0:
256,192,385785,1,0,3:0:0:0:
380,196,386026,1,8,0:0:0:0:
228,192,386326,1,8,3:0:0:0:
392,196,386691,1,4,3:0:0:0:
140,192,387119,1,12,3:0:0:0:
352,192,388001,6,0,L|352:144,2,31.6666666666667,2|2|2,0:3|0:3|0:3,0:0:0:0:
196,260,388199,1,0,3:0:0:0:
164,172,389173,5,0,0:0:0:0:
368,168,389511,1,14,0:2:0:0:
188,168,389733,1,8,0:0:0:0:
368,168,389808,1,8,0:0:0:0:
368,240,389977,1,2,3:2:0:0:
204,240,390173,1,2,3:2:0:0:
388,240,390345,1,10,0:0:0:0:
204,240,390459,1,0,0:0:0:0:
352,240,390641,2,0,L|352:392,1,142.5,10|0,0:0|0:0,0:0:0:0:
160,372,391018,5,4,0:1:0:0:
152,264,391673,1,8,3:0:0:0:
140,224,391756,1,0,0:0:0:0:
156,184,391839,1,0,0:0:0:0:
328,184,391923,1,4,3:0:0:0:
