osu file format v14

[General]
AudioFilename: audio.mp3
AudioLeadIn: 0
PreviewTime: -1
Countdown: 0
SampleSet: Normal
StackLeniency: 0.7
Mode: 0
LetterboxInBreaks: 0
WidescreenStoryboard: 0

[Editor]
DistanceSpacing: 1
BeatDivisor: 8
GridSize: 8
TimelineZoom: 2.05

[Metadata]
Title:Arrabbiata
TitleUnicode:Arrabbiata
Artist:Reven-G alterative
ArtistUnicode:Reven-G改
Creator:xXKagekiXx
Version:Standard
Source:
Tags:
BeatmapID:1300602
BeatmapSetID:616747

[Difficulty]
HPDrainRate:6
CircleSize:3.8
OverallDifficulty:6
ApproachRate:7
SliderMultiplier:1.5
SliderTickRate:1

[Events]
//Background and Video events
0,0,"Arrabbiata-bg.png",0,0
//Break Periods
//Storyboard Layer 0 (Background)
//Storyboard Layer 1 (Fail)
//Storyboard Layer 2 (Pass)
//Storyboard Layer 3 (Foreground)
//Storyboard Sound Samples

[TimingPoints]
1050,266.666666666667,3,1,0,100,1,0

[Colours]
Combo1 : 255,255,255
Combo2 : 255,128,0
Combo3 : 255,255,0
Combo4 : 128,64,64
Combo5 : 170,0,0
Combo6 : 221,117,192

[HitObjects]
64,128,7450,6,0,P|96:96|128:80,1,75
256,64,7850,1,0,0:0:0:0:
400,144,8250,1,0,0:0:0:0:
464,240,8516,1,0,0:0:0:0:
448,352,8783,1,0,0:0:0:0:
352,304,9050,6,0,P|320:304|272:272,1,75
224,208,9450,1,0,0:0:0:0:
224,48,9850,1,0,0:0:0:0:
336,80,10116,2,0,P|336:112|304:144,1,75
256,208,10383,1,0,0:0:0:0:
176,192,10650,6,0,P|128:192|96:176,1,75
48,128,10916,1,0,0:0:0:0:
16,16,11183,1,0,0:0:0:0:
160,32,11450,6,0,P|192:48|224:80,1,75
256,144,11716,1,0,0:0:0:0:
272,224,11983,1,0,0:0:0:0:
368,160,12250,5,0,0:0:0:0:
176,80,12783,2,0,L|112:128,1,75
144,160,13050,2,0,L|80:208,1,75
112,240,13316,2,0,L|48:288,1,75
80,320,13583,2,0,L|32:352,1,56.25
32,288,13850,5,0,0:0:0:0:
176,192,14250,1,0,0:0:0:0:
176,192,14383,1,0,0:0:0:0:
192,48,14916,6,0,P|208:80|288:160,1,150
352,32,15450,2,0,P|336:112|288:160,1,150
176,256,15983,2,0,P|256:208|288:144,1,150
384,112,16516,5,0,0:0:0:0:
336,272,16916,1,0,0:0:0:0:
336,272,17050,1,0,0:0:0:0:
96,96,17583,5,0,0:0:0:0:
52,146,17716,1,0,0:0:0:0:
45,210,17850,1,0,0:0:0:0:
57,271,17983,1,0,0:0:0:0:
101,307,18116,2,0,P|168:270|199:206,1,150
190,117,18650,1,0,0:0:0:0:
256,32,18916,6,0,P|336:128|352:224,1,225
336,304,19450,1,0,0:0:0:0:
224,192,19716,1,0,0:0:0:0:
157,57,19983,6,0,P|175:138|231:196,1,150
224,192,20516,2,0,B|368:128|368:128|480:224,2,300
144,288,21983,1,0,0:0:0:0:
144,288,22116,1,0,0:0:0:0:
240,320,22650,6,0,P|272:272|256:176,1,150
192,224,23183,2,0,P|160:144|96:128,1,150
256,112,23716,1,0,0:0:0:0:
480,48,24250,5,0,0:0:0:0:
304,192,24650,1,0,0:0:0:0:
304,192,24783,1,0,0:0:0:0:
464,288,25316,5,0,0:0:0:0:
368,336,25583,1,0,0:0:0:0:
256,352,25850,1,0,0:0:0:0:
144,336,26116,1,0,0:0:0:0:
48,288,26383,1,0,0:0:0:0:
144,336,26650,1,0,0:0:0:0:
256,352,26916,5,0,0:0:0:0:
256,128,27316,1,0,0:0:0:0:
256,128,27450,1,0,0:0:0:0:
160,144,27983,6,0,L|208:208,1,75
256,256,28250,2,0,L|320:192,1,75
352,144,28516,1,0,0:0:0:0:
368,288,28783,2,0,P|416:240|432:160,1,150
368,32,29316,5,0,0:0:0:0:
160,128,29716,1,0,0:0:0:0:
160,128,29850,1,0,0:0:0:0:
432,240,30383,5,0,0:0:0:0:
288,256,30650,2,0,P|224:240|176:160,1,150
336,176,31183,1,0,0:0:0:0:
288,320,31450,2,0,P|368:272|400:224,1,150
448,368,31983,5,0,0:0:0:0:
336,176,32383,1,0,0:0:0:0:
336,176,32516,1,0,0:0:0:0:
80,336,33050,5,0,0:0:0:0:
224,368,33316,2,0,P|304:352|368:320,1,150
256,224,33850,1,0,0:0:0:0:
112,272,34116,2,0,P|64:208|80:144,1,150
304,112,34783,1,0,0:0:0:0:
304,112,34916,1,0,0:0:0:0:
400,224,35183,1,0,0:0:0:0:
192,320,35583,1,0,0:0:0:0:
192,320,35716,1,0,0:0:0:0:
80,48,36250,6,0,L|160:80,1,75
224,96,36516,2,0,L|272:160,1,75
336,128,36783,2,0,L|416:96,1,75
416,176,37050,2,0,L|400:256,1,75
368,320,37316,6,0,L|304:272,1,75
336,208,37583,2,0,L|256:208,1,75
224,144,37850,2,0,L|256:64,1,75
176,48,38116,2,0,L|96:48,1,75
64,112,38383,2,0,L|64:192,1,75
112,240,38650,2,0,L|176:304,1,75
224,256,38916,6,0,L|208:176,1,75
240,112,39183,2,0,L|320:80,1,75
384,112,39450,2,0,L|448:160,4,75
192,336,40516,6,0,L|272:320,1,75
336,288,40783,2,0,L|368:208,1,75
304,192,41050,2,0,L|272:112,1,75
336,112,41316,2,0,L|304:32,1,75
256,32,41583,2,0,L|176:32,1,75
192,96,41850,6,0,L|144:160,1,75
96,144,42116,2,0,L|128:224,1,75
176,224,42383,2,0,L|144:304,1,75
112,336,42650,2,0,L|192:352,1,75
240,336,42916,2,0,L|304:288,1,75
256,256,43183,2,0,L|320:208,1,75
368,176,43450,2,0,L|432:128,1,75
464,192,43716,6,0,L|464:272,1,75
400,224,43983,2,0,L|368:304,1,75
336,336,44250,2,0,L|256:320,1,75
208,336,44516,2,0,L|128:320,1,75
80,288,44783,2,0,L|128:224,1,75
48,224,45050,2,0,L|112:160,1,75
160,144,45316,2,0,L|240:176,1,75
272,112,45583,2,0,L|320:176,1,75
320,224,45850,2,0,L|272:288,1,75
224,272,46116,2,0,L|144:304,1,75
176,224,46383,1,0,0:0:0:0:
160,128,46650,5,0,0:0:0:0:
96,272,46916,1,0,0:0:0:0:
240,272,47183,2,0,L|304:224,1,75
336,288,47450,2,0,L|400:240,1,75
432,176,47716,5,0,0:0:0:0:
352,48,47983,1,0,0:0:0:0:
208,48,48250,2,0,L|144:96,1,75
112,32,48516,2,0,L|48:80,1,75
96,144,48783,5,0,0:0:0:0:
240,192,49050,1,0,0:0:0:0:
368,112,49316,2,0,L|288:80,3,75
272,160,49850,2,0,L|208:208,3,75
272,256,50383,2,0,L|336:304,3,75
160,256,50916,5,0,0:0:0:0:
96,112,51183,1,0,0:0:0:0:
240,112,51450,2,0,L|304:160,1,75
336,96,51716,2,0,L|400:144,1,75
432,208,51983,5,0,0:0:0:0:
352,336,52250,1,0,0:0:0:0:
208,336,52516,2,0,L|144:288,1,75
112,352,52783,2,0,L|48:304,1,75
96,240,53050,5,0,0:0:0:0:
240,192,53316,1,0,0:0:0:0:
368,272,53583,2,0,L|288:304,3,75
272,224,54116,2,0,L|208:176,3,75
272,128,54650,2,0,L|336:80,3,75
400,112,55183,5,0,0:0:0:0:
480,240,55450,1,0,0:0:0:0:
336,240,55716,2,0,P|336:192|320:160,1,75
256,192,55983,2,0,P|256:160|224:128,1,75
336,80,56250,6,0,P|256:64|176:64,1,150
96,176,56783,2,0,P|112:208|160:224,1,75
176,288,57050,2,0,P|224:304|256:304,1,75
320,304,57316,6,0,P|352:304|400:288,1,75
352,224,57583,2,0,P|352:176|384:160,1,75
384,96,57850,2,0,P|352:64|320:64,1,75
256,88,58116,6,0,P|224:120|192:120,1,75
144,64,58383,2,0,P|96:64|64:80,1,75
80,176,58650,1,0,0:0:0:0:
152,304,58916,5,0,3:0:0:0:
256,32,59450,1,0,3:0:0:0:
464,248,59983,1,0,3:0:0:0:
216,88,60516,1,0,3:0:0:0:
112,192,61050,6,0,P|176:224|192:224,1,75
256,240,61316,1,0,0:0:0:0:
400,192,61583,1,0,0:0:0:0:
400,192,61850,6,0,P|336:224|320:224,1,75
256,240,62116,1,0,0:0:0:0:
112,192,62383,1,0,0:0:0:0:
112,192,62650,6,0,P|176:224|192:224,1,75
256,240,62916,1,0,0:0:0:0:
400,192,63183,1,0,0:0:0:0:
400,192,63450,6,0,P|336:160|320:160,1,75
256,144,63716,1,0,0:0:0:0:
112,192,63983,1,0,0:0:0:0:
112,192,64250,6,0,P|176:224|192:224,1,75
256,240,64516,1,0,0:0:0:0:
400,192,64783,1,0,0:0:0:0:
400,192,65050,6,0,P|336:160|320:160,1,75
256,144,65316,1,0,0:0:0:0:
112,192,65583,1,0,0:0:0:0:
112,192,65850,6,0,P|176:224|192:224,1,75
256,240,66116,1,0,0:0:0:0:
400,192,66383,1,0,0:0:0:0:
400,192,66650,6,0,P|336:224|320:224,1,75
256,240,66916,1,0,0:0:0:0:
112,192,67183,1,0,0:0:0:0:
112,192,67450,6,0,P|176:224|192:224,1,75
256,240,67716,1,0,0:0:0:0:
400,192,67983,1,0,0:0:0:0:
400,192,68250,6,0,P|336:160|320:160,1,75
256,144,68516,1,0,0:0:0:0:
112,192,68783,1,0,0:0:0:0:
112,192,69050,6,0,P|176:160|192:160,1,75
256,144,69316,1,0,0:0:0:0:
400,192,69583,1,0,0:0:0:0:
400,192,69850,6,0,P|336:224|320:224,1,75
256,240,70116,1,0,0:0:0:0:
112,192,70383,1,0,0:0:0:0:
256,160,70650,6,0,L|192:208,1,75
272,224,70916,2,0,L|336:288,1,75
256,288,71183,2,0,L|192:336,1,75
144,288,71450,5,0,0:0:0:0:
368,288,71850,1,0,0:0:0:0:
368,288,71983,1,0,0:0:0:0:
432,192,72516,6,0,P|416:112|368:64,1,150
224,144,73050,2,0,P|192:208|224:288,1,150
352,336,73583,2,0,P|392:296|408:192,1,150
368,288,74116,5,0,0:0:0:0:
272,80,74516,1,0,0:0:0:0:
272,80,74650,1,0,0:0:0:0:
160,64,75183,6,0,P|128:112|128:144,1,75
176,176,75450,2,0,P|192:224|176:256,1,75
112,272,75716,2,0,P|160:320|240:320,1,150
384,288,76250,1,0,0:0:0:0:
416,144,76516,5,0,0:0:0:0:
208,224,76916,1,0,0:0:0:0:
208,224,77050,1,0,0:0:0:0:
112,176,77583,6,0,P|160:128|240:128,1,150
96,88,78116,1,0,0:0:0:0:
240,120,78383,1,0,0:0:0:0:
96,88,78650,2,0,P|120:160|104:232,1,150
240,168,79183,5,0,0:0:0:0:
400,336,79583,1,0,0:0:0:0:
400,336,79716,1,0,0:0:0:0:
448,256,80250,6,0,P|400:208|320:192,1,150
456,128,80783,1,0,0:0:0:0:
304,104,81050,2,0,P|240:112|160:160,1,150
80,80,81850,5,0,0:0:0:0:
256,224,82250,1,0,0:0:0:0:
256,224,82383,1,0,0:0:0:0:
64,128,82916,6,0,P|128:80|208:96,1,150
336,144,83450,2,0,P|368:192|368:288,1,150
256,368,83983,2,0,P|160:336|128:288,1,150
128,144,84516,5,0,0:0:0:0:
352,192,84916,1,0,0:0:0:0:
352,192,85050,1,0,0:0:0:0:
64,96,85583,6,0,P|64:144|80:176,1,75
144,176,85850,2,0,P|176:144|208:144,1,75
256,96,86116,1,0,0:0:0:0:
352,224,86383,1,0,0:0:0:0:
208,208,86650,1,0,0:0:0:0:
256,64,86916,5,0,0:0:0:0:
256,288,87316,1,0,0:0:0:0:
256,288,87450,1,0,0:0:0:0:
432,192,87983,6,0,P|384:224|288:208,1,150
160,144,88516,2,0,P|240:176|304:224,1,150
384,336,89050,2,0,P|320:272|288:208,1,150
256,80,89583,5,0,0:0:0:0:
80,224,89983,1,0,0:0:0:0:
80,224,90116,1,0,0:0:0:0:
368,128,90650,5,0,0:0:0:0:
224,176,90916,1,0,0:0:0:0:
192,320,91183,1,0,0:0:0:0:
224,176,91450,1,0,0:0:0:0:
368,128,91716,1,0,0:0:0:0:
496,192,91983,6,0,P|432:272|304:304,1,225
240,288,92516,1,0,0:0:0:0:
176,160,92783,6,0,P|288:192|384:144,1,225
416,80,93316,1,0,0:0:0:0:
176,264,93850,6,0,L|240:312,1,75
272,240,94116,2,0,L|336:288,1,75
392,240,94383,2,0,L|416:168,1,75
416,96,94650,6,0,L|344:128,1,75
320,48,94916,2,0,L|248:80,1,75
184,112,95183,1,0,0:0:0:0:
