osu file format v14

[General]
AudioFilename: audio.mp3
AudioLeadIn: 0
PreviewTime: 30015
Countdown: 0
SampleSet: Soft
StackLeniency: 0.7
Mode: 0
LetterboxInBreaks: 0
WidescreenStoryboard: 0

[Editor]
Bookmarks: 15015,30015,59077,60015,90015,103140,104077,105015,134546
DistanceSpacing: 1
BeatDivisor: 6
GridSize: 4
TimelineZoom: 1.6

[Metadata]
Title:Pixel Perfect
TitleUnicode:Pixel Perfect
Artist:Retrograde
ArtistUnicode:Retrograde
Creator:Hyorinmaru
Version:Insane
Source:
Tags:retrograde pixel perfect
BeatmapID:2106616
BeatmapSetID:1006593

[Difficulty]
HPDrainRate:6
CircleSize:4
OverallDifficulty:8
ApproachRate:9
SliderMultiplier:1
SliderTickRate:1

[Events]
//Background and Video events
0,0,"pixel perfect bg.jpg",0,0
//Break Periods
//Storyboard Layer 0 (Background)
//Storyboard Layer 1 (Fail)
//Storyboard Layer 2 (Pass)
//Storyboard Layer 3 (Foreground)
//Storyboard Sound Samples

[TimingPoints]
15044,468.75,4,2,0,50,1,0
15044,-200,4,2,0,50,0,0
16919,-133.333333333333,4,2,0,50,0,0
22544,-200,4,2,0,50,0,0
24887,-133.333333333333,4,2,0,50,0,0
30083,-33.3333333333333,4,2,0,50,0,1
59145,-57.1428571428571,4,2,0,50,0,0

[HitObjects]
68,304,15044,6,0,L|87:121,1,175
156,87,16919,6,0,L|159:131,1,37.5000014305115
219,182,17387,2,0,L|233:107,1,74.9999977111817,0|0,0:0|0:0,0:0:0:0:
306,107,18090,2,0,L|293:181,1,75.000002861023
423,132,18794,6,0,P|392:154|369:183,1,75.000002861023
349,251,19497,2,0,L|120:263,1,225.000008583069
35,266,21137,1,0,0:0:0:0:
105,342,21411,1,0,0:0:0:0:
122,348,21489,1,0,0:0:0:0:
154,346,21606,1,0,0:0:0:0:
183,332,21752,1,0,0:0:0:0:
201,310,21879,1,0,0:0:0:0:
215,297,21958,5,0,0:0:0:0:
232,289,21997,1,0,0:0:0:0:
250,284,22036,1,0,0:0:0:0:
294,284,22231,5,0,0:0:0:0:
313,286,22309,1,0,0:0:0:0:
336,299,22426,1,0,0:0:0:0:
350,311,22544,6,0,P|412:310|489:180,1,225
413,125,24887,6,0,P|398:171|404:203,1,75.000002861023
473,255,25590,2,0,P|489:198|488:172,1,75
413,125,26294,6,0,L|402:40,1,75.000002861023
323,31,26997,6,0,L|134:44,1,187.500007152558,0|0,0:0|0:0,0:0:0:0:
417,39,30044,6,0,L|403:157,1,75.0000028610231
260,135,30395,1,0,0:0:0:0:
250,171,30512,1,0,0:0:0:0:
249,208,30629,1,0,0:0:0:0:
286,290,30747,1,0,0:0:0:0:
346,173,30981,2,0,P|342:248|280:290,1,150.000005722046
196,281,31333,1,0,0:0:0:0:
93,114,31450,2,0,L|192:98,1,75.0000028610231,0|0,0:0|0:0,0:0:0:0:
150,226,31685,2,0,L|75:238,1,75.0000028610231
18,119,31919,5,0,0:0:0:0:
0,252,32153,1,0,0:0:0:0:
93,114,32387,2,0,L|192:98,1,75.0000028610231
150,226,32622,2,0,L|75:238,1,75.0000028610231
146,384,32856,2,0,L|294:359,1,150.000005722046,0|0,0:0|0:0,0:0:0:0:
414,244,33325,2,0,L|339:256,1,75.0000028610231,0|0,0:0|0:0,0:0:0:0:
357,120,33560,2,0,L|432:108,1,75.0000028610231,0|0,0:0|0:0,0:0:0:0:
483,173,33794,6,0,L|495:247,1,75.0000028610231,0|0,0:0|0:0,0:0:0:0:
426,315,34145,1,0,0:0:0:0:
403,344,34262,1,0,0:0:0:0:
371,363,34379,1,0,0:0:0:0:
294,359,34497,1,0,0:0:0:0:
227,243,34731,2,0,P|246:331|358:349,1,150.000005722046
304,274,35083,1,0,0:0:0:0:
282,107,35200,2,0,L|356:119,1,75.0000028610231
418,200,35435,2,0,L|344:188,1,75.0000028610231
121,57,35669,5,0,0:0:0:0:
282,107,35903,1,0,0:0:0:0:
97,210,36137,2,0,L|24:223,1,75.0000028610231,0|0,0:0|0:0,0:0:0:0:
46,69,36372,2,0,L|120:57,1,75.0000028610231,0|0,0:0|0:0,0:0:0:0:
174,210,36606,2,0,L|198:358,1,150.000005722046,0|0,0:0|0:0,0:0:0:0:
350,159,37075,2,0,L|423:146,1,75.0000028610231,0|0,0:0|0:0,0:0:0:0:
401,300,37310,2,0,L|327:312,1,75.0000028610231,0|0,0:0|0:0,0:0:0:0:
185,284,37544,6,0,L|174:210,1,75.0000028610231,0|0,0:0|0:0,0:0:0:0:
251,76,37895,1,0,0:0:0:0:
213,74,38012,1,0,0:0:0:0:
178,87,38129,1,0,0:0:0:0:
130,144,38247,1,0,0:0:0:0:
129,143,38481,2,0,P|161:212|237:224,1,150.000005722046
207,151,38833,1,0,0:0:0:0:
320,230,38950,2,0,L|394:218,1,75.0000028610231,0|0,0:0|0:0,0:0:0:0:
371,371,39184,2,0,L|298:384,1,75.0000028610231,0|0,0:0|0:0,0:0:0:0:
237,223,39419,5,0,0:0:0:0:
220,384,39653,1,0,0:0:0:0:
165,205,39888,2,0,L|153:279,1,75.0000028610231
9,307,40122,2,0,L|22:234,1,75.0000028610231,0|0,0:0|0:0,0:0:0:0:
47,109,40356,2,0,L|197:137,1,150.000005722046,0|0,0:0|0:0,0:0:0:0:
357,173,40825,2,0,L|371:98,1,75.0000028610231,0|0,0:0|0:0,0:0:0:0:
287,26,41059,1,0,0:0:0:0:
272,60,41176,1,0,0:0:0:0:
267,97,41294,6,0,L|280:170,1,75.0000028610231,0|0,0:0|0:0,0:0:0:0:
367,254,41645,1,0,0:0:0:0:
335,273,41762,1,0,0:0:0:0:
298,281,41879,1,0,0:0:0:0:
223,270,41997,1,0,0:0:0:0:
194,136,42231,2,0,P|212:261|270:288,1,150.000005722046,0|0,0:0|0:0,0:0:0:0:
298,281,42583,1,0,0:0:0:0:
282,119,42700,2,0,L|295:192,1,75.0000028610231,0|0,0:0|0:0,0:0:0:0:
448,215,42934,2,0,L|436:141,1,75.0000028610231,0|0,0:0|0:0,0:0:0:0:
281,33,43169,6,0,L|124:52,1,150.000005722046
299,233,43637,2,0,L|447:214,1,150.000005722046
85,305,44106,2,0,L|94:231,3,75.0000028610231,0|0|0|0,0:0|0:0|0:0|0:0,0:0:0:0:
295,192,44575,2,0,L|222:205,1,75.0000028610231,0|0,0:0|0:0,0:0:0:0:
198,358,44809,2,0,L|272:346,1,75.0000028610231,0|0,0:0|0:0,0:0:0:0:
371,236,45044,6,0,L|383:145,1,75.0000028610231,0|0,0:0|0:0,0:0:0:0:
385,44,45395,1,0,0:0:0:0:
347,42,45512,1,0,0:0:0:0:
314,57,45629,1,0,0:0:0:0:
278,124,45747,1,0,0:0:0:0:
463,168,45981,2,0,B|471:268|471:268|410:335,1,150.000005722046,0|0,0:0|0:0,0:0:0:0:
338,320,46333,1,0,0:0:0:0:
362,153,46450,2,0,L|374:227,1,75.0000028610231
203,202,46684,2,0,L|190:129,1,75.0000028610231
314,57,46919,5,0,0:0:0:0:
284,195,47153,1,0,0:0:0:0:
129,218,47387,2,0,L|56:231,1,75.0000028610231,0|0,0:0|0:0,0:0:0:0:
33,384,47621,2,0,L|107:372,1,75.0000028610231,0|0,0:0|0:0,0:0:0:0:
228,351,47856,2,0,L|204:203,1,150.000005722046,0|0,0:0|0:0,0:0:0:0:
182,61,48325,2,0,L|109:74,1,75.0000028610231
55,231,48559,2,0,L|129:219,1,75.0000028610231
191,128,48794,6,0,L|203:202,1,75.0000028610231,0|0,0:0|0:0,0:0:0:0:
215,286,49145,1,0,0:0:0:0:
221,322,49262,1,0,0:0:0:0:
238,355,49379,1,0,0:0:0:0:
312,370,49497,1,0,0:0:0:0:
397,273,49731,2,0,P|356:361|304:368,1,150.000005722046
320,291,50083,1,0,0:0:0:0:
425,171,50200,2,0,L|412:97,1,75.0000028610231,0|0,0:0|0:0,0:0:0:0:
259,64,50434,2,0,L|271:138,1,75.0000028610231,0|0,0:0|0:0,0:0:0:0:
351,181,50669,6,0,L|325:24,1,150.000005722046
171,33,51137,1,0,0:0:0:0:
214,216,51372,1,0,0:0:0:0:
85,311,51606,2,0,L|11:323,1,75.0000028610231,0|0,2:2|2:2,2:2:0:0:
45,170,51840,2,0,L|118:157,1,75.0000028610231,0|0,2:2|2:2,2:2:0:0:
156,263,52075,2,0,L|175:358,3,75.0000028610231
348,311,52544,6,0,L|239:300,1,75.0000028610231
249,151,52895,1,0,0:0:0:0:
225,179,53012,1,0,0:0:0:0:
213,215,53129,1,0,0:0:0:0:
288,229,53247,1,0,0:0:0:0:
395,154,53481,2,0,P|359:218|288:229,1,150.000005722046
225,179,53833,1,0,0:0:0:0:
299,123,53950,2,0,L|286:50,1,75.0000028610231,0|0,2:2|2:2,2:2:0:0:
133,16,54184,2,0,L|145:90,1,75.0000028610231,0|0,2:2|2:2,2:2:0:0:
225,179,54419,6,0,L|77:203,1,150.000005722046,0|0,2:2|2:2,3:2:0:0:
55,275,54887,1,0,0:0:0:0:
58,134,55122,1,0,0:0:0:0:
138,270,55356,2,0,L|211:257,1,75.0000028610231,0|0,3:2|3:2,3:2:0:0:
245,104,55590,2,0,L|171:116,1,75.0000028610231,0|0,3:2|3:2,3:2:0:0:
58,134,55825,1,0,0:0:0:0:
129,344,55942,2,0,L|139:251,2,75.0000028610231
204,351,56294,6,0,L|310:360,1,75.0000028610231
457,238,56645,1,0,0:0:0:0:
441,270,56762,1,0,0:0:0:0:
412,294,56879,1,0,0:0:0:0:
334,278,56997,1,0,0:0:0:0:
300,152,57231,2,0,P|286:223|396:279,1,150.000005722046
364,200,57583,1,0,0:0:0:0:
346,34,57700,2,0,L|358:108,1,75.0000028610231,0|0,3:2|3:2,3:2:0:0:
205,74,57934,2,0,L|192:1,1,75.0000028610231,0|0,3:2|3:2,3:2:0:0:
278,79,58169,5,0,0:0:0:0:
135,124,58403,1,0,0:0:0:0:
80,211,58637,6,0,B|75:243|40:275|40:275|77:248|154:249,2,150.000005722046
