osu file format v14

[General]
AudioFilename: audio.mp3
AudioLeadIn: 0
PreviewTime: 57985
Countdown: 0
SampleSet: Soft
StackLeniency: 0.7
Mode: 3
LetterboxInBreaks: 0
SpecialStyle: 0
WidescreenStoryboard: 0

[Editor]
DistanceSpacing: 1.2
BeatDivisor: 4
GridSize: 32
TimelineZoom: 1.5

[Metadata]
Title:DEAD END in My Brain (TV Size)
TitleUnicode:頭ん中DEAD END (TV Size)
Artist:RetBear (unknown Vo : 10fu)
ArtistUnicode:レトベア(unknown Vo:10fu)
Creator:SuzumeAyase
Version:The Summoner (Another World) / Insane
Source:黒の召喚士
Tags:Mirsaaa Keksikosu FerdiXIA- Atamannaka The Berserker Rises to Greatness Black Summoner Kuro no Shoukanshi かいりきベア Kairiki Bear japanese pop j-pop jpop anime
BeatmapID:3752740
BeatmapSetID:1828486

[Difficulty]
HPDrainRate:8
CircleSize:4
OverallDifficulty:8
ApproachRate:5
SliderMultiplier:1.4
SliderTickRate:1

[Events]
//Background and Video events
0,0,"bg1.jpg",0,0
Video,0,"vid.mp4"
//Break Periods
//Storyboard Layer 0 (Background)
//Storyboard Layer 1 (Fail)
//Storyboard Layer 2 (Pass)
//Storyboard Layer 3 (Foreground)
//Storyboard Layer 4 (Overlay)
//Storyboard Sound Samples

[TimingPoints]
838,422.535211267606,4,2,1,40,1,0
1683,422.535211267606,4,2,1,40,1,0
59147,-100,4,2,1,40,0,1
81119,-100,4,2,1,40,0,0

[HitObjects]
64,192,732,5,0,0:0:0:0:
192,192,785,1,0,0:0:0:0:
448,192,838,1,0,0:0:0:0:
320,192,943,1,0,0:0:0:0:
192,192,1049,1,0,0:0:0:0:
64,192,1154,1,0,0:0:0:0:
192,192,1260,1,0,0:0:0:0:
320,192,1366,1,0,0:0:0:0:
448,192,1471,1,0,0:0:0:0:
320,192,1577,1,0,0:0:0:0:
64,192,1683,1,2,0:0:0:0:
192,192,1683,1,4,0:0:0:0:
448,192,1683,1,0,0:0:0:0:
320,192,1894,1,0,0:0:0:0:
192,192,1999,1,0,0:0:0:0:
64,192,2105,1,2,0:0:0:0:
320,192,2105,1,8,0:0:0:0:
448,192,2105,1,0,0:0:0:0:
192,192,2316,1,0,0:0:0:0:
320,192,2422,1,0,0:0:0:0:
64,192,2528,1,2,0:0:0:0:
448,192,2528,1,0,0:0:0:0:
192,192,2633,1,0,0:0:0:0:
320,192,2739,1,0,0:0:0:0:
64,192,2844,1,0,0:0:0:0:
192,192,2950,1,8,0:0:0:0:
320,192,2950,1,2,0:0:0:0:
448,192,2950,1,0,0:0:0:0:
64,192,3161,128,0,3373:0:0:0:0:
320,192,3373,1,2,0:0:0:0:
448,192,3373,1,0,0:0:0:0:
64,192,3584,1,0,0:0:0:0:
192,192,3584,1,0,0:0:0:0:
320,192,3690,1,0,0:0:0:0:
64,192,3795,1,2,0:0:0:0:
448,192,3795,1,8,0:0:0:0:
192,192,3901,1,0,0:0:0:0:
320,192,3901,1,0,0:0:0:0:
448,192,4006,1,0,0:0:0:0:
192,192,4112,1,0,0:0:0:0:
64,192,4218,1,2,0:0:0:0:
320,192,4218,1,0,0:0:0:0:
448,192,4323,1,0,0:0:0:0:
192,192,4429,1,0,0:0:0:0:
320,192,4535,1,0,0:0:0:0:
448,192,4535,1,0,0:0:0:0:
64,192,4640,1,2,0:0:0:0:
192,192,4640,1,8,0:0:0:0:
320,192,4746,1,0,0:0:0:0:
64,192,4852,1,0,0:0:0:0:
448,192,4852,1,0,0:0:0:0:
192,192,4957,1,0,0:0:0:0:
320,192,5063,1,2,0:0:0:0:
448,192,5063,1,0,0:0:0:0:
64,192,5274,1,0,0:0:0:0:
192,192,5274,1,0,0:0:0:0:
320,192,5380,1,0,0:0:0:0:
64,192,5485,1,2,0:0:0:0:
192,192,5485,1,8,0:0:0:0:
448,192,5485,1,0,0:0:0:0:
320,192,5697,1,0,0:0:0:0:
192,192,5802,1,0,0:0:0:0:
64,192,5908,1,2,0:0:0:0:
448,192,5908,1,0,0:0:0:0:
320,192,6013,1,0,0:0:0:0:
192,192,6119,1,0,0:0:0:0:
448,192,6225,1,0,0:0:0:0:
64,192,6330,1,2,0:0:0:0:
192,192,6330,1,8,0:0:0:0:
320,192,6330,1,0,0:0:0:0:
448,192,6542,128,0,6753:0:0:0:0:
64,192,6753,1,2,0:0:0:0:
192,192,6753,1,0,0:0:0:0:
320,192,6964,1,0,0:0:0:0:
448,192,6964,1,0,0:0:0:0:
192,192,7070,1,0,0:0:0:0:
64,192,7175,1,2,0:0:0:0:
448,192,7175,1,8,0:0:0:0:
192,192,7281,1,0,0:0:0:0:
320,192,7281,1,0,0:0:0:0:
64,192,7387,1,0,0:0:0:0:
320,192,7492,1,0,0:0:0:0:
192,192,7598,1,2,0:0:0:0:
448,192,7598,1,0,0:0:0:0:
64,192,7704,1,0,0:0:0:0:
320,192,7809,1,0,0:0:0:0:
64,192,7915,1,0,0:0:0:0:
192,192,7915,1,0,0:0:0:0:
320,192,8021,1,10,0:0:0:0:
448,192,8021,1,4,0:0:0:0:
192,192,8126,1,0,0:0:0:0:
64,192,8232,1,0,0:0:0:0:
448,192,8232,1,0,0:0:0:0:
320,192,8337,1,0,0:0:0:0:
64,192,8443,1,2,0:0:0:0:
192,192,8443,1,4,0:0:0:0:
448,192,8443,1,0,0:0:0:0:
64,192,8654,1,0,0:0:0:0:
320,192,8654,1,0,0:0:0:0:
192,192,8760,1,0,0:0:0:0:
64,192,8866,1,2,0:0:0:0:
320,192,8866,1,8,0:0:0:0:
448,192,8866,1,0,0:0:0:0:
192,192,9077,1,0,0:0:0:0:
320,192,9183,1,0,0:0:0:0:
64,192,9288,1,2,0:0:0:0:
448,192,9288,1,0,0:0:0:0:
192,192,9394,1,0,0:0:0:0:
448,192,9499,1,0,0:0:0:0:
320,192,9605,1,0,0:0:0:0:
64,192,9711,1,2,0:0:0:0:
192,192,9711,1,8,0:0:0:0:
448,192,9711,1,0,0:0:0:0:
320,192,9922,128,0,10133:0:0:0:0:
64,192,10133,1,2,0:0:0:0:
448,192,10133,1,0,0:0:0:0:
192,192,10344,1,0,0:0:0:0:
320,192,10344,1,0,0:0:0:0:
448,192,10450,1,0,0:0:0:0:
64,192,10556,1,2,0:0:0:0:
192,192,10556,1,8,0:0:0:0:
320,192,10661,1,0,0:0:0:0:
448,192,10661,1,0,0:0:0:0:
64,192,10767,1,0,0:0:0:0:
192,192,10873,1,0,0:0:0:0:
320,192,10978,1,2,0:0:0:0:
448,192,10978,1,0,0:0:0:0:
64,192,11084,1,0,0:0:0:0:
448,192,11190,1,0,0:0:0:0:
192,192,11295,1,0,0:0:0:0:
320,192,11295,1,0,0:0:0:0:
64,192,11401,1,2,0:0:0:0:
448,192,11401,1,8,0:0:0:0:
320,192,11506,1,0,0:0:0:0:
64,192,11612,1,0,0:0:0:0:
192,192,11612,1,0,0:0:0:0:
320,192,11718,1,0,0:0:0:0:
64,192,11823,1,2,0:0:0:0:
448,192,11823,1,0,0:0:0:0:
192,192,12035,1,0,0:0:0:0:
448,192,12035,1,0,0:0:0:0:
320,192,12140,1,0,0:0:0:0:
64,192,12246,1,2,0:0:0:0:
192,192,12246,1,8,0:0:0:0:
448,192,12246,1,0,0:0:0:0:
320,192,12457,1,0,0:0:0:0:
192,192,12563,1,0,0:0:0:0:
64,192,12668,1,2,0:0:0:0:
448,192,12668,1,0,0:0:0:0:
320,192,12774,1,0,0:0:0:0:
64,192,12880,1,0,0:0:0:0:
192,192,12985,1,0,0:0:0:0:
64,192,13091,1,2,0:0:0:0:
320,192,13091,1,8,0:0:0:0:
448,192,13091,1,0,0:0:0:0:
192,192,13302,1,0,0:0:0:30:Snare.wav
448,192,13302,1,0,0:0:0:0:
320,192,13408,1,0,0:0:0:30:Snare.wav
64,192,13513,1,2,0:0:0:0:
192,192,13513,1,0,0:0:0:0:
64,192,13725,1,8,0:0:0:0:
320,192,13725,1,4,0:0:0:0:
448,192,13725,1,0,0:0:0:0:
192,192,13936,1,2,0:0:0:0:
320,192,13936,1,0,0:0:0:0:
64,192,14042,1,8,0:0:0:0:
448,192,14042,1,0,0:0:0:0:
64,192,14253,1,2,0:0:0:0:
448,192,14253,1,0,0:0:0:0:
192,192,14359,1,8,0:0:0:0:
320,192,14359,1,4,0:0:0:0:
320,192,14570,1,2,0:0:0:0:
448,192,14570,1,0,0:0:0:0:
64,192,14675,1,8,0:0:0:0:
192,192,14675,1,0,0:0:0:0:
320,192,14781,1,2,0:0:0:0:
448,192,14781,1,0,0:0:0:0:
64,192,14887,1,2,0:0:0:0:
192,192,14887,1,0,0:0:0:0:
320,192,14992,1,0,0:0:0:30:Snare.wav
448,192,14992,1,0,0:0:0:0:
192,192,15098,1,0,0:0:0:30:Snare.wav
64,192,15204,1,2,0:0:0:0:
320,192,15204,1,4,0:0:0:0:
448,192,15204,128,0,15626:0:0:0:0:
64,192,15521,1,2,0:0:0:0:
192,192,15521,1,0,0:0:0:0:
64,192,15837,128,2,16049:0:0:0:0:
192,192,15837,1,0,0:0:0:0:
320,192,16049,128,2,16366:0:0:0:0:
448,192,16049,1,0,0:0:0:0:
64,192,16366,1,2,0:0:0:0:
192,192,16366,128,0,16683:0:0:0:0:
320,192,16683,1,2,0:0:0:0:
448,192,16683,128,0,17105:0:0:0:0:
64,192,17105,128,2,17316:0:0:0:0:
192,192,17105,1,0,0:0:0:0:
320,192,17316,128,0,17528:0:0:0:20:Snare.wav
64,192,17528,1,2,0:0:0:0:
448,192,17528,128,0,17950:0:0:0:0:
64,192,17950,128,2,18161:0:0:0:0:
192,192,17950,1,0,0:0:0:0:
320,192,18161,1,2,0:0:0:0:
448,192,18161,1,0,0:0:0:0:
192,192,18373,128,0,18584:0:0:0:20:Snare.wav
64,192,18584,1,2,0:0:0:0:
320,192,18584,1,4,0:0:0:0:
448,192,18584,128,0,18795:0:0:0:0:
192,192,18795,128,0,19006:0:0:0:0:
64,192,18901,1,2,0:0:0:0:
320,192,18901,1,0,0:0:0:0:
448,192,19006,128,0,19218:0:0:0:0:
64,192,19218,1,2,0:0:0:0:
192,192,19218,128,0,19429:0:0:0:0:
320,192,19429,1,2,0:0:0:0:
448,192,19429,128,0,19640:0:0:0:0:
64,192,19640,128,0,19852:0:0:0:0:
192,192,19746,1,2,0:0:0:0:
448,192,19746,1,0,0:0:0:0:
320,192,19852,128,0,20063:0:0:0:0:
64,192,20063,1,2,0:0:0:0:
192,192,20063,128,4,20485:0:0:0:0:
448,192,20063,1,0,0:0:0:0:
320,192,20485,1,2,0:0:0:0:
448,192,20485,128,0,20908:0:0:0:0:
64,192,20697,1,0,0:0:0:20:Snare.wav
192,192,20697,1,0,0:0:0:0:
320,192,20802,1,0,0:0:0:20:Snare.wav
64,192,20908,1,2,0:0:0:0:
192,192,20908,128,0,21119:0:0:0:0:
320,192,21119,1,2,0:0:0:0:
448,192,21119,1,0,0:0:0:0:
64,192,21225,1,0,0:0:0:40:Snare.wav
192,192,21225,1,0,0:0:0:0:
320,192,21330,1,2,0:0:0:0:
448,192,21330,128,0,21542:0:0:0:0:
64,192,21542,1,0,0:0:0:40:Snare.wav
192,192,21542,1,0,0:0:0:0:
320,192,21753,1,0,0:0:0:20:Snare.wav
448,192,21753,1,0,0:0:0:0:
192,192,21859,1,0,0:0:0:20:Snare.wav
64,192,21964,128,2,22387:0:0:0:0:
320,192,21964,1,4,0:0:0:0:
448,192,21964,1,0,0:0:0:0:
320,192,22281,1,2,0:0:0:0:
448,192,22281,1,0,0:0:0:0:
320,192,22598,1,2,0:0:0:0:
448,192,22598,128,0,22809:0:0:0:0:
64,192,22809,1,2,0:0:0:0:
192,192,22809,128,0,23126:0:0:0:0:
320,192,23126,128,2,23443:0:0:0:0:
448,192,23126,1,0,0:0:0:0:
64,192,23443,128,2,23866:0:0:0:0:
192,192,23443,1,0,0:0:0:0:
320,192,23866,1,2,0:0:0:0:
448,192,23866,128,0,24077:0:0:0:0:
192,192,24077,128,0,24288:0:0:0:30:Snare.wav
64,192,24288,128,2,24711:0:0:0:0:
448,192,24288,1,0,0:0:0:0:
320,192,24711,1,2,0:0:0:0:
448,192,24711,128,0,24922:0:0:0:0:
64,192,24922,1,2,0:0:0:0:
192,192,24922,1,0,0:0:0:30:Tom2.wav
320,192,25028,1,0,0:0:0:30:Tom2.wav
64,192,25133,128,0,25344:0:0:0:30:Tom3.wav
448,192,25133,1,0,0:0:0:0:
192,192,25344,1,2,0:0:0:0:
320,192,25344,1,4,0:0:0:0:
448,192,25344,128,0,25556:0:0:0:0:
64,192,25556,128,0,25767:0:0:0:0:
192,192,25661,1,2,0:0:0:0:
320,192,25661,1,0,0:0:0:0:
448,192,25767,128,0,25978:0:0:0:0:
64,192,25978,1,2,0:0:0:0:
192,192,25978,128,0,26190:0:0:0:0:
320,192,26190,128,2,26401:0:0:0:0:
448,192,26190,1,0,0:0:0:0:
64,192,26401,128,0,26612:0:0:0:0:
192,192,26506,1,2,0:0:0:0:
448,192,26506,1,0,0:0:0:0:
320,192,26612,128,0,26823:0:0:0:0:
64,192,26823,1,2,0:0:0:0:
192,192,26823,128,4,27246:0:0:0:0:
448,192,26823,1,0,0:0:0:0:
320,192,27246,1,2,0:0:0:0:
448,192,27246,1,0,0:0:0:0:
64,192,27457,1,0,0:0:0:30:Snare.wav
192,192,27457,1,0,0:0:0:0:
448,192,27457,1,0,0:0:0:0:
320,192,27563,1,0,0:0:0:30:Snare.wav
64,192,27668,1,2,0:0:0:0:
448,192,27668,1,0,0:0:0:0:
192,192,27880,1,2,0:0:0:0:
320,192,27880,1,0,0:0:0:0:
64,192,27985,1,0,0:0:0:40:Snare.wav
448,192,27985,1,0,0:0:0:0:
192,192,28091,1,2,0:0:0:0:
320,192,28091,1,0,0:0:0:0:
64,192,28302,1,4,0:0:0:0:
192,192,28302,1,0,0:0:0:40:Snare.wav
448,192,28302,1,0,0:0:0:0:
320,192,28513,1,0,0:0:0:30:Snare.wav
192,192,28619,1,0,0:0:0:30:Snare.wav
64,192,28725,1,2,0:0:0:0:
320,192,28725,1,4,0:0:0:0:
448,192,28725,1,0,0:0:0:0:
192,192,28830,1,0,0:0:0:0:
448,192,28936,1,0,0:0:0:0:
192,192,29042,1,0,0:0:0:0:
64,192,29147,1,2,0:0:0:0:
320,192,29147,1,8,0:0:0:0:
448,192,29147,1,0,0:0:0:0:
192,192,29359,1,0,0:0:0:0:
320,192,29464,1,0,0:0:0:0:
64,192,29570,1,2,0:0:0:0:
448,192,29570,1,0,0:0:0:0:
192,192,29675,1,0,0:0:0:0:
320,192,29781,1,0,0:0:0:0:
64,192,29992,1,2,0:0:0:0:
192,192,29992,1,8,0:0:0:0:
448,192,29992,1,0,0:0:0:0:
320,192,30098,1,0,0:0:0:0:
192,192,30204,1,0,0:0:0:0:
64,192,30415,1,2,0:0:0:0:
448,192,30415,1,0,0:0:0:0:
320,192,30626,128,0,30837:0:0:0:0:
64,192,30837,1,2,0:0:0:0:
192,192,30837,128,8,31049:0:0:0:0:
448,192,30837,1,0,0:0:0:0:
320,192,31049,1,0,0:0:0:0:
64,192,31260,1,2,0:0:0:0:
448,192,31260,128,0,31471:0:0:0:0:
192,192,31471,1,0,0:0:0:0:
64,192,31683,1,2,0:0:0:0:
320,192,31683,128,8,31894:0:0:0:0:
448,192,31683,1,0,0:0:0:0:
192,192,31894,1,0,0:0:0:0:
64,192,32105,128,2,32211:0:0:0:0:
448,192,32105,1,0,0:0:0:0:
192,192,32211,1,0,0:0:0:0:
320,192,32316,128,0,32422:0:0:0:0:
192,192,32422,1,0,0:0:0:0:
64,192,32528,128,2,32633:0:0:0:0:
320,192,32528,1,8,0:0:0:0:
448,192,32528,1,0,0:0:0:0:
192,192,32633,1,0,0:0:0:0:
320,192,32739,128,0,32844:0:0:0:0:
448,192,32844,1,0,0:0:0:0:
64,192,32950,128,2,33056:0:0:0:0:
192,192,32950,1,0,0:0:0:0:
448,192,33056,1,0,0:0:0:0:
320,192,33161,128,0,33267:0:0:0:0:
192,192,33267,1,0,0:0:0:0:
64,192,33373,1,2,0:0:0:0:
320,192,33373,128,8,33478:0:0:0:0:
448,192,33373,1,0,0:0:0:0:
192,192,33478,1,0,0:0:0:0:
64,192,33584,128,0,33795:0:0:0:0:
320,192,33690,1,0,0:0:0:0:
192,192,33795,1,2,0:0:0:0:
448,192,33795,1,0,0:0:0:0:
320,192,34006,128,0,34218:0:0:0:0:
64,192,34218,128,2,34429:0:0:0:0:
192,192,34218,1,8,0:0:0:0:
448,192,34218,1,0,0:0:0:0:
448,192,34429,128,0,35063:0:0:0:0:
192,192,34640,1,2,0:0:0:0:
320,192,34640,1,0,0:0:0:0:
64,192,34852,1,0,0:0:0:0:
320,192,34852,1,0,0:0:0:0:
64,192,35063,1,2,0:0:0:0:
192,192,35063,1,8,0:0:0:0:
320,192,35063,1,4,0:0:0:0:
192,192,35274,1,0,0:0:0:0:
320,192,35380,1,0,0:0:0:0:
64,192,35485,1,2,0:0:0:0:
192,192,35485,1,4,0:0:0:0:
448,192,35485,1,0,0:0:0:0:
320,192,35591,1,0,0:0:0:0:
64,192,35697,1,0,0:0:0:0:
320,192,35802,1,0,0:0:0:0:
64,192,35908,1,2,0:0:0:0:
192,192,35908,1,8,0:0:0:0:
448,192,35908,1,0,0:0:0:0:
320,192,36119,1,0,0:0:0:0:
192,192,36225,1,0,0:0:0:0:
64,192,36330,1,2,0:0:0:0:
448,192,36330,1,0,0:0:0:0:
320,192,36436,1,0,0:0:0:0:
192,192,36542,1,0,0:0:0:0:
64,192,36753,1,2,0:0:0:0:
320,192,36753,1,8,0:0:0:0:
448,192,36753,1,0,0:0:0:0:
192,192,36964,1,0,0:0:0:0:
64,192,37175,1,2,0:0:0:0:
448,192,37175,1,0,0:0:0:0:
320,192,37387,128,0,37598:0:0:0:0:
64,192,37598,1,2,0:0:0:0:
192,192,37598,128,8,37809:0:0:0:0:
448,192,37598,1,0,0:0:0:0:
320,192,37809,1,0,0:0:0:0:
64,192,38021,1,2,0:0:0:0:
448,192,38021,128,0,38232:0:0:0:0:
192,192,38232,1,0,0:0:0:0:
64,192,38443,128,8,38654:0:0:0:0:
320,192,38443,1,2,0:0:0:0:
448,192,38443,1,0,0:0:0:0:
192,192,38654,1,0,0:0:0:0:
64,192,38866,1,2,0:0:0:0:
448,192,38866,128,0,39077:0:0:0:0:
320,192,39077,1,0,0:0:0:0:
64,192,39288,1,2,0:0:0:0:
192,192,39288,1,8,0:0:0:0:
448,192,39288,1,0,0:0:0:0:
320,192,39499,128,0,39711:0:0:0:0:
64,192,39711,128,2,39922:0:0:0:0:
448,192,39711,1,0,0:0:0:0:
192,192,39922,1,0,0:0:0:0:
320,192,40028,128,0,40344:0:0:0:0:
64,192,40133,1,2,0:0:0:0:
192,192,40133,1,8,0:0:0:0:
448,192,40133,1,0,0:0:0:0:
64,192,40344,128,0,40556:0:0:0:0:
192,192,40556,1,2,0:0:0:0:
320,192,40556,1,4,0:0:0:0:
448,192,40556,1,0,0:0:0:0:
448,192,40767,128,0,40978:0:0:0:0:
64,192,40978,128,0,41401:0:0:0:0:
320,192,41401,128,0,41823:0:0:0:0:
192,192,41823,128,0,42246:0:0:0:40:Tom2.wav
64,192,42246,1,2,0:0:0:0:
320,192,42246,1,4,0:0:0:0:
448,192,42246,1,0,0:0:0:0:
64,192,42563,1,2,0:0:0:0:
320,192,42563,1,4,0:0:0:0:
448,192,42563,1,0,0:0:0:0:
64,192,42880,1,2,0:0:0:0:
192,192,42880,1,0,0:0:0:0:
320,192,42985,1,2,0:0:0:0:
64,192,43091,1,8,0:0:0:0:
192,192,43091,1,0,0:0:0:0:
448,192,43091,1,0,0:0:0:0:
320,192,43302,1,2,0:0:0:0:
64,192,43408,1,8,0:0:0:0:
192,192,43408,1,0,0:0:0:0:
448,192,43408,1,0,0:0:0:0:
320,192,43619,1,2,0:0:0:0:
64,192,43725,1,8,0:0:0:0:
192,192,43725,1,0,0:0:0:0:
448,192,43725,1,0,0:0:0:0:
320,192,44147,1,2,0:0:0:0:
448,192,44147,1,0,0:0:0:0:
192,192,44253,1,2,0:0:0:0:
64,192,44359,1,8,0:0:0:0:
320,192,44359,1,4,0:0:0:0:
448,192,44359,1,0,0:0:0:0:
192,192,44570,1,2,0:0:0:0:
320,192,44570,1,0,0:0:0:0:
64,192,44781,1,8,0:0:0:0:
192,192,44781,1,4,0:0:0:0:
448,192,44781,1,0,0:0:0:0:
320,192,44887,1,8,0:0:0:0:
64,192,44992,1,2,0:0:0:0:
448,192,44992,1,0,0:0:0:0:
192,192,45098,1,0,0:0:0:0:
64,192,45204,1,8,0:0:0:0:
320,192,45204,1,0,0:0:0:0:
448,192,45204,1,0,0:0:0:0:
192,192,45415,1,2,0:0:0:0:
320,192,45415,1,0,0:0:0:0:
64,192,45626,1,2,0:0:0:0:
192,192,45626,1,4,0:0:0:0:
448,192,45626,1,0,0:0:0:0:
64,192,45943,1,2,0:0:0:0:
192,192,45943,1,4,0:0:0:0:
448,192,45943,1,0,0:0:0:0:
64,192,46260,1,2,0:0:0:0:
320,192,46260,1,0,0:0:0:0:
192,192,46366,1,2,0:0:0:0:
64,192,46471,1,8,0:0:0:0:
320,192,46471,1,4,0:0:0:0:
448,192,46471,1,0,0:0:0:0:
192,192,46683,1,2,0:0:0:0:
64,192,46788,1,8,0:0:0:0:
320,192,46788,1,0,0:0:0:0:
448,192,46788,1,0,0:0:0:0:
192,192,46999,1,2,0:0:0:0:
64,192,47105,1,8,0:0:0:0:
320,192,47105,1,0,0:0:0:0:
448,192,47105,1,0,0:0:0:0:
192,192,47528,1,2,0:0:0:0:
448,192,47528,1,0,0:0:0:0:
320,192,47633,1,2,0:0:0:0:
64,192,47739,1,8,0:0:0:0:
192,192,47739,1,4,0:0:0:0:
448,192,47739,1,0,0:0:0:0:
64,192,47950,1,2,0:0:0:0:
320,192,47950,1,0,0:0:0:0:
192,192,48161,1,8,0:0:0:0:
320,192,48161,1,4,0:0:0:0:
448,192,48161,1,0,0:0:0:0:
64,192,48267,1,8,0:0:0:0:
192,192,48373,1,2,0:0:0:0:
448,192,48373,1,0,0:0:0:0:
64,192,48584,1,8,0:0:0:0:
192,192,48584,1,0,0:0:0:0:
320,192,48584,1,0,0:0:0:0:
64,192,48795,1,2,0:0:0:0:
448,192,48795,1,0,0:0:0:0:
192,192,49006,1,2,0:0:0:0:
320,192,49006,1,4,0:0:0:0:
448,192,49006,1,0,0:0:0:0:
192,192,49323,1,2,0:0:0:0:
320,192,49323,1,4,0:0:0:0:
448,192,49323,1,0,0:0:0:0:
64,192,49640,1,2,0:0:0:0:
192,192,49640,1,0,0:0:0:0:
448,192,49746,1,2,0:0:0:0:
64,192,49852,1,8,0:0:0:0:
192,192,49852,1,4,0:0:0:0:
320,192,49852,1,0,0:0:0:0:
448,192,50063,1,2,0:0:0:0:
64,192,50168,1,8,0:0:0:0:
192,192,50168,1,0,0:0:0:0:
320,192,50168,1,0,0:0:0:0:
448,192,50380,1,2,0:0:0:0:
64,192,50485,1,8,0:0:0:0:
192,192,50485,1,0,0:0:0:0:
320,192,50485,1,0,0:0:0:0:
64,192,50908,1,2,0:0:0:0:
448,192,50908,1,0,0:0:0:0:
192,192,51013,1,2,0:0:0:0:
64,192,51119,1,8,0:0:0:0:
320,192,51119,1,4,0:0:0:0:
448,192,51119,1,0,0:0:0:0:
192,192,51330,1,2,0:0:0:0:
320,192,51330,1,0,0:0:0:0:
64,192,51542,1,8,0:0:0:0:
192,192,51542,1,4,0:0:0:0:
448,192,51542,1,0,0:0:0:0:
320,192,51647,1,8,0:0:0:0:
64,192,51753,1,2,0:0:0:0:
448,192,51753,1,0,0:0:0:0:
192,192,51859,1,0,0:0:0:0:
64,192,51964,1,2,0:0:0:0:
320,192,51964,1,8,0:0:0:0:
448,192,51964,1,0,0:0:0:0:
192,192,52175,1,0,0:0:0:0:
320,192,52281,1,0,0:0:0:0:
64,192,52387,128,0,53232:0:0:0:0:
448,192,52387,1,0,0:0:0:0:
320,192,53232,128,0,53866:0:0:0:0:
192,192,53866,128,4,54077:0:0:0:0:
64,192,53866,128,2,54077:0:0:0:0:
448,192,53866,128,0,54077:0:0:0:0:
64,192,54288,1,2,0:0:0:0:
448,192,54288,1,0,0:0:0:0:
320,192,54394,1,2,0:0:0:0:
64,192,54499,1,8,0:0:0:0:
192,192,54499,1,4,0:0:0:0:
448,192,54499,1,0,0:0:0:0:
192,192,54711,1,2,0:0:0:0:
320,192,54711,1,0,0:0:0:0:
64,192,54922,1,4,0:0:0:0:
320,192,54922,1,0,0:0:0:30:Snare.wav
448,192,54922,1,0,0:0:0:0:
192,192,55028,1,0,0:0:0:30:Snare.wav
64,192,55133,1,2,0:0:0:0:
448,192,55133,1,0,0:0:0:0:
320,192,55239,1,2,0:0:0:0:
64,192,55344,1,0,0:0:0:30:Snare.wav
192,192,55344,1,0,0:0:0:0:
448,192,55344,1,0,0:0:0:0:
192,192,55556,1,2,0:0:0:0:
320,192,55556,1,0,0:0:0:0:
64,192,55767,1,2,0:0:0:0:
320,192,55767,1,4,0:0:0:0:
448,192,55767,1,0,0:0:0:0:
192,192,55873,1,0,0:0:0:0:
448,192,55978,1,0,0:0:0:30:Snare.wav
320,192,56084,1,0,0:0:0:0:
64,192,56190,1,2,0:0:0:0:
192,192,56190,1,0,0:0:0:30:Snare.wav
320,192,56295,1,0,0:0:0:0:
64,192,56401,1,0,0:0:0:30:Snare.wav
448,192,56401,1,0,0:0:0:0:
192,192,56506,1,0,0:0:0:0:
320,192,56612,1,2,0:0:0:0:
448,192,56612,1,0,0:0:0:40:Snare.wav
192,192,56718,1,0,0:0:0:0:
64,192,56823,1,0,0:0:0:40:Snare.wav
448,192,56823,1,0,0:0:0:0:
320,192,56929,1,0,0:0:0:0:
64,192,57035,1,0,0:0:0:40:Snare.wav
192,192,57035,1,0,0:0:0:0:
320,192,57140,1,0,0:0:0:0:
64,192,57246,1,2,0:0:0:0:
192,192,57246,128,4,57668:0:0:0:0:
448,192,57246,1,0,0:0:0:0:
64,192,57668,1,0,0:0:0:40:Snare.wav
320,192,57668,1,0,0:0:0:40:Tom2.wav
448,192,57668,1,0,0:0:0:0:
192,192,58091,128,0,58302:0:0:0:0:
448,192,58302,128,0,58513:0:0:0:0:
64,192,58513,128,0,58725:0:0:0:0:
320,192,58725,128,0,58936:0:0:0:0:
192,192,58936,128,0,59147:0:0:0:0:
64,192,59147,1,2,0:0:0:0:
320,192,59147,1,4,0:0:0:0:
448,192,59147,128,0,59464:0:0:0:0:
192,192,59359,1,0,0:0:0:0:
64,192,59464,128,0,59781:0:0:0:0:
320,192,59570,1,8,0:0:0:0:
448,192,59570,1,2,0:0:0:0:
448,192,59781,128,0,59992:0:0:0:0:
64,192,59992,128,2,60309:0:0:0:0:
192,192,59992,1,0,0:0:0:0:
320,192,60204,1,0,0:0:0:0:
448,192,60309,128,0,60626:0:0:0:0:
64,192,60415,1,8,0:0:0:0:
192,192,60415,1,2,0:0:0:0:
64,192,60626,128,0,60837:0:0:0:0:
320,192,60837,1,2,0:0:0:0:
448,192,60837,128,0,61154:0:0:0:0:
192,192,61049,1,0,0:0:0:0:
64,192,61154,128,0,61471:0:0:0:0:
320,192,61260,1,8,0:0:0:0:
448,192,61260,1,2,0:0:0:0:
448,192,61471,128,0,61683:0:0:0:0:
64,192,61683,1,2,0:0:0:0:
192,192,61683,1,0,0:0:0:0:
320,192,61894,128,0,62105:0:0:0:0:
64,192,62105,1,8,0:0:0:0:
448,192,62105,128,2,62316:0:0:0:0:
192,192,62316,128,0,62528:0:0:0:0:
64,192,62528,128,2,62844:0:0:0:0:
448,192,62528,1,0,0:0:0:0:
192,192,62739,1,0,0:0:0:0:
448,192,62844,128,0,63161:0:0:0:0:
64,192,62950,1,8,0:0:0:0:
320,192,62950,1,2,0:0:0:0:
64,192,63161,128,0,63373:0:0:0:0:
192,192,63373,1,2,0:0:0:0:
448,192,63373,128,0,63690:0:0:0:0:
320,192,63584,1,0,0:0:0:0:
64,192,63690,128,0,64006:0:0:0:0:
192,192,63795,1,8,0:0:0:0:
448,192,63795,1,2,0:0:0:0:
448,192,64006,128,0,64218:0:0:0:0:
64,192,64218,1,2,0:0:0:0:
320,192,64218,128,0,64535:0:0:0:0:
448,192,64429,1,0,0:0:0:0:
192,192,64535,128,0,64852:0:0:0:0:
64,192,64640,1,8,0:0:0:0:
448,192,64640,1,2,0:0:0:0:
64,192,64852,128,0,65485:0:0:0:0:
320,192,64957,1,0,0:0:0:0:
192,192,65063,1,2,0:0:0:0:
448,192,65063,1,0,0:0:0:0:
320,192,65274,1,0,0:0:0:0:
192,192,65380,1,0,0:0:0:0:
320,192,65485,1,10,0:0:0:0:
448,192,65485,1,4,0:0:0:0:
192,192,65697,128,0,65908:0:0:0:0:
64,192,65908,1,2,0:0:0:0:
320,192,65908,1,4,0:0:0:0:
448,192,65908,128,0,66119:0:0:0:0:
192,192,66119,128,0,66330:0:0:0:0:
64,192,66330,1,8,0:0:0:0:
320,192,66330,1,2,0:0:0:0:
448,192,66330,1,0,0:0:0:0:
320,192,66542,128,0,66753:0:0:0:0:
64,192,66753,128,2,66964:0:0:0:0:
192,192,66753,1,0,0:0:0:0:
320,192,66964,128,0,67175:0:0:0:0:
64,192,67175,1,8,0:0:0:0:
192,192,67175,128,2,67387:0:0:0:0:
448,192,67175,1,0,0:0:0:0:
448,192,67387,128,0,67598:0:0:0:0:
64,192,67598,1,2,0:0:0:0:
320,192,67598,1,0,0:0:0:0:
192,192,67809,128,0,68021:0:0:0:40:Tom2.wav
448,192,67809,1,0,0:0:0:0:
64,192,68021,1,8,0:0:0:0:
320,192,68021,1,2,0:0:0:0:
448,192,68021,128,0,68232:0:0:0:0:
320,192,68232,128,0,68443:0:0:0:40:Tom3.wav
64,192,68443,128,2,69077:0:0:0:0:
192,192,68443,1,0,0:0:0:0:
448,192,68654,1,0,0:0:0:0:
192,192,68760,128,0,69077:0:0:0:0:
320,192,68866,1,8,0:0:0:0:
448,192,68866,1,2,0:0:0:0:
320,192,69077,128,0,69288:0:0:0:0:
64,192,69288,1,2,0:0:0:0:
192,192,69288,1,4,0:0:0:0:
448,192,69288,128,0,70556:0:0:0:0:
320,192,69499,1,0,0:0:0:0:
192,192,69711,1,8,0:0:0:0:
320,192,69711,1,2,0:0:0:0:
64,192,69922,1,0,0:0:0:0:
64,192,70133,1,2,0:0:0:0:
192,192,70133,1,0,0:0:0:0:
320,192,70344,128,0,70556:0:0:0:0:
64,192,70556,128,8,70767:0:0:0:0:
192,192,70556,128,2,70767:0:0:0:0:
320,192,70767,128,2,71190:0:0:0:0:
448,192,70767,128,4,71190:0:0:0:0:
64,192,71190,1,2,0:0:0:0:
192,192,71190,1,0,0:0:0:0:
64,192,71401,1,8,0:0:0:0:
320,192,71401,1,2,0:0:0:0:
448,192,71401,1,0,0:0:0:0:
192,192,71506,1,0,0:0:0:0:
320,192,71612,128,6,71823:0:0:0:0:
64,192,71823,128,0,72035:0:0:0:0:
448,192,72035,128,2,72246:0:0:0:0:
320,192,72140,1,2,0:0:0:0:
64,192,72246,1,8,0:0:0:0:
192,192,72246,128,0,72457:0:0:0:0:
320,192,72457,128,0,72668:0:0:0:0:
64,192,72668,128,2,72985:0:0:0:0:
192,192,72668,1,4,0:0:0:0:
448,192,72668,1,0,0:0:0:0:
320,192,72880,1,0,0:0:0:0:
448,192,72985,128,0,73302:0:0:0:0:
64,192,73091,1,8,0:0:0:0:
192,192,73091,1,2,0:0:0:0:
64,192,73302,128,0,73513:0:0:0:0:
320,192,73513,1,2,0:0:0:0:
448,192,73513,128,0,73830:0:0:0:0:
192,192,73725,1,0,0:0:0:0:
64,192,73830,128,0,74147:0:0:0:0:
320,192,73936,1,8,0:0:0:0:
448,192,73936,1,2,0:0:0:0:
448,192,74147,128,0,74359:0:0:0:0:
64,192,74359,128,2,74675:0:0:0:0:
192,192,74359,1,0,0:0:0:0:
320,192,74570,1,0,0:0:0:0:
448,192,74675,128,0,74992:0:0:0:0:
64,192,74781,1,8,0:0:0:0:
192,192,74781,1,2,0:0:0:0:
64,192,74992,128,0,75204:0:0:0:0:
320,192,75204,1,2,0:0:0:0:
448,192,75204,1,0,0:0:0:0:
192,192,75415,128,0,75626:0:0:0:0:
64,192,75626,128,8,75837:0:0:0:0:
448,192,75626,1,2,0:0:0:0:
320,192,75837,128,0,76049:0:0:0:0:
64,192,76049,1,2,0:0:0:0:
448,192,76049,128,0,76366:0:0:0:0:
320,192,76260,1,0,0:0:0:0:
64,192,76366,128,0,76683:0:0:0:0:
192,192,76471,1,8,0:0:0:0:
448,192,76471,1,2,0:0:0:0:
448,192,76683,128,0,76894:0:0:0:0:
64,192,76894,128,2,77211:0:0:0:0:
320,192,76894,1,0,0:0:0:0:
192,192,77105,1,0,0:0:0:0:
448,192,77211,128,0,77528:0:0:0:0:
64,192,77316,1,8,0:0:0:0:
320,192,77316,1,2,0:0:0:0:
64,192,77528,128,0,77739:0:0:0:0:
192,192,77739,128,2,78056:0:0:0:0:
448,192,77739,1,0,0:0:0:0:
64,192,77950,1,0,0:0:0:0:
320,192,78056,128,0,78373:0:0:0:0:
64,192,78161,1,8,0:0:0:0:
448,192,78161,1,2,0:0:0:0:
448,192,78373,128,0,79006:0:0:0:0:
192,192,78478,1,0,0:0:0:0:
64,192,78584,1,2,0:0:0:0:
320,192,78584,1,0,0:0:0:0:
192,192,78795,1,0,0:0:0:0:
320,192,78901,1,0,0:0:0:0:
64,192,79006,1,10,0:0:0:0:
192,192,79006,1,4,0:0:0:0:
320,192,79218,128,0,79429:0:0:0:0:
64,192,79429,128,2,79640:0:0:0:0:
192,192,79429,1,4,0:0:0:0:
448,192,79429,1,0,0:0:0:0:
320,192,79640,128,0,79852:0:0:0:0:
64,192,79852,1,8,0:0:0:0:
192,192,79852,1,2,0:0:0:0:
448,192,79852,1,0,0:0:0:0:
192,192,80063,128,0,80274:0:0:0:0:
320,192,80274,1,2,0:0:0:0:
448,192,80274,128,0,80485:0:0:0:0:
192,192,80485,128,0,80697:0:0:0:0:
64,192,80697,1,8,0:0:0:0:
320,192,80697,128,2,80908:0:0:0:0:
448,192,80697,1,0,0:0:0:0:
64,192,80908,128,2,81119:0:0:0:0:
192,192,80908,128,4,81119:0:0:0:0:
448,192,80908,1,0,0:0:0:0:
320,192,81330,128,0,81542:0:0:0:0:
192,192,81542,128,0,81753:0:0:0:0:
448,192,81753,128,0,81859:0:0:0:0:
448,192,81964,128,0,82387:0:0:0:0:
320,192,82387,128,0,82809:0:0:0:0:
64,192,82809,1,2,0:0:0:0:
192,192,82809,1,4,0:0:0:0:
448,192,82809,1,0,0:0:0:0:
320,192,83021,1,0,0:0:0:0:
192,192,83126,1,0,0:0:0:0:
64,192,83232,1,8,0:0:0:0:
320,192,83232,1,2,0:0:0:0:
448,192,83232,1,0,0:0:0:0:
192,192,83443,1,0,0:0:0:0:
320,192,83549,1,0,0:0:0:0:
64,192,83654,1,2,0:0:0:0:
448,192,83654,1,0,0:0:0:0:
192,192,83760,1,0,0:0:0:0:
320,192,83866,1,0,0:0:0:0:
64,192,83971,1,0,0:0:0:0:
192,192,84077,1,8,0:0:0:0:
320,192,84077,1,2,0:0:0:0:
448,192,84077,1,0,0:0:0:0:
64,192,84288,128,0,84499:0:0:0:0:
320,192,84499,1,2,0:0:0:0:
448,192,84499,1,0,0:0:0:0:
64,192,84711,1,0,0:0:0:0:
192,192,84711,1,0,0:0:0:0:
320,192,84816,1,0,0:0:0:0:
64,192,84922,1,8,0:0:0:0:
448,192,84922,1,2,0:0:0:0:
192,192,85028,1,0,0:0:0:0:
320,192,85028,1,0,0:0:0:0:
448,192,85133,1,0,0:0:0:0:
192,192,85239,1,0,0:0:0:0:
64,192,85344,1,2,0:0:0:0:
320,192,85344,1,0,0:0:0:0:
448,192,85450,1,0,0:0:0:0:
192,192,85556,1,0,0:0:0:0:
320,192,85661,1,0,0:0:0:0:
448,192,85661,1,0,0:0:0:0:
64,192,85767,1,8,0:0:0:0:
192,192,85767,1,2,0:0:0:0:
320,192,85873,1,0,0:0:0:0:
64,192,85978,1,0,0:0:0:0:
448,192,85978,1,0,0:0:0:0:
192,192,86084,1,0,0:0:0:0:
320,192,86190,1,2,0:0:0:0:
448,192,86190,1,0,0:0:0:0:
64,192,86401,1,0,0:0:0:0:
192,192,86401,1,0,0:0:0:0:
320,192,86506,1,0,0:0:0:0:
64,192,86612,1,8,0:0:0:0:
192,192,86612,1,2,0:0:0:0:
448,192,86612,1,0,0:0:0:0:
320,192,86823,1,0,0:0:0:0:
192,192,86929,1,0,0:0:0:0:
64,192,87035,1,2,0:0:0:0:
448,192,87035,1,0,0:0:0:0:
320,192,87140,1,0,0:0:0:0:
192,192,87246,1,0,0:0:0:0:
448,192,87352,1,0,0:0:0:0:
64,192,87457,1,8,0:0:0:0:
192,192,87457,1,2,0:0:0:0:
320,192,87457,1,0,0:0:0:0:
448,192,87668,128,0,87880:0:0:0:0:
64,192,87880,1,2,0:0:0:0:
192,192,87880,1,0,0:0:0:0:
64,192,88091,1,8,0:0:0:0:
320,192,88091,1,4,0:0:0:0:
448,192,88091,1,2,0:0:0:0:
192,192,88302,1,2,0:0:0:0:
320,192,88302,1,0,0:0:0:0:
64,192,88408,1,8,0:0:0:0:
448,192,88408,1,4,0:0:0:0:
64,192,88619,1,2,0:0:0:0:
448,192,88619,1,0,0:0:0:0:
192,192,88725,1,8,0:0:0:0:
320,192,88725,128,4,89570:0:0:0:0:
