osu file format v14

[General]
AudioFilename: audio.mp3
AudioLeadIn: 0
PreviewTime: 7201
Countdown: 1
SampleSet: Soft
StackLeniency: 0.3
Mode: 0
LetterboxInBreaks: 0
WidescreenStoryboard: 0

[Editor]
DistanceSpacing: 1.5
BeatDivisor: 6
GridSize: 4
TimelineZoom: 1.6

[Metadata]
Title:Scrabble Sweeper Menu 2
TitleUnicode:Scrabble Sweeper Menu 2
Artist:Respirte
ArtistUnicode:Respirte
Creator:Respirte
Version:Yeehaw
Source:Scrabble Sweeper
Tags:emily ploszaj jake parton deluxe scrabblesweeper minesweeper mine video game english novelty folk soundtrack ost
BeatmapID:2163137
BeatmapSetID:1034607

[Difficulty]
HPDrainRate:6
CircleSize:4
OverallDifficulty:8
ApproachRate:8.8
SliderMultiplier:1.8
SliderTickRate:1

[Events]
//Background and Video events
0,0,"scrabble sweeper.jpg",0,0
//Break Periods
//Storyboard Layer 0 (Background)
//Storyboard Layer 1 (Fail)
//Storyboard Layer 2 (Pass)
//Storyboard Layer 3 (Foreground)
//Storyboard Layer 4 (Overlay)
//Storyboard Sound Samples

[TimingPoints]
740,461.538461538462,4,2,1,15,1,0
740,-133.333333333333,4,2,1,15,0,0
3816,-166.666666666667,4,2,1,40,0,0
4278,-166.666666666667,4,2,1,5,0,0
4432,-117.647058823529,4,2,1,20,0,0
7509,-100,4,2,1,40,0,0
7663,-100,4,2,1,30,0,0
11047,-100,4,2,1,5,0,0
11201,-100,4,2,1,30,0,0
14893,-100,4,2,1,40,0,0
15047,-100,4,2,1,30,0,0
22893,-100,4,2,1,40,0,0
28893,-133.333333333333,4,2,1,40,0,0
30278,-100,4,2,1,40,0,0
32124,-100,4,2,1,45,0,0
33970,-76.9230769230769,4,2,1,50,0,0
34893,-76.9230769230769,4,2,1,25,0,0
37047,-76.9230769230769,4,2,1,40,0,0
37201,-76.9230769230769,4,2,1,30,0,0
37663,-100,4,2,1,30,0,0
40586,-100,4,2,1,5,0,0
40740,-100,4,2,1,30,0,0
44432,-100,4,2,1,40,0,0
44586,-100,4,2,1,30,0,0
52432,-133.333333333333,4,2,1,25,0,0
54278,-100,4,2,1,30,0,0
56124,-133.333333333333,4,2,1,25,0,0
57970,-100,4,2,1,30,0,0
58432,-133.333333333333,4,2,1,30,0,0
59816,-100,4,2,1,30,0,0
61663,-100,4,2,1,40,0,0
62432,-100,4,2,1,45,0,0
63509,-76.9230769230769,4,2,1,50,0,0
64432,-100,4,2,1,25,0,0
66586,-100,4,2,1,40,0,0
66740,-100,4,2,1,30,0,0
70278,-100,4,2,1,40,0,0
70432,-100,4,2,1,30,0,0
70893,-105.263157894737,4,2,1,30,0,0
71816,-117.647058823529,4,2,1,30,0,0
72740,-133.333333333333,4,2,1,30,0,0
74509,-133.333333333333,4,2,1,5,0,0

[Colours]
Combo1 : 0,0,255
Combo2 : 255,128,128
Combo3 : 128,255,255
Combo4 : 255,0,0

[HitObjects]
343,342,740,6,0,P|402:313|464:336,1,135.000005149842,2|0,0:0|0:0,0:0:0:0:
464,336,1509,1,0,0:0:0:0:
368,262,1663,2,0,P|431:278|464:335,1,135.000005149842,2|0,0:0|0:0,0:0:0:0:
464,336,2432,1,0,0:0:0:0:
439,217,2586,2,0,P|476:270|465:335,1,135.000005149842,2|0,0:0|0:0,0:0:0:0:
464,336,3355,1,0,0:0:0:0:
259,228,3740,5,0,3:0:0:0:
259,223,3816,6,0,B|257:182|257:182|266:156|266:156|262:105,1,107.999996704102,8|0,3:0|0:0,0:0:0:0:
180,36,4432,6,0,P|112:67|42:42,1,153.000002918243,2|0,0:0|0:0,0:0:0:0:
42,42,5201,1,0,0:0:0:0:
153,124,5355,2,0,P|80:105|42:41,1,153.000002918243,2|0,0:0|0:0,0:0:0:0:
42,42,6124,1,0,0:0:0:0:
76,176,6278,2,0,P|31:115|42:42,1,153.000002918243,2|0,0:0|0:0,0:0:0:0:
42,42,7047,1,0,0:0:0:0:
1,255,7432,5,0,3:0:0:0:
1,260,7509,5,8,3:0:0:0:
55,320,7663,5,0,3:0:0:0:
130,348,7816,1,0,3:0:0:0:
208,330,7970,1,0,3:0:0:0:
277,291,8124,6,0,P|345:279|411:288,1,120,6|0,3:0|0:0,0:0:0:0:
491,366,8586,1,8,0:0:0:0:
491,366,8893,1,0,0:0:0:0:
395,283,9047,2,0,P|366:238|398:157,1,120,2|0,3:0|0:0,0:0:0:0:
488,124,9509,1,8,0:0:0:0:
488,124,9816,1,0,0:0:0:0:
378,175,9970,2,0,P|332:178|325:108,1,120,2|0,3:0|0:0,0:0:0:0:
388,19,10432,1,8,0:0:0:0:
388,19,10740,1,0,0:0:0:0:
317,116,10893,2,0,P|284:121|253:116,1,60,2|0,3:0|0:0,0:0:0:0:
189,80,11201,1,0,0:0:0:0:
142,190,11355,1,8,0:0:0:0:
142,190,11663,1,0,0:0:0:0:
117,31,11816,6,0,P|167:-1|256:20,1,120,2|0,0:0|0:0,0:0:0:0:
320,77,12278,1,8,0:0:0:0:
214,292,12586,1,0,0:0:0:0:
214,292,12740,2,0,B|205:231|205:231|220:151,1,120,2|0,3:0|0:0,0:0:0:0:
143,132,13201,1,8,0:0:0:0:
355,244,13509,1,0,0:0:0:0:
355,244,13663,2,0,B|322:233|322:233|269:257,2,60,2|0|0,3:0|0:0|0:0,0:0:0:0:
432,336,14124,1,8,0:0:0:0:
451,156,14432,2,0,P|412:107|356:100,1,120,2|0,0:0|0:0,0:0:0:0:
289,121,14816,5,0,3:0:0:0:
289,126,14893,5,0,3:0:0:0:
293,245,15047,6,0,B|282:200|282:200|298:173|298:173|287:114,1,120,8|0,3:2|0:0,0:0:0:0:
192,24,15509,6,0,P|200:109|185:162,1,120,6|0,3:0|0:0,0:0:0:0:
153,255,15970,1,8,0:0:0:0:
153,255,16278,1,0,0:0:0:0:
192,142,16432,2,0,P|215:97|279:73,1,120,2|0,3:0|0:0,0:0:0:0:
391,111,16893,1,8,0:0:0:0:
391,111,17201,1,0,0:0:0:0:
274,189,17355,2,0,P|217:192|197:126,1,120,2|0,3:0|0:0,0:0:0:0:
198,20,17816,1,8,0:0:0:0:
136,192,18124,1,0,0:0:0:0:
84,138,18278,2,0,P|140:118|193:142,1,120,2|0,3:0|0:0,0:0:0:0:
212,231,18740,1,8,0:0:0:0:
212,231,19047,1,0,0:0:0:0:
67,344,19201,6,0,B|126:339|126:371|198:362,1,120,2|0,0:0|0:0,0:0:0:0:
298,324,19663,1,8,0:0:0:0:
374,97,19970,1,0,0:0:0:0:
374,97,20124,2,0,B|354:155|354:155|369:237,1,120,2|0,3:0|0:0,0:0:0:0:
295,249,20586,1,8,0:0:0:0:
512,348,20893,1,0,0:0:0:0:
512,348,21047,2,0,B|479:359|479:359|426:335,2,60,2|0|0,3:0|0:0|0:0,0:0:0:0:
489,229,21509,1,8,0:0:0:0:
277,341,21816,2,0,P|247:361|227:291,1,120,2|0,0:0|0:0,0:0:0:0:
264,229,22278,1,8,0:0:0:0:
147,258,22432,1,0,0:0:0:0:
264,229,22740,1,8,0:0:0:0:
89,326,22893,5,2,0:0:0:0:
89,326,23201,2,0,L|70:255,1,60,0|8,0:0|0:0,0:0:0:0:
200,95,23663,2,0,B|111:83|127:148|25:122,1,180,2|0,0:0|0:0,0:0:0:0:
67,50,24278,1,8,0:0:0:0:
248,159,24740,5,2,0:0:0:0:
248,159,25047,2,0,L|328:173,1,60,0|8,0:0|0:0,0:0:0:0:
412,359,25509,2,0,B|378:294|406:206|406:206|413:228|429:252,1,180,2|0,0:0|0:0,0:0:0:0:
480,291,26124,1,8,0:0:0:0:
373,43,26586,5,2,0:0:0:0:
373,43,26893,2,0,L|363:126,1,60,0|8,0:0|0:0,0:0:0:0:
174,192,27355,2,0,B|251:163|283:226|356:192,1,180,2|0,0:0|0:0,0:0:0:0:
427,147,27970,1,8,0:0:0:0:
164,291,28432,6,0,B|175:274|175:274|228:257|269:290,1,120,2|0,0:3|0:0,0:0:0:0:
364,348,28893,6,0,L|420:338,2,45.0000017166138,8|0|0,0:0|0:0|0:0,0:0:0:0:
269,290,29355,2,0,L|213:280,2,45.0000017166138,8|0|0,0:0|0:0|0:0,0:0:0:0:
361,227,29816,1,8,0:0:0:0:
376,184,29970,1,0,0:0:0:0:
373,139,30124,1,0,0:0:0:0:
347,101,30278,5,2,0:0:0:0:
347,101,30586,2,0,L|277:107,1,60,0|8,0:0|0:0,0:0:0:0:
225,301,31047,2,0,B|236:187|177:246|189:101,1,180,2|0,0:0|0:0,0:0:0:0:
223,46,31663,1,8,0:0:0:0:
81,263,32124,5,2,0:0:0:0:
81,263,32432,2,0,L|151:269,1,60,0|8,0:0|0:0,0:0:0:0:
344,340,32893,2,0,B|262:361|212:311|212:311|228:270,1,180,2|0,0:0|0:0,0:0:0:0:
291,213,33509,2,0,P|302:144|290:86,1,120,8|0,0:0|0:0,0:0:0:0:
195,31,33970,6,0,B|168:31|168:31|142:43|142:43|118:43,1,77.9999964294435,2|0,3:2|0:0,0:0:0:0:
25,46,34278,1,2,0:0:0:0:
101,130,34432,1,10,0:0:0:0:
29,304,34893,5,2,3:0:0:0:
29,304,35816,5,2,3:0:0:0:
29,304,36124,1,0,3:0:0:0:
119,348,36278,1,2,3:0:0:0:
201,372,36740,1,2,3:0:0:0:
214,126,36970,5,0,3:0:0:0:
214,131,37047,5,8,3:0:0:0:
269,202,37201,5,0,3:0:0:0:
285,252,37355,1,0,3:0:0:0:
282,289,37509,1,0,3:0:0:0:
273,312,37663,6,0,P|254:250|260:172,1,120,6|0,3:0|0:0,0:0:0:0:
313,90,38124,1,8,0:0:0:0:
313,90,38432,1,0,0:0:0:0:
198,53,38586,2,0,P|137:86|81:56,1,120,2|0,3:0|0:0,0:0:0:0:
0,0,39047,1,8,0:0:0:0:
0,0,39355,1,0,0:0:0:0:
93,69,39509,2,0,P|26:100|56:158,1,120,2|0,3:0|0:0,0:0:0:0:
115,218,39970,1,8,0:0:0:0:
115,218,40278,1,0,0:0:0:0:
215,152,40432,2,0,P|248:147|279:152,1,60,2|0,3:0|0:0,0:0:0:0:
343,188,40740,1,0,0:0:0:0:
390,78,40894,1,8,0:0:0:0:
390,78,41202,1,0,0:0:0:0:
402,251,41355,6,0,P|376:323|398:378,1,120,2|0,0:0|0:0,0:0:0:0:
499,321,41816,1,8,0:0:0:0:
273,238,42124,1,0,0:0:0:0:
273,238,42278,2,0,B|336:234|336:234|419:252,1,120,2|0,3:0|0:0,0:0:0:0:
437,181,42740,1,8,0:0:0:0:
272,355,43047,1,0,0:0:0:0:
272,355,43201,2,0,B|239:344|239:344|186:368,2,60,2|0|0,3:0|0:0|0:0,0:0:0:0:
232,240,43663,1,8,0:0:0:0:
132,91,43970,2,0,B|195:100|195:64|252:73,1,120,2|0,0:0|0:0,0:0:0:0:
316,111,44354,5,0,3:0:0:0:
316,116,44431,5,0,3:0:0:0:
312,235,44585,6,0,B|311:211|323:190|323:190|307:163|307:163|315:139|318:104,1,120,8|0,3:2|0:0,0:0:0:0:
509,146,45047,6,0,P|452:131|394:146,1,120,6|0,3:0|0:0,0:0:0:0:
312,235,45509,1,8,0:0:0:0:
312,235,45816,1,0,0:0:0:0:
233,325,45970,2,0,P|172:344|136:293,1,120,2|0,3:0|0:0,0:0:0:0:
118,188,46432,1,8,0:0:0:0:
118,188,46740,1,0,0:0:0:0:
100,69,46893,2,0,P|88:35|143:69,1,120,2|0,3:0|0:0,0:0:0:0:
255,86,47355,1,8,0:0:0:0:
255,86,47663,1,0,0:0:0:0:
203,140,47817,2,0,P|259:160|312:136,1,120,2|0,3:0|0:0,0:0:0:0:
330,47,48279,1,8,0:0:0:0:
330,47,48586,1,0,0:0:0:0:
258,195,48740,6,0,P|237:249|242:325,1,120,2|0,0:0|0:0,0:0:0:0:
334,384,49201,1,8,0:0:0:0:
148,231,49509,1,0,0:0:0:0:
148,231,49663,2,0,B|156:169|156:169|137:83,1,120,2|0,3:0|0:0,0:0:0:0:
212,73,50124,1,8,0:0:0:0:
70,266,50432,1,0,0:0:0:0:
70,266,50586,2,0,B|37:255|37:255|-16:279,2,60,2|0|0,3:0|0:0|0:0,0:0:0:0:
130,369,51047,1,8,0:0:0:0:
263,247,51355,2,0,B|298:225|298:225|336:247|387:232,1,120,2|0,0:0|0:0,0:0:0:0:
346,149,51816,1,8,0:0:0:0:
227,169,51970,1,0,0:0:0:0:
346,149,52278,1,0,0:0:0:0:
211,51,52432,6,0,B|170:28|110:31|81:84|81:84|110:141|189:110|227:168|227:168|199:229|128:232|82:192,1,495.000018882752
48,276,54278,1,0,0:0:0:0:
17,102,54740,2,0,P|75:152|68:236,1,120,8|0,0:0|0:0,0:0:0:0:
48,276,55201,1,0,0:0:0:0:
317,294,55663,2,0,B|252:285|274:325|171:307,1,120,8|0,0:0|0:0,0:0:0:0:
314,202,56124,6,0,B|361:151|352:59|352:59|268:71|268:71|268:121|268:121|217:83|146:103|146:103|163:152|147:191,1,495.000018882752
64,264,57970,2,0,P|106:259|192:301,1,120
272,344,58432,6,0,L|328:334,2,45.0000017166138,8|0|0,0:0|0:0|0:0,0:0:0:0:
177,286,58894,2,0,L|121:276,2,45.0000017166138,8|0|0,0:0|0:0|0:0,0:0:0:0:
269,223,59355,1,8,0:0:0:0:
284,180,59509,1,0,0:0:0:0:
281,135,59663,1,0,0:0:0:0:
255,97,59817,5,2,0:0:0:0:
255,97,60124,2,0,L|332:92,1,60,0|8,0:0|0:0,0:0:0:0:
446,266,60586,2,0,B|445:197|392:171|400:94,1,180,2|0,0:0|0:0,0:0:0:0:
427,8,61201,1,8,0:0:0:0:
355,257,61663,5,2,0:0:0:0:
355,257,61970,2,0,L|278:262,1,60,0|8,0:0|0:0,0:0:0:0:
138,102,62432,2,0,P|168:125|202:284,1,180,2|0,0:0|0:0,0:0:0:0:
150,359,63047,2,0,P|93:345|59:352,1,60,8|0,0:0|0:0,0:0:0:0:
2,369,63355,1,0,0:0:0:0:
29,215,63509,6,0,B|57:214|57:214|76:204|76:204|109:205,1,77.9999964294435,2|0,0:0|0:0,0:0:0:0:
204,249,63816,1,2,0:0:0:0:
260,342,63970,1,10,0:0:0:0:
273,160,64432,1,2,3:0:0:0:
280,46,65355,5,2,3:0:0:0:
484,121,65663,2,0,B|434:108|434:108|264:129,1,180,2|0,0:0|0:0,0:0:0:0:
255,201,66278,2,0,L|262:270,1,60,2|0,0:0|0:0,0:0:0:0:
242,337,66509,5,0,3:0:0:0:
242,342,66586,5,8,3:0:0:0:
165,366,66740,5,0,3:0:0:0:
86,353,66893,1,0,3:0:0:0:
27,299,67047,1,0,3:0:0:0:
7,222,67201,6,0,P|40:140|14:56,1,180,2|8,3:2|0:0,0:0:0:0:
14,56,67970,1,0,0:0:0:0:
115,188,68124,2,0,P|88:103|14:56,1,180,2|8,3:2|0:0,0:0:0:0:
14,56,68893,1,0,0:0:0:0:
176,93,69047,2,0,P|101:45|14:56,1,180,2|8,3:2|0:0,0:0:0:0:
14,56,69816,1,2,0:0:0:0:
219,244,70201,5,0,3:0:0:0:
219,249,70278,5,0,3:0:0:0:
280,190,70432,6,0,B|313:188|313:188|363:201|363:201|410:195,1,120,8|0,3:2|0:0,0:0:0:0:
506,221,70893,6,0,P|474:298|504:376,1,170.999995433807,2|8,3:2|0:0,0:0:0:0:
504,376,71662,1,0,0:0:0:0:
417,268,71816,2,0,P|439:339|504:376,1,153.000002918243,2|8,3:2|0:0,0:0:0:0:
504,376,72585,1,0,0:0:0:0:
383,351,72740,2,0,P|439:386|504:376,1,135.000005149842,2|8,3:2|0:0,0:0:0:0:
504,376,73508,1,2,0:0:0:0:
434,119,73893,5,0,3:0:0:0:
434,124,73970,5,0,3:0:0:0:
445,213,74124,5,8,3:2:0:0:
422,30,74432,2,0,L|418:3,1,22.5000008583069,2|0,0:0|0:0,0:0:0:0:
