osu file format v14

[General]
AudioFilename: audio.mp3
AudioLeadIn: 0
PreviewTime: 86382
Countdown: 0
SampleSet: Soft
StackLeniency: 0.4
Mode: 0
LetterboxInBreaks: 0
WidescreenStoryboard: 1

[Editor]
Bookmarks: 53,43240,64811,86382,91774,107953,129526,151099,172672,178064,194242,215815,237388,257107
DistanceSpacing: 0.5
BeatDivisor: 4
GridSize: 4
TimelineZoom: 2.799999

[Metadata]
Title:Apollo 69
TitleUnicode:Apollo 69
Artist:Reso x Frederic Robinson
ArtistUnicode:Reso x Frederic Robinson
Creator:chaser01
Version:S2G's Another
Source:
Tags:resahc elvin S2G stick2glue lime limetwist dnb drum n bass breakcore NHS300 instrumental electronic nooj hospital records
BeatmapID:3563060
BeatmapSetID:1742900

[Difficulty]
HPDrainRate:4
CircleSize:3.8
OverallDifficulty:8.5
ApproachRate:9
SliderMultiplier:1.8
SliderTickRate:1

[Events]
//Background and Video events
0,0,"exhausting.jpg",0,0
//Break Periods
2,86588,89826
//Storyboard Layer 0 (Background)
//Storyboard Layer 1 (Fail)
//Storyboard Layer 2 (Pass)
//Storyboard Layer 3 (Foreground)
//Storyboard Layer 4 (Overlay)
//Storyboard Sound Samples

[TimingPoints]
96,337.078651685394,3,2,1,30,1,0
180,-100,3,2,1,5,0,0
433,-100,3,2,1,30,0,0
517,-100,3,2,1,5,0,0
938,-100,3,2,1,30,0,0
1022,-100,3,2,1,5,0,0
1275,-100,3,2,1,30,0,0
1359,-100,3,2,1,5,0,0
1612,-100,3,2,1,30,0,0
1696,-100,3,2,1,5,0,0
2118,-100,3,2,1,30,0,0
2202,-100,3,2,1,5,0,0
2455,-100,3,2,1,30,0,0
2539,-100,3,2,1,5,0,0
2792,-100,3,2,1,30,0,0
2876,-100,3,2,1,5,0,0
3129,337.078651685394,4,2,1,30,1,0
3213,-100,4,2,1,5,0,0
3634,-100,4,2,1,30,0,0
3718,-100,4,2,1,5,0,0
3971,-100,4,2,1,30,0,0
4055,-100,4,2,1,5,0,0
4308,-100,4,2,1,30,0,0
4392,-100,4,2,1,5,0,0
4814,-100,4,2,1,30,0,0
4898,-100,4,2,1,5,0,0
5151,-100,4,2,1,30,0,0
5235,-100,4,2,1,5,0,0
5488,-100,4,2,1,30,0,0
5572,-100,4,2,1,5,0,0
5825,-100,4,2,1,30,0,0
5909,-100,4,2,1,5,0,0
6331,-100,4,2,1,30,0,0
6415,-100,4,2,1,5,0,0
6668,-100,4,2,1,30,0,0
6752,-100,4,2,1,5,0,0
7005,-100,4,2,1,30,0,0
7089,-100,4,2,1,5,0,0
7511,-100,4,2,1,30,0,0
7595,-100,4,2,1,5,0,0
7848,-100,4,2,1,30,0,0
7932,-100,4,2,1,5,0,0
8185,-100,4,2,1,30,0,0
8269,-100,4,2,1,5,0,0
8522,-100,4,2,1,30,0,0
8606,-100,4,2,1,5,0,0
9027,-100,4,2,1,30,0,0
9111,-100,4,2,1,5,0,0
9364,-100,4,2,1,30,0,0
9448,-100,4,2,1,5,0,0
9702,-100,4,2,1,30,0,0
9786,-100,4,2,1,5,0,0
10207,-100,4,2,1,30,0,0
10291,-100,4,2,1,5,0,0
10544,-100,4,2,1,30,0,0
10628,-100,4,2,1,5,0,0
11050,-100,4,2,1,30,0,0
11134,-100,4,2,1,5,0,0
11724,-100,4,2,1,30,0,0
11808,-100,4,2,1,5,0,0
12061,-100,4,2,1,30,0,0
12145,-100,4,2,1,5,0,0
12398,-100,4,2,1,30,0,0
12482,-100,4,2,1,5,0,0
12904,-100,4,2,1,30,0,0
12988,-100,4,2,1,5,0,0
13241,-100,4,2,1,30,0,0
13325,-100,4,2,1,5,0,0
13578,-100,4,2,1,30,0,0
13662,-100,4,2,1,5,0,0
13915,-100,4,2,1,30,0,0
13999,-100,4,2,1,5,0,0
14421,-100,4,2,1,30,0,0
14505,-100,4,2,1,5,0,0
14758,-100,4,2,1,30,0,0
14842,-100,4,2,1,5,0,0
15095,-100,4,2,1,30,0,0
15179,-100,4,2,1,5,0,0
15600,-100,4,2,1,30,0,0
15684,-100,4,2,1,5,0,0
15937,-100,4,2,1,30,0,0
16021,-100,4,2,1,5,0,0
16275,-100,4,2,1,30,0,0
16359,-100,4,2,1,5,0,0
16612,-100,4,2,1,30,0,0
16696,-100,4,2,1,5,0,0
17117,-100,4,2,1,30,0,0
17201,-100,4,2,1,5,0,0
17454,-100,4,2,1,30,0,0
17538,-100,4,2,1,5,0,0
17791,-100,4,2,1,30,0,0
17875,-100,4,2,1,5,0,0
18297,-100,4,2,1,30,0,0
18381,-100,4,2,1,5,0,0
18634,-100,4,2,1,30,0,0
18718,-100,4,2,1,5,0,0
18971,-100,4,2,1,30,0,0
19055,-100,4,2,1,5,0,0
19308,337.078651685394,7,2,1,30,1,0
19392,-100,7,2,1,5,0,0
19813,-100,7,2,1,30,0,0
19897,-100,7,2,1,5,0,0
20150,-100,7,2,1,30,0,0
20234,-100,7,2,1,5,0,0
20487,-100,7,2,1,30,0,0
20571,-100,7,2,1,5,0,0
20993,-100,7,2,1,30,0,0
21077,-100,7,2,1,5,0,0
21330,-100,7,2,1,30,0,0
21414,-100,7,2,1,5,0,0
21668,337.078651685394,3,2,1,30,1,0
21752,-100,3,2,1,5,0,0
22005,-100,3,2,1,30,0,0
22089,-100,3,2,1,5,0,0
22510,-100,3,2,1,45,0,0
24701,337.078651685394,4,2,1,45,1,0
25206,-100,4,2,1,30,0,0
25290,-100,4,2,1,5,0,0
25543,-100,4,2,1,30,0,0
25627,-100,4,2,1,5,0,0
25880,-100,4,2,1,30,0,0
25964,-100,4,2,1,5,0,0
26386,-100,4,2,1,30,0,0
26470,-100,4,2,1,5,0,0
26723,-100,4,2,1,30,0,0
26807,-100,4,2,1,5,0,0
27060,-100,4,2,1,30,0,0
27144,-100,4,2,1,5,0,0
27397,-100,4,2,1,30,0,0
27481,-100,4,2,1,5,0,0
27903,-100,4,2,1,45,0,0
30599,-100,4,2,1,30,0,0
30683,-100,4,2,1,5,0,0
30936,-100,4,2,1,30,0,0
31020,-100,4,2,1,5,0,0
31274,-100,4,2,1,30,0,0
31358,-100,4,2,1,5,0,0
31779,-100,4,2,1,30,0,0
31863,-100,4,2,1,5,0,0
32116,-100,4,2,1,30,0,0
32200,-100,4,2,1,5,0,0
32622,-100,4,2,1,30,0,0
32706,-100,4,2,1,5,0,0
33296,-100,4,2,1,45,0,0
38689,-100,4,2,1,30,0,0
38773,-100,4,2,1,5,0,0
39026,-100,4,2,1,30,0,0
39110,-100,4,2,1,5,0,0
39363,-100,4,2,1,30,0,0
39447,-100,4,2,1,5,0,0
39869,-100,4,2,1,30,0,0
39953,-100,4,2,1,5,0,0
40206,-100,4,2,1,30,0,0
40290,-100,4,2,1,5,0,0
40543,-100,4,2,1,30,0,0
40627,-100,4,2,1,5,0,0
40880,337.078651685394,7,2,1,40,1,0
40964,-100,7,2,1,5,0,0
41385,-100,7,2,1,40,0,0
41469,-100,7,2,1,5,0,0
41722,-100,7,2,1,40,0,0
41806,-100,7,2,1,5,0,0
42059,-100,7,2,1,40,0,0
42143,-100,7,2,1,5,0,0
42565,-100,7,2,1,40,0,0
42649,-100,7,2,1,5,0,0
43240,337.078651685394,3,2,1,80,1,0
43240,-71.4285714285714,3,2,1,80,0,0
45262,-76.9230769230769,3,2,1,80,0,0
46273,337.078651685394,4,2,1,80,1,0
46273,-71.4285714285714,4,2,1,80,0,0
52677,-100,4,2,1,40,0,0
52719,-100,4,2,1,50,0,0
52761,-100,4,2,1,60,0,0
52846,-71.4285714285714,4,2,1,80,0,0
62452,337.078651685394,3,2,1,80,1,0
62452,-71.4285714285714,3,2,1,80,0,0
63463,-71.4285714285714,3,2,1,40,0,0
63505,-71.4285714285714,3,2,1,50,0,0
63547,-71.4285714285714,3,2,1,60,0,0
63631,-71.4285714285714,3,2,1,80,0,0
63883,-71.4285714285714,3,2,1,80,0,0
64811,337.078651685394,7,2,1,85,1,0
64811,-76.9230769230769,7,2,1,85,0,0
65864,-76.9230769230769,7,2,1,55,0,0
65906,-76.9230769230769,7,2,1,65,0,0
65948,-76.9230769230769,7,2,1,75,0,0
65990,-76.9230769230769,7,2,1,85,0,0
67339,-76.9230769230769,7,2,1,40,0,0
67381,-76.9230769230769,7,2,1,50,0,0
67423,-76.9230769230769,7,2,1,60,0,0
67507,-76.9230769230769,7,2,1,85,0,0
67844,337.078651685394,4,2,1,85,1,0
67844,-76.9230769230769,4,2,1,85,0,0
70203,-83.3333333333333,4,2,1,85,0,0
70540,-76.9230769230769,4,2,1,85,0,0
75933,-76.9230769230769,4,2,1,85,0,0
76018,-76.9230769230769,4,2,1,52,0,0
76060,-76.9230769230769,4,2,1,60,0,0
76102,-76.9230769230769,4,2,1,68,0,0
76144,-76.9230769230769,4,2,1,72,0,0
76186,-76.9230769230769,4,2,1,76,0,0
76228,-76.9230769230769,4,2,1,80,0,0
76270,-76.9230769230769,4,2,1,85,0,0
76439,-76.9230769230769,4,2,1,85,0,0
79136,-76.9230769230769,4,2,1,60,0,0
79178,-76.9230769230769,4,2,1,70,0,0
79220,-76.9230769230769,4,2,1,80,0,0
79262,-76.9230769230769,4,2,1,90,0,0
79304,-76.9230769230769,4,2,1,50,0,0
79346,-76.9230769230769,4,2,1,63,0,0
79388,-76.9230769230769,4,2,1,75,0,0
79430,-76.9230769230769,4,2,1,80,0,0
79473,-76.9230769230769,4,2,1,85,0,0
81664,-76.9230769230769,4,2,1,60,0,0
81706,-76.9230769230769,4,2,1,70,0,0
81748,-76.9230769230769,4,2,1,75,0,0
81832,-76.9230769230769,4,2,1,85,0,0
82084,-76.9230769230769,4,2,1,85,0,0
82169,-76.9230769230769,4,2,1,55,0,0
82211,-76.9230769230769,4,2,1,65,0,0
82253,-76.9230769230769,4,2,1,70,0,0
82338,-76.9230769230769,4,2,1,85,0,0
82590,-76.9230769230769,4,2,1,85,0,0
82675,-76.9230769230769,4,2,1,50,0,0
82717,-76.9230769230769,4,2,1,35,0,0
82759,-76.9230769230769,4,2,1,50,0,0
82844,-76.9230769230769,4,2,1,85,0,0
83096,-76.9230769230769,4,2,1,85,0,0
83181,-76.9230769230769,4,2,1,50,0,0
83223,-76.9230769230769,4,2,1,35,0,0
83265,-76.9230769230769,4,2,1,50,0,0
83349,-76.9230769230769,4,2,1,85,0,0
83433,-76.9230769230769,4,2,1,85,0,0
84023,337.078651685394,7,2,1,85,1,0
84023,-76.9230769230769,7,2,1,85,0,0
86382,337.078651685394,3,2,1,85,1,0
89415,337.078651685394,7,2,1,85,1,0
91606,-100,7,2,1,55,0,0
91774,337.078651685394,4,2,1,85,1,0
91774,-71.4285714285714,4,2,1,85,0,0
107869,-71.4285714285714,4,2,1,70,0,0
107953,-74.0740740740741,4,2,1,88,0,0
113347,-71.4285714285714,4,2,1,88,0,0
115959,-71.4285714285714,4,2,1,70,0,0
116043,-71.4285714285714,4,2,1,88,0,0
116212,-71.4285714285714,4,2,1,88,0,0
116717,-76.9230769230769,4,2,1,88,0,0
123340,-76.9230769230769,4,2,1,55,0,0
123374,-76.9230769230769,4,2,1,70,0,0
123459,-76.9230769230769,4,2,1,88,0,0
123846,-76.9230769230769,4,2,1,55,0,0
123880,-76.9230769230769,4,2,1,70,0,0
123930,-76.9230769230769,4,2,1,80,0,0
123964,-76.9230769230769,4,2,1,88,0,0
129526,-76.9230769230769,4,2,2,92,0,0
129863,-83.3333333333333,4,2,2,92,0,0
130031,-83.3333333333333,4,2,2,92,0,0
132223,-100,4,2,2,80,0,0
132560,-83.3333333333333,4,2,2,80,0,0
134920,-83.3333333333333,4,2,2,92,0,0
135762,-111.111111111111,4,2,2,92,0,0
137616,-83.3333333333333,4,2,2,80,0,0
140313,-100,4,2,2,92,0,0
140565,-100,4,2,2,92,0,0
140650,-80,4,2,2,92,0,0
143009,-83.3333333333333,4,2,2,80,0,0
145706,-83.3333333333333,4,2,2,92,0,0
148403,-83.3333333333333,4,2,2,80,0,0
151099,-74.0740740740741,4,2,2,85,0,0
153796,-74.0740740740741,4,2,2,80,0,0
156493,-74.0740740740741,4,2,2,85,0,0
159189,-74.0740740740741,4,2,2,80,0,0
161886,-74.0740740740741,4,2,2,85,0,0
164582,-76.9230769230769,4,2,2,80,0,0
167279,-76.9230769230769,4,2,2,85,0,0
172335,-100,4,2,2,85,0,0
172672,337.078651685394,3,2,2,70,1,0
172672,-133.333333333333,3,2,2,70,0,0
175705,337.078651685394,7,2,2,70,1,0
177221,-100,7,2,1,30,0,0
177306,-100,7,2,1,37,0,0
177390,-100,7,2,1,44,0,0
177474,-100,7,2,1,51,0,0
177558,-100,7,2,1,58,0,0
177643,-100,7,2,1,65,0,0
177727,-100,7,2,1,70,0,0
177811,-100,7,2,1,75,0,0
177896,-100,7,2,1,80,0,0
177980,-100,7,2,1,85,0,0
178064,337.078651685394,3,2,1,88,1,0
178401,-71.4285714285714,3,2,1,88,0,0
181097,337.078651685394,4,2,1,88,1,0
181097,-71.4285714285714,4,2,1,88,0,0
183877,-71.4285714285714,4,2,1,52,0,0
183962,-71.4285714285714,4,2,1,68,0,0
184004,-71.4285714285714,4,2,1,72,0,0
184046,-71.4285714285714,4,2,1,76,0,0
184088,-71.4285714285714,4,2,1,82,0,0
184130,-71.4285714285714,4,2,1,88,0,0
184299,-71.4285714285714,4,2,1,88,0,0
189523,-71.4285714285714,4,2,1,60,0,0
189565,-71.4285714285714,4,2,1,70,0,0
189607,-71.4285714285714,4,2,1,80,0,0
189692,-71.4285714285714,4,2,1,88,0,0
189944,-71.4285714285714,4,2,1,88,0,0
190029,-71.4285714285714,4,2,1,60,0,0
190071,-71.4285714285714,4,2,1,70,0,0
190113,-71.4285714285714,4,2,1,80,0,0
190198,-71.4285714285714,4,2,1,88,0,0
190450,-71.4285714285714,4,2,1,88,0,0
190535,-71.4285714285714,4,2,1,50,0,0
190577,-71.4285714285714,4,2,1,35,0,0
190619,-71.4285714285714,4,2,1,50,0,0
190703,-71.4285714285714,4,2,1,88,0,0
190955,-71.4285714285714,4,2,1,88,0,0
191040,-71.4285714285714,4,2,1,50,0,0
191082,-71.4285714285714,4,2,1,35,0,0
191124,-71.4285714285714,4,2,1,50,0,0
191166,-71.4285714285714,4,2,1,65,0,0
191208,-71.4285714285714,4,2,1,88,0,0
191377,-71.4285714285714,4,2,1,88,0,0
191883,337.078651685394,7,2,1,88,1,0
191883,-71.4285714285714,7,2,1,88,0,0
194242,337.078651685394,4,2,1,88,1,0
194242,-76.9230769230769,4,2,1,88,0,0
203680,-76.9230769230769,4,2,1,55,0,0
203722,-76.9230769230769,4,2,1,70,0,0
203764,-76.9230769230769,4,2,1,80,0,0
203848,-76.9230769230769,4,2,1,88,0,0
207388,-76.9230769230769,4,2,1,55,0,0
207430,-76.9230769230769,4,2,1,70,0,0
207472,-76.9230769230769,4,2,1,80,0,0
207514,-76.9230769230769,4,2,1,88,0,0
208652,-76.9230769230769,4,2,1,48,0,0
208694,-76.9230769230769,4,2,1,55,0,0
208736,-76.9230769230769,4,2,1,70,0,0
208778,-76.9230769230769,4,2,1,80,0,0
208820,-76.9230769230769,4,2,1,88,0,0
208904,-76.9230769230769,4,2,1,88,0,0
213118,-71.4285714285714,4,2,1,88,0,0
214466,-71.4285714285714,4,2,1,48,0,0
214508,-71.4285714285714,4,2,1,55,0,0
214550,-71.4285714285714,4,2,1,70,0,0
214635,-71.4285714285714,4,2,1,88,0,0
215140,-71.4285714285714,4,2,1,83,0,0
215477,-71.4285714285714,4,2,1,77,0,0
215815,-71.4285714285714,4,2,1,70,0,0
216657,-166.666666666667,4,2,1,35,0,0
218511,-333.333333333333,4,2,1,35,0,0
220376,-333.333333333333,4,2,1,15,0,0
221207,-333.333333333333,4,2,1,35,0,0
222050,-166.666666666667,4,2,1,35,0,0
223904,-333.333333333333,4,2,1,35,0,0
225770,-333.333333333333,4,2,1,15,0,0
226600,-333.333333333333,4,2,1,35,0,0
227444,-200,4,2,1,35,0,0
229298,-333.333333333333,4,2,1,35,0,0
231163,-333.333333333333,4,2,1,15,0,0
231994,-333.333333333333,4,2,1,35,0,0
232837,-200,4,2,1,35,0,0
237388,-1000,4,2,1,35,0,0
237483,-1000,4,2,1,5,0,0
257107,-1000,4,2,1,12,0,0
268399,-1000,4,2,1,5,0,0

[Colours]
Combo1 : 255,128,0
Combo2 : 209,255,72

[HitObjects]
52,368,96,6,0,L|39:312,1,45,4|0,2:0|2:0,2:0:0:0:
63,359,433,2,0,L|50:303,1,45,0|0,2:0|2:0,2:0:0:0:
206,226,938,2,0,L|219:282,1,45,0|0,2:0|2:0,2:0:0:0:
195,235,1275,2,0,L|208:291,1,45,0|0,2:0|2:0,2:0:0:0:
184,244,1612,2,0,L|197:300,1,45,0|0,2:0|2:0,2:0:0:0:
63,359,2118,2,0,L|50:303,1,45,0|0,2:0|2:0,2:0:0:0:
74,350,2455,2,0,L|61:294,1,45,0|0,2:0|2:0,2:0:0:0:
85,341,2792,2,0,L|72:285,1,45,0|0,2:0|2:0,2:0:0:0:
306,226,3129,6,0,L|293:282,1,45,0|0,2:0|2:0,2:0:0:0:
449,359,3634,2,0,L|462:303,1,45,0|0,2:0|2:0,2:0:0:0:
438,350,3971,2,0,L|451:294,1,45,0|0,2:0|2:0,2:0:0:0:
427,341,4308,2,0,L|440:285,1,45,0|0,2:0|2:0,2:0:0:0:
317,235,4814,2,0,L|304:291,1,45,0|0,2:0|2:0,2:0:0:0:
328,244,5151,2,0,L|315:300,1,45,0|0,2:0|2:0,2:0:0:0:
339,253,5488,2,0,L|326:309,1,45,0|0,2:0|2:0,2:0:0:0:
479,162,5825,6,0,L|423:175,1,45,0|0,2:0|2:0,2:0:0:0:
292,46,6331,2,0,L|348:33,1,45,0|0,2:0|2:0,2:0:0:0:
301,57,6668,2,0,L|357:44,1,45,0|0,2:0|2:0,2:0:0:0:
310,68,7005,2,0,L|366:55,1,45,0|0,2:0|2:0,2:0:0:0:
470,151,7511,2,0,L|414:164,1,45,0|0,2:0|2:0,2:0:0:0:
461,140,7848,2,0,L|405:153,1,45,0|0,2:0|2:0,2:0:0:0:
452,129,8185,2,0,L|396:142,1,45,0|0,2:0|2:0,2:0:0:0:
443,118,8522,2,0,L|387:131,1,45,0|0,2:0|2:0,2:0:0:0:
274,24,9027,2,0,L|330:11,1,45,0|0,2:0|2:0,2:0:0:0:
283,35,9364,2,0,L|339:22,1,45,0|0,2:0|2:0,2:0:0:0:
292,46,9702,2,0,L|348:33,1,45,0|0,2:0|2:0,2:0:0:0:
470,151,10207,2,0,L|414:164,1,45,0|0,2:0|2:0,2:0:0:0:
461,140,10544,2,0,L|405:153,1,45,0|0,2:0|2:0,2:0:0:0:
215,150,11050,6,0,L|157:143,1,45,0|0,2:0|2:0,2:0:0:0:
30,18,11724,2,0,L|87:24,1,45,0|0,2:0|2:0,2:0:0:0:
35,31,12061,2,0,L|92:37,1,45,0|0,2:0|2:0,2:0:0:0:
40,45,12398,2,0,L|97:51,1,45,0|0,2:0|2:0,2:0:0:0:
210,136,12904,2,0,L|152:129,1,45,0|0,2:0|2:0,2:0:0:0:
205,123,13241,2,0,L|147:116,1,45,0|0,2:0|2:0,2:0:0:0:
200,109,13578,2,0,L|132:100,1,45,0|0,2:0|2:0,2:0:0:0:
235,214,13915,6,0,L|218:268,1,45,0|0,2:0|2:0,2:0:0:0:
26,380,14421,2,0,L|42:325,1,45,0|0,2:0|2:0,2:0:0:0:
40,378,14758,2,0,L|56:323,1,45,0|0,2:0|2:0,2:0:0:0:
57,374,15095,2,0,L|71:322,1,45,0|0,2:0|2:0,2:0:0:0:
221,216,15600,2,0,L|204:270,1,45,0|0,2:0|2:0,2:0:0:0:
206,219,15937,2,0,L|189:273,1,45,0|0,2:0|2:0,2:0:0:0:
191,222,16275,2,0,L|174:276,1,45,0|0,2:0|2:0,2:0:0:0:
176,225,16612,2,0,L|159:279,1,45,0|0,2:0|2:0,2:0:0:0:
54,375,17117,2,0,L|70:320,1,45,0|0,2:0|2:0,2:0:0:0:
68,373,17454,2,0,L|84:318,1,45,0|0,2:0|2:0,2:0:0:0:
82,370,17791,2,0,L|98:315,1,45,0|0,2:0|2:0,2:0:0:0:
236,213,18297,2,0,L|219:267,1,45,0|0,2:0|2:0,2:0:0:0:
221,216,18634,2,0,L|204:270,1,45,0|0,2:0|2:0,2:0:0:0:
206,219,18971,2,0,L|189:273,1,45,0|0,2:0|2:0,2:0:0:0:
191,222,19308,2,0,L|174:276,1,45,0|0,2:0|2:0,2:0:0:0:
40,377,19813,2,0,L|56:322,1,45,0|0,2:0|2:0,2:0:0:0:
54,375,20150,2,0,L|70:320,1,45,0|0,2:0|2:0,2:0:0:0:
68,372,20487,2,0,L|84:317,1,45,0|0,2:0|2:0,2:0:0:0:
221,216,20993,2,0,L|204:270,1,45,0|0,2:0|2:0,2:0:0:0:
206,219,21330,2,0,L|189:273,1,45,0|0,2:0|2:0,2:0:0:0:
309,337,21668,6,0,L|360:344,1,45,0|0,2:0|2:0,2:0:0:0:
320,325,22005,2,0,L|371:332,1,45,0|0,2:0|2:0,2:0:0:0:
434,258,22510,5,2,2:0:0:0:
477,173,22847,1,2,2:0:0:0:
409,99,23184,1,2,2:0:0:0:
410,262,23690,1,2,2:0:0:0:
342,188,24027,1,2,2:0:0:0:
385,103,24364,1,2,2:0:0:0:
453,177,24701,1,2,2:0:0:0:
385,103,25206,6,0,L|325:88,1,45,0|0,2:0|2:0,2:0:0:0:
403,93,25543,2,0,L|343:78,1,45,0|0,2:0|2:0,2:0:0:0:
421,83,25880,2,0,L|361:68,1,45,0|0,2:0|2:0,2:0:0:0:
305,112,26386,6,0,L|245:97,1,45,0|0,2:0|2:0,2:0:0:0:
323,102,26723,2,0,L|263:87,1,45,0|0,2:0|2:0,2:0:0:0:
341,92,27060,2,0,L|281:77,1,45,0|0,2:0|2:0,2:0:0:0:
154,30,27397,6,0,L|168:102,1,45,0|0,2:0|2:0,2:0:0:0:
121,155,27903,5,2,2:0:0:0:
139,255,28240,1,2,2:0:0:0:
157,355,28577,1,2,2:0:0:0:
161,374,29083,1,2,2:0:0:0:
100,284,29420,1,2,2:0:0:0:
180,213,29757,1,2,2:0:0:0:
116,132,30094,1,2,2:0:0:0:
180,213,30599,6,0,L|172:281,1,45,0|0,2:0|2:0,2:0:0:0:
194,221,30936,2,0,L|186:289,1,45,0|0,2:0|2:0,2:0:0:0:
208,229,31274,2,0,L|200:297,1,45,0|0,2:0|2:0,2:0:0:0:
100,284,31779,6,0,L|108:352,1,45,0|0,2:0|2:0,2:0:0:0:
86,292,32116,2,0,L|94:360,1,45,0|0,2:0|2:0,2:0:0:0:
337,361,32622,6,0,L|272:352,1,45,0|0,2:0|2:0,2:0:0:0:
304,216,33296,5,2,2:0:0:0:
396,265,33633,1,2,2:0:0:0:
482,209,33970,1,2,2:0:0:0:
484,239,34476,1,2,2:0:0:0:
389,288,34813,1,2,2:0:0:0:
283,229,35150,1,2,2:0:0:0:
280,117,35487,1,2,2:0:0:0:
187,55,35993,5,2,2:0:0:0:
118,131,36330,1,2,2:0:0:0:
50,210,36667,1,2,2:0:0:0:
76,230,37172,1,2,2:0:0:0:
145,141,37509,1,2,2:0:0:0:
251,178,37847,1,2,2:0:0:0:
249,285,38184,1,2,2:0:0:0:
156,342,38689,6,0,L|153:283,1,45,0|0,2:0|2:0,2:0:0:0:
136,351,39026,2,0,L|133:292,1,45,0|0,2:0|2:0,2:0:0:0:
116,360,39363,2,0,L|113:301,1,45,0|0,2:0|2:0,2:0:0:0:
249,285,39869,6,0,L|252:226,1,45,0|0,2:0|2:0,2:0:0:0:
269,294,40206,2,0,L|272:235,1,45,0|0,2:0|2:0,2:0:0:0:
289,303,40543,2,0,L|292:244,1,45,0|0,2:0|2:0,2:0:0:0:
464,229,40880,6,0,L|410:237,1,45,0|0,2:0|2:0,2:0:0:0:
311,87,41385,6,0,L|365:95,1,45,0|0,2:0|2:0,2:0:0:0:
320,100,41722,2,0,L|374:108,1,45,0|0,2:0|2:0,2:0:0:0:
329,113,42059,2,0,L|383:121,1,45,0|0,2:0|2:0,2:0:0:0:
464,229,42565,6,0,L|410:237,1,45,0|0,2:0|2:0,2:0:0:0:
419,235,43240,6,0,P|370:319|274:293,1,189,6|0,3:2|2:0,2:0:0:0:
289,308,43577,2,0,P|230:293|154:322,1,126,10|0,2:0|1:0,2:0:0:0:
158,349,43829,1,8,2:0:0:0:
158,349,43914,1,8,2:0:0:0:
32,290,44082,1,2,1:0:0:0:
116,202,44251,1,0,3:0:0:0:
116,169,44335,1,0,3:0:0:0:
116,136,44419,6,0,P|149:75|280:66,1,188.999994232178,2|8,3:0|2:0,2:0:0:0:
354,44,44756,1,2,1:0:0:0:
354,44,44841,1,8,2:0:0:0:
354,44,44925,2,0,P|363:87|346:155,1,63,8|0,2:0|2:0,2:0:0:0:
276,139,45093,1,0,1:0:0:0:
461,223,45262,2,0,B|489:168|489:168|489:65|463:-5,2,234,2|2|2,3:0|1:0|3:0,2:0:0:0:
312,174,46105,1,2,3:0:0:0:
461,223,46273,6,0,P|407:275|433:328,1,126,2|0,3:0|1:0,2:0:0:0:
451,341,46525,1,8,2:0:0:0:
451,341,46610,1,8,2:0:0:0:
314,313,46778,2,0,L|179:326,1,125.999996154785,2|0,1:0|3:0,2:0:0:0:
188,345,47031,1,0,3:0:0:0:
190,366,47115,1,2,3:0:0:0:
56,290,47284,1,0,1:0:0:0:
123,122,47452,2,0,P|142:181|141:244,1,126,10|0,2:0|1:0,2:0:0:0:
27,95,47789,5,0,3:0:0:0:
27,95,47874,1,0,3:0:0:0:
27,95,47958,2,0,P|58:38|194:60,1,189,10|8,2:0|2:0,2:0:0:0:
207,81,48295,2,0,P|199:34|201:-13,2,63,2|8|4,1:0|2:0|3:0,2:0:0:0:
301,55,48632,1,2,3:0:0:0:
357,129,48801,1,0,1:0:0:0:
474,190,48969,6,0,B|425:183|410:219|367:248|318:219,1,126,10|0,2:0|1:0,2:0:0:0:
320,225,49222,1,8,2:0:0:0:
295,210,49306,1,8,2:0:0:0:
464,271,49475,2,0,L|442:345,1,62.9999980773926,2|8,1:0|2:0,2:0:0:0:
466,365,49643,1,0,3:0:0:0:
466,365,49728,1,0,3:0:0:0:
298,322,49980,1,0,1:0:0:0:
280,329,50065,1,8,2:0:0:0:
261,331,50149,1,2,1:0:0:0:
242,327,50233,1,8,2:0:0:0:
224,319,50317,2,0,P|156:291|88:345,1,126,8|0,2:0|1:0,2:0:0:0:
70,384,50570,1,8,2:0:0:0:
37,375,50655,6,0,B|21:320|21:320|61:123,2,252,2|2|2,3:0|1:0|3:0,2:0:0:0:
162,260,51497,1,0,3:0:0:0:
135,80,51666,1,2,3:0:0:0:
264,183,51834,1,0,1:0:0:0:
264,183,51919,1,8,2:0:0:0:
264,183,52003,2,0,B|279:163|326:158|326:158|361:189|433:188,1,126,8|2,2:0|1:0,2:0:0:0:
465,65,52340,1,0,3:0:0:0:
447,63,52424,1,0,3:0:0:0:
429,62,52508,1,2,3:0:0:0:
512,173,52677,6,0,L|505:137,2,22.5,0|0|0,1:0|1:0|1:0,2:0:0:0:
489,184,52846,2,0,P|507:276|442:371,1,189,10|8,2:0|2:0,2:0:0:0:
427,344,53183,1,0,3:0:0:0:
264,183,53351,2,0,P|327:209|405:222,1,126,10|0,2:0|1:0,2:0:0:0:
420,142,53604,1,8,2:0:0:0:
412,119,53688,2,0,P|424:78|425:38,1,63,2|0,3:0|3:0,2:0:0:0:
353,11,53857,1,8,2:0:0:0:
353,11,53941,1,8,2:0:0:0:
353,11,54025,5,0,3:0:0:0:
264,183,54194,2,0,B|249:138|249:138|192:100|119:126,1,126,2|8,1:0|2:0,2:0:0:0:
43,125,54531,1,0,1:0:0:0:
43,125,54615,1,8,2:0:0:0:
43,125,54699,1,0,3:0:0:0:
171,30,54868,2,0,L|158:184,1,126,2|0,1:0|3:0,2:0:0:0:
36,277,55205,2,0,L|17:127,1,126,2|0,3:0|1:0,2:0:0:0:
199,46,55542,2,0,L|186:200,1,126,2|8,1:0|2:0,2:0:0:0:
128,311,55879,5,0,1:0:0:0:
129,331,55964,1,8,2:0:0:0:
130,354,56048,2,0,P|197:341|285:336,1,126,2|8,3:0|2:0,2:0:0:0:
322,243,56385,2,0,P|260:230|197:225,1,126,2|0,1:0|1:0,2:0:0:0:
122,148,56638,1,8,2:0:0:0:
138,122,56722,2,0,P|198:109|249:124,1,63,2|0,3:0|2:0,2:0:0:0:
258,49,56890,2,0,P|297:59|337:87,1,63,0|0,3:0|2:0,2:0:0:0:
356,142,57059,6,0,P|411:204|382:315,1,189,2|8,3:0|2:0,2:0:0:0:
362,305,57396,1,8,2:0:0:0:
177,360,57565,2,0,P|169:333|167:269,2,63,2|0|0,1:0|2:0|3:0,2:0:0:0:
83,251,57902,2,0,P|73:300|55:338,2,63,2|0|0,3:0|2:0|1:0,2:0:0:0:
43,119,58239,2,0,P|105:169|170:173,1,126,10|0,2:0|1:0,2:0:0:0:
255,49,58576,5,0,3:0:0:0:
255,49,58660,1,0,3:0:0:0:
255,49,58744,2,0,P|256:128|295:180,1,126,10|0,2:0|1:0,2:0:0:0:
326,173,58997,1,8,2:0:0:0:
326,173,59081,2,0,P|359:154|421:167,1,62.9999980773926,2|8,1:0|2:0,2:0:0:0:
429,163,59250,1,4,3:0:0:0:
295,250,59419,2,0,P|341:282|413:288,1,126,2|0,3:0|1:0,2:0:0:0:
271,353,59756,6,0,B|229:329|172:357|136:392|66:341,1,189,10|8,2:0|2:0,2:0:0:0:
57,331,60093,1,8,2:0:0:0:
121,214,60261,2,0,P|138:177|142:136,1,62.9999980773926,2|8,1:0|2:0,2:0:0:0:
115,132,60430,1,0,3:0:0:0:
115,132,60514,1,0,3:0:0:0:
115,132,60598,2,0,P|112:83|155:9,1,126,2|0,3:0|1:0,2:0:0:0:
279,33,60935,2,0,L|285:107,2,62.9999980773926,2|8|8,1:0|2:0|2:0,2:0:0:0:
347,183,61273,5,0,1:0:0:0:
347,159,61357,1,8,2:0:0:0:
365,137,61441,1,2,3:0:0:0:
364,116,61525,1,0,3:0:0:0:
364,94,61610,1,8,2:0:0:0:
474,132,61778,2,0,L|484:200,1,63,2|8,1:0|2:0,2:0:0:0:
471,216,61947,2,0,L|466:281,1,63,0|8,1:0|2:0,2:0:0:0:
492,312,62115,2,0,P|408:279|336:296,1,126,2|0,3:0|1:0,2:0:0:0:
274,326,62368,1,8,2:0:0:0:
243,313,62452,6,0,B|223:281|223:281|269:99,1,189,2|8,3:0|2:0,2:0:0:0:
223,71,62789,1,0,3:0:0:0:
223,71,62873,1,8,2:0:0:0:
223,71,62957,2,0,P|152:52|115:61,1,63,2|8,1:0|2:0,2:0:0:0:
117,114,63126,2,0,P|89:128|58:134,2,63,0|0|2,3:0|3:0|3:0,2:0:0:0:
201,210,63463,6,0,L|200:175,2,31.5,8|8|8,2:0|2:0|2:0,2:0:0:0:
218,219,63631,2,0,P|194:294|61:267,1,189,10|8,2:0|2:0,2:0:0:0:
65,221,63968,1,0,3:0:0:0:
46,218,64053,1,0,3:0:0:0:
27,215,64137,1,10,2:0:0:0:
99,328,64305,1,0,1:0:0:0:
219,251,64474,2,0,L|218:218,2,31.5,2|0|8,1:0|2:0|2:0,2:0:0:0:
243,275,64643,1,0,3:0:0:0:
464,306,64811,6,0,P|405:322|348:297,1,117,6|0,3:2|1:0,2:0:0:0:
350,135,65148,2,0,P|409:119|466:144,1,117,10|0,2:0|1:0,2:0:0:0:
482,187,65400,1,8,2:0:0:0:
482,187,65485,1,8,2:0:0:0:
339,192,65653,2,0,L|353:117,1,58.4999973220826,10|0,2:0|2:0,2:0:0:0:
318,99,65822,2,0,L|316:58,4,29.2499986610413,0|8|8|8|10,1:0|2:0|2:0|2:0|2:0,2:0:0:0:
204,92,66159,1,0,1:0:0:0:
111,35,66327,1,10,2:0:0:0:
53,158,66496,2,0,P|41:124|42:78,1,58.5,0|8,1:0|2:0,2:0:0:0:
86,247,66664,2,0,P|94:219|92:190,1,58.5,0|8,1:0|2:0,2:0:0:0:
49,261,66833,1,2,3:0:0:0:
152,337,67002,1,0,1:0:0:0:
176,320,67086,1,8,2:0:0:0:
204,314,67170,1,10,2:0:0:0:
233,315,67254,1,8,2:0:0:0:
258,329,67339,2,0,P|279:341|300:347,2,29.25,8|8|8,2:0|2:0|2:0,2:0:0:0:
417,333,67507,5,2,3:0:0:0:
303,257,67676,1,2,3:0:0:0:
435,309,67844,2,0,P|406:242|431:196,1,117,2|0,3:0|1:0,2:0:0:0:
483,151,68096,1,8,2:0:0:0:
467,132,68181,2,0,P|462:95|455:46,2,58.5,0|8|2,3:0|2:0|1:0,2:0:0:0:
320,130,68518,1,0,3:0:0:0:
320,130,68602,1,0,3:0:0:0:
320,130,68686,6,0,P|271:115|239:53,1,117,2|0,3:0|1:0,2:0:0:0:
203,28,68939,1,8,2:0:0:0:
203,28,69023,2,0,P|163:79|100:83,1,117,2|0,3:0|1:0,2:0:0:0:
75,111,69276,1,8,2:0:0:0:
75,111,69360,2,0,P|91:142|101:192,1,58.4999973220826,0|0,3:0|3:0,2:0:0:0:
147,341,69529,1,10,2:0:0:0:
91,257,69697,1,10,2:0:0:0:
301,244,69866,1,2,1:0:0:0:
245,337,70035,1,2,3:0:0:0:
303,144,70203,2,0,B|249:131|249:131|174:152,1,108,2|0,3:0|1:0,2:0:0:0:
245,337,70540,6,0,B|304:348|304:348|381:312|381:312|421:341,1,175.5,10|8,2:0|2:0,2:0:0:0:
452,265,70877,1,0,3:0:0:0:
452,265,70961,1,0,3:0:0:0:
452,265,71046,2,0,L|396:223,2,58.5,10|0|0,2:0|2:0|1:0,2:0:0:0:
370,66,71383,1,0,3:0:0:0:
370,66,71467,1,0,3:0:0:0:
370,66,71551,2,0,L|368:145,2,58.5,10|0|0,2:0|2:0|1:0,2:0:0:0:
443,14,71804,1,8,2:0:0:0:
465,26,71888,2,0,L|466:189,1,117,10|0,2:0|1:0,2:0:0:0:
302,192,72226,2,0,P|277:141|298:68,1,117,0|10,3:0|2:0,2:0:0:0:
184,25,72563,1,2,1:0:0:0:
181,48,72647,1,8,2:0:0:0:
169,68,72731,1,2,1:0:0:0:
150,82,72815,1,8,2:0:0:0:
127,88,72900,5,2,3:0:0:0:
23,41,73068,1,2,3:0:0:0:
29,166,73237,1,2,3:0:0:0:
135,229,73405,1,0,1:0:0:0:
135,229,73490,1,8,2:0:0:0:
135,229,73574,2,0,P|128:198|112:152,1,58.5,8|0,2:0|2:0,2:0:0:0:
47,245,73742,2,0,P|16:286|45:350,1,116.999994644165,2|0,1:0|3:0,2:0:0:0:
64,367,73995,1,0,3:0:0:0:
64,367,74079,1,2,3:0:0:0:
201,353,74248,5,0,1:0:0:0:
222,343,74332,1,8,2:0:0:0:
244,338,74417,1,10,2:0:0:0:
267,337,74501,1,0,2:0:0:0:
290,342,74585,2,0,P|330:357|368:359,2,58.5,0|8|0,1:0|2:0|3:0,2:0:0:0:
499,288,74922,1,10,2:0:0:0:
306,251,75091,1,2,3:0:0:0:
359,164,75259,1,2,3:0:0:0:
345,359,75428,1,2,3:0:0:0:
499,288,75596,1,2,3:0:0:0:
359,164,75765,6,0,P|419:172|490:126,1,117,10|0,2:0|1:0,2:0:0:0:
471,128,76018,2,0,L|467:85,6,29.25,8|8|8|8|8|8|8,2:0|2:0|2:0|2:0|2:0|2:0|2:0,2:0:0:0:
362,35,76439,1,2,1:0:0:0:
261,147,76608,1,0,3:0:0:0:
85,47,76776,2,0,B|116:41|158:70|158:70|153:106|177:138,1,117,10|0,2:0|1:0,2:0:0:0:
126,141,77029,1,8,2:0:0:0:
126,141,77113,1,2,3:0:0:0:
199,240,77282,2,0,P|166:229|109:233,3,58.5,0|8|0|8,1:0|2:0|1:0|2:0,2:0:0:0:
72,275,77619,1,10,2:0:0:0:
203,339,77787,1,0,1:0:0:0:
203,339,77872,1,8,2:0:0:0:
203,339,77956,2,0,P|265:347|286:292,1,117,2|0,3:0|1:0,2:0:0:0:
300,277,78209,1,8,2:0:0:0:
300,277,78293,6,0,P|319:237|360:228,1,58.5,2|0,3:0|2:0,2:0:0:0:
367,222,78461,2,0,P|404:239|427:242,2,58.4999973220826,2|2|2,3:0|3:0|3:0,2:0:0:0:
438,67,78799,2,0,P|403:79|360:79,1,58.5,8|8,2:0|2:0,2:0:0:0:
336,47,78967,2,0,P|301:35|258:35,1,58.5,8|8,2:0|2:0,2:0:0:0:
250,57,79136,2,0,L|204:71,8,29.25,2|0|0|0|0|0|0|0|2,1:0|1:0|1:0|1:0|3:0|3:0|3:0|3:0|3:0,2:0:0:0:
147,207,79641,5,0,1:0:0:0:
86,111,79810,1,10,2:0:0:0:
86,111,79894,1,8,2:0:0:0:
86,111,79978,1,0,1:0:0:0:
19,225,80147,2,0,L|39:291,1,58.5,0|0,3:0|3:0,2:0:0:0:
49,322,80315,1,10,2:0:0:0:
165,374,80484,2,0,L|185:308,1,58.5,2|0,3:0|2:0,2:0:0:0:
194,285,80652,1,10,2:0:0:0:
339,215,80821,2,0,P|322:277|313:368,1,117,2|2,3:0|3:0,2:0:0:0:
247,225,81158,1,0,1:0:0:0:
405,355,81327,6,0,P|484:329|467:247,1,175.5,10|8,2:0|2:0,2:0:0:0:
353,216,81664,6,0,L|380:206,2,29.25,0|0|0,2:0|2:0|2:0,2:0:0:0:
339,215,81832,2,0,P|355:117|420:122,1,175.5,10|8,2:0|2:0,2:0:0:0:
390,31,82169,6,8,L|435:30,2,29.25,8|8|8,2:0|2:0|2:0,2:0:0:0:
377,26,82338,2,0,B|315:19|268:60|248:101|208:86,1,175.5,10|8,2:0|2:0,2:0:0:0:
95,41,82675,6,8,L|132:53,2,29.25,8|8|8,2:0|2:0|2:0,2:0:0:0:
85,50,82844,2,0,B|83:125|83:125|94:151|94:151|92:241,1,175.5,10|8,2:0|2:0,2:0:0:0:
52,338,83181,6,8,L|52:309,2,29.25,8|8|8,2:0|2:0|2:0,2:0:0:0:
64,349,83349,2,0,P|108:347|128:331,1,58.5,10|0,2:0|2:0,2:0:0:0:
202,264,83518,5,0,3:0:0:0:
295,345,83686,1,2,3:0:0:0:
377,252,83855,1,2,3:0:0:0:
283,170,84023,2,0,P|360:140|373:38,1,175.499991966248,2|8,3:0|2:0,2:0:0:0:
357,34,84360,5,8,2:0:0:0:
452,110,84528,1,2,3:0:0:0:
465,236,84697,1,2,3:0:0:0:
403,342,84865,2,0,B|359:355|321:338|321:338|293:284|232:280,1,175.5,2|8,3:0|2:0,2:0:0:0:
235,367,85202,2,0,P|206:365|179:356,1,58.5,10|0,2:0|2:0,2:0:0:0:
142,286,85371,2,0,P|102:298|74:300,1,58.5,0|8,1:0|2:0,2:0:0:0:
172,180,85539,1,0,3:0:0:0:
174,198,85624,1,0,3:0:0:0:
175,215,85708,6,0,P|122:180|131:124,1,117,10|0,2:0|1:0,2:0:0:0:
141,118,85961,1,8,2:0:0:0:
164,107,86045,1,2,1:0:0:0:
194,100,86129,1,8,2:0:0:0:
232,108,86214,1,0,3:0:0:0:
268,133,86298,1,0,3:0:0:0:
320,134,86382,5,6,3:2:0:0:
256,192,90426,12,0,91606,2:0:0:0:
150,154,91774,6,0,B|177:163|192:196|192:196|187:163|190:106|270:76,1,189,6|0,3:2|2:0,2:0:0:0:
281,175,92111,2,0,P|298:256|333:278,1,126,8|0,2:0|1:0,2:0:0:0:
417,246,92363,1,8,2:0:0:0:
435,223,92448,2,0,P|418:142|383:120,1,126,8|0,2:0|1:0,2:0:0:0:
190,35,92785,1,0,3:0:0:0:
190,35,92869,1,0,3:0:0:0:
190,35,92953,2,0,P|121:41|125:152,1,189,0|8,3:0|2:0,2:0:0:0:
125,170,93290,1,0,1:0:0:0:
50,296,93459,6,0,B|75:313|75:313|192:286,1,126,8|0,2:0|1:0,2:0:0:0:
204,261,93712,1,8,2:0:0:0:
204,261,93796,1,0,3:0:0:0:
298,306,93965,1,10,2:0:0:0:
394,253,94133,1,2,1:0:0:0:
489,301,94302,1,2,1:0:0:0:
359,143,94470,5,0,3:0:0:0:
298,339,94639,1,0,3:0:0:0:
491,331,94807,2,0,P|420:320|395:247,1,126,0|0,3:0|1:0,2:0:0:0:
394,253,95060,1,8,2:0:0:0:
394,253,95144,2,0,P|446:184|418:72,1,188.999994232178,8|8,2:0|2:0,2:0:0:0:
362,51,95481,5,0,3:0:0:0:
362,51,95566,1,0,3:0:0:0:
362,51,95650,2,0,P|302:31|240:39,1,126,8|0,2:0|1:0,2:0:0:0:
178,84,95903,1,8,2:0:0:0:
178,84,95987,2,0,P|112:99|69:93,1,63,8|0,2:0|3:0,2:0:0:0:
78,94,96156,1,0,1:0:0:0:
20,242,96324,1,0,3:0:0:0:
20,242,96408,1,0,3:0:0:0:
20,242,96493,6,0,P|83:209|133:287,1,125.999996154785,8|0,2:0|1:0,2:0:0:0:
122,268,96745,1,8,2:0:0:0:
122,268,96830,2,0,L|190:280,1,62.9999980773926,0|8,1:0|2:0,2:0:0:0:
225,283,96998,2,0,L|231:221,1,63,4|0,3:2|2:0,2:0:0:0:
186,125,97167,6,0,B|236:147|279:133|279:133|338:105|396:138,1,189,2|0,3:0|2:0,2:0:0:0:
434,211,97504,2,0,P|461:183|471:94,1,126,8|0,2:0|1:0,2:0:0:0:
438,55,97757,1,8,2:0:0:0:
438,55,97841,2,0,L|368:49,1,63,8|0,2:0|2:0,2:0:0:0:
295,3,98009,1,8,2:0:0:0:
231,170,98178,5,0,3:0:0:0:
166,46,98347,2,0,P|116:114|92:181,1,126,0|0,3:0|1:0,2:0:0:0:
126,188,98599,1,8,2:0:0:0:
126,188,98684,1,0,1:0:0:0:
272,289,98852,2,0,P|241:218|230:152,1,126,8|0,2:0|1:0,2:0:0:0:
265,143,99105,1,8,2:0:0:0:
265,143,99189,1,0,3:0:0:0:
354,325,99358,2,0,P|309:371|229:360,1,125.999996154785,8|2,2:0|1:0,2:0:0:0:
50,347,99695,1,0,1:0:0:0:
50,347,99779,1,8,2:0:0:0:
50,347,99863,6,0,B|84:364|123:343|123:343|125:323|153:280,2,125.999996154785,2|0|0,3:0|3:0|3:0,2:0:0:0:
192,193,100369,1,0,1:0:0:0:
192,193,100453,1,8,2:0:0:0:
192,193,100538,2,0,P|106:194|-8:108,1,189,8|8,2:0|2:0,2:0:0:0:
69,80,100875,1,0,3:0:0:0:
192,193,101043,2,0,P|239:108|335:51,1,189,8|8,2:0|2:0,2:0:0:0:
406,70,101380,1,0,3:0:0:0:
406,70,101465,1,0,3:0:0:0:
406,70,101549,6,0,P|401:152|415:221,1,126,8|0,2:0|1:0,2:0:0:0:
442,213,101802,1,8,2:0:0:0:
442,213,101886,1,2,3:0:0:0:
359,337,102054,2,0,B|388:350|388:350|491:324,1,126,8|0,2:0|1:0,2:0:0:0:
271,198,102391,1,4,3:2:0:0:
182,339,102560,6,0,P|107:324|40:216,1,188.999994232178,2|0,3:0|2:0,2:0:0:0:
78,218,102897,2,0,L|90:139,1,62.9999980773926,8|0,2:0|2:0,2:0:0:0:
108,115,103066,1,0,1:0:0:0:
108,115,103150,1,8,2:0:0:0:
108,115,103234,1,0,1:0:0:0:
233,21,103403,1,0,1:0:0:0:
392,40,103571,2,0,P|317:91|357:197,1,189,8|8,2:0|2:0,2:0:0:0:
365,202,103908,1,0,1:0:0:0:
365,202,103993,1,8,2:0:0:0:
365,202,104077,2,0,P|396:206|426:217,1,63,8|0,2:0|2:0,2:0:0:0:
489,283,104245,5,0,3:0:0:0:
345,293,104414,1,0,1:0:0:0:
326,295,104498,1,8,2:0:0:0:
307,297,104582,1,0,1:0:0:0:
288,300,104667,1,8,2:0:0:0:
270,303,104751,2,0,P|226:319|193:346,1,63,2|8,3:0|2:0,2:0:0:0:
149,260,104920,2,0,P|122:245|92:236,1,63,2|0,3:0|2:0,2:0:0:0:
76,326,105088,6,0,P|2:263|84:149,1,252,6|0,3:2|1:0,2:0:0:0:
161,164,105509,1,8,2:0:0:0:
161,164,105594,2,0,B|163:139|163:139|138:73,2,63,8|0|0,2:0|2:0|1:0,2:0:0:0:
232,82,105847,1,8,2:0:0:0:
232,82,105931,2,0,B|222:53|222:53|234:9,2,63,8|0|0,2:0|2:0|1:0,2:0:0:0:
414,127,106268,1,0,3:0:0:0:
348,0,106436,6,0,B|369:42|345:90|345:90|321:139|352:180,1,189,0|8,3:0|2:0,2:0:0:0:
365,204,106774,2,0,P|408:203|469:197,1,63,8|0,2:0|2:0,2:0:0:0:
455,235,106942,1,0,1:0:0:0:
227,261,107111,1,0,3:0:0:0:
227,261,107195,1,0,3:0:0:0:
227,261,107279,6,0,P|161:270|90:293,1,126,8|8,2:0|2:0,2:0:0:0:
86,292,107532,1,2,2:0:0:0:
61,284,107616,1,2,1:0:0:0:
48,255,107700,1,10,2:0:0:0:
62,220,107785,1,2,1:0:0:0:
97,193,107869,1,10,2:0:0:0:
147,191,107953,6,0,P|197:232|225:368,1,182.25,6|0,3:2|2:0,2:0:0:0:
200,365,108290,1,8,2:0:0:0:
283,203,108459,1,0,1:0:0:0:
283,203,108543,1,8,2:0:0:0:
283,203,108627,2,0,P|304:157|330:124,2,60.75,8|0|0,2:0|2:0|1:0,2:0:0:0:
409,268,108965,1,0,3:0:0:0:
423,238,109049,1,0,3:0:0:0:
437,210,109133,2,0,L|519:223,2,60.75,0|0|0,3:0|2:0|1:0,2:0:0:0:
344,76,109470,5,0,1:0:0:0:
344,76,109554,1,8,2:0:0:0:
344,76,109639,1,10,2:0:0:0:
315,66,109723,1,10,2:0:0:0:
284,70,109807,1,10,2:0:0:0:
257,84,109891,1,10,2:0:0:0:
238,107,109976,6,0,P|178:162|51:125,1,182.25,6|0,3:2|2:0,2:0:0:0:
59,123,110313,2,0,L|40:62,2,60.75,0|8|0,1:0|2:0|1:0,2:0:0:0:
51,236,110650,2,0,B|44:272|44:272|64:375,2,121.500000463486,2|0|0,3:0|3:0|3:0,2:0:0:0:
199,317,111156,1,0,1:0:0:0:
199,317,111240,1,8,2:0:0:0:
199,317,111324,2,0,L|176:233,1,60.75,8|0,2:0|2:0,2:0:0:0:
206,223,111493,1,0,1:0:0:0:
319,366,111661,1,0,3:0:0:0:
384,210,111830,6,0,B|340:192|292:226|255:247|177:212,1,182.25,2|8,3:0|2:0,2:0:0:0:
174,200,112167,2,0,L|188:121,1,60.7500002317429,10|2,2:0|2:0,2:0:0:0:
259,105,112335,1,2,1:0:0:0:
275,111,112420,1,10,2:0:0:0:
293,112,112504,1,2,3:0:0:0:
311,109,112588,1,2,3:2:0:0:
328,105,112672,2,0,B|386:84|386:84|464:107,1,121.5,10|0,2:0|1:0,2:0:0:0:
443,302,113009,2,0,B|385:318|385:318|327:297,1,121.5,2|0,3:0|1:0,2:0:0:0:
116,353,113347,6,0,B|150:323|148:269|148:269|85:234|105:154,1,189,6|0,3:2|2:0,2:0:0:0:
188,189,113684,1,8,2:0:0:0:
328,299,113852,6,0,P|408:259|400:155,1,189,6|0,3:2|2:0,2:0:0:0:
334,211,114189,1,8,2:0:0:0:
135,24,114358,6,0,B|173:2|173:2|329:37|329:37|389:20,1,252,6|0,3:2|1:0,2:0:0:0:
216,98,114863,1,10,2:0:0:0:
216,98,114948,1,10,2:0:0:0:
216,98,115032,2,0,L|339:129,1,126,2|0,3:0|1:0,2:0:0:0:
77,233,115369,2,0,L|76:268,2,31.5,10|0|10,2:0|2:0|2:0,2:0:0:0:
86,222,115538,2,0,L|219:189,1,126,2|0,3:0|1:0,2:0:0:0:
146,320,115875,1,2,1:0:0:0:
164,324,115959,1,10,2:0:0:0:
182,326,116043,5,2,3:0:0:0:
50,355,116212,1,0,3:0:0:0:
140,212,116380,1,0,3:0:0:0:
236,229,116549,1,0,1:0:0:0:
236,229,116633,1,8,2:0:0:0:
236,229,116717,2,0,P|255:268|269:348,1,117,8|0,2:0|1:0,2:0:0:0:
357,218,117054,1,0,3:0:0:0:
466,358,117223,6,0,B|482:320|482:320|453:213,1,117,0|0,3:0|1:0,2:0:0:0:
456,221,117476,1,8,2:0:0:0:
456,221,117560,1,8,2:0:0:0:
394,107,117729,1,0,1:0:0:0:
394,107,117813,1,8,2:0:0:0:
394,107,117897,2,0,P|365:101|337:90,1,58.5,0|0,3:0|3:0,2:0:0:0:
312,81,118066,2,0,P|239:67|135:114,1,175.5,10|8,2:0|2:0,2:0:0:0:
125,125,118403,2,0,P|118:153|103:178,2,58.5,2|8|10,1:0|2:0|2:0,2:0:0:0:
49,291,118740,6,0,B|87:267|133:284|133:284|165:333|232:332,1,175.5,2|0,3:0|2:0,2:0:0:0:
210,243,119077,1,8,2:0:0:0:
273,384,119245,1,0,1:0:0:0:
273,384,119330,1,8,2:0:0:0:
273,384,119414,1,8,2:0:0:0:
361,301,119582,1,0,1:0:0:0:
361,301,119667,1,8,2:0:0:0:
361,301,119751,1,0,3:0:0:0:
311,104,119920,6,0,P|373:129|418:237,1,175.5,0|8,3:0|2:0,2:0:0:0:
399,268,120257,1,2,1:0:0:0:
156,329,120425,2,0,L|153:195,1,116.999994644165,10|2,2:0|1:0,2:0:0:0:
122,183,120678,1,8,2:0:0:0:
122,183,120762,2,0,P|115:162|122:110,2,58.5,2|0|8,3:0|3:0|2:0,2:0:0:0:
267,28,121099,1,0,1:0:0:0:
288,20,121184,1,8,2:0:0:0:
311,17,121268,1,0,1:0:0:0:
334,20,121352,1,8,2:0:0:0:
355,28,121436,5,2,3:0:0:0:
379,211,121605,1,0,3:0:0:0:
231,126,121774,2,0,B|198:114|198:114|90:130,1,117,0|0,3:0|1:0,2:0:0:0:
58,195,122026,1,8,2:0:0:0:
73,208,122111,2,0,L|164:196,2,58.5,8|0|0,2:0|2:0|1:0,2:0:0:0:
271,217,122448,1,0,3:0:0:0:
271,217,122532,1,0,3:0:0:0:
271,217,122616,2,0,P|275:246|280:275,1,58.5,8|0,2:0|2:0,2:0:0:0:
272,358,122785,5,2,3:0:0:0:
272,358,122869,1,2,2:0:0:0:
272,358,122953,2,0,P|301:362|328:367,1,58.5,2|10,1:0|2:0,2:0:0:0:
353,339,123122,2,0,P|382:343|410:348,3,58.5,2|10|2|10,1:0|2:0|1:0|2:0,2:0:0:0:
444,364,123459,1,2,3:0:0:0:
438,335,123543,1,10,2:0:0:0:
432,306,123627,1,2,1:0:0:0:
426,277,123712,1,10,2:0:0:0:
424,247,123796,2,0,P|432:205|449:170,2,58.5,2|10|10,1:0|2:0|2:0,2:0:0:0:
414,99,124133,6,0,B|438:87|473:92|473:92|413:52|397:91|345:123|272:69,1,234,2|8,3:0|2:0,2:0:0:0:
166,172,124639,1,0,1:0:0:0:
166,172,124723,1,8,2:0:0:0:
166,172,124807,2,0,P|156:133|142:83,1,58.5,0|8,1:0|2:0,2:0:0:0:
80,159,124976,2,0,P|72:187|67:216,1,58.5,0|0,3:0|2:0,2:0:0:0:
104,240,125144,2,0,P|163:275|169:326,1,117,8|0,2:0|1:0,2:0:0:0:
167,363,125397,1,8,2:0:0:0:
167,363,125481,5,0,3:0:0:0:
55,336,125650,1,0,3:0:0:0:
284,246,125818,2,0,B|292:277|292:277|271:384,1,117,8|0,2:0|1:0,2:0:0:0:
326,376,126071,1,8,2:0:0:0:
326,376,126156,1,0,3:0:0:0:
366,250,126324,2,0,L|350:193,1,58.5,8|0,2:0|2:0,2:0:0:0:
324,165,126493,1,0,1:0:0:0:
324,165,126577,1,8,2:0:0:0:
324,165,126661,2,0,P|285:152|245:153,1,58.5,0|8,1:0|2:0,2:0:0:0:
397,115,126830,6,0,P|323:76|229:68,1,175.5,10|8,2:0|2:0,2:0:0:0:
201,77,127167,2,0,P|164:83|120:80,1,58.5,0|8,1:0|2:0,2:0:0:0:
12,168,127335,6,0,B|53:195|53:195|189:170,1,175.5,8|8,2:0|2:0,2:0:0:0:
211,164,127672,2,0,L|277:148,1,58.5,0|8,1:0|2:0,2:0:0:0:
472,181,127841,6,0,L|481:258,1,58.5,8|0,2:0|2:0,2:0:0:0:
392,224,128009,2,0,L|401:301,1,58.5,0|8,1:0|2:0,2:0:0:0:
312,267,128178,2,0,L|321:344,1,58.5,2|8,1:0|2:0,2:0:0:0:
225,378,128347,6,0,L|234:301,1,58.5,8|0,2:0|2:0,2:0:0:0:
145,335,128515,2,0,L|154:258,1,58.5,0|8,1:0|2:0,2:0:0:0:
65,292,128684,2,0,L|74:215,1,58.5,0|8,1:0|2:0,2:0:0:0:
167,183,128852,5,8,2:0:0:0:
267,150,129021,1,8,2:0:0:0:
380,174,129189,1,0,3:2:0:0:
380,174,129526,5,6,3:2:0:0:
267,150,129863,2,1,B|259:193|259:193|270:275,1,108,8|2,2:0|2:3,2:0:0:0:
225,244,130116,1,8,2:0:0:0:
182,226,130200,2,0,B|191:290|191:290|183:333,1,108,12|0,2:0|1:0,2:0:0:0:
267,150,130538,1,0,3:0:0:0:
297,366,130706,2,0,P|336:365|365:360,1,53.9999983520508,12|0,2:0|2:0,2:0:0:0:
384,355,130875,1,8,2:0:0:0:
376,231,131043,2,0,L|375:173,2,54,0|0|8,1:0|1:0|2:0,2:0:0:0:
274,24,131380,2,0,L|274:77,1,54,12|0,2:0|2:0,2:0:0:0:
275,114,131549,5,2,2:3:0:0:
375,177,131717,1,2,2:3:0:0:
483,126,131886,1,0,3:2:0:0:
376,58,132054,1,8,2:0:0:0:
256,119,132223,6,0,B|217:119|186:147|186:147|153:173|112:163,1,135,2|0,3:0|2:0,2:0:0:0:
130,87,132560,2,0,P|106:42|56:48,1,108,8|2,2:0|2:3,2:0:0:0:
27,122,132813,1,0,1:0:0:0:
48,134,132897,2,0,L|61:209,2,54,0|8|0,1:0|2:0|3:0,2:0:0:0:
152,311,133234,2,0,L|159:247,2,54,0|8|8,1:0|2:0|2:0,2:0:0:0:
276,322,133571,5,0,1:0:0:0:
268,301,133656,1,8,2:0:0:0:
266,279,133740,1,0,1:0:0:0:
271,258,133824,1,8,2:0:0:0:
282,239,133908,2,0,P|348:230|389:308,1,162,8|0,2:0|1:0,2:0:0:0:
389,304,134245,1,10,2:0:0:0:
427,225,134414,1,10,2:0:0:0:
368,148,134582,1,2,3:2:0:0:
274,151,134751,1,2,3:2:0:0:
220,18,134920,5,6,3:0:0:0:
274,151,135088,1,2,3:0:0:0:
400,51,135257,2,0,B|383:62|383:62|362:121|372:186,1,108,10|2,2:3|3:0,2:0:0:0:
200,160,135594,1,2,3:0:0:0:
194,139,135678,1,8,2:0:0:0:
188,117,135762,2,0,P|120:132|36:121,1,121.5,14|0,3:0|2:0,2:0:0:0:
46,109,136099,5,10,2:3:0:0:
143,219,136268,1,2,3:0:0:0:
143,219,136352,1,0,3:0:0:0:
143,219,136436,1,2,3:0:0:0:
90,305,136605,1,14,2:3:0:0:
90,305,136774,1,2,1:2:0:0:
175,356,136942,1,8,2:0:0:0:
226,271,137111,1,10,2:3:0:0:
327,256,137279,1,8,2:0:0:0:
353,257,137363,1,8,2:0:0:0:
378,266,137448,1,8,2:0:0:0:
397,284,137532,1,8,2:0:0:0:
411,306,137616,6,0,P|400:220|405:171,1,108,2|2,3:0|2:3,2:0:0:0:
458,96,137953,2,0,P|407:82|339:93,1,108,8|0,2:0|1:0,2:0:0:0:
332,95,138206,1,8,2:0:0:0:
310,100,138290,1,0,3:0:0:0:
288,100,138375,1,0,3:0:0:0:
266,95,138459,1,8,2:0:0:0:
114,64,138627,1,2,2:3:0:0:
114,64,138712,1,8,2:0:0:0:
114,64,138796,2,0,L|119:131,1,53.9999983520508,0|0,3:0|3:0,2:0:0:0:
87,136,138965,6,0,P|101:201|108:283,1,108,8|2,2:0|2:3,2:0:0:0:
86,267,139217,1,8,2:0:0:0:
86,267,139302,2,0,P|83:308|90:346,1,54,0|0,3:0|3:0,2:0:0:0:
62,349,139470,2,0,P|126:359|255:389,1,161.999995056153,10|8,2:0|2:0,2:0:0:0:
310,305,139976,5,10,2:0:0:0:
296,276,140060,1,8,2:0:0:0:
286,250,140144,1,2,3:2:0:0:
273,220,140229,1,0,3:0:0:0:
259,185,140313,6,0,P|213:169|117:160,1,135,6|0,3:0|2:0,2:0:0:0:
85,201,140650,6,0,P|137:117|145:81,1,112.5,8|2,2:0|2:3,2:0:0:0:
85,49,140903,1,8,2:0:0:0:
85,49,140987,1,10,2:3:0:0:
268,27,141156,6,0,B|239:64|239:64|260:192,1,168.75,4|0,3:0|2:0,2:0:0:0:
335,131,141493,1,8,2:0:0:0:
409,327,141661,6,0,B|438:290|438:290|417:162,1,168.75,4|0,3:0|2:0,2:0:0:0:
343,219,141998,1,8,2:0:0:0:
156,301,142167,6,0,P|221:333|252:254,1,168.75,6|0,3:0|2:0,2:0:0:0:
246,243,142504,1,8,2:0:0:0:
67,258,142672,1,0,3:0:0:0:
152,191,142841,1,8,2:0:0:0:
112,111,143009,6,0,B|132:82|182:79|182:79|226:96|258:75,1,108,2|0,3:0|1:0,2:0:0:0:
377,46,143347,2,0,P|350:45|323:40,2,53.9999983520508,8|0|0,2:0|2:0|1:0,2:0:0:0:
455,171,143684,1,0,1:0:0:0:
455,171,143768,1,8,2:0:0:0:
455,171,143852,1,0,3:0:0:0:
247,226,144021,2,0,P|300:215|354:213,1,108,8|0,2:0|1:0,2:0:0:0:
373,256,144274,1,8,2:0:0:0:
373,256,144358,6,0,P|449:265|506:277,1,108,2|8,3:2|2:0,2:0:0:0:
356,353,144695,1,0,1:0:0:0:
223,312,144863,2,0,P|164:270|150:211,1,108,0|8,3:0|2:0,2:0:0:0:
198,158,145200,1,8,2:0:0:0:
83,301,145369,1,0,3:0:0:0:
70,218,145538,1,0,3:0:0:0:
60,137,145706,5,6,3:0:0:0:
151,238,145875,1,2,3:0:0:0:
268,101,146043,2,0,B|219:100|195:133|195:133|200:179|201:187,1,108,10|2,2:3|3:0,2:0:0:0:
214,178,146296,1,8,2:0:0:0:
238,190,146380,1,2,3:0:0:0:
264,193,146465,1,8,2:0:0:0:
290,188,146549,6,0,B|342:161|399:174|399:174|371:117|391:56,1,216,6|10,3:0|2:3,2:0:0:0:
476,254,147054,2,1,B|424:281|367:268|367:268|395:325|375:386,1,216,4|8,3:0|2:0,2:0:0:0:
227,321,147560,1,2,2:3:0:0:
76,277,147729,1,8,2:0:0:0:
76,277,147813,1,8,2:0:0:0:
76,277,147897,2,0,P|70:221|69:211,1,54,10|0,2:3|2:0,2:0:0:0:
96,209,148066,1,8,2:0:0:0:
122,210,148150,1,8,2:0:0:0:
148,208,148234,1,8,2:0:0:0:
174,201,148318,1,8,2:0:0:0:
199,190,148403,6,0,P|266:185|314:210,1,108,0|2,3:0|2:3,2:0:0:0:
155,111,148740,2,0,P|88:116|40:91,1,108,8|2,2:0|1:0,2:0:0:0:
47,64,148993,1,8,2:0:0:0:
47,64,149077,2,0,L|40:3,3,54,8|0|0|0,2:0|2:0|3:0|2:0,2:0:0:0:
67,0,149414,1,8,2:0:0:0:
228,49,149582,1,2,2:3:0:0:
228,49,149667,1,8,2:0:0:0:
228,49,149751,6,0,P|271:26|314:15,1,54,0|0,3:0|3:0,2:0:0:0:
326,37,149920,2,0,P|355:55|397:64,1,54,8|0,2:0|2:0,2:0:0:0:
424,47,150088,1,2,2:3:0:0:
440,45,150172,1,8,2:0:0:0:
456,43,150257,1,0,3:0:0:0:
472,41,150341,1,0,3:0:0:0:
489,40,150425,6,0,B|475:86|475:86|494:214,1,162,8|8,2:0|2:0,2:0:0:0:
484,257,150762,1,8,2:0:0:0:
470,266,150847,1,8,2:0:0:0:
443,270,150931,1,8,2:0:0:0:
405,264,151015,1,8,2:0:0:0:
364,229,151099,6,0,P|306:195|177:241,1,182.25,6|0,3:0|2:0,2:0:0:0:
198,299,151436,2,0,L|185:231,2,60.75,12|0|0,2:0|2:0|1:0,2:0:0:0:
50,340,151774,1,2,2:3:0:0:
65,191,151942,1,2,3:0:0:0:
134,130,152111,1,12,2:0:0:0:
134,130,152195,1,0,1:0:0:0:
134,130,152279,2,0,L|207:150,1,60.75,2|8,1:0|2:0,2:0:0:0:
66,52,152448,5,2,2:3:0:0:
236,29,152616,1,2,3:0:0:0:
245,119,152785,2,0,P|224:135|162:145,2,60.75,12|0|0,2:0|2:0|1:0,2:0:0:0:
363,35,153122,1,0,2:3:0:0:
315,212,153290,1,0,3:0:0:0:
438,151,153459,1,14,2:0:0:0:
438,151,153543,1,0,3:0:0:0:
438,151,153627,1,2,2:3:0:0:
292,233,153796,6,0,P|363:230|438:328,1,182.25,2|0,3:0|2:0,2:0:0:0:
386,371,154133,2,0,P|399:326|417:295,2,60.75,8|0|0,2:0|2:0|1:0,2:0:0:0:
262,342,154470,2,0,P|229:322|168:314,1,60.75,0|8,1:0|2:0,2:0:0:0:
180,337,154639,1,0,3:0:0:0:
134,233,154807,1,8,2:0:0:0:
152,235,154891,1,0,1:0:0:0:
170,237,154976,1,0,1:0:0:0:
238,167,155144,5,0,1:0:0:0:
138,72,155313,1,0,3:0:0:0:
39,166,155481,2,0,L|45:231,2,60.75,8|0|0,2:0|2:0|1:0,2:0:0:0:
100,298,155818,1,2,1:0:0:0:
191,348,155987,1,2,3:0:0:0:
254,271,156156,1,10,2:0:0:0:
153,162,156324,1,2,3:0:0:0:
76,320,156493,6,0,B|123:298|173:309|173:309|186:339|216:361,1,121.5,2|0,3:0|3:0,2:0:0:0:
228,313,156745,1,0,3:0:0:0:
228,313,156830,1,12,2:0:0:0:
322,183,156998,2,0,L|306:253,2,60.75,0|8|2,1:0|2:0|2:3,2:0:0:0:
444,48,157335,1,2,3:0:0:0:
297,94,157504,2,0,B|344:80|384:114|384:114|423:145|482:128,1,182.25,12|8,2:0|2:0,2:0:0:0:
496,125,157841,5,2,2:3:0:0:
322,183,158009,1,2,3:0:0:0:
322,183,158094,1,0,3:0:0:0:
322,183,158178,2,0,P|247:174|180:132,1,121.5,12|0,2:0|1:0,2:0:0:0:
130,64,158515,1,0,2:3:0:0:
40,149,158684,1,0,3:0:0:0:
40,149,158768,1,0,3:0:0:0:
40,149,158852,1,14,2:0:0:0:
128,225,159021,1,0,1:0:0:0:
35,309,159189,5,2,3:0:0:0:
154,220,159358,2,0,B|140:258|140:258|171:356,1,121.5,2|8,2:3|2:0,2:0:0:0:
199,357,159611,1,0,0:0:0:0:
199,357,159695,1,0,1:0:0:0:
199,357,159779,2,0,L|278:344,1,60.7500002317429,8|2,2:0|2:3,0:0:0:0:
303,339,159948,1,8,2:0:0:0:
248,204,160200,2,0,P|328:185|378:217,1,121.5,8|2,2:0|2:3,2:0:0:0:
397,130,160453,1,8,2:0:0:0:
368,111,160538,6,0,P|293:99|243:114,1,121.5,0|0,3:0|3:0,2:0:0:0:
124,209,160875,2,0,P|150:154|123:97,1,121.5,8|2,2:0|2:3,2:0:0:0:
102,85,161127,1,8,2:0:0:0:
72,81,161212,1,2,2:3:0:0:
43,89,161296,1,8,2:0:0:0:
19,108,161380,1,0,3:0:0:0:
124,208,161549,1,8,2:0:0:0:
154,210,161633,1,8,2:0:0:0:
190,214,161717,1,8,2:0:0:0:
226,218,161802,1,8,2:0:0:0:
268,221,161886,5,2,3:0:0:0:
329,98,162054,1,0,3:0:0:0:
435,213,162223,2,0,P|469:176|469:40,1,182.25,12|8,2:0|2:0,2:0:0:0:
440,37,162560,2,0,P|410:30|383:19,1,60.75,2|8,2:3|2:0,2:0:0:0:
365,39,162729,1,2,3:0:0:0:
419,219,162897,2,0,P|369:293|379:352,1,121.5,12|2,2:0|1:0,2:0:0:0:
390,345,163150,1,8,2:0:0:0:
390,345,163234,2,0,B|418:352|418:352|473:347,2,60.75,2|8|2,2:3|2:0|3:0,2:0:0:0:
278,271,163571,6,0,B|222:252|170:290|170:290|109:333|61:294,1,182.25,12|8,2:0|2:0,2:0:0:0:
111,234,163908,1,0,2:3:0:0:
111,234,163993,1,8,2:0:0:0:
111,234,164077,1,0,3:0:0:0:
229,353,164245,2,0,P|196:318|189:286,1,60.75,14|0,2:0|2:0,2:0:0:0:
203,193,164414,1,0,1:0:0:0:
339,354,164582,6,0,B|372:327|372:327|349:270|363:190,1,175.5,2|0,3:0|2:0,2:0:0:0:
390,186,164920,2,0,P|398:119|374:46,1,117,10|0,2:0|1:0,2:0:0:0:
270,34,165257,1,0,1:0:0:0:
270,34,165341,1,8,2:0:0:0:
270,34,165425,1,2,3:0:0:0:
143,83,165594,2,0,P|131:140|139:197,1,117,8|2,2:0|1:0,2:0:0:0:
80,37,165931,6,0,B|98:13|98:13|159:3,2,58.5,0|0|2,3:0|2:0|1:0,2:0:0:0:
223,127,166268,2,0,P|160:173|108:170,1,117,8|0,2:0|1:0,2:0:0:0:
99,175,166521,1,8,2:0:0:0:
78,185,166605,1,2,1:0:0:0:
63,203,166689,1,8,2:0:0:0:
56,225,166774,1,0,3:0:0:0:
119,309,166942,1,10,2:0:0:0:
216,261,167111,1,0,1:0:0:0:
216,261,167195,1,8,2:0:0:0:
216,261,167279,5,6,3:2:0:0:
411,282,167448,1,0,3:0:0:0:
339,160,167616,2,0,B|342:229|342:229|326:265|326:265|334:349,1,175.5,14|8,2:0|2:0,2:0:0:0:
362,350,167953,1,2,2:3:0:0:
362,350,168038,1,8,2:0:0:0:
362,350,168122,1,2,3:0:0:0:
430,172,168290,2,0,P|397:88|281:89,1,175.5,12|8,2:0|2:0,2:0:0:0:
259,110,168627,6,0,P|280:84|298:24,2,58.5,2|8|2,2:3|2:0|3:0,2:0:0:0:
62,111,168965,2,0,P|126:185|194:143,1,175.5,12|8,2:0|2:0,2:0:0:0:
153,62,169302,1,2,2:3:0:0:
153,62,169386,1,8,2:0:0:0:
153,62,169470,1,0,3:0:0:0:
345,173,169639,2,0,B|328:207|328:207|229:226,1,117,14|2,2:0|2:3,2:0:0:0:
184,158,169976,5,2,3:0:0:0:
145,309,170144,1,2,2:3:0:0:
281,367,170313,1,10,2:0:0:0:
304,364,170397,1,0,1:0:0:0:
327,361,170481,1,0,1:0:0:0:
350,358,170566,1,8,2:0:0:0:
373,354,170650,2,0,P|416:348|453:348,1,58.5,0|0,3:0|3:0,2:0:0:0:
490,239,170818,6,0,P|420:260|351:248,1,117,10|0,2:0|3:0,2:0:0:0:
408,115,171156,1,2,2:3:0:0:
408,115,171240,1,8,2:0:0:0:
408,115,171324,2,0,P|372:119|333:119,1,58.4999973220826,0|0,3:0|3:0,2:0:0:0:
306,96,171493,2,0,P|277:99|247:104,1,58.4999973220826,10|8,2:0|2:0,2:0:0:0:
226,144,171661,2,0,B|164:156|164:156|97:144,1,117,0|2,3:0|2:3,2:0:0:0:
110,123,171914,1,8,2:0:0:0:
109,99,171998,1,0,2:3:0:0:
108,75,172082,1,8,2:0:0:0:
108,51,172167,1,0,3:0:0:0:
226,144,172335,6,0,L|277:133,1,45,10|8,2:0|2:0,2:0:0:0:
171,232,172504,6,0,L|121:228,1,45,8|8,2:0|2:0,2:0:0:0:
244,304,172672,6,0,P|314:286|384:280,1,135,4|2,2:0|2:0,2:0:0:0:
176,231,175031,2,0,P|106:213|36:207,2,135,2|2|2,2:0|2:0|2:0,2:0:0:0:
212,72,177221,1,8,2:0:0:0:
198,72,177306,1,8,2:0:0:0:
185,68,177390,1,8,2:0:0:0:
200,56,177474,1,8,2:0:0:0:
219,52,177558,1,8,2:0:0:0:
246,53,177643,1,8,2:0:0:0:
270,65,177727,1,8,2:0:0:0:
301,78,177811,1,8,2:0:0:0:
334,80,177896,1,8,2:0:0:0:
367,73,177980,1,8,2:0:0:0:
396,57,178064,1,6,3:2:0:0:
396,57,178401,6,0,P|412:161|413:216,1,126,10|0,2:0|1:0,2:0:0:0:
386,263,178653,1,8,2:0:0:0:
386,263,178738,1,0,3:0:0:0:
226,362,178906,6,0,P|231:267|245:197,1,126,10|0,2:0|1:0,2:0:0:0:
289,169,179159,1,8,2:0:0:0:
289,169,179243,1,0,3:0:0:0:
131,152,179412,6,0,P|68:160|5:161,1,126,10|0,2:0|1:0,2:0:0:0:
16,79,179665,1,8,2:0:0:0:
25,59,179749,2,0,P|87:50|150:49,1,126,10|0,2:0|1:0,2:0:0:0:
243,41,180002,1,8,2:0:0:0:
261,55,180086,2,0,L|350:46,1,63,2|0,3:0|3:0,2:0:0:0:
352,79,180255,2,0,L|441:70,1,63,10|0,2:0|2:0,2:0:0:0:
489,164,180423,2,0,L|400:155,1,63,2|8,1:0|2:0,2:0:0:0:
414,195,180592,2,0,L|325:186,1,63,2|8,1:0|2:0,2:0:0:0:
280,234,180760,5,2,3:0:0:0:
426,157,180929,1,2,3:0:0:0:
261,55,181097,2,0,B|195:70|190:124|157:177|92:161,1,189,2|8,3:0|2:0,2:0:0:0:
62,94,181434,2,0,P|88:146|100:188,2,63,8|0|2,2:0|2:0|1:0,2:0:0:0:
91,325,181771,1,0,3:0:0:0:
106,296,181855,1,0,3:0:0:0:
130,276,181939,6,0,P|192:255|265:284,1,126,2|0,3:0|1:0,2:0:0:0:
194,343,182192,1,8,2:0:0:0:
194,343,182276,1,10,2:0:0:0:
358,349,182445,2,0,P|348:324|337:274,1,63,0|8,1:0|2:0,2:0:0:0:
372,215,182613,1,0,3:0:0:0:
409,219,182698,1,0,3:0:0:0:
446,223,182782,6,0,B|477:231|477:231|524:226,1,63,10|0,2:0|2:0,2:0:0:0:
460,117,182950,1,2,3:0:0:0:
339,289,183119,1,2,3:0:0:0:
275,88,183288,1,2,3:2:0:0:
300,186,183456,1,2,3:0:0:0:
460,117,183625,6,0,B|417:122|417:122|258:85,1,189,10|8,2:0|2:0,2:0:0:0:
252,66,183962,2,0,L|265:13,4,31.5,8|8|8|8|8,2:0|2:0|2:0|2:0|2:0,2:0:0:0:
141,97,184299,1,2,1:0:0:0:
128,99,184383,1,8,2:0:0:0:
115,101,184467,1,0,3:0:0:0:
107,137,184552,1,0,3:0:0:0:
100,174,184636,6,0,B|91:253|91:253|99:283|99:283|89:376,1,189,10|8,2:0|2:0,2:0:0:0:
115,379,184973,1,2,3:0:0:0:
227,318,185141,1,0,1:0:0:0:
244,324,185226,1,8,2:0:0:0:
269,324,185310,1,0,1:0:0:0:
299,316,185394,1,8,2:0:0:0:
327,291,185479,2,0,P|403:264|460:286,1,126,10|0,2:0|1:0,2:0:0:0:
478,318,185731,1,8,2:0:0:0:
478,318,185816,1,2,3:0:0:0:
261,244,185984,1,0,3:0:0:0:
261,244,186068,1,8,2:0:0:0:
261,244,186153,6,0,B|274:198|274:198|261:109,1,126,2|2,3:0|3:0,2:0:0:0:
255,85,186405,1,0,3:0:0:0:
250,50,186490,1,2,3:0:0:0:
37,49,186658,2,0,L|99:39,2,63,8|8|8,2:0|2:0|2:0,2:0:0:0:
116,175,186995,2,0,L|146:183,6,31.5,2|0|0|0|0|0|0,2:0|2:0|1:0|1:0|3:0|3:0|3:0,2:0:0:0:
103,171,187332,6,0,P|131:304|128:334,1,126,2|0,3:0|1:0,2:0:0:0:
206,337,187585,1,8,2:0:0:0:
224,342,187670,2,0,P|268:326|318:326,2,63,10|8|0,2:0|2:0|1:0,2:0:0:0:
347,181,188007,1,0,3:0:0:0:
457,236,188175,2,0,P|413:252|363:252,1,63,10|0,2:0|2:0,2:0:0:0:
376,257,188344,1,2,3:0:0:0:
206,263,188512,2,0,P|250:247|300:247,1,63,10|0,2:0|2:0,2:0:0:0:
288,244,188681,1,6,3:2:0:0:
272,98,188849,2,0,P|345:62|408:87,1,126,2|0,3:0|1:0,2:0:0:0:
158,182,189186,6,0,P|185:94|128:16,1,188.999994232178,10|8,2:0|2:0,2:0:0:0:
31,32,189523,6,8,L|40:78,2,31.5,8|8|8,2:0|2:0|2:0,2:0:0:0:
17,35,189692,2,0,B|0:68|0:68|40:228,1,188.999994232178,10|8,2:0|2:0,2:0:0:0:
76,289,190029,6,8,L|106:295,2,31.5,8|8|8,2:0|2:0|2:0,2:0:0:0:
73,307,190198,2,0,P|139:325|252:260,1,188.999994232178,10|8,2:0|2:0,2:0:0:0:
320,198,190535,6,8,L|318:150,2,31.4999990386963,8|8|8,2:0|2:0|2:0,2:0:0:0:
322,219,190703,2,0,P|382:203|486:267,1,188.999994232178,10|8,2:0|2:0,2:0:0:0:
488,287,191040,2,8,L|492:328,4,31.5,8|8|8|8|10,2:0|2:0|2:0|2:0|2:0,2:0:0:0:
283,365,191377,5,0,3:0:0:0:
275,222,191546,1,2,3:0:0:0:
267,79,191714,1,2,3:0:0:0:
468,107,191883,6,0,B|430:85|358:96|350:146|350:146|382:116|429:138,1,189,2|8,3:0|2:0,2:0:0:0:
425,203,192220,1,10,2:0:0:0:
334,303,192388,1,2,3:0:0:0:
202,311,192557,1,2,3:0:0:0:
129,206,192725,2,0,B|155:177|148:143|148:143|109:112|117:58,1,126,2|0,3:0|1:0,2:0:0:0:
205,75,192978,1,8,2:0:0:0:
205,75,193062,1,10,2:0:0:0:
274,178,193231,1,0,1:0:0:0:
390,130,193399,5,0,3:0:0:0:
390,130,193484,1,0,3:0:0:0:
390,130,193568,1,10,2:0:0:0:
428,53,193736,1,0,1:0:0:0:
493,126,193905,1,2,1:0:0:0:
441,206,194074,1,0,3:0:0:0:
251,266,194242,6,0,B|302:236|368:255|368:255|397:293|451:283,1,175.5,6|0,3:2|2:0,2:0:0:0:
441,206,194579,2,0,P|461:178|469:117,1,58.5,8|0,2:0|2:0,2:0:0:0:
378,127,194747,1,0,1:0:0:0:
378,127,194831,1,8,2:0:0:0:
378,127,194916,2,0,P|365:92|335:48,1,58.5,8|0,2:0|2:0,2:0:0:0:
286,132,195084,1,0,1:0:0:0:
156,53,195253,1,0,3:0:0:0:
156,53,195337,1,0,3:0:0:0:
156,53,195421,1,0,3:0:0:0:
79,171,195590,2,0,P|80:203|95:253,3,58.5,0|8|0|8,1:0|2:0|1:0|2:0,2:0:0:0:
162,264,195927,6,0,P|218:308|342:274,1,175.5,8|8,2:0|2:0,2:0:0:0:
252,236,196264,1,0,3:0:0:0:
252,236,196348,1,0,3:0:0:0:
252,236,196433,1,8,2:0:0:0:
389,234,196601,1,2,1:0:0:0:
405,217,196685,1,8,2:0:0:0:
413,195,196770,1,0,1:0:0:0:
414,171,196854,1,8,2:0:0:0:
407,148,196938,5,2,3:0:0:0:
263,156,197107,1,0,3:0:0:0:
317,37,197275,1,0,3:0:0:0:
198,65,197444,1,0,1:0:0:0:
198,65,197528,1,8,2:0:0:0:
198,65,197612,2,0,P|120:83|46:79,1,117,8|0,2:0|1:0,2:0:0:0:
7,193,197949,1,0,3:0:0:0:
7,193,198034,1,0,3:0:0:0:
7,193,198118,1,0,3:0:0:0:
9,317,198286,6,0,P|48:289|87:287,1,58.4999973220826,0|8,1:0|2:0,0:0:0:0:
100,274,198455,2,0,P|132:309|204:333,1,116.999994644165,8|0,2:0|1:0,2:0:0:0:
355,343,198792,1,0,3:0:0:0:
355,343,198876,1,0,3:0:0:0:
355,343,198961,2,0,P|334:274|385:218,1,117,8|0,2:0|1:0,2:0:0:0:
379,224,199213,1,8,2:0:0:0:
408,225,199298,1,0,1:0:0:0:
432,240,199382,1,8,2:0:0:0:
443,267,199466,1,0,3:0:0:0:
363,115,199635,6,0,B|388:94|388:94|497:111,1,117,2|0,3:0|1:0,2:0:0:0:
278,31,199972,2,0,B|258:48|258:48|157:39,1,117,8|0,2:0|1:0,2:0:0:0:
125,33,200225,1,8,2:0:0:0:
125,33,200309,1,8,2:0:0:0:
220,133,200477,1,8,2:0:0:0:
47,165,200646,1,0,3:0:0:0:
145,260,200815,6,0,P|73:278|164:354,1,233.999989288331,0|0,3:0|1:0,2:0:0:0:
189,365,201236,1,8,2:0:0:0:
189,365,201320,2,0,P|207:323|207:278,1,58.5,8|8,2:0|2:0,2:0:0:0:
246,290,201489,2,0,P|239:256|224:219,1,58.5,0|0,1:0|1:0,2:0:0:0:
310,362,201657,1,0,3:0:0:0:
375,266,201826,1,8,2:0:0:0:
274,145,201994,1,2,1:0:0:0:
296,138,202079,1,8,2:0:0:0:
319,137,202163,1,0,1:0:0:0:
341,141,202247,1,8,2:0:0:0:
362,151,202331,5,2,3:0:0:0:
288,29,202500,1,0,3:0:0:0:
180,114,202668,2,0,P|166:166|157:250,1,117,0|0,3:0|1:0,2:0:0:0:
63,36,203006,1,0,3:0:0:0:
63,36,203090,1,8,2:0:0:0:
63,36,203174,2,0,P|74:89|78:140,1,58.5,8|0,2:0|2:0,2:0:0:0:
63,181,203343,5,0,3:0:0:0:
160,34,203511,1,0,3:0:0:0:
63,181,203680,2,0,L|104:170,2,29.25,0|0|0,1:0|1:0|1:0,2:0:0:0:
52,194,203848,2,0,P|55:280|101:322,1,117,8|0,2:0|1:0,2:0:0:0:
187,350,204185,1,0,3:0:0:0:
270,244,204354,2,0,B|270:212|270:212|257:180,3,58.5,8|0|2|8,2:0|2:0|1:0|2:0,2:0:0:0:
340,300,204691,1,2,3:0:0:0:
348,284,204775,1,0,3:0:0:0:
357,269,204859,1,8,2:0:0:0:
391,268,204944,1,8,2:0:0:0:
425,268,205028,6,0,P|452:204|454:135,1,117,2|0,3:0|1:0,2:0:0:0:
486,146,205281,1,0,1:0:0:0:
486,146,205365,1,8,2:0:0:0:
341,82,205534,2,0,P|377:82|438:70,1,58.5,0|8,1:0|2:0,2:0:0:0:
288,10,205702,2,0,P|255:69|276:142,1,117,0|0,3:0|1:0,2:0:0:0:
286,201,205955,1,8,2:0:0:0:
286,201,206039,2,0,P|289:161|267:117,2,58.5,0|0|0,3:0|3:0|3:0,2:0:0:0:
158,248,206376,5,0,1:0:0:0:
140,246,206461,1,8,2:0:0:0:
122,244,206545,1,0,1:0:0:0:
104,242,206629,1,8,2:0:0:0:
88,250,206713,2,0,L|82:288,4,29.25,0|0|8|8|8,1:0|1:0|2:0|2:0|2:0,2:0:0:0:
160,348,207050,1,0,3:0:0:0:
144,167,207219,1,8,2:0:0:0:
144,167,207303,1,8,2:0:0:0:
144,167,207388,2,0,L|149:116,6,29.25,2|0|0|0|0|0|8,1:0|1:0|1:0|1:0|1:0|2:0|2:0,2:0:0:0:
170,113,207725,5,2,3:0:0:0:
301,65,207893,2,0,L|293:136,1,58.5,8|0,2:0|1:0,2:0:0:0:
289,157,208062,1,0,3:0:0:0:
424,119,208230,1,0,1:0:0:0:
424,119,208315,1,8,2:0:0:0:
424,119,208399,2,0,L|418:178,1,58.5,8|0,2:0|2:0,2:0:0:0:
416,258,208567,1,0,1:0:0:0:
416,258,208652,2,0,L|411:295,4,29.25,8|8|8|8|0,2:0|2:0|2:0|2:0|3:0,2:0:0:0:
412,308,208904,5,8,2:0:0:0:
270,342,209073,1,0,1:0:0:0:
299,344,209157,1,8,2:0:0:0:
328,346,209242,1,10,2:0:0:0:
189,257,209410,1,0,1:0:0:0:
160,247,209494,1,8,2:0:0:0:
130,249,209579,1,0,1:0:0:0:
102,258,209663,1,8,2:0:0:0:
78,274,209747,2,0,P|37:297|-7:237,1,117,8|0,2:0|1:0,2:0:0:0:
50,197,210000,1,8,2:0:0:0:
50,197,210084,2,0,L|56:139,2,58.5,8|8|0,2:0|2:0|3:0,2:0:0:0:
64,31,210421,6,0,P|134:48|191:17,1,117,2|0,3:0|3:0,2:0:0:0:
247,60,210674,1,8,2:0:0:0:
263,69,210758,2,0,P|288:120|280:177,1,117,0|0,3:0|3:0,2:0:0:0:
256,202,211011,2,0,P|237:251|266:327,1,117,8|8,2:0|2:0,2:0:0:0:
273,340,211264,1,8,2:0:0:0:
472,369,211433,5,0,3:0:0:0:
379,297,211601,2,0,P|370:237|385:181,1,116.999994644165,0|0,3:0|3:0,2:0:0:0:
451,136,211854,1,8,2:0:0:0:
470,125,211938,2,0,P|480:87|471:54,1,58.4999973220826,8|8,2:0|2:0,2:0:0:0:
400,26,212107,1,0,1:0:0:0:
376,43,212191,1,8,2:0:0:0:
347,50,212275,1,0,1:0:0:0:
317,51,212359,1,8,2:0:0:0:
288,43,212444,2,0,P|255:32|179:30,2,58.5,0|0|8,3:0|3:0|2:0,2:0:0:0:
151,183,212781,1,0,1:0:0:0:
153,171,212865,1,8,2:0:0:0:
155,159,212949,1,0,1:0:0:0:
157,147,213034,1,8,2:0:0:0:
161,136,213118,6,0,B|133:124|133:124|5:137,1,126,2|0,3:0|1:0,2:0:0:0:
31,229,213371,1,8,2:0:0:0:
35,254,213455,2,0,B|63:266|63:266|191:253,1,126,0|0,3:0|1:0,2:0:0:0:
243,241,213708,1,8,2:0:0:0:
256,253,213792,6,0,L|269:339,1,63,0|8,3:0|2:0,2:0:0:0:
334,192,213961,2,0,L|347:278,1,63,0|8,1:0|2:0,2:0:0:0:
443,301,214129,1,0,3:0:0:0:
439,269,214213,1,0,3:0:0:0:
435,237,214298,1,0,3:0:0:0:
433,125,214466,6,0,L|475:131,2,31.5,8|8|8,2:0|2:0|2:0,2:0:0:0:
423,138,214635,2,0,P|357:96|248:125,1,189,10|8,2:0|2:0,2:0:0:0:
235,136,214972,1,0,3:0:0:0:
212,146,215056,1,0,3:0:0:0:
186,148,215140,1,8,2:0:0:0:
161,142,215225,1,8,2:0:0:0:
139,129,215309,1,0,1:0:0:0:
124,108,215393,1,8,2:0:0:0:
118,83,215477,5,0,1:0:0:0:
116,114,215562,1,8,2:0:0:0:
114,145,215646,1,0,3:0:0:0:
112,176,215730,1,0,3:0:0:0:
111,207,215815,5,0,3:0:0:0:
185,326,216657,6,0,B|218:316|218:316|296:327,2,108,2|2|2,2:0|2:0|2:0,2:0:0:0:
185,326,218511,6,0,B|185:219|185:219|150:183|150:183|152:51|152:51|198:41|228:57|228:57|259:74|303:69,1,432.000000000001,0|0,2:0|3:0,2:0:0:0:
421,166,222050,6,0,P|425:116|451:38,2,108,2|2|2,2:0|2:0|2:0,2:0:0:0:
421,166,223904,6,0,B|352:252|223:225|223:225|197:109|284:18,1,432.000000000001,0|0,2:0|3:0,2:0:0:0:
78,75,227444,6,0,P|123:59|175:74,2,90,2|2|2,2:0|2:0|2:0,2:0:0:0:
78,75,229298,6,0,B|47:136|85:194|85:194|122:258|95:321|95:321|145:356|199:360|260:330,1,432.000000000001,0|0,2:0|3:0,2:0:0:0:
409,314,232837,6,0,P|439:328|496:365,2,90,2|2|2,2:0|2:0|2:0,2:0:0:0:
256,192,234691,12,0,237050,2:0:0:0:
414,108,237388,6,1,B|272:19|186:36|15:65|23:251|53:350|133:406|217:416|374:415|506:213|440:40|174:43|130:219|171:259|237:236,1,1053,4|0,2:0|2:0,2:0:0:0:
256,192,257275,12,0,268399,2:0:0:0:
