osu file format v14

[General]
AudioFilename: audio.mp3
AudioLeadIn: 0
PreviewTime: 86382
Countdown: 0
SampleSet: Soft
StackLeniency: 0.2
Mode: 0
LetterboxInBreaks: 0
WidescreenStoryboard: 0

[Editor]
Bookmarks: 96,43240,64811,86382,91774,107953,129526,151099,172672,178064,194242,215815,237388
DistanceSpacing: 0.9
BeatDivisor: 4
GridSize: 4
TimelineZoom: 1

[Metadata]
Title:Apollo 69
TitleUnicode:Apollo 69
Artist:Reso x Frederic Robinson
ArtistUnicode:Reso x Frederic Robinson
Creator:chaser01
Version:Exhaustion
Source:
Tags:resahc elvin S2G stick2glue lime limetwist dnb drum n bass breakcore NHS300 instrumental electronic nooj hospital records
BeatmapID:3563058
BeatmapSetID:1742900

[Difficulty]
HPDrainRate:4
CircleSize:4
OverallDifficulty:9
ApproachRate:9.4
SliderMultiplier:2
SliderTickRate:1

[Events]
//Background and Video events
0,0,"exhausting.jpg",0,0
//Break Periods
2,86709,89847
//Storyboard Layer 0 (Background)
//Storyboard Layer 1 (Fail)
//Storyboard Layer 2 (Pass)
//Storyboard Layer 3 (Foreground)
//Storyboard Layer 4 (Overlay)
//Storyboard Sound Samples

[TimingPoints]
96,337.078651685394,3,2,1,30,1,0
138,-100,3,2,1,5,0,0
433,-100,3,2,1,30,0,0
475,-100,3,2,1,5,0,0
938,-100,3,2,1,30,0,0
980,-100,3,2,1,5,0,0
1275,-100,3,2,1,30,0,0
1317,-100,3,2,1,5,0,0
1612,-100,3,2,1,30,0,0
1654,-100,3,2,1,5,0,0
2118,-100,3,2,1,30,0,0
2160,-100,3,2,1,5,0,0
2455,-100,3,2,1,30,0,0
2497,-100,3,2,1,5,0,0
2792,-100,3,2,1,30,0,0
2834,-100,3,2,1,5,0,0
3129,337.078651685394,4,2,1,30,1,0
3171,-100,4,2,1,5,0,0
3634,-100,4,2,1,30,0,0
3676,-100,4,2,1,5,0,0
3971,-100,4,2,1,30,0,0
4013,-100,4,2,1,5,0,0
4308,-100,4,2,1,30,0,0
4350,-100,4,2,1,5,0,0
4814,-100,4,2,1,30,0,0
4856,-100,4,2,1,5,0,0
5151,-100,4,2,1,30,0,0
5193,-100,4,2,1,5,0,0
5488,-100,4,2,1,30,0,0
5530,-100,4,2,1,5,0,0
5825,-100,4,2,1,30,0,0
5867,-100,4,2,1,5,0,0
6331,-100,4,2,1,30,0,0
6373,-100,4,2,1,5,0,0
6668,-100,4,2,1,30,0,0
6710,-100,4,2,1,5,0,0
7005,-100,4,2,1,30,0,0
7047,-100,4,2,1,5,0,0
7511,-100,4,2,1,30,0,0
7553,-100,4,2,1,5,0,0
7848,-100,4,2,1,30,0,0
7890,-100,4,2,1,5,0,0
8185,-100,4,2,1,30,0,0
8227,-100,4,2,1,5,0,0
8522,-100,4,2,1,30,0,0
8564,-100,4,2,1,5,0,0
9027,-100,4,2,1,30,0,0
9069,-100,4,2,1,5,0,0
9364,-100,4,2,1,30,0,0
9406,-100,4,2,1,5,0,0
9702,-100,4,2,1,30,0,0
9744,-100,4,2,1,5,0,0
10207,-100,4,2,1,30,0,0
10249,-100,4,2,1,5,0,0
10544,-100,4,2,1,30,0,0
10586,-100,4,2,1,5,0,0
11050,-100,4,2,1,30,0,0
11092,-100,4,2,1,5,0,0
11724,-100,4,2,1,30,0,0
11766,-100,4,2,1,5,0,0
12061,-100,4,2,1,30,0,0
12103,-100,4,2,1,5,0,0
12398,-100,4,2,1,30,0,0
12440,-100,4,2,1,5,0,0
12904,-100,4,2,1,30,0,0
12946,-100,4,2,1,5,0,0
13241,-100,4,2,1,30,0,0
13283,-100,4,2,1,5,0,0
13578,-100,4,2,1,30,0,0
13620,-100,4,2,1,5,0,0
13915,-100,4,2,1,30,0,0
13957,-100,4,2,1,5,0,0
14421,-100,4,2,1,30,0,0
14463,-100,4,2,1,5,0,0
14758,-100,4,2,1,30,0,0
14800,-100,4,2,1,5,0,0
15095,-100,4,2,1,30,0,0
15137,-100,4,2,1,5,0,0
15600,-100,4,2,1,30,0,0
15642,-100,4,2,1,5,0,0
15937,-100,4,2,1,30,0,0
15979,-100,4,2,1,5,0,0
16275,-100,4,2,1,30,0,0
16317,-100,4,2,1,5,0,0
16612,-100,4,2,1,30,0,0
16654,-100,4,2,1,5,0,0
17117,-100,4,2,1,30,0,0
17159,-100,4,2,1,5,0,0
17454,-100,4,2,1,30,0,0
17496,-100,4,2,1,5,0,0
17791,-100,4,2,1,30,0,0
17833,-100,4,2,1,5,0,0
18297,-100,4,2,1,30,0,0
18339,-100,4,2,1,5,0,0
18634,-100,4,2,1,30,0,0
18676,-100,4,2,1,5,0,0
18971,-100,4,2,1,30,0,0
19013,-100,4,2,1,5,0,0
19308,337.078651685394,7,2,1,30,1,0
19350,-100,7,2,1,5,0,0
19813,-100,7,2,1,30,0,0
19855,-100,7,2,1,5,0,0
20150,-100,7,2,1,30,0,0
20192,-100,7,2,1,5,0,0
20487,-100,7,2,1,30,0,0
20529,-100,7,2,1,5,0,0
20993,-100,7,2,1,30,0,0
21035,-100,7,2,1,5,0,0
21330,-100,7,2,1,30,0,0
21372,-100,7,2,1,5,0,0
21668,337.078651685394,3,2,1,30,1,0
21668,-83.3333333333333,3,2,1,30,0,0
21710,-83.3333333333333,3,2,1,5,0,0
22005,-83.3333333333333,3,2,1,30,0,0
22047,-83.3333333333333,3,2,1,5,0,0
22510,-133.333333333333,3,2,1,45,0,0
22762,-133.333333333333,3,2,1,5,0,0
22847,-200,3,2,1,45,0,0
23099,-200,3,2,1,5,0,0
23184,-833.333333333333,3,2,1,45,0,0
23605,-833.333333333333,3,2,1,5,0,0
23690,-133.333333333333,3,2,1,45,0,0
23942,-133.333333333333,3,2,1,5,0,0
24027,-200,3,2,1,45,0,0
24279,-200,3,2,1,5,0,0
24364,-400,3,2,1,45,0,0
24616,-400,3,2,1,5,0,0
24701,337.078651685394,4,2,1,45,1,0
24701,-833.333333333333,4,2,1,45,0,0
25206,-833.333333333333,4,2,1,30,0,0
27903,-133.333333333333,4,2,1,45,0,0
28155,-133.333333333333,4,2,1,5,0,0
28240,-200,4,2,1,45,0,0
28492,-200,4,2,1,5,0,0
28577,-833.333333333333,4,2,1,45,0,0
28998,-833.333333333333,4,2,1,5,0,0
29083,-133.333333333333,4,2,1,45,0,0
29335,-133.333333333333,4,2,1,5,0,0
29420,-200,4,2,1,45,0,0
29672,-200,4,2,1,5,0,0
29757,-400,4,2,1,45,0,0
30009,-400,4,2,1,5,0,0
30094,-833.333333333333,4,2,1,45,0,0
30599,-833.333333333333,4,2,1,30,0,0
33296,-111.111111111111,4,2,1,45,0,0
33548,-111.111111111111,4,2,1,5,0,0
33633,-166.666666666667,4,2,1,45,0,0
33885,-166.666666666667,4,2,1,5,0,0
33970,-500,4,2,1,45,0,0
34391,-500,4,2,1,5,0,0
34476,-111.111111111111,4,2,1,45,0,0
34728,-111.111111111111,4,2,1,5,0,0
34813,-166.666666666667,4,2,1,45,0,0
35065,-166.666666666667,4,2,1,5,0,0
35150,-303.030303030303,4,2,1,45,0,0
35402,-303.030303030303,4,2,1,5,0,0
35487,-500,4,2,1,45,0,0
35908,-500,4,2,1,5,0,0
35993,-111.111111111111,4,2,1,45,0,0
36245,-111.111111111111,4,2,1,5,0,0
36330,-166.666666666667,4,2,1,45,0,0
36582,-166.666666666667,4,2,1,5,0,0
36667,-500,4,2,1,45,0,0
37088,-500,4,2,1,5,0,0
37172,-111.111111111111,4,2,1,45,0,0
37424,-111.111111111111,4,2,1,5,0,0
37509,-166.666666666667,4,2,1,45,0,0
37761,-166.666666666667,4,2,1,5,0,0
37847,-303.030303030303,4,2,1,45,0,0
38099,-303.030303030303,4,2,1,5,0,0
38184,-1000,4,2,1,45,0,0
38522,-1000,4,2,1,30,0,0
40796,-1000,4,2,1,5,0,0
40880,337.078651685394,7,2,1,40,1,0
40880,-769.230769230769,7,2,1,40,0,0
43240,337.078651685394,3,2,1,80,1,0
43240,-71.4285714285714,3,2,1,80,0,0
46273,337.078651685394,4,2,1,80,1,0
46273,-71.4285714285714,4,2,1,80,0,0
48295,-50,4,2,1,80,0,0
48801,-71.4285714285714,4,2,1,80,0,0
52677,-71.4285714285714,4,2,1,40,0,0
52719,-71.4285714285714,4,2,1,50,0,0
52761,-71.4285714285714,4,2,1,60,0,0
52846,-71.4285714285714,4,2,1,80,0,0
54194,-111.111111111111,4,2,1,80,0,0
54362,-71.4285714285714,4,2,1,80,0,0
59081,-50,4,2,1,80,0,0
59587,-71.4285714285714,4,2,1,80,0,0
62452,337.078651685394,3,2,1,80,1,0
62452,-71.4285714285714,3,2,1,80,0,0
63463,-71.4285714285714,3,2,1,40,0,0
63505,-71.4285714285714,3,2,1,50,0,0
63547,-71.4285714285714,3,2,1,60,0,0
63589,-71.4285714285714,3,2,1,70,0,0
63631,-71.4285714285714,3,2,1,80,0,0
64137,-200,3,2,1,80,0,0
64305,-111.111111111111,3,2,1,80,0,0
64474,-40,3,2,1,80,0,0
64643,-32.258064516129,3,2,1,80,0,0
64811,337.078651685394,7,2,1,85,1,1
64811,-64.5161290322581,7,2,1,85,0,1
65863,-64.5161290322581,7,2,1,55,0,1
65905,-64.5161290322581,7,2,1,65,0,1
65990,-64.5161290322581,7,2,1,85,0,1
67339,-64.5161290322581,7,2,1,40,0,1
67381,-64.5161290322581,7,2,1,50,0,1
67423,-64.5161290322581,7,2,1,60,0,1
67507,-64.5161290322581,7,2,1,85,0,1
67844,337.078651685394,4,2,1,85,1,1
67844,-64.5161290322581,4,2,1,85,0,1
75807,-64.5161290322581,4,2,1,20,0,1
75849,-64.5161290322581,4,2,1,29,0,1
75891,-64.5161290322581,4,2,1,34,0,1
75933,-64.5161290322581,4,2,1,37,0,1
75975,-64.5161290322581,4,2,1,44,0,1
76017,-64.5161290322581,4,2,1,52,0,1
76059,-64.5161290322581,4,2,1,60,0,1
76102,-64.5161290322581,4,2,1,68,0,1
76144,-64.5161290322581,4,2,1,72,0,1
76186,-64.5161290322581,4,2,1,76,0,1
76228,-64.5161290322581,4,2,1,80,0,1
76270,-64.5161290322581,4,2,1,85,0,1
79136,-133.333333333333,4,2,1,60,0,1
79178,-133.333333333333,4,2,1,70,0,1
79220,-100,4,2,1,80,0,1
79262,-100,4,2,1,90,0,1
79304,-80,4,2,1,50,0,1
79346,-80,4,2,1,63,0,1
79388,-71.4285714285714,4,2,1,75,0,1
79430,-71.4285714285714,4,2,1,80,0,1
79473,-64.5161290322581,4,2,1,85,0,1
80315,-100,4,2,1,85,0,1
80652,-64.5161290322581,4,2,1,85,0,1
80990,-400,4,2,1,85,0,1
81664,-64.5161290322581,4,2,1,60,0,1
81706,-64.5161290322581,4,2,1,70,0,1
81748,-64.5161290322581,4,2,1,75,0,1
81790,-64.5161290322581,4,2,1,80,0,1
81832,-64.5161290322581,4,2,1,85,0,1
82169,-64.5161290322581,4,2,1,55,0,1
82211,-64.5161290322581,4,2,1,65,0,1
82253,-64.5161290322581,4,2,1,70,0,1
82295,-64.5161290322581,4,2,1,80,0,1
82337,-64.5161290322581,4,2,1,85,0,1
82675,-64.5161290322581,4,2,1,50,0,1
82696,-64.5161290322581,4,2,1,30,0,1
82717,-64.5161290322581,4,2,1,35,0,1
82738,-64.5161290322581,4,2,1,40,0,1
82759,-64.5161290322581,4,2,1,50,0,1
82780,-64.5161290322581,4,2,1,55,0,1
82801,-64.5161290322581,4,2,1,65,0,1
82822,-64.5161290322581,4,2,1,75,0,1
82843,-64.5161290322581,4,2,1,85,0,1
83181,-64.5161290322581,4,2,1,50,0,1
83202,-64.5161290322581,4,2,1,30,0,1
83223,-64.5161290322581,4,2,1,35,0,1
83244,-64.5161290322581,4,2,1,40,0,1
83265,-64.5161290322581,4,2,1,50,0,1
83286,-64.5161290322581,4,2,1,55,0,1
83307,-64.5161290322581,4,2,1,65,0,1
83328,-64.5161290322581,4,2,1,75,0,1
83349,-64.5161290322581,4,2,1,85,0,1
84023,337.078651685394,7,2,1,85,1,1
84023,-64.5161290322581,7,2,1,85,0,1
86382,337.078651685394,3,2,1,85,1,0
89415,337.078651685394,7,2,1,85,1,0
91690,-100,7,2,1,5,0,0
91774,337.078651685394,4,2,1,85,1,0
91774,-50,4,2,1,85,0,0
92111,-58.8235294117647,4,2,1,85,0,0
93965,-50,4,2,1,85,0,0
94302,-66.6666666666667,4,2,1,85,0,0
94470,-50,4,2,1,85,0,0
95313,-58.8235294117647,4,2,1,85,0,0
97167,-50,4,2,1,85,0,0
97504,-58.8235294117647,4,2,1,85,0,0
99863,-50,4,2,1,85,0,0
100538,-58.8235294117647,4,2,1,85,0,0
100706,-83.3333333333333,4,2,1,85,0,0
100875,-142.857142857143,4,2,1,85,0,0
101043,-58.8235294117647,4,2,1,85,0,0
102391,-50,4,2,1,85,0,0
103234,-66.6666666666667,4,2,1,85,0,0
105594,-71.4285714285714,4,2,1,85,0,0
107869,-71.4285714285714,4,2,1,70,0,0
107953,-47.6190476190476,4,2,1,88,0,1
108290,-57.1428571428571,4,2,1,88,0,1
113009,-66.6666666666667,4,2,1,88,0,1
113347,-47.6190476190476,4,2,1,88,0,1
114695,-66.6666666666667,4,2,1,88,0,1
114863,-47.6190476190476,4,2,1,88,0,1
115875,-66.6666666666667,4,2,1,88,0,1
115917,-66.6666666666667,4,2,1,55,0,1
115959,-66.6666666666667,4,2,1,70,0,1
116001,-66.6666666666667,4,2,1,80,0,1
116043,-47.6190476190476,4,2,1,88,0,1
117054,-57.1428571428571,4,2,1,88,0,1
118234,-66.6666666666667,4,2,1,88,0,1
118740,-47.6190476190476,4,2,1,88,0,1
119077,-57.1428571428571,4,2,1,88,0,1
121774,-47.6190476190476,4,2,1,88,0,1
122111,-57.1428571428571,4,2,1,88,0,1
123375,-57.1428571428571,4,2,1,70,0,1
123459,-57.1428571428571,4,2,1,88,0,1
123880,-57.1428571428571,4,2,1,70,0,1
123965,-57.1428571428571,4,2,1,88,0,1
124133,-47.6190476190476,4,2,1,88,0,1
124470,-57.1428571428571,4,2,1,88,0,1
126156,-62.5,4,2,1,88,0,1
126830,-62.5,4,2,1,88,0,0
128515,-133.333333333333,4,2,1,88,0,0
129189,-333.333333333333,4,2,1,88,0,0
129526,-28.5714285714286,4,2,2,92,0,1
129820,-25.0000000000005,4,2,2,5,0,1
129863,-40,4,2,2,92,0,1
130200,-57.1428571428571,4,2,2,92,0,1
131549,-52.6315789473684,4,2,2,92,0,1
131717,-86.9565217391304,4,2,2,92,0,1
131886,-64.5161290322581,4,2,2,92,0,1
132054,-74.0740740740741,4,2,2,92,0,1
132223,-74.0740740740741,4,2,2,80,0,0
132560,-100,4,2,2,80,0,0
134920,-27.027027027027,4,2,2,92,0,1
135425,-40,4,2,2,92,0,1
135594,-50,4,2,2,92,0,1
137111,-100,4,2,2,92,0,1
137616,-100,4,2,2,80,0,0
140313,-35.7142857142857,4,2,2,92,0,1
140607,-30.3030303030303,4,2,2,5,0,1
140650,-45.4545454545455,4,2,2,92,0,1
141156,-333.333333333333,4,2,2,92,0,1
141493,-40,4,2,2,92,0,1
141661,-333.333333333333,4,2,2,92,0,1
141998,-40,4,2,2,92,0,1
142167,-200,4,2,2,92,0,1
142504,-66.6666666666667,4,2,2,92,0,1
143009,-66.6666666666667,4,2,2,80,0,0
143347,-100,4,2,2,80,0,0
145706,-33.3333333333333,4,2,2,92,0,1
146212,-45.4545454545455,4,2,2,92,0,1
146549,-50,4,2,2,92,0,1
147054,-37.037037037037,4,2,2,92,0,1
147391,-250,4,2,2,92,0,1
147729,-50,4,2,2,92,0,1
148403,-83.3333333333333,4,2,2,80,0,0
151099,-57.1428571428571,4,2,2,85,0,1
153796,-100,4,2,2,80,0,0
156156,-166.666666666667,4,2,2,80,0,0
156493,-45.4545454545455,4,2,2,85,0,1
156998,-57.1428571428571,4,2,2,85,0,1
159189,-100,4,2,2,80,0,0
161886,-100,4,2,2,85,0,1
162223,-66.6666666666667,4,2,2,85,0,1
164582,-86.9565217391304,4,2,2,80,0,0
167279,-86.9565217391304,4,2,2,85,0,1
167616,-66.6666666666667,4,2,2,85,0,1
169639,-50,4,2,2,85,0,1
169976,-86.9565217391304,4,2,2,85,0,0
172672,337.078651685394,3,2,2,70,1,1
172756,-100,3,2,2,70,0,0
175705,337.078651685394,7,2,2,70,1,0
177221,-100,7,2,1,30,0,0
177306,-100,7,2,1,37,0,0
177390,-100,7,2,1,44,0,0
177474,-100,7,2,1,51,0,0
177558,-100,7,2,1,58,0,0
177643,-100,7,2,1,65,0,0
177727,-100,7,2,1,70,0,0
177811,-100,7,2,1,75,0,0
177896,-100,7,2,1,80,0,0
177980,-100,7,2,1,85,0,0
178064,337.078651685394,3,2,1,88,1,0
178064,-64.5161290322581,3,2,1,88,0,0
180760,-45.4545454545455,3,2,1,88,0,0
181097,337.078651685394,4,2,1,88,1,0
181265,-64.5161290322581,4,2,1,88,0,0
182950,-80,4,2,1,88,0,0
183119,-105.263157894737,4,2,1,88,0,0
183288,-142.857142857143,4,2,1,88,0,0
183625,-64.5161290322581,4,2,1,88,0,0
183667,-64.5161290322581,4,2,1,20,0,0
183709,-64.5161290322581,4,2,1,29,0,0
183751,-64.5161290322581,4,2,1,34,0,0
183793,-64.5161290322581,4,2,1,37,0,0
183835,-64.5161290322581,4,2,1,44,0,0
183877,-64.5161290322581,4,2,1,52,0,0
183919,-64.5161290322581,4,2,1,60,0,0
183962,-64.5161290322581,4,2,1,68,0,0
184004,-64.5161290322581,4,2,1,72,0,0
184046,-64.5161290322581,4,2,1,76,0,0
184088,-64.5161290322581,4,2,1,82,0,0
184130,-64.5161290322581,4,2,1,88,0,0
189523,-64.5161290322581,4,2,1,60,0,0
189565,-64.5161290322581,4,2,1,70,0,0
189607,-64.5161290322581,4,2,1,80,0,0
189649,-64.5161290322581,4,2,1,83,0,0
189691,-64.5161290322581,4,2,1,88,0,0
190029,-64.5161290322581,4,2,1,60,0,0
190071,-64.5161290322581,4,2,1,70,0,0
190113,-64.5161290322581,4,2,1,80,0,0
190155,-64.5161290322581,4,2,1,83,0,0
190197,-64.5161290322581,4,2,1,88,0,0
190535,-64.5161290322581,4,2,1,50,0,0
190556,-64.5161290322581,4,2,1,30,0,0
190577,-64.5161290322581,4,2,1,35,0,0
190598,-64.5161290322581,4,2,1,40,0,0
190619,-64.5161290322581,4,2,1,50,0,0
190640,-64.5161290322581,4,2,1,55,0,0
190661,-64.5161290322581,4,2,1,65,0,0
190682,-64.5161290322581,4,2,1,75,0,0
190703,-64.5161290322581,4,2,1,88,0,0
191040,-64.5161290322581,4,2,1,50,0,0
191061,-64.5161290322581,4,2,1,30,0,0
191082,-64.5161290322581,4,2,1,35,0,0
191103,-64.5161290322581,4,2,1,40,0,0
191124,-64.5161290322581,4,2,1,50,0,0
191145,-64.5161290322581,4,2,1,55,0,0
191166,-64.5161290322581,4,2,1,65,0,0
191187,-64.5161290322581,4,2,1,75,0,0
191208,-64.5161290322581,4,2,1,88,0,0
191883,337.078651685394,7,2,1,88,1,0
191883,-64.5161290322581,7,2,1,88,0,0
193568,-80,7,2,1,88,0,0
193905,-76.9230769230769,7,2,1,88,0,0
194074,-90.9090909090909,7,2,1,88,0,0
194242,337.078651685394,4,2,1,88,1,1
194242,-50,4,2,1,88,0,1
194579,-60.6060606060606,4,2,1,88,0,1
202331,-50,4,2,1,88,0,1
203343,-60.6060606060606,4,2,1,88,0,1
203553,-60.6060606060606,4,2,1,30,0,1
203595,-60.6060606060606,4,2,1,40,0,1
203638,-60.6060606060606,4,2,1,45,0,1
203679,-60.6060606060606,4,2,1,55,0,1
203721,-60.6060606060606,4,2,1,70,0,1
203763,-60.6060606060606,4,2,1,80,0,1
203848,-60.6060606060606,4,2,1,88,0,1
206208,-250,4,2,1,88,0,1
206713,-60.6060606060606,4,2,1,88,0,1
207388,-60.6060606060606,4,2,1,55,0,1
207430,-60.6060606060606,4,2,1,70,0,1
207472,-60.6060606060606,4,2,1,80,0,1
207556,-60.6060606060606,4,2,1,88,0,1
207725,-50,4,2,1,88,0,1
208062,-60.6060606060606,4,2,1,88,0,1
208652,-60.6060606060606,4,2,1,48,0,1
208736,-60.6060606060606,4,2,1,70,0,1
208778,-60.6060606060606,4,2,1,80,0,1
208820,-60.6060606060606,4,2,1,88,0,1
209747,-74.0740740740741,4,2,1,88,0,1
210421,-47.6190476190476,4,2,1,88,0,1
210758,-60.6060606060606,4,2,1,88,0,1
214466,-60.6060606060606,4,2,1,48,0,1
214508,-60.6060606060606,4,2,1,55,0,1
214550,-60.6060606060606,4,2,1,70,0,1
214635,-60.6060606060606,4,2,1,88,0,1
215140,-60.6060606060606,4,2,1,83,0,1
215477,-60.6060606060606,4,2,1,77,0,1
215815,-500,4,2,1,70,0,0
216489,-500,4,2,1,5,0,0
216657,-500,4,2,1,35,0,0
220365,-1000,4,2,1,15,0,0
221208,-1000,4,2,1,35,0,0
221882,-1000,4,2,1,5,0,0
222050,-1000,4,2,1,35,0,0
225758,-1000,4,2,1,15,0,0
226601,-1000,4,2,1,35,0,0
227275,-1000,4,2,1,5,0,0
227444,-1000,4,2,1,35,0,0
231152,-1000,4,2,1,15,0,0
231994,-1000,4,2,1,35,0,0
232668,-1000,4,2,1,5,0,0
232837,-1000,4,2,1,35,0,0
234691,-769.230769230769,4,2,1,35,0,0
237303,-1000,4,2,1,5,0,0
237388,-1000,4,2,1,35,0,0
257107,-1000,4,2,1,12,0,0
268399,-1000,4,2,1,5,0,0

[Colours]
Combo1 : 255,128,0
Combo2 : 209,255,72

[HitObjects]
0,212,96,6,0,L|31:217,1,25,4|0,2:0|2:0,2:0:0:0:
29,222,433,2,0,L|4:218,1,25,0|0,2:0|2:0,2:0:0:0:
9,224,938,2,0,L|40:229,1,25,0|0,2:0|2:0,2:0:0:0:
38,234,1275,2,0,L|13:230,1,25,0|0,2:0|2:0,2:0:0:0:
19,236,1612,2,0,L|50:241,1,25,0|0,2:0|2:0,2:0:0:0:
48,246,2118,2,0,L|23:242,1,25,0|0,2:0|2:0,2:0:0:0:
28,248,2455,2,0,L|59:253,1,25,0|0,2:0|2:0,2:0:0:0:
58,259,2792,2,0,L|33:255,1,25,0|0,2:0|2:0,2:0:0:0:
116,323,3129,6,0,L|147:328,1,25,0|0,2:0|2:0,2:0:0:0:
145,333,3634,2,0,L|120:329,1,25,0|0,2:0|2:0,2:0:0:0:
125,335,3971,2,0,L|156:340,1,25,0|0,2:0|2:0,2:0:0:0:
154,345,4308,2,0,L|129:341,1,25,0|0,2:0|2:0,2:0:0:0:
135,347,4814,2,0,L|166:352,1,25,0|0,2:0|2:0,2:0:0:0:
164,357,5151,2,0,L|139:353,1,25,0|0,2:0|2:0,2:0:0:0:
144,359,5488,2,0,L|175:364,1,25,0|0,2:0|2:0,2:0:0:0:
255,383,5825,6,0,L|286:378,1,25,0|0,2:0|2:0,2:0:0:0:
284,373,6331,2,0,L|259:377,1,25,0|0,2:0|2:0,2:0:0:0:
264,371,6668,2,0,L|295:366,1,25,0|0,2:0|2:0,2:0:0:0:
293,361,7005,2,0,L|268:365,1,25,0|0,2:0|2:0,2:0:0:0:
274,359,7511,2,0,L|305:354,1,25,0|0,2:0|2:0,2:0:0:0:
303,349,7848,2,0,L|278:353,1,25,0|0,2:0|2:0,2:0:0:0:
283,347,8185,2,0,L|314:342,1,25,0|0,2:0|2:0,2:0:0:0:
383,327,8522,6,0,L|414:322,1,25,0|0,2:0|2:0,2:0:0:0:
412,317,9027,2,0,L|387:321,1,25,0|0,2:0|2:0,2:0:0:0:
392,315,9364,2,0,L|423:310,1,25,0|0,2:0|2:0,2:0:0:0:
421,305,9702,2,0,L|396:309,1,25,0|0,2:0|2:0,2:0:0:0:
402,303,10207,2,0,L|433:298,1,25,0|0,2:0|2:0,2:0:0:0:
431,293,10544,2,0,L|406:297,1,25,0|0,2:0|2:0,2:0:0:0:
269,220,11050,6,0,L|238:215,1,25,0|0,2:0|2:0,2:0:0:0:
240,210,11724,2,0,L|265:214,1,25,0|0,2:0|2:0,2:0:0:0:
260,208,12061,2,0,L|229:203,1,25,0|0,2:0|2:0,2:0:0:0:
231,198,12398,2,0,L|256:202,1,25,0|0,2:0|2:0,2:0:0:0:
250,196,12904,2,0,L|219:191,1,25,0|0,2:0|2:0,2:0:0:0:
221,186,13241,2,0,L|246:190,1,25,0|0,2:0|2:0,2:0:0:0:
241,184,13578,2,0,L|216:180,1,25,0|0,2:0|2:0,2:0:0:0:
148,239,13915,6,0,L|117:244,1,25,0|0,2:0|2:0,2:0:0:0:
119,249,14421,2,0,L|144:245,1,25,0|0,2:0|2:0,2:0:0:0:
139,251,14758,2,0,L|108:256,1,25,0|0,2:0|2:0,2:0:0:0:
110,261,15095,2,0,L|135:257,1,25,0|0,2:0|2:0,2:0:0:0:
129,263,15600,2,0,L|98:268,1,25,0|0,2:0|2:0,2:0:0:0:
100,273,15937,2,0,L|125:269,1,25,0|0,2:0|2:0,2:0:0:0:
120,275,16275,2,0,L|95:279,1,25,0|0,2:0|2:0,2:0:0:0:
209,259,16612,6,0,L|240:256,1,25,0|0,2:0|2:0,2:0:0:0:
241,262,17117,2,0,L|215:264,1,25,0|0,2:0|2:0,2:0:0:0:
222,270,17454,2,0,L|253:267,1,25,0|0,2:0|2:0,2:0:0:0:
253,273,17791,2,0,L|227:275,1,25,0|0,2:0|2:0,2:0:0:0:
235,279,18297,2,0,L|266:276,1,25,0|0,2:0|2:0,2:0:0:0:
265,282,18634,2,0,L|239:284,1,25,0|0,2:0|2:0,2:0:0:0:
246,288,18971,2,0,L|271:285,1,25,0|0,2:0|2:0,2:0:0:0:
339,327,19308,6,0,L|370:324,1,25,0|0,2:0|2:0,2:0:0:0:
368,331,19813,2,0,L|342:333,1,25,0|0,2:0|2:0,2:0:0:0:
349,339,20150,2,0,L|380:336,1,25,0|0,2:0|2:0,2:0:0:0:
380,342,20487,2,0,L|354:344,1,25,0|0,2:0|2:0,2:0:0:0:
362,348,20993,2,0,L|393:345,1,25,0|0,2:0|2:0,2:0:0:0:
392,351,21330,2,0,L|366:353,1,25,0|0,2:0|2:0,2:0:0:0:
463,243,21668,6,0,L|460:212,1,30,0|0,2:0|2:0,2:0:0:0:
468,205,22005,2,0,L|470:234,1,30,0|0,2:0|2:0,2:0:0:0:
107,382,22510,6,0,L|98:263,1,112.5,2|0,2:0|2:0,2:0:0:0:
107,269,22847,2,0,L|102:194,1,75,2|0,2:0|2:0,2:0:0:0:
110,192,23184,2,0,L|108:160,1,30,2|0,2:0|2:0,2:0:0:0:
107,382,23690,6,0,L|98:263,1,112.5,2|0,2:0|2:0,2:0:0:0:
107,269,24027,2,0,L|102:194,1,75,2|0,2:0|2:0,2:0:0:0:
110,192,24364,2,0,L|108:154,1,37.5,2|0,2:0|2:0,2:0:0:0:
115,150,24701,2,0,L|113:112,1,36,2|0,2:0|2:0,2:0:0:0:
483,72,27903,6,0,P|450:48|374:46,1,112.5,2|0,2:0|2:0,2:0:0:0:
374,39,28240,2,0,P|346:50|316:97,1,75,2|0,2:0|2:0,2:0:0:0:
312,87,28577,2,0,P|311:98|314:120,1,30,2|0,2:0|2:0,2:0:0:0:
483,72,29083,6,0,P|450:48|374:46,1,112.5,2|0,2:0|2:0,2:0:0:0:
374,39,29420,2,0,P|346:50|316:97,1,75,2|0,2:0|2:0,2:0:0:0:
312,87,29757,2,0,P|311:98|316:129,1,37.5,2|0,2:0|2:0,2:0:0:0:
311,131,30094,2,0,P|330:149|338:154,1,36,2|0,2:0|2:0,2:0:0:0:
507,244,33296,6,0,L|345:263,1,135,2|0,2:0|2:0,2:0:0:0:
365,261,33633,2,0,L|375:351,1,89.9999999999998,2|0,2:0|2:0,2:0:0:0:
366,351,33970,2,0,L|316:357,1,50,2|0,2:0|2:0,2:0:0:0:
507,244,34476,6,0,L|345:263,1,135,2|0,2:0|2:0,2:0:0:0:
365,261,34813,2,0,L|355:171,1,89.9999999999998,2|0,2:0|2:0,2:0:0:0:
363,169,35150,2,0,L|417:162,1,49.5,2|0,2:0|2:0,2:0:0:0:
420,161,35487,2,0,L|414:111,1,50,2|0,2:0|2:0,2:0:0:0:
178,5,35993,6,0,P|248:42|258:104,1,135,2|0,2:0|2:0,2:0:0:0:
257,99,36330,2,0,P|235:134|173:136,1,89.9999999999998,2|0,2:0|2:0,2:0:0:0:
183,138,36667,2,0,P|160:121|131:115,1,50,2|0,2:0|2:0,2:0:0:0:
178,5,37172,6,0,P|248:42|258:104,1,135,2|0,2:0|2:0,2:0:0:0:
257,99,37509,2,0,P|245:137|261:210,1,89.9999999999998,2|0,2:0|2:0,2:0:0:0:
253,194,37847,2,0,P|266:224|264:254,1,49.5,2|0,2:0|2:0,2:0:0:0:
262,247,38184,2,0,P|275:295|256:247,1,155,2|0,2:0|2:0,2:0:0:0:
253,167,40880,6,0,B|231:110|287:99|250:41,1,130,0|0,2:0|2:0,2:0:0:0:
250,40,43240,6,0,P|173:66|110:81,1,140,6|0,3:2|1:0,2:0:0:0:
0,100,43492,1,0,2:0:0:0:
0,100,43577,2,0,P|61:153|105:200,1,140,10|0,2:0|1:0,2:0:0:0:
172,275,43829,1,8,2:0:0:0:
172,275,43914,2,0,P|187:195|206:133,1,140,8|2,2:0|1:0,2:0:0:0:
256,319,44166,1,8,2:0:0:0:
261,329,44251,1,0,3:0:0:0:
309,336,44335,1,0,3:0:0:0:
358,345,44419,1,2,3:0:0:0:
504,262,44588,6,0,P|433:281|416:285,1,70,0|8,1:0|2:0,2:0:0:0:
429,291,44756,2,0,P|463:282|497:273,1,70,2|8,1:0|2:0,2:0:0:0:
504,280,44925,1,8,2:0:0:0:
345,245,45093,6,0,P|333:211|321:179,1,70,0|8,1:0|2:0,2:0:0:0:
326,167,45262,2,0,P|338:199|349:232,1,70,2|0,3:0|3:0,2:0:0:0:
359,234,45431,1,8,2:0:0:0:
425,112,45599,6,0,P|457:124|490:137,1,70,2|8,1:0|2:0,2:0:0:0:
496,148,45768,2,0,P|463:135|430:122,1,70,0|8,1:0|2:0,2:0:0:0:
423,128,45936,1,2,3:0:0:0:
438,206,46105,1,2,3:0:0:0:
212,9,46273,6,0,P|93:33|-19:55,1,210,2|8,3:0|2:0,2:0:0:0:
0,59,46610,2,0,P|49:124|61:156,1,70,8|0,2:0|2:0,2:0:0:0:
134,161,46778,2,0,P|183:109|211:95,1,70,2|0,1:0|2:0,2:0:0:0:
240,204,46947,1,0,3:0:0:0:
249,207,47031,1,0,3:0:0:0:
258,210,47115,1,2,3:0:0:0:
130,278,47284,6,0,P|49:298|30:303,1,70,0|8,1:0|2:0,2:0:0:0:
52,307,47452,1,10,2:0:0:0:
244,332,47621,6,0,P|325:352|344:357,1,70,0|8,1:0|2:0,2:0:0:0:
322,368,47789,2,0,P|403:350|422:346,1,70,0|0,3:0|3:0,2:0:0:0:
394,338,47958,1,10,2:0:0:0:
159,378,48126,5,0,1:0:0:0:
159,378,48211,1,8,2:0:0:0:
159,378,48295,2,0,P|172:265|206:123,2,200,2|4|2,1:0|3:0|3:0,2:0:0:0:
97,163,48801,6,0,P|78:68|70:10,1,140,0|10,1:0|2:0,2:0:0:0:
153,47,49138,2,0,P|196:32|250:15,1,70,0|8,1:0|2:0,2:0:0:0:
44,83,49306,1,8,2:0:0:0:
294,58,49475,6,0,L|391:74,1,70,2|8,1:0|2:0,2:0:0:0:
434,37,49643,1,0,3:0:0:0:
444,34,49728,1,0,3:0:0:0:
453,31,49812,1,2,3:0:0:0:
374,209,49980,5,0,1:0:0:0:
358,176,50065,1,8,2:0:0:0:
332,153,50149,1,2,1:0:0:0:
300,141,50233,1,8,2:0:0:0:
265,142,50317,1,8,2:0:0:0:
193,233,50486,6,0,P|236:222|315:203,1,70,0|8,1:0|2:0,2:0:0:0:
435,272,50655,1,2,3:0:0:0:
473,258,50739,1,0,3:0:0:0:
512,244,50823,1,8,2:0:0:0:
479,361,50992,6,0,P|435:350|356:331,1,70,2|8,1:0|2:0,2:0:0:0:
186,317,51160,2,0,P|220:309|255:302,1,70,0|8,1:0|2:0,2:0:0:0:
262,293,51329,1,2,3:0:0:0:
229,384,51497,1,0,3:0:0:0:
0,174,51666,6,0,P|67:67|197:94,1,210,2|8,3:0|2:0,2:0:0:0:
152,60,52003,2,0,P|72:29|34:14,1,70,8|0,2:0|2:0,2:0:0:0:
374,143,52171,1,2,1:0:0:0:
374,143,52256,1,0,2:0:0:0:
374,143,52340,1,0,3:0:0:0:
406,154,52424,1,0,3:0:0:0:
447,171,52508,1,2,3:0:0:0:
252,222,52677,6,0,P|245:174|251:164,2,35,0|0|0,1:0|1:0|1:0,2:0:0:0:
239,240,52846,2,0,P|230:148|293:64,1,140,10|0,2:0|1:0,2:0:0:0:
439,25,53183,1,0,3:0:0:0:
439,25,53267,1,0,3:0:0:0:
439,25,53351,2,0,P|413:98|377:108,1,70,10|0,2:0|2:0,2:0:0:0:
309,64,53520,2,0,P|335:-9|371:-19,1,70,0|8,1:0|2:0,2:0:0:0:
363,146,53688,5,2,3:0:0:0:
402,186,53773,1,0,3:0:0:0:
440,227,53857,1,8,2:0:0:0:
476,269,53941,1,8,2:0:0:0:
512,312,54025,1,0,3:0:0:0:
508,321,54194,6,0,L|514:262,1,45,2|0,1:0|1:0,2:0:0:0:
495,150,54362,2,0,B|396:185|396:185|382:330,1,210,8|8,2:0|2:0,2:0:0:0:
385,289,54699,1,0,3:0:0:0:
372,380,54868,6,0,P|405:368|437:356,1,70,2|8,1:0|2:0,2:0:0:0:
121,384,55037,1,0,3:0:0:0:
81,365,55121,1,0,3:0:0:0:
41,346,55205,1,2,3:0:0:0:
151,210,55374,5,0,1:0:0:0:
181,225,55458,1,8,2:0:0:0:
203,253,55542,1,2,1:0:0:0:
211,286,55626,1,8,2:0:0:0:
205,320,55711,1,8,2:0:0:0:
81,365,55879,6,0,P|124:270|136:238,1,70,0|8,1:0|2:0,2:0:0:0:
0,150,56048,2,0,P|43:55|55:23,1,70,2|0,3:0|3:0,2:0:0:0:
21,73,56216,1,8,2:0:0:0:
121,137,56385,5,2,1:0:0:0:
153,129,56469,1,8,2:0:0:0:
181,108,56553,1,0,1:0:0:0:
198,78,56638,1,8,2:0:0:0:
200,44,56722,1,2,3:0:0:0:
104,62,56890,5,0,3:0:0:0:
367,220,57059,2,0,P|460:247|519:270,1,140,2|0,3:0|1:0,2:0:0:0:
512,187,57312,1,8,2:0:0:0:
512,187,57396,2,0,P|445:162|424:155,1,70,8|0,2:0|2:0,2:0:0:0:
451,266,57565,2,0,P|418:277|385:290,1,70,2|0,1:0|2:0,2:0:0:0:
415,372,57733,1,0,3:0:0:0:
463,377,57817,1,0,3:0:0:0:
512,383,57902,1,2,3:0:0:0:
217,352,58070,6,0,P|134:370|109:375,1,70,0|8,1:0|2:0,2:0:0:0:
80,336,58239,1,10,2:0:0:0:
315,384,58407,5,0,1:0:0:0:
315,384,58492,1,8,2:0:0:0:
315,384,58576,1,0,3:0:0:0:
305,343,58660,1,0,3:0:0:0:
294,302,58744,1,10,2:0:0:0:
189,273,58913,6,0,P|223:195|232:173,1,70,0|8,1:0|2:0,2:0:0:0:
238,204,59081,2,0,P|247:104|253:4,2,200,2|4|2,1:0|3:0|3:0,2:0:0:0:
0,241,59587,6,0,P|7:343|9:407,1,140,0|10,1:0|2:0,2:0:0:0:
47,168,59924,1,0,1:0:0:0:
65,160,60008,1,8,2:0:0:0:
78,145,60093,1,8,2:0:0:0:
92,255,60261,5,2,1:0:0:0:
140,260,60346,1,8,2:0:0:0:
188,251,60430,1,0,3:0:0:0:
232,229,60514,1,0,3:0:0:0:
268,197,60598,1,2,3:0:0:0:
389,200,60767,6,0,P|454:219|487:237,1,70,0|8,1:0|2:0,2:0:0:0:
457,236,60935,2,0,P|509:278|532:308,1,70,2|8,1:0|2:0,2:0:0:0:
507,293,61104,1,8,2:0:0:0:
358,307,61273,6,0,P|381:370|387:407,1,70,0|8,1:0|2:0,2:0:0:0:
375,383,61441,1,2,3:0:0:0:
375,383,61525,2,0,L|290:371,1,70,0|8,3:0|2:0,2:0:0:0:
211,330,61694,1,0,1:0:0:0:
211,330,61778,2,0,L|132:342,1,70,2|8,1:0|2:0,2:0:0:0:
121,356,61947,2,0,L|190:345,1,70,0|8,1:0|2:0,2:0:0:0:
291,158,62115,5,2,3:0:0:0:
296,145,62199,1,8,2:0:0:0:
0,172,62368,1,8,2:0:0:0:
3,185,62452,2,0,P|63:233|107:219,1,70,2|0,3:0|2:0,2:0:0:0:
88,163,62620,2,0,P|169:134|180:100,1,70,0|8,1:0|2:0,2:0:0:0:
211,103,62789,1,0,3:0:0:0:
185,236,62957,5,2,1:0:0:0:
185,236,63041,1,8,2:0:0:0:
185,236,63126,2,0,P|255:261|267:307,1,70,0|0,3:0|3:0,2:0:0:0:
210,324,63294,1,2,3:0:0:0:
210,324,63378,1,0,3:0:0:0:
210,324,63463,2,0,P|223:360|219:384,4,35,8|8|8|0|0,2:0|2:0|2:0|2:0|2:0,2:0:0:0:
147,374,63800,1,0,1:0:0:0:
343,384,63968,5,0,3:0:0:0:
343,384,64053,1,0,3:0:0:0:
343,384,64137,2,0,P|351:348|353:339,1,25,10|8,2:0|2:0,2:0:0:0:
428,310,64305,6,0,P|415:286|398:256,1,45,0|8,1:0|2:0,2:0:0:0:
433,142,64474,6,0,P|387:134|353:130,2,62.5,2|0|8,1:0|2:0|2:0,2:0:0:0:
258,1,64643,6,0,P|199:32|160:52,2,77.5000000000001,0|0|0,3:0|2:0|2:0,2:0:0:0:
0,141,64811,6,0,P|40:249|160:266,1,232.5,6|0,3:2|2:0,2:0:0:0:
148,259,65148,2,0,P|218:235|283:232,1,77.5,10|0,2:0|2:0,2:0:0:0:
258,336,65316,2,0,P|188:360|123:363,1,77.5,0|8,1:0|2:0,2:0:0:0:
334,263,65485,2,0,P|371:272|407:287,1,77.5,8|0,2:0|2:0,2:0:0:0:
512,348,65653,6,0,P|497:389|489:404,6,38.75,10|0|0|0|0|8|8,2:0|2:0|2:0|2:0|1:0|2:0|2:0,2:0:0:0:
424,375,65990,1,10,2:0:0:0:
466,231,66159,5,0,1:0:0:0:
470,214,66243,1,8,2:0:0:0:
475,198,66327,1,10,2:0:0:0:
377,102,66496,5,0,1:0:0:0:
384,104,66580,1,8,2:0:0:0:
391,106,66664,1,0,1:0:0:0:
398,109,66749,1,8,2:0:0:0:
405,111,66833,1,2,3:0:0:0:
270,179,67002,5,0,1:0:0:0:
274,162,67086,1,8,2:0:0:0:
279,146,67170,1,10,2:0:0:0:
355,184,67339,6,0,L|392:195,2,38.75,8|8|8,2:0|2:0|2:0,2:0:0:0:
405,286,67507,5,2,3:0:0:0:
336,343,67676,2,0,P|293:327|239:312,1,77.5,2|0,3:0|2:0,2:0:0:0:
35,186,67844,6,0,P|21:104|211:25,1,310,2|0,3:0|3:0,2:0:0:0:
200,25,68265,1,8,2:0:0:0:
204,34,68349,2,0,P|178:120|152:158,1,77.5,2|8,1:0|2:0,2:0:0:0:
181,239,68518,1,0,3:0:0:0:
222,200,68602,1,0,3:0:0:0:
268,169,68686,2,0,P|310:139|396:102,1,77.5,2|0,3:0|2:0,2:0:0:0:
495,62,68855,5,0,1:0:0:0:
495,62,68939,1,8,2:0:0:0:
495,62,69023,2,0,P|401:24|372:5,1,77.5,2|0,3:0|2:0,2:0:0:0:
344,50,69192,1,0,1:0:0:0:
477,195,69360,5,0,3:0:0:0:
477,195,69445,1,0,3:0:0:0:
477,195,69529,2,0,P|467:256|459:313,1,77.5,10|0,2:0|2:0,2:0:0:0:
322,335,69697,2,0,P|327:296|334:258,1,77.5,10|8,2:0|2:0,2:0:0:0:
221,78,69866,2,0,P|211:139|203:196,1,77.5,2|8,1:0|2:0,2:0:0:0:
0,342,70035,2,0,P|5:303|12:265,1,77.5,2|0,3:0|2:0,2:0:0:0:
263,11,70203,6,0,P|128:43|152:231,1,310,2|10,3:0|2:0,2:0:0:0:
106,316,70709,1,0,1:0:0:0:
106,316,70793,1,8,2:0:0:0:
106,316,70877,2,0,P|33:337|-2:350,1,77.5,0|0,3:0|3:0,2:0:0:0:
293,178,71046,2,0,B|448:207|379:263|540:264,1,232.5,10|8,2:0|2:0,2:0:0:0:
301,269,71383,5,0,3:0:0:0:
309,276,71467,1,0,3:0:0:0:
309,276,71551,2,0,P|342:256|369:228,1,77.5,10|0,2:0|2:0,2:0:0:0:
502,148,71720,2,0,P|464:156|430:174,1,77.5,0|8,1:0|2:0,2:0:0:0:
228,311,71888,2,0,P|118:265|133:111,1,232.5,10|8,2:0|2:0,2:0:0:0:
98,144,72226,6,0,P|25:172|9:176,1,77.5,0|0,3:0|3:0,2:0:0:0:
230,90,72394,2,0,P|313:49|346:29,1,77.5,10|0,2:0|2:0,2:0:0:0:
109,0,72563,2,0,P|124:35|142:69,1,77.5,2|8,1:0|2:0,2:0:0:0:
184,158,72731,2,0,P|201:192|217:227,1,77.5,2|8,1:0|2:0,2:0:0:0:
124,224,72900,5,2,3:0:0:0:
276,162,73068,1,2,3:0:0:0:
455,384,73237,2,0,P|481:278|522:115,1,232.5,2|8,3:0|2:0,2:0:0:0:
505,151,73574,2,0,P|476:74|469:41,1,77.5,8|0,2:0|2:0,2:0:0:0:
363,41,73742,2,0,P|392:118|399:151,1,77.5,2|8,1:0|2:0,2:0:0:0:
284,288,73911,5,0,3:0:0:0:
265,329,73995,1,0,3:0:0:0:
254,376,74079,2,0,P|228:267|171:94,1,232.5,2|8,3:0|2:0,2:0:0:0:
186,141,74417,2,0,P|122:171|140:292,1,155,10|0,2:0|1:0,2:0:0:0:
117,248,74669,1,8,2:0:0:0:
126,249,74754,1,0,3:0:0:0:
83,264,74838,1,0,3:0:0:0:
38,281,74922,6,0,P|133:301|150:304,1,77.5,10|0,2:0|2:0,2:0:0:0:
215,357,75091,2,0,P|172:370|135:382,1,77.5,2|0,3:0|2:0,2:0:0:0:
297,322,75259,2,0,P|392:342|409:345,1,77.5,2|0,3:0|2:0,2:0:0:0:
444,361,75428,2,0,P|407:373|370:385,1,77.5,2|0,3:0|2:0,2:0:0:0:
512,316,75596,5,2,3:0:0:0:
17,172,75765,2,0,L|54:183,12,38.75,10|0|0|0|0|8|8|8|8|8|8|8|8,2:0|2:0|2:0|2:0|1:0|2:0|2:0|2:0|2:0|2:0|2:0|2:0|2:0,2:0:0:0:
4,170,76439,6,0,P|73:153|119:142,1,77.5,2|8,1:0|2:0,2:0:0:0:
202,83,76608,1,0,3:0:0:0:
247,91,76692,1,0,3:0:0:0:
290,101,76776,2,0,P|385:109|461:0,1,232.5,10|8,2:0|2:0,2:0:0:0:
451,1,77113,6,0,P|476:117|479:128,1,77.5,2|0,3:0|2:0,2:0:0:0:
366,144,77282,1,0,1:0:0:0:
368,159,77366,1,8,2:0:0:0:
371,174,77450,1,0,1:0:0:0:
375,189,77535,1,8,2:0:0:0:
377,202,77619,2,0,P|402:318|405:329,1,77.5,10|0,2:0|2:0,2:0:0:0:
251,333,77787,2,0,P|338:253|346:245,1,77.5,0|8,1:0|2:0,2:0:0:0:
429,384,77956,2,0,P|316:347|305:344,1,77.5,2|0,3:0|2:0,2:0:0:0:
174,295,78124,6,0,P|61:258|50:255,1,77.5,0|8,1:0|2:0,2:0:0:0:
1,206,78293,2,0,P|113:169|124:166,1,77.5,2|0,3:0|2:0,2:0:0:0:
253,0,78461,5,2,3:0:0:0:
317,30,78546,1,2,3:0:0:0:
380,61,78630,1,2,3:0:0:0:
380,61,78967,6,0,P|317:86|268:105,1,77.5,8|8,2:0|2:0,2:0:0:0:
154,108,79136,6,0,L|164:138,1,18.75,2|0,1:0|1:0,2:0:0:0:
164,135,79220,6,0,L|180:177,1,25,0|0,1:0|1:0,2:0:0:0:
177,167,79304,6,0,L|196:219,1,31.25,0|0,3:0|3:0,2:0:0:0:
192,205,79388,6,0,L|209:259,1,35,0|0,3:0|3:0,2:0:0:0:
206,249,79473,6,0,L|447:311,1,232.5,2|8,3:0|2:0,2:0:0:0:
436,298,79810,2,0,P|406:249|352:247,1,77.5,10|8,2:0|2:0,2:0:0:0:
322,305,79978,1,0,1:0:0:0:
303,320,80063,1,8,2:0:0:0:
281,330,80147,1,0,3:0:0:0:
257,334,80231,1,0,3:0:0:0:
232,332,80315,2,0,P|192:310|147:316,1,50,10|0,2:0|2:0,2:0:0:0:
113,330,80484,2,0,P|86:367|88:412,1,50,2|0,3:0|2:0,2:0:0:0:
259,249,80652,6,0,P|273:176|232:127,1,77.5,10|0,2:0|2:0,2:0:0:0:
229,90,80821,2,0,P|182:52|107:53,1,77.5,2|0,3:0|2:0,2:0:0:0:
50,16,80990,2,0,P|12:10|-9:3,1,50,2|10,3:0|2:0,2:0:0:0:
333,66,81495,5,0,1:0:0:0:
361,56,81579,1,8,2:0:0:0:
390,48,81664,2,0,P|436:30|446:26,4,38.75,0|0|0|8|10,1:0|1:0|1:0|2:0|2:0,2:0:0:0:
400,146,82001,5,0,1:0:0:0:
428,155,82085,1,8,2:0:0:0:
455,166,82169,2,0,P|502:180|512:183,4,38.75,0|0|0|8|10,1:0|1:0|1:0|2:0|2:0,2:0:0:0:
402,252,82506,5,0,1:0:0:0:
411,279,82591,1,8,2:0:0:0:
420,307,82675,2,0,L|429:336,8,19.375,0|0|0|0|0|0|8|8|10,1:0|1:0|1:0|1:0|1:0|1:0|2:0|2:0|2:0,2:0:0:0:
308,327,83012,5,8,2:0:0:0:
303,335,83068,5,8,2:0:0:0:
299,344,83124,5,8,2:0:0:0:
293,352,83181,6,0,L|279:379,8,19.375,0|0|0|0|0|0|8|8|10,1:0|1:0|1:0|1:0|1:0|1:0|2:0|2:0|2:0,2:0:0:0:
371,384,83518,5,0,3:0:0:0:
212,350,83686,5,2,3:0:0:0:
69,229,83855,5,2,3:0:0:0:
18,0,84023,6,0,P|129:9|199:17,1,155,2|0,3:0|1:0,2:0:0:0:
180,22,84275,1,8,2:0:0:0:
186,29,84360,2,0,P|91:76|71:86,1,77.5,8|0,2:0|2:0,2:0:0:0:
9,102,84528,5,2,3:0:0:0:
259,193,84697,5,2,3:0:0:0:
508,300,84865,6,0,P|397:309|327:317,1,155,2|0,3:0|1:0,2:0:0:0:
296,370,85118,1,8,2:0:0:0:
296,370,85202,2,0,P|192:350|168:348,1,77.5,10|0,2:0|2:0,2:0:0:0:
158,308,85371,2,0,P|119:314|82:324,1,77.5,0|8,1:0|2:0,2:0:0:0:
80,359,85539,1,0,3:0:0:0:
42,346,85624,1,0,3:0:0:0:
15,316,85708,6,0,P|39:250|50:211,1,77.5,10|0,2:0|2:0,2:0:0:0:
185,158,85876,6,0,P|169:194|155:230,1,77.5,0|8,1:0|2:0,2:0:0:0:
19,79,86045,6,0,P|54:62|88:44,1,77.5,2|8,1:0|2:0,2:0:0:0:
278,263,86214,6,0,P|312:244|347:229,1,77.5,0|0,3:0|2:0,2:0:0:0:
512,0,86382,5,6,3:2:0:0:
256,192,90426,12,0,91690,2:0:0:0:
473,367,91774,6,0,P|339:335|366:172,1,300,6|0,3:2|2:0,2:0:0:0:
330,189,92111,2,0,P|396:170|460:143,1,85,8|0,2:0|2:0,2:0:0:0:
508,192,92279,2,0,P|453:228|398:275,1,85,0|8,1:0|2:0,2:0:0:0:
328,360,92448,6,0,P|227:332|110:316,1,170,8|0,2:0|1:0,2:0:0:0:
155,323,92700,1,8,2:0:0:0:
155,323,92785,2,0,P|162:359|213:376,1,85,0|0,3:0|3:0,2:0:0:0:
265,310,92953,2,0,P|258:274|207:257,1,85,0|0,3:0|2:0,2:0:0:0:
1,303,93122,5,0,1:0:0:0:
6,322,93206,1,8,2:0:0:0:
10,342,93290,1,0,1:0:0:0:
14,362,93375,1,8,2:0:0:0:
16,384,93459,2,0,P|40:305|60:253,1,85,8|0,2:0|2:0,2:0:0:0:
108,242,93627,5,0,1:0:0:0:
112,236,93712,1,8,2:0:0:0:
117,230,93796,1,0,3:0:0:0:
11,175,93965,6,0,P|94:149|162:131,1,100,10|0,2:0|2:0,2:0:0:0:
495,124,94133,2,0,P|412:98|344:80,1,100,2|8,1:0|2:0,2:0:0:0:
233,100,94302,6,0,P|257:32|262:13,1,75,2|8,1:0|2:0,2:0:0:0:
262,19,94470,2,0,P|265:152|280:305,2,200,0|0|0,3:0|3:0|3:0,2:0:0:0:
268,10,94891,1,0,3:0:0:0:
274,6,94976,1,0,1:0:0:0:
281,2,95060,1,8,2:0:0:0:
288,1,95144,1,8,2:0:0:0:
498,87,95313,6,0,P|456:77|417:59,1,85,0|8,1:0|2:0,2:0:0:0:
203,227,95481,2,0,P|244:236|283:254,1,85,0|0,3:0|3:0,2:0:0:0:
512,214,95650,2,0,P|360:170|335:314,1,340,8|8,2:0|2:0,2:0:0:0:
345,309,96071,1,0,3:0:0:0:
345,309,96156,2,0,P|373:273|401:227,1,85,0|8,1:0|2:0,2:0:0:0:
502,291,96324,2,0,P|460:309|414:337,1,85,0|0,3:0|3:0,2:0:0:0:
257,369,96493,6,0,P|144:359|112:232,1,255,8|8,2:0|2:0,2:0:0:0:
31,228,96830,2,0,P|19:184|-2:140,1,85,0|8,1:0|2:0,2:0:0:0:
101,93,96998,5,4,3:2:0:0:
0,361,97167,2,0,P|136:296|329:251,1,300,2|0,3:0|2:0,2:0:0:0:
302,184,97504,2,0,P|402:198|420:200,1,85,8|0,2:0|2:0,2:0:0:0:
385,286,97672,2,0,L|462:251,1,85.0000016212464,0|8,1:0|2:0,2:0:0:0:
512,194,97841,1,8,2:0:0:0:
235,342,98009,6,0,P|217:292|200:249,1,85,8|0,2:0|2:0,2:0:0:0:
441,112,98178,1,0,3:0:0:0:
461,68,98262,1,8,2:0:0:0:
488,27,98347,2,0,P|450:129|244:84,1,340,0|0,3:0|1:0,2:0:0:0:
334,81,98768,1,8,2:0:0:0:
334,81,98852,2,0,P|319:41|314:-1,1,85,8|0,2:0|2:0,2:0:0:0:
391,11,99021,1,0,1:0:0:0:
253,103,99189,6,0,P|176:80|140:76,1,85,0|0,3:0|3:0,2:0:0:0:
4,104,99358,1,8,2:0:0:0:
97,1,99526,1,2,1:0:0:0:
98,8,99611,1,8,2:0:0:0:
101,15,99695,1,0,1:0:0:0:
102,22,99779,1,8,2:0:0:0:
103,30,99863,2,0,P|75:144|16:279,2,200,2|0|0,3:0|3:0|3:0,2:0:0:0:
47,306,100369,5,0,1:0:0:0:
47,306,100453,1,8,2:0:0:0:
47,306,100538,2,0,P|97:280|124:243,1,85,8|0,2:0|2:0,2:0:0:0:
140,366,100706,2,0,P|163:326|168:311,1,60,0|8,1:0|2:0,2:0:0:0:
236,375,100875,2,0,P|237:342|232:317,1,35,0|0,3:0|3:0,2:0:0:0:
443,383,101043,6,0,P|466:257|539:76,1,255,8|8,2:0|2:0,2:0:0:0:
371,306,101380,1,0,3:0:0:0:
371,306,101465,1,0,3:0:0:0:
371,306,101549,2,0,P|331:206|289:141,1,170,8|0,2:0|1:0,2:0:0:0:
290,155,101802,5,8,2:0:0:0:
290,155,101886,2,0,P|328:111|416:134,1,85,2|0,3:0|3:0,2:0:0:0:
405,162,102054,2,0,P|486:139|523:122,1,85,8|0,2:0|2:0,2:0:0:0:
489,129,102223,1,0,1:0:0:0:
209,214,102391,6,0,P|144:198|91:174,1,100,4|0,3:2|2:0,2:0:0:0:
17,15,102560,2,0,P|-8:137|225:201,1,400,2|8,3:0|2:0,2:0:0:0:
203,205,102981,1,0,1:0:0:0:
196,198,103066,1,0,1:0:0:0:
186,194,103150,1,8,2:0:0:0:
176,192,103234,2,0,P|121:197|84:218,3,75,0|8|0|8,1:0|2:0|1:0|2:0,2:0:0:0:
0,279,103571,6,0,P|55:295|83:325,1,75,8|0,2:0|2:0,2:0:0:0:
128,368,103740,1,0,1:0:0:0:
135,373,103824,1,8,2:0:0:0:
143,376,103908,1,0,1:0:0:0:
152,378,103993,1,8,2:0:0:0:
160,380,104077,2,0,P|217:362|244:301,1,75,8|0,2:0|2:0,2:0:0:0:
416,274,104245,6,0,P|306:251|347:343,1,225,0|8,3:0|2:0,2:0:0:0:
313,325,104582,2,0,P|349:330|409:368,1,75,0|8,1:0|2:0,2:0:0:0:
505,278,104751,6,0,P|495:243|483:179,1,75,2|8,3:0|2:0,2:0:0:0:
288,132,104920,2,0,P|298:167|306:204,1,75,2|0,3:0|2:0,2:0:0:0:
445,31,105088,1,6,3:2:0:0:
453,39,105425,5,0,1:0:0:0:
453,39,105509,1,8,2:0:0:0:
453,39,105594,2,0,P|343:22|255:24,1,140,8|0,2:0|1:0,2:0:0:0:
183,80,105931,2,0,P|173:161|172:187,1,70,8|0,2:0|2:0,2:0:0:0:
337,174,106099,2,0,P|347:93|348:66,1,70,0|8,1:0|2:0,2:0:0:0:
256,160,106268,1,0,3:0:0:0:
260,198,106352,1,0,3:0:0:0:
265,236,106436,1,0,3:0:0:0:
100,255,106605,5,0,1:0:0:0:
100,248,106689,1,8,2:0:0:0:
99,241,106774,2,0,P|93:148|89:87,2,140,8|0|0,2:0|1:0|3:0,2:0:0:0:
173,282,107279,1,8,2:0:0:0:
3,365,107448,5,8,2:0:0:0:
11,352,107532,5,2,2:0:0:0:
38,349,107616,5,2,1:0:0:0:
78,375,107700,5,10,2:0:0:0:
150,383,107785,5,2,1:0:0:0:
233,376,107869,5,10,2:0:0:0:
321,338,107953,6,0,P|414:196|425:29,1,315,6|0,3:2|2:0,2:0:0:0:
351,53,108290,2,0,P|353:88|350:183,1,87.5000000000001,8|0,2:0|2:0,2:0:0:0:
428,186,108459,2,0,P|457:166|541:121,1,87.5000000000001,0|8,1:0|2:0,2:0:0:0:
493,52,108627,2,0,P|461:36|380:-13,1,87.5000000000001,8|0,2:0|2:0,2:0:0:0:
278,89,108796,2,0,P|240:67|200:48,1,87.5000000000001,0|8,1:0|2:0,2:0:0:0:
0,1,108965,5,0,3:0:0:0:
49,15,109049,1,0,3:0:0:0:
98,31,109133,2,0,P|116:126|125:273,1,175,0|0,3:0|1:0,2:0:0:0:
118,216,109386,1,8,2:0:0:0:
118,216,109470,2,0,P|34:173|7:171,1,87.5000000000001,0|8,1:0|2:0,2:0:0:0:
203,169,109639,5,10,2:0:0:0:
253,141,109723,1,10,2:0:0:0:
287,81,109807,1,10,2:0:0:0:
347,33,109891,1,10,2:0:0:0:
425,26,109976,2,0,P|510:76|361:199,1,350,6|0,3:2|1:0,2:0:0:0:
394,207,110397,1,8,2:0:0:0:
394,207,110481,2,0,P|413:126|416:74,1,87.5000000000001,0|8,1:0|2:0,2:0:0:0:
185,16,110650,5,2,3:0:0:0:
12,137,110818,5,0,3:0:0:0:
15,347,110987,6,0,P|158:372|333:377,1,262.5,0|8,3:0|2:0,2:0:0:0:
280,366,111324,2,0,L|381:341,1,87.5000000000001,8|0,2:0|2:0,2:0:0:0:
420,287,111493,2,0,L|506:302,1,87.5000000000001,0|8,1:0|2:0,2:0:0:0:
501,384,111661,5,0,3:0:0:0:
501,384,111745,1,0,3:0:0:0:
501,384,111830,2,0,P|413:317|522:140,1,350,2|10,3:0|2:0,2:0:0:0:
511,155,112251,1,2,2:0:0:0:
498,167,112335,1,2,1:0:0:0:
440,158,112420,1,10,2:0:0:0:
368,170,112504,1,2,3:0:0:0:
289,148,112588,1,2,3:2:0:0:
202,154,112672,2,0,P|91:146|-41:135,1,175,10|0,2:0|1:0,2:0:0:0:
150,235,112925,5,8,2:0:0:0:
150,235,113009,2,0,P|192:253|276:283,1,75,2|0,3:0|2:0,2:0:0:0:
318,353,113178,2,0,P|266:367|220:385,1,75,0|8,1:0|2:0,2:0:0:0:
228,380,113347,6,0,B|260:231|258:51,1,315,6|0,3:2|2:0,2:0:0:0:
171,83,113684,1,8,2:0:0:0:
286,348,113852,6,0,B|257:205|257:23,1,315,6|0,3:2|2:0,2:0:0:0:
340,41,114189,1,8,2:0:0:0:
220,325,114358,6,0,P|248:186|256:-14,1,315,6|0,3:2|2:0,2:0:0:0:
248,12,114695,2,0,P|208:35|182:45,1,75,0|8,1:0|2:0,2:0:0:0:
389,156,114863,6,0,P|418:136|451:121,2,52.5,10|0|10,2:0|2:0|2:0,2:0:0:0:
437,119,115032,2,0,P|491:213|330:268,1,315,2|8,3:0|2:0,2:0:0:0:
94,243,115369,6,0,P|59:236|24:236,2,52.5,10|0|10,2:0|2:0|2:0,2:0:0:0:
29,229,115538,2,0,P|20:336|188:317,1,315,2|8,3:0|2:0,2:0:0:0:
373,323,115875,6,0,P|346:338|329:352,1,37.5,2|8,1:0|2:0,2:0:0:0:
330,351,115959,6,0,P|309:366|283:393,1,37.5,10|8,2:0|2:0,2:0:0:0:
292,382,116043,6,0,P|284:270|69:30,1,420,2|0,3:0|3:0,2:0:0:0:
90,45,116465,1,0,3:0:0:0:
90,59,116549,1,0,1:0:0:0:
98,75,116633,1,8,2:0:0:0:
107,86,116717,1,8,2:0:0:0:
29,229,116886,5,0,1:0:0:0:
32,215,116970,1,8,2:0:0:0:
39,205,117054,2,0,P|103:188|150:178,1,87.5000000000001,0|0,3:0|3:0,2:0:0:0:
244,9,117223,2,0,P|342:32|472:61,1,175,0|0,3:0|1:0,2:0:0:0:
480,91,117476,1,8,2:0:0:0:
480,91,117560,2,0,P|434:131|378:114,1,87.5000000000001,8|0,2:0|2:0,2:0:0:0:
194,154,117729,5,0,1:0:0:0:
206,157,117813,1,8,2:0:0:0:
220,162,117897,1,0,3:0:0:0:
231,165,117981,1,0,3:0:0:0:
243,171,118066,2,0,P|281:190|297:229,1,87.5000000000001,10|0,2:0|2:0,2:0:0:0:
503,266,118234,6,0,P|484:205|480:172,1,75,2|8,1:0|2:0,2:0:0:0:
397,205,118403,2,0,P|433:197|468:184,1,75,2|8,1:0|2:0,2:0:0:0:
402,292,118571,2,0,P|394:250|381:215,1,75,10|0,2:0|2:0,2:0:0:0:
511,362,118740,6,0,P|392:378|301:207,1,315,2|0,3:0|2:0,2:0:0:0:
296,210,119077,2,0,P|251:184|177:173,1,87.5000000000001,8|0,2:0|2:0,2:0:0:0:
17,306,119245,1,0,1:0:0:0:
17,306,119330,1,8,2:0:0:0:
17,306,119414,2,0,P|69:265|100:212,1,87.5000000000001,8|0,2:0|2:0,2:0:0:0:
174,328,119582,2,0,P|166:240|152:196,1,87.5000000000001,0|8,1:0|2:0,2:0:0:0:
62,106,119751,5,0,3:0:0:0:
34,56,119835,1,0,3:0:0:0:
0,12,119920,2,0,P|17:69|288:88,1,350,0|2,3:0|1:0,2:0:0:0:
260,107,120341,1,8,2:0:0:0:
260,107,120425,2,0,P|153:94|120:88,1,87.5000000000001,10|0,2:0|2:0,2:0:0:0:
426,125,120594,2,0,P|528:139|555:142,1,87.5000000000001,2|8,1:0|2:0,2:0:0:0:
401,40,120762,5,2,3:0:0:0:
364,63,120847,1,0,3:0:0:0:
342,100,120931,1,8,2:0:0:0:
340,143,121015,1,0,2:0:0:0:
359,182,121099,2,0,P|400:248|411:317,3,87.5000000000001,0|8|0|8,1:0|2:0|1:0|2:0,2:0:0:0:
471,210,121436,5,2,3:0:0:0:
256,379,121605,5,0,3:0:0:0:
0,301,121774,6,0,P|88:262|245:239,1,210,0|0,3:0|1:0,2:0:0:0:
209,241,122026,1,8,2:0:0:0:
209,241,122111,2,0,P|188:326|185:348,1,87.5000000000001,8|0,2:0|2:0,2:0:0:0:
256,379,122279,2,0,P|340:354|360:346,3,87.5000000000001,0|8|0|0,1:0|2:0|3:0|3:0,2:0:0:0:
358,273,122616,2,0,P|294:212|277:198,1,87.5000000000001,8|0,2:0|2:0,2:0:0:0:
2,23,122785,5,2,3:0:0:0:
19,19,122869,1,2,2:0:0:0:
36,15,122953,1,2,1:0:0:0:
53,11,123038,1,10,2:0:0:0:
72,7,123122,5,2,1:0:0:0:
55,32,123206,1,10,2:0:0:0:
38,58,123290,1,2,1:0:0:0:
21,83,123375,1,10,2:0:0:0:
3,108,123459,5,2,3:0:0:0:
46,100,123543,1,10,2:0:0:0:
90,93,123627,1,2,1:0:0:0:
133,86,123712,1,10,2:0:0:0:
176,79,123796,5,2,1:0:0:0:
150,135,123880,1,10,2:0:0:0:
124,190,123965,1,10,2:0:0:0:
97,245,124049,1,10,2:0:0:0:
42,291,124133,2,0,B|30:264|-13:254|-13:254|29:224|153:209|162:282|175:354|229:368|245:372,1,315,2|0,3:0|2:0,2:0:0:0:
190,331,124470,6,0,P|268:380|388:362,1,175,8|0,2:0|1:0,2:0:0:0:
361,369,124723,1,8,2:0:0:0:
361,369,124807,2,0,P|446:326|472:315,1,87.5000000000001,0|8,1:0|2:0,2:0:0:0:
298,209,124976,2,0,P|292:304|289:332,1,87.5000000000001,0|0,3:0|2:0,2:0:0:0:
490,253,125144,2,0,P|410:200|325:122,1,175,8|0,2:0|1:0,2:0:0:0:
426,104,125397,5,8,2:0:0:0:
426,104,125481,2,0,P|402:60|389:3,1,87.5000000000001,0|0,3:0|2:0,2:0:0:0:
266,120,125650,2,0,P|310:24|327:3,1,87.5000000000001,0|0,3:0|2:0,2:0:0:0:
143,56,125818,2,0,P|219:7|241:-1,3,87.5000000000001,8|0|0|8,2:0|2:0|1:0|2:0,2:0:0:0:
114,139,126156,6,0,P|71:165|15:181,1,80,0|0,3:0|3:0,2:0:0:0:
135,281,126324,2,0,P|36:242|14:226,1,80,8|0,2:0|2:0,2:0:0:0:
51,381,126493,2,0,P|-1:307|-11:286,3,80,0|8|0|8,1:0|2:0|1:0|2:0,2:0:0:0:
140,366,126830,5,10,2:0:0:0:
264,307,126998,1,0,1:0:0:0:
288,312,127082,1,8,2:0:0:0:
311,326,127167,1,0,1:0:0:0:
327,347,127251,1,8,2:0:0:0:
337,372,127335,1,8,2:0:0:0:
312,226,127504,5,0,1:0:0:0:
324,210,127588,1,8,2:0:0:0:
343,198,127672,1,0,1:0:0:0:
365,195,127757,1,8,2:0:0:0:
387,197,127841,1,8,2:0:0:0:
490,285,128009,5,0,1:0:0:0:
477,278,128094,1,8,2:0:0:0:
467,266,128178,1,2,1:0:0:0:
462,251,128262,1,8,2:0:0:0:
461,236,128347,1,8,2:0:0:0:
507,160,128515,6,0,P|513:120|516:99,3,37.5000000000001,0|8|0|8,1:0|2:0|1:0|2:0,2:0:0:0:
478,43,128852,5,8,2:0:0:0:
485,30,129021,5,8,2:0:0:0:
489,23,129189,6,0,L|445:35,1,45,0|0,3:2|2:0,2:0:0:0:
435,36,129526,22,1,B|402:-32|314:-20|240:23|243:81|266:270|229:153|556:-87|365:27|318:171|355:20|595:16|538:-40|524:86|453:268|464:236|491:67|365:111,1,612.500005841255,6|0,3:2|2:0,2:0:0:0:
356,159,129863,2,1,B|415:229|495:248|495:248|456:211|322:266,1,250,8|2,2:0|2:3,2:0:0:0:
272,85,130116,5,8,2:0:0:0:
205,44,130200,2,0,P|114:13|-17:18,2,175.00000166893,12|0|0,2:0|1:0|3:0,2:0:0:0:
156,109,130622,5,0,3:0:0:0:
156,109,130706,2,0,P|64:151|35:172,1,87.5000000000001,12|0,2:0|2:0,2:0:0:0:
281,252,130875,2,0,B|427:276|365:358|524:364,1,262.5,8|0,2:0|2:0,2:0:0:0:
512,268,131212,5,8,2:0:0:0:
505,272,131296,1,0,3:0:0:0:
498,275,131380,2,0,P|425:303|391:309,1,87.5000000000001,12|0,2:0|2:0,2:0:0:0:
272,381,131549,6,0,B|262:347|283:331|283:331|294:359|269:381,1,95,2|8,2:3|2:0,2:0:0:0:
16,384,131717,2,0,B|21:364|9:355|9:355|2:372|16:383,1,57.5,2|8,2:3|2:0,2:0:0:0:
181,363,131886,2,0,B|169:342|185:326|185:326|197:348|183:361,1,77.5,0|0,3:2|2:0,2:0:0:0:
95,369,132054,2,0,B|83:351|92:335|92:335|106:352|99:369,1,67.5,8|0,2:0|2:0,2:0:0:0:
345,137,132223,5,2,3:0:0:0:
352,131,132560,2,0,P|274:116|234:103,1,100,8|2,2:0|2:3,2:0:0:0:
252,119,132813,1,0,1:0:0:0:
252,119,132897,2,0,P|265:171|269:203,1,50,0|8,1:0|2:0,2:0:0:0:
93,222,133066,2,0,P|80:170|76:138,1,50,0|0,3:0|2:0,2:0:0:0:
171,164,133234,1,0,1:0:0:0:
47,296,133403,6,0,P|119:339|159:317,1,100,8|0,2:0|1:0,2:0:0:0:
138,327,133656,1,8,2:0:0:0:
445,160,133824,5,8,2:0:0:0:
455,164,133908,2,0,P|428:208|378:221,1,100,8|0,2:0|1:0,2:0:0:0:
335,331,134245,6,0,P|323:290|324:255,1,50,10|0,2:0|2:0,2:0:0:0:
305,309,134414,2,0,P|311:266|327:235,1,50,10|0,2:0|2:0,2:0:0:0:
169,178,134582,6,0,P|162:202|150:224,1,50,2|0,3:2|2:0,2:0:0:0:
127,194,134751,2,0,P|110:212|91:228,1,50,2|0,3:2|2:0,2:0:0:0:
66,138,134920,38,1,B|-7:137|-39:45|-80:-42|316:-124|287:131|-82:-37|175:22|41:-5|22:84|64:131,2,369.999998588562,6|2|10,3:0|3:0|2:3,2:0:0:0:
129,88,135341,1,0,3:0:0:0:
129,88,135425,2,0,B|168:92|197:97|197:97|222:56|292:43,1,125,2|8,3:0|2:0,2:0:0:0:
507,177,135594,2,0,P|462:161|408:148,1,100,2|8,3:0|2:0,2:0:0:0:
484,7,135762,6,0,B|511:40|483:116|376:83|308:137|322:349|429:351|425:293,1,400,14|10,3:0|2:3,2:0:0:0:
393,294,136184,5,0,1:0:0:0:
393,294,136268,2,0,P|463:266|505:271,1,100,2|0,3:0|2:0,2:0:0:0:
347,384,136436,2,0,P|249:323|194:326,1,100,2|0,3:0|2:0,2:0:0:0:
190,230,136605,6,0,B|182:245|184:265|184:265|127:271|73:301|73:301|103:248|101:190|101:190|128:190|148:180,1,300,14|0,2:3|2:0,2:0:0:0:
76,301,136942,6,0,P|99:325|72:303,1,100,8|0,2:0|2:0,2:0:0:0:
0,373,137111,6,0,P|10:387|3:372,1,50,10|0,2:3|2:0,2:0:0:0:
190,230,137279,5,8,2:0:0:0:
254,184,137363,1,8,2:0:0:0:
310,129,137448,1,8,2:0:0:0:
386,118,137532,1,8,2:0:0:0:
396,124,137616,2,0,P|364:192|321:222,2,100,2|2|8,3:0|2:3|2:0,2:0:0:0:
174,21,138122,5,0,1:0:0:0:
188,28,138206,1,8,2:0:0:0:
205,33,138290,1,0,3:0:0:0:
220,40,138375,1,0,3:0:0:0:
235,48,138459,1,8,2:0:0:0:
23,231,138627,5,2,2:3:0:0:
35,218,138712,1,8,2:0:0:0:
48,206,138796,1,0,3:0:0:0:
62,197,138880,1,0,3:0:0:0:
76,188,138965,1,8,2:0:0:0:
298,287,139133,6,0,P|313:323|322:351,1,50,2|8,2:3|2:0,2:0:0:0:
293,320,139302,2,0,L|301:387,1,50,0|0,3:0|3:0,2:0:0:0:
286,384,139470,2,0,B|257:342|257:342|253:344|253:344|216:296,2,100,10|2|2,2:0|1:2|1:2,2:0:0:0:
411,102,139976,5,10,2:0:0:0:
411,87,140060,1,8,2:0:0:0:
424,69,140144,1,2,3:2:0:0:
426,55,140229,1,0,3:0:0:0:
424,47,140313,2,0,B|446:48|458:36|458:36|474:76|299:156|350:276|350:276|463:254|392:193|388:148|436:117|478:122,1,489.999985046387,6|0,3:0|2:0,2:0:0:0:
487,186,140650,6,0,P|341:221|216:273,1,220.000006713867,8|2,2:0|2:3,2:0:0:0:
109,355,140903,5,8,2:0:0:0:
34,339,140987,2,0,P|24:248|11:183,1,110.000003356934,10|0,2:3|2:0,2:0:0:0:
80,37,141156,6,0,P|82:60|87:86,1,45,4|0,3:0|2:0,2:0:0:0:
65,29,141493,6,0,P|138:19|226:-3,1,125,8|0,2:0|2:0,2:0:0:0:
512,94,141661,6,0,P|485:95|464:99,1,45,4|0,3:0|2:0,2:0:0:0:
453,88,141998,6,0,B|421:110|394:122|394:122|401:161|406:204,1,125,8|0,2:0|2:0,2:0:0:0:
0,235,142167,6,0,B|15:225|32:212|32:212|29:192|27:171,1,75,6|0,3:0|2:0,2:0:0:0:
4,203,142504,6,0,P|51:219|104:238,1,75,8|0,2:0|2:0,2:0:0:0:
329,372,142672,5,0,3:0:0:0:
399,358,142757,1,0,3:0:0:0:
470,352,142841,2,0,P|423:336|370:317,1,75,8|0,2:0|2:0,2:0:0:0:
149,257,143009,5,2,3:0:0:0:
247,42,143178,1,0,1:0:0:0:
247,42,143262,1,0,2:0:0:0:
247,42,143347,2,0,P|316:60|354:77,1,100,8|0,2:0|1:0,2:0:0:0:
354,81,143599,1,8,2:0:0:0:
354,81,143684,2,0,P|348:110|338:138,1,50,0|8,1:0|2:0,2:0:0:0:
492,272,143852,2,0,P|485:245|483:223,1,50,0|0,3:0|3:0,2:0:0:0:
411,180,144021,1,8,2:0:0:0:
170,258,144189,5,0,1:0:0:0:
170,258,144274,1,8,2:0:0:0:
170,258,144358,2,0,P|218:247|282:225,1,100,2|8,3:2|2:0,2:0:0:0:
97,335,144695,5,0,1:0:0:0:
97,335,144779,1,0,1:0:0:0:
97,335,144863,2,0,P|42:351|-7:361,2,100,0|8|8,3:0|2:0|2:0,2:0:0:0:
0,359,145369,5,0,3:0:0:0:
44,262,145538,1,0,3:0:0:0:
315,344,145706,2,0,B|317:374|344:372|363:356|377:310|449:271|478:268|559:303|514:360|465:314|418:317|407:334,2,300.000011444092,6|2|10,3:0|3:0|2:3,2:0:0:0:
260,283,146127,5,0,3:0:0:0:
260,283,146212,2,0,P|236:322|226:396,1,110,2|8,3:0|2:0,2:0:0:0:
477,281,146380,2,0,P|501:242|511:168,1,110,2|8,3:0|2:0,2:0:0:0:
493,59,146549,6,0,B|471:26|471:26|473:24|473:24|455:-3|455:-3|440:110|440:110|435:107|435:107|417:235,1,300,6|0,3:0|2:0,2:0:0:0:
420,211,146886,2,0,B|461:199|461:199|461:195|461:195|512:180,1,100,10|0,2:3|2:0,2:0:0:0:
119,229,147054,22,1,B|148:180|148:180|147:174|147:174|148:180|148:180|189:225|189:225|193:223|193:223|233:268|233:268|238:269|238:269|233:268|233:268|168:289|168:289|165:287|165:287|-39:352,1,405.000001544952,4|0,3:0|2:0,2:0:0:0:
27,323,147391,2,0,L|82:305,1,40,8|2,2:0|2:3,2:0:0:0:
217,384,147729,6,0,P|173:353|147:312,1,100,8|8,2:0|2:0,2:0:0:0:
90,32,147897,1,10,2:3:0:0:
97,20,148066,5,8,2:0:0:0:
176,11,148150,1,8,2:0:0:0:
248,37,148234,1,8,2:0:0:0:
300,93,148318,1,8,2:0:0:0:
304,108,148403,2,0,P|294:158|287:228,2,120,0|2|8,3:0|2:3|2:0,2:0:0:0:
64,384,148908,5,2,1:0:0:0:
64,384,148993,1,8,2:0:0:0:
64,384,149077,2,0,P|74:334|81:264,1,120,8|0,2:0|3:0,2:0:0:0:
0,319,149414,1,8,2:0:0:0:
167,267,149582,6,0,L|236:281,1,60,2|8,2:3|2:0,2:0:0:0:
467,335,149751,1,0,3:0:0:0:
457,332,149835,1,0,3:0:0:0:
446,330,149920,1,8,2:0:0:0:
166,189,150088,6,0,L|235:203,1,60,2|8,2:3|2:0,2:0:0:0:
497,260,150257,1,0,3:0:0:0:
486,258,150341,1,0,3:0:0:0:
475,256,150425,1,8,2:0:0:0:
413,56,150594,6,0,L|403:115,1,60,2|8,2:3|2:0,2:0:0:0:
360,325,150762,1,8,2:0:0:0:
354,347,150847,1,8,2:0:0:0:
351,360,150931,1,8,2:0:0:0:
347,370,151015,1,8,2:0:0:0:
346,378,151099,6,0,P|285:291|220:140,1,262.5,6|0,3:0|2:0,2:0:0:0:
155,112,151436,2,0,B|180:71|180:71|260:66,1,87.5000000000001,12|0,2:0|2:0,2:0:0:0:
283,180,151605,2,0,B|258:221|258:221|178:226,1,87.5000000000001,0|8,1:0|2:0,2:0:0:0:
156,272,151774,1,2,2:3:0:0:
222,57,151942,6,0,P|330:77|423:91,1,175,2|12,3:0|2:0,2:0:0:0:
402,112,152195,1,0,1:0:0:0:
402,112,152279,2,0,P|457:104|507:97,1,87.5000000000001,2|8,1:0|2:0,2:0:0:0:
512,12,152448,1,2,2:3:0:0:
512,12,152532,1,8,2:0:0:0:
512,12,152616,2,0,P|457:4|407:-3,1,87.5000000000001,2|0,3:0|2:0,2:0:0:0:
315,107,152785,6,0,B|321:160|321:160|467:250|467:250|470:364,1,262.5,12|8,2:0|2:0,2:0:0:0:
360,373,153122,6,0,P|369:335|402:286,1,87.5000000000001,0|8,2:3|2:0,2:0:0:0:
507,164,153290,2,0,P|405:206|378:206,1,87.5000000000001,0|0,3:0|2:0,2:0:0:0:
115,264,153459,1,14,2:0:0:0:
81,328,153543,1,0,1:0:0:0:
118,372,153627,1,2,2:3:0:0:
143,384,153712,1,8,2:0:0:0:
155,379,153796,6,0,P|189:288|189:252,1,100,2|0,3:0|1:0,2:0:0:0:
360,373,154133,1,8,2:0:0:0:
115,264,154302,1,0,1:0:0:0:
102,266,154386,1,8,2:0:0:0:
90,268,154470,1,0,1:0:0:0:
77,271,154554,1,8,2:0:0:0:
66,273,154639,1,0,3:0:0:0:
297,207,154807,6,0,P|374:218|427:221,1,100,8|0,2:0|1:0,2:0:0:0:
401,229,155060,1,8,2:0:0:0:
413,231,155144,1,0,1:0:0:0:
426,234,155229,1,8,2:0:0:0:
437,236,155313,1,0,3:0:0:0:
214,140,155481,5,8,2:0:0:0:
157,88,155650,2,0,L|108:76,1,50,0|8,1:0|2:0,2:0:0:0:
97,62,155818,2,0,L|36:73,1,50,2|8,1:0|2:0,2:0:0:0:
20,56,155987,1,2,3:0:0:0:
81,183,156156,2,0,P|129:173|158:168,1,59.9999999999999,10|2,2:0|3:0,2:0:0:0:
496,28,156493,6,0,B|487:164|419:97|411:271,2,220,2|0|12,3:0|3:0|2:0,2:0:0:0:
374,0,156914,5,0,1:0:0:0:
374,0,156998,2,0,P|403:84|429:114,1,87.5000000000001,0|8,1:0|2:0,2:0:0:0:
455,157,157167,2,0,P|487:230|486:287,1,87.5000000000001,2|8,2:3|2:0,2:0:0:0:
360,292,157335,2,0,P|338:254|327:212,1,87.5000000000001,2|0,3:0|2:0,2:0:0:0:
512,343,157504,5,12,2:0:0:0:
451,353,157588,1,0,1:0:0:0:
391,362,157672,1,2,1:0:0:0:
330,372,157757,1,8,2:0:0:0:
270,382,157841,2,0,P|181:351|126:344,1,87.5000000000001,2|8,2:3|2:0,2:0:0:0:
0,245,158009,2,0,P|41:232|82:215,1,87.5000000000001,2|0,3:0|2:0,2:0:0:0:
248,190,158178,6,0,P|94:227|168:407,1,350,12|0,2:0|2:3,2:0:0:0:
188,352,158599,1,8,2:0:0:0:
197,292,158684,1,0,3:0:0:0:
183,219,158768,1,0,3:0:0:0:
195,138,158852,6,0,B|219:96|219:96|201:15,1,87.5000000000001,14|0,2:0|2:0,2:0:0:0:
105,0,159021,2,0,B|79:38|79:38|99:123,1,87.5000000000001,0|8,1:0|2:0,2:0:0:0:
376,171,159189,6,0,P|469:195|518:207,2,100,2|2|8,3:0|2:3|2:0,2:0:0:0:
353,328,159695,1,0,1:0:0:0:
358,340,159779,1,8,2:0:0:0:
362,354,159863,1,2,2:3:0:0:
365,369,159948,1,8,2:0:0:0:
368,383,160032,1,0,3:0:0:0:
485,324,160200,5,8,2:0:0:0:
275,384,160369,1,2,2:3:0:0:
275,384,160453,1,8,2:0:0:0:
275,384,160538,2,0,P|207:360|149:348,1,100,0|0,3:0|3:0,2:0:0:0:
6,334,160875,2,0,P|54:321|101:303,1,100,8|2,2:0|2:3,2:0:0:0:
100,297,161127,1,8,2:0:0:0:
100,297,161212,2,0,P|77:258|49:227,2,50,2|8|0,2:3|2:0|3:0,2:0:0:0:
332,306,161549,1,8,2:0:0:0:
352,303,161633,1,8,2:0:0:0:
382,318,161717,1,8,2:0:0:0:
403,316,161802,1,8,2:0:0:0:
410,323,161886,5,2,3:0:0:0:
218,174,162054,5,0,3:0:0:0:
0,39,162223,6,0,P|85:23|186:2,1,150,12|0,2:0|1:0,2:0:0:0:
213,51,162476,1,8,2:0:0:0:
213,51,162560,2,0,P|315:63|339:66,1,75,2|8,2:3|2:0,2:0:0:0:
512,14,162729,2,0,P|474:8|437:4,1,75,2|0,3:0|2:0,2:0:0:0:
368,40,162897,1,12,2:0:0:0:
331,210,163066,5,2,1:0:0:0:
383,212,163150,1,8,2:0:0:0:
430,189,163234,1,2,2:3:0:0:
461,148,163318,1,8,2:0:0:0:
471,97,163403,1,2,3:0:0:0:
279,119,163571,6,0,L|379:142,1,75,12|0,2:0|2:0,2:0:0:0:
510,261,163740,2,0,L|410:284,1,75,0|8,1:0|2:0,2:0:0:0:
135,338,163908,2,0,L|35:361,1,75,0|8,2:3|2:0,2:0:0:0:
52,347,164077,1,0,3:0:0:0:
236,377,164245,5,14,2:0:0:0:
257,330,164330,1,0,2:0:0:0:
248,262,164414,1,0,1:0:0:0:
236,187,164498,1,8,2:0:0:0:
247,104,164582,2,0,B|128:119|180:173|28:177,1,230,2|10,3:0|2:0,2:0:0:0:
321,180,165088,6,0,P|391:202|415:206,1,57.5,0|8,1:0|2:0,2:0:0:0:
410,266,165257,1,0,1:0:0:0:
421,261,165341,1,8,2:0:0:0:
432,257,165425,1,2,3:0:0:0:
499,22,165594,2,0,P|405:36|421:115,1,172.5,8|8,2:0|2:0,2:0:0:0:
416,98,165931,6,0,P|421:53|430:15,1,57.5,0|0,3:0|2:0,2:0:0:0:
281,0,166099,2,0,P|285:28|288:56,1,57.5,2|8,1:0|2:0,2:0:0:0:
212,71,166268,5,8,2:0:0:0:
154,89,166352,1,0,1:0:0:0:
115,76,166436,1,0,1:0:0:0:
112,54,166521,1,8,2:0:0:0:
121,43,166605,2,0,P|141:40|149:80,1,57.5,2|8,1:0|2:0,2:0:0:0:
121,159,166774,2,0,P|88:207|55:239,1,57.5,0|0,3:0|3:0,2:0:0:0:
15,206,166942,5,10,2:0:0:0:
0,239,167026,1,0,1:0:0:0:
12,266,167111,1,0,1:0:0:0:
30,272,167195,1,8,2:0:0:0:
36,265,167279,5,6,3:2:0:0:
251,373,167448,5,0,3:0:0:0:
489,294,167616,6,0,P|415:281|340:275,1,150,14|2,2:0|2:3,2:0:0:0:
333,285,167869,1,8,2:0:0:0:
321,304,167953,1,2,2:3:0:0:
324,328,168038,1,8,2:0:0:0:
342,341,168122,1,2,3:0:0:0:
512,140,168290,6,0,P|435:15|290:42,1,300,12|2,2:0|2:3,2:0:0:0:
299,33,168712,1,8,2:0:0:0:
299,33,168796,2,0,P|362:49|397:56,1,75,2|0,3:0|2:0,2:0:0:0:
474,212,168965,2,0,B|446:186|419:155|419:155|361:167|301:177,1,150,12|2,2:0|2:3,2:0:0:0:
270,220,169217,5,8,2:0:0:0:
270,220,169302,2,0,P|252:150|249:114,1,75,2|8,2:3|2:0,2:0:0:0:
69,113,169470,2,0,P|87:183|90:219,1,75,0|0,3:0|2:0,2:0:0:0:
245,319,169639,6,0,P|292:304|341:295,1,100,14|0,2:0|2:0,2:0:0:0:
97,18,169807,2,0,P|46:31|-2:40,1,100,2|8,2:3|2:0,2:0:0:0:
25,242,169976,6,0,P|93:228|158:207,2,115,2|2|10,3:0|2:3|2:0,2:0:0:0:
19,256,170397,1,0,1:0:0:0:
16,268,170481,1,0,1:0:0:0:
32,286,170566,1,8,2:0:0:0:
47,304,170650,2,0,P|102:349|130:363,1,57.5,0|0,3:0|3:0,2:0:0:0:
279,336,170818,6,0,P|334:291|362:277,1,57.5,10|8,2:0|2:0,2:0:0:0:
294,226,170987,2,0,P|227:200|201:183,1,57.5,0|0,3:0|2:0,2:0:0:0:
190,262,171156,2,0,P|201:332|199:363,1,57.5,2|8,2:3|2:0,2:0:0:0:
498,279,171324,6,0,P|486:208|488:177,1,57.5,0|0,3:0|3:0,2:0:0:0:
512,131,171493,1,10,2:0:0:0:
475,86,171577,1,8,2:0:0:0:
424,76,171661,1,0,3:0:0:0:
393,92,171745,1,0,2:0:0:0:
395,109,171830,2,0,P|415:136|467:131,1,57.5,2|8,2:3|2:0,2:0:0:0:
296,11,171998,5,0,2:3:0:0:
264,20,172082,1,8,2:0:0:0:
244,26,172167,2,0,L|177:44,1,57.5,0|0,3:0|3:0,2:0:0:0:
103,0,172335,5,10,2:0:0:0:
94,4,172420,1,8,2:0:0:0:
88,6,172504,2,0,L|10:28,1,57.5,8|8,2:0|2:0,2:0:0:0:
255,377,172672,5,4,2:0:0:0:
255,377,173009,5,2,2:0:0:0:
255,377,175031,5,2,2:0:0:0:
255,377,175368,5,2,2:0:0:0:
255,377,175705,5,2,2:0:0:0:
255,377,177221,5,8,2:0:0:0:
252,371,177306,5,8,2:0:0:0:
253,361,177390,5,8,2:0:0:0:
248,345,177474,5,8,2:0:0:0:
253,324,177558,5,8,2:0:0:0:
249,297,177643,5,8,2:0:0:0:
254,260,177727,5,8,2:0:0:0:
233,215,177811,5,8,2:0:0:0:
257,152,177896,5,8,2:0:0:0:
219,80,177980,5,8,2:0:0:0:
242,0,178064,6,0,P|388:48|486:66,1,232.5,6|0,3:2|2:0,2:0:0:0:
502,131,178401,2,0,P|459:179|403:175,1,77.5,10|0,2:0|2:0,2:0:0:0:
249,229,178569,1,0,1:0:0:0:
239,223,178653,1,8,2:0:0:0:
233,215,178738,1,0,3:0:0:0:
481,258,178906,6,0,P|417:256|384:211,1,77.5,10|0,2:0|2:0,2:0:0:0:
142,210,179075,1,0,1:0:0:0:
142,198,179159,1,8,2:0:0:0:
146,189,179243,1,0,3:0:0:0:
379,325,179412,6,0,P|332:281|338:225,1,77.5,10|0,2:0|2:0,2:0:0:0:
99,112,179580,1,0,1:0:0:0:
105,103,179665,1,8,2:0:0:0:
115,99,179749,2,0,P|156:106|245:112,1,77.5,10|0,2:0|2:0,2:0:0:0:
318,55,179917,5,0,1:0:0:0:
318,55,180002,1,8,2:0:0:0:
318,55,180086,2,0,P|291:6|221:17,1,77.5,2|0,3:0|3:0,2:0:0:0:
439,164,180255,2,0,P|494:165|520:98,1,77.5,10|0,2:0|2:0,2:0:0:0:
268,205,180423,2,0,P|239:252|283:308,1,77.5,2|8,1:0|2:0,2:0:0:0:
347,147,180592,5,2,1:0:0:0:
347,147,180676,1,8,2:0:0:0:
347,147,180760,2,0,P|371:291|385:412,2,220,2|2|2,3:0|3:0|3:0,2:0:0:0:
266,122,181181,5,0,3:0:0:0:
266,122,181265,2,0,P|253:64|247:15,1,77.5,0|8,1:0|2:0,2:0:0:0:
161,37,181434,2,0,P|170:74|176:112,1,77.5,8|0,2:0|2:0,2:0:0:0:
91,88,181602,2,0,P|53:97|15:103,1,77.5,2|8,1:0|2:0,2:0:0:0:
0,271,181771,5,0,3:0:0:0:
54,291,181855,1,0,3:0:0:0:
108,314,181939,1,2,3:0:0:0:
158,384,182108,6,0,P|181:339|199:256,1,77.5,0|8,1:0|2:0,2:0:0:0:
451,226,182276,2,0,P|433:260|401:386,1,155,10|0,2:0|1:0,2:0:0:0:
394,371,182529,1,8,2:0:0:0:
388,374,182613,1,0,3:0:0:0:
383,378,182698,1,0,3:0:0:0:
379,383,182782,6,0,P|415:371|453:362,1,77.5,10|0,2:0|2:0,2:0:0:0:
229,303,182950,6,0,P|267:301|295:302,1,62.5,2|0,3:0|2:0,2:0:0:0:
132,192,183119,2,0,P|169:201|186:207,1,47.4999999999999,2|0,3:0|2:0,2:0:0:0:
79,85,183288,2,0,P|117:110|130:121,1,35,2|0,3:2|2:0,2:0:0:0:
120,14,183456,5,2,3:0:0:0:
505,286,183625,2,0,P|513:248|519:223,12,38.75,10|0|0|0|0|8|8|8|8|8|8|8|8,2:0|2:0|2:0|2:0|1:0|2:0|2:0|2:0|2:0|2:0|2:0|2:0|2:0,2:0:0:0:
495,304,184299,6,0,P|433:318|376:340,1,77.5,2|8,1:0|2:0,2:0:0:0:
211,383,184467,5,0,3:0:0:0:
159,374,184552,1,0,3:0:0:0:
106,364,184636,2,0,P|115:274|281:277,1,232.5,10|8,2:0|2:0,2:0:0:0:
246,240,184973,2,0,P|298:153|308:121,1,77.5,2|0,3:0|2:0,2:0:0:0:
86,204,185141,1,0,1:0:0:0:
91,211,185310,6,0,P|133:220|171:225,1,77.5,0|8,1:0|2:0,2:0:0:0:
506,311,185479,1,10,2:0:0:0:
506,311,185563,1,0,2:0:0:0:
506,311,185647,2,0,P|451:323|404:328,1,77.5,0|8,1:0|2:0,2:0:0:0:
319,384,185816,5,2,3:0:0:0:
294,382,185900,1,0,3:0:0:0:
271,377,185984,1,0,3:0:0:0:
249,368,186068,1,8,2:0:0:0:
227,356,186153,2,0,P|180:341|113:336,1,77.5,2|0,3:0|2:0,2:0:0:0:
68,104,186321,5,2,3:0:0:0:
141,73,186405,1,0,3:0:0:0:
216,46,186490,1,2,3:0:0:0:
0,9,186658,5,8,2:0:0:0:
0,9,186743,1,8,2:0:0:0:
0,9,186827,2,0,P|87:25|137:34,1,77.5,8|8,2:0|2:0,2:0:0:0:
247,186,186995,6,0,P|267:141|273:125,1,38.75,2|0,2:0|2:0,2:0:0:0:
267,138,187080,6,0,P|287:93|293:77,1,38.75,0|0,1:0|1:0,2:0:0:0:
288,93,187164,6,0,P|308:48|314:32,1,38.75,0|0,3:0|3:0,2:0:0:0:
308,45,187248,6,0,P|328:0|334:-15,1,38.75,0|0,3:0|3:0,2:0:0:0:
331,1,187332,6,0,P|291:92|465:137,1,310,2|10,3:0|2:0,2:0:0:0:
463,69,187838,2,0,L|440:81,3,19.375,0|0|0|0,1:0|2:0|2:0|2:0,2:0:0:0:
512,218,188007,2,0,P|476:233|442:251,1,77.5,0|0,3:0|3:0,2:0:0:0:
271,384,188175,6,0,P|235:279|190:192,1,155,10|2,2:0|3:0,2:0:0:0:
212,256,188428,1,0,3:0:0:0:
212,256,188512,5,10,2:0:0:0:
463,69,188681,5,6,3:2:0:0:
136,13,188849,5,2,3:0:0:0:
46,30,189018,5,0,1:0:0:0:
38,26,189102,1,0,1:0:0:0:
31,25,189186,1,10,2:0:0:0:
117,103,189355,5,0,1:0:0:0:
98,107,189439,1,8,2:0:0:0:
80,112,189523,2,0,P|41:125|13:136,4,38.75,0|0|0|8|10,1:0|1:0|1:0|2:0|2:0,2:0:0:0:
120,213,189861,5,0,1:0:0:0:
106,226,189945,1,8,2:0:0:0:
93,240,190029,2,0,P|68:272|52:297,4,38.75,0|0|0|8|10,1:0|1:0|1:0|2:0|2:0,2:0:0:0:
206,313,190366,5,0,1:0:0:0:
201,331,190450,1,8,2:0:0:0:
198,350,190535,2,0,P|196:370|196:386,8,19.375,0|0|0|0|0|0|8|8|10,1:0|1:0|1:0|1:0|1:0|1:0|2:0|2:0|2:0,2:0:0:0:
377,351,190872,5,8,2:0:0:0:
380,357,190928,5,8,2:0:0:0:
384,362,190984,5,8,2:0:0:0:
388,368,191040,6,0,L|402:391,8,19.375,0|0|0|0|0|0|8|8|10,1:0|1:0|1:0|1:0|1:0|1:0|2:0|2:0|2:0,2:0:0:0:
294,380,191377,5,0,3:0:0:0:
458,297,191546,5,2,3:0:0:0:
463,123,191714,5,2,3:0:0:0:
271,0,191883,6,0,P|155:9|61:13,1,155,2|0,3:0|1:0,2:0:0:0:
116,23,192135,1,8,2:0:0:0:
116,23,192220,2,0,L|7:10,1,77.5,10|0,2:0|2:0,2:0:0:0:
0,116,192388,5,2,3:0:0:0:
255,84,192557,5,2,3:0:0:0:
512,70,192725,6,0,P|434:64|354:57,1,155,2|0,3:0|1:0,2:0:0:0:
354,68,192978,1,8,2:0:0:0:
354,68,193062,2,0,P|373:136|384:197,1,77.5,10|0,2:0|2:0,2:0:0:0:
468,146,193231,2,0,P|449:214|438:275,1,77.5,0|8,1:0|2:0,2:0:0:0:
352,265,193399,5,0,3:0:0:0:
352,265,193484,1,0,3:0:0:0:
352,265,193568,2,0,P|414:376|509:366,1,187.5,10|8,2:0|2:0,2:0:0:0:
502,281,193905,2,0,P|443:305|397:327,1,65,2|8,1:0|2:0,2:0:0:0:
355,353,194074,2,0,P|326:367|296:384,1,55,0|0,3:0|2:0,2:0:0:0:
0,145,194242,6,0,P|119:-8|223:31,1,300,6|0,3:2|2:0,2:0:0:0:
201,23,194579,2,0,P|105:47|85:45,1,82.5,8|0,2:0|2:0,2:0:0:0:
62,216,194747,5,0,1:0:0:0:
62,216,194831,1,8,2:0:0:0:
62,216,194916,2,0,P|140:156|160:150,1,82.5,8|0,2:0|2:0,2:0:0:0:
202,121,195084,2,0,P|280:107|332:85,1,82.5,0|8,1:0|2:0,2:0:0:0:
511,43,195253,5,0,3:0:0:0:
452,24,195337,1,0,3:0:0:0:
397,3,195421,1,0,3:0:0:0:
415,98,195590,5,0,1:0:0:0:
381,103,195674,1,8,2:0:0:0:
356,126,195758,1,0,1:0:0:0:
346,156,195843,1,8,2:0:0:0:
353,189,195927,1,8,2:0:0:0:
512,184,196095,6,0,P|479:191|413:204,1,82.5,0|8,1:0|2:0,2:0:0:0:
141,265,196264,2,0,P|174:258|239:245,1,82.5,0|0,3:0|3:0,2:0:0:0:
287,290,196433,1,8,2:0:0:0:
403,348,196601,5,2,1:0:0:0:
414,358,196685,1,8,2:0:0:0:
428,368,196770,1,0,1:0:0:0:
443,374,196854,1,8,2:0:0:0:
458,377,196938,5,2,3:0:0:0:
205,354,197107,5,0,3:0:0:0:
4,197,197275,6,0,P|23:134|35:82,1,82.5,0|0,3:0|2:0,2:0:0:0:
60,108,197444,1,0,1:0:0:0:
110,93,197528,1,8,2:0:0:0:
158,80,197612,1,8,2:0:0:0:
175,189,197781,6,0,P|102:172|85:138,1,82.5,0|0,1:0|2:0,2:0:0:0:
140,0,197949,2,0,P|180:-2|215:19,1,82.5,0|0,3:0|3:0,2:0:0:0:
319,261,198118,6,0,B|369:243|369:243|407:86|407:86|477:60,1,247.5,0|8,3:0|2:0,2:0:0:0:
511,96,198455,2,0,B|516:48|516:48|480:3,1,82.5,8|0,2:0|2:0,2:0:0:0:
290,108,198624,2,0,B|285:156|285:156|321:201,1,82.5,0|8,1:0|2:0,2:0:0:0:
429,303,198792,1,0,3:0:0:0:
470,315,198876,1,0,3:0:0:0:
507,336,198961,1,8,2:0:0:0:
319,261,199129,5,0,1:0:0:0:
305,266,199213,1,8,2:0:0:0:
292,271,199298,2,0,P|245:293|188:328,1,82.5,0|8,1:0|2:0,2:0:0:0:
257,371,199466,1,0,3:0:0:0:
508,169,199635,6,0,P|384:121|327:-19,1,247.5,2|0,3:0|2:0,2:0:0:0:
343,27,199972,2,0,P|404:8|468:-25,1,82.5,8|0,2:0|2:0,2:0:0:0:
418,168,200140,2,0,P|379:152|339:141,1,82.5,0|8,1:0|2:0,2:0:0:0:
83,105,200309,1,8,2:0:0:0:
166,32,200477,6,0,L|171:0,4,20.625,8|0|0|0|8,2:0|2:0|2:0|2:0|2:0,2:0:0:0:
240,82,200646,1,0,3:0:0:0:
240,82,200730,1,0,3:0:0:0:
240,82,200815,2,0,P|232:160|229:204,1,82.5,0|0,3:0|2:0,2:0:0:0:
32,210,200983,6,0,L|29:251,6,41.25,0|8|8|8|0|0|8,1:0|2:0|2:0|2:0|1:0|2:0|2:0,2:0:0:0:
104,249,201320,1,8,2:0:0:0:
136,262,201404,1,8,2:0:0:0:
170,273,201489,2,0,P|185:321|146:371,1,82.5,0|0,1:0|1:0,2:0:0:0:
6,383,201657,6,0,P|66:356|114:340,1,82.5,0|0,3:0|3:0,2:0:0:0:
260,297,201826,2,0,P|373:274|446:274,1,165,8|2,2:0|1:0,2:0:0:0:
428,280,202079,1,8,2:0:0:0:
434,287,202163,2,0,P|405:329|376:330,1,82.5,0|8,1:0|2:0,2:0:0:0:
274,109,202331,6,0,P|345:20|450:46,2,200,2|0|0,3:0|3:0|3:0,2:0:0:0:
290,115,202753,1,8,2:0:0:0:
316,111,202837,1,0,1:0:0:0:
342,120,202921,1,8,2:0:0:0:
370,145,203006,5,0,3:0:0:0:
370,145,203090,1,8,2:0:0:0:
370,145,203174,1,8,2:0:0:0:
503,218,203343,6,0,L|403:208,1,82.5,0|0,3:0|3:0,2:0:0:0:
35,180,203511,2,0,L|76:183,6,41.25,0|0|0|0|0|0|0,3:0|1:0|1:0|2:0|1:0|1:0|1:0,2:0:0:0:
131,129,203848,5,8,2:0:0:0:
262,242,204017,1,0,1:0:0:0:
283,251,204101,1,8,2:0:0:0:
304,261,204185,1,0,3:0:0:0:
156,249,204354,5,8,2:0:0:0:
303,138,204522,1,2,1:0:0:0:
288,144,204607,1,8,2:0:0:0:
274,150,204691,2,0,P|237:163|190:181,1,82.5,2|0,3:0|3:0,2:0:0:0:
512,2,204859,5,8,2:0:0:0:
459,20,204944,1,8,2:0:0:0:
427,66,205028,2,0,P|439:148|556:181,1,165,2|0,3:0|1:0,2:0:0:0:
501,177,205281,1,0,1:0:0:0:
501,177,205365,1,8,2:0:0:0:
401,340,205534,5,0,1:0:0:0:
391,358,205618,1,8,2:0:0:0:
393,379,205702,2,0,P|434:307|319:195,1,247.5,0|8,3:0|2:0,2:0:0:0:
196,212,206039,5,0,3:0:0:0:
146,228,206124,1,0,3:0:0:0:
102,254,206208,2,0,P|156:267|183:274,1,80,0|0,3:0|1:0,2:0:0:0:
268,316,206629,5,8,2:0:0:0:
268,316,206713,2,0,L|223:329,2,41.25,0|0|8,1:0|1:0|2:0,2:0:0:0:
331,357,206882,1,8,2:0:0:0:
96,377,207050,5,0,3:0:0:0:
53,346,207135,1,0,3:0:0:0:
31,298,207219,2,0,P|22:247|11:199,1,82.5,8|8,2:0|2:0,2:0:0:0:
142,129,207388,2,0,P|155:181|161:197,2,41.25,2|0|0,1:0|1:0|1:0,2:0:0:0:
339,274,207556,2,0,P|330:223|319:175,1,82.5,0|8,1:0|2:0,2:0:0:0:
508,17,207725,6,0,P|404:74|489:156,1,200,2|8,3:0|2:0,2:0:0:0:
435,136,207977,1,0,1:0:0:0:
435,136,208062,2,0,P|476:112|509:98,1,82.5,0|0,3:0|2:0,2:0:0:0:
336,17,208230,6,0,P|361:94|368:124,1,82.5,0|8,1:0|2:0,2:0:0:0:
143,216,208399,2,0,P|168:303|184:416,1,165,8|0,2:0|1:0,2:0:0:0:
170,384,208652,1,8,2:0:0:0:
170,383,208736,2,0,L|139:378,4,20.625,8|0|8|0|0,2:0|2:0|2:0|2:0|3:0,2:0:0:0:
249,292,208904,6,0,P|333:326|412:351,1,165,8|0,2:0|1:0,2:0:0:0:
414,343,209157,1,8,2:0:0:0:
413,344,209242,2,0,P|427:295|431:255,1,82.5,10|0,2:0|2:0,2:0:0:0:
512,285,209410,2,0,P|498:334|494:374,1,82.5,0|8,1:0|2:0,2:0:0:0:
359,243,209579,5,0,1:0:0:0:
362,211,209663,1,8,2:0:0:0:
380,183,209747,2,0,P|433:182|506:171,1,67.5,8|0,2:0|2:0,2:0:0:0:
425,104,209916,2,0,P|477:102|550:91,1,67.5,0|8,1:0|2:0,2:0:0:0:
326,88,210084,2,0,P|273:86|200:75,1,67.5,8|8,2:0|2:0,2:0:0:0:
274,8,210253,2,0,P|221:6|148:-5,1,67.5,0|0,3:0|2:0,2:0:0:0:
0,372,210421,6,0,P|165:333|347:302,1,315,2|8,3:0|2:0,2:0:0:0:
237,201,210758,2,0,P|105:182|6:150,1,165,0|0,3:0|3:0,2:0:0:0:
67,180,211011,1,8,2:0:0:0:
67,180,211095,2,0,P|38:263|24:295,1,82.5,0|8,1:0|2:0,2:0:0:0:
92,102,211264,1,8,2:0:0:0:
371,0,211433,5,0,3:0:0:0:
379,55,211517,1,0,3:0:0:0:
392,108,211601,2,0,P|419:232|479:401,1,247.5,0|8,3:0|2:0,2:0:0:0:
465,355,211938,2,0,P|502:283|479:256,1,82.5,8|8,2:0|2:0,2:0:0:0:
373,198,212107,5,0,1:0:0:0:
348,219,212191,1,8,2:0:0:0:
338,249,212275,1,0,1:0:0:0:
323,276,212359,1,8,2:0:0:0:
294,293,212444,5,0,3:0:0:0:
260,228,212528,1,0,3:0:0:0:
250,157,212612,1,8,2:0:0:0:
232,348,212781,5,0,1:0:0:0:
204,359,212865,1,8,2:0:0:0:
176,370,212949,1,0,1:0:0:0:
148,378,213034,1,8,2:0:0:0:
121,384,213118,1,2,3:0:0:0:
77,24,213371,5,8,2:0:0:0:
93,29,213455,2,0,P|171:102|76:193,1,247.5,0|8,3:0|2:0,2:0:0:0:
88,191,213792,2,0,P|68:134|56:101,1,82.5,0|8,3:0|2:0,2:0:0:0:
20,304,213961,2,0,P|80:280|163:251,1,82.5,0|8,1:0|2:0,2:0:0:0:
402,365,214129,5,0,3:0:0:0:
372,358,214213,1,0,3:0:0:0:
346,350,214298,2,0,L|294:333,6,41.25,0|0|0|0|8|8|8,3:0|2:0|2:0|2:0|2:0|2:0|2:0,2:0:0:0:
246,382,214635,1,10,2:0:0:0:
182,327,214803,6,0,P|199:273|207:239,1,82.5,0|8,1:0|2:0,2:0:0:0:
304,184,214972,2,0,P|314:223|327:263,1,82.5,0|0,3:0|3:0,2:0:0:0:
512,274,215140,5,8,2:0:0:0:
482,186,215225,5,8,2:0:0:0:
432,124,215309,5,0,1:0:0:0:
383,94,215393,5,8,2:0:0:0:
302,69,215477,5,0,1:0:0:0:
277,44,215562,5,8,2:0:0:0:
271,22,215646,5,0,3:0:0:0:
257,12,215730,5,0,3:0:0:0:
253,3,215815,6,0,L|251:90,1,80,0|0,3:0|2:0,2:0:0:0:
248,161,216657,1,2,2:0:0:0:
248,161,216994,1,2,2:0:0:0:
248,161,217331,1,2,2:0:0:0:
241,168,220365,6,0,L|242:176,4,5,0|0|0|0|0,1:0|1:0|1:0|1:0|3:0,2:0:0:0:
235,177,220871,1,8,2:0:0:0:
2,349,221208,6,0,L|41:357,1,40,0|0,3:0|2:0,2:0:0:0:
115,374,222050,1,2,2:0:0:0:
115,374,222388,1,2,2:0:0:0:
115,374,222725,1,2,2:0:0:0:
125,361,225758,6,0,L|132:363,4,5,0|0|0|0|0,1:0|1:0|1:0|1:0|3:0,2:0:0:0:
132,353,226264,1,8,2:0:0:0:
414,381,226601,6,0,L|423:340,1,40,0|0,3:0|2:0,2:0:0:0:
442,271,227444,1,2,2:0:0:0:
442,271,227781,1,2,2:0:0:0:
442,271,228118,1,2,2:0:0:0:
436,265,231152,6,0,L|437:257,4,5,0|0|0|0|0,1:0|1:0|1:0|1:0|3:0,2:0:0:0:
427,257,231657,1,8,2:0:0:0:
84,234,231994,6,0,L|126:229,1,40,0|0,3:0|2:0,2:0:0:0:
197,221,232837,1,2,2:0:0:0:
197,221,233174,1,2,2:0:0:0:
197,221,233511,1,2,2:0:0:0:
197,221,233680,1,2,2:0:0:0:
197,221,234691,6,0,B|259:181|259:181|312:189|312:189|377:152,1,201.499998770142,2|0,2:0|2:0,2:0:0:0:
494,100,237388,6,0,B|470:65|387:139|310:161|310:161|70:483|-212:60|148:71|-10:150|310:161|310:161|371:233|489:179|496:114,1,1170,4|0,0:0|0:0,0:0:0:0:
256,192,257275,12,0,268399,2:0:0:0:
