osu file format v14

[General]
AudioFilename: audio.mp3
AudioLeadIn: 0
PreviewTime: 71438
Countdown: 1
SampleSet: Soft
StackLeniency: 0.7
Mode: 0
LetterboxInBreaks: 0
EpilepsyWarning: 1
WidescreenStoryboard: 1

[Editor]
Bookmarks: 15415,29960,44506,57233,71779,86324,100869,115415,122681,126317,144506,162688,177233,191779,206324,213590,230360
DistanceSpacing: 2.1
BeatDivisor: 8
GridSize: 4
TimelineZoom: 1.500003

[Metadata]
Title:Itsumo Yori Nakimushi na Sora
TitleUnicode:Itsumo Yori Nakimushi na Sora
Artist:Rerulili feat. Hatsune Miku
ArtistUnicode:Rerulili feat. Hatsune Miku
Creator:GalenTori
Version:After the Rain
Source:
Tags:a sky more apt to cry than usual 初音ミク v3 vocaloid hatsune miku cut kenterz Inversal Natsuki_Nanaka -_Frontier_- bank78952
BeatmapID:1330037
BeatmapSetID:615216

[Difficulty]
HPDrainRate:6
CircleSize:4.5
OverallDifficulty:7
ApproachRate:8
SliderMultiplier:2.39999990463257
SliderTickRate:4

[Events]
//Background and Video events
0,0,"ResizedMikurain.jpg",0,0
//Break Periods
//Storyboard Layer 0 (Background)
//Storyboard Layer 1 (Fail)
//Storyboard Layer 2 (Pass)
//Storyboard Layer 3 (Foreground)
//Storyboard Sound Samples

[TimingPoints]
863,909.090909090909,4,2,2,30,1,0
13590,-133.333333333333,4,2,2,40,0,0
14272,-100,4,2,2,50,0,0
15408,-100,4,2,2,40,0,0
21317,-100,4,2,2,15,0,0
21544,-100,4,2,2,40,0,0
24499,-100,4,2,2,20,0,0
24726,-100,4,2,2,40,0,0
29953,-100,4,2,1,40,0,0
49953,-100,4,2,4,40,0,0
50067,-100,4,2,1,40,0,0
50862,-100,4,2,3,40,0,0
50976,-100,4,2,1,40,0,0
54499,-100,4,2,3,40,0,0
54612,-100,4,2,1,40,0,0
57226,-100,4,2,1,50,0,0
71772,-100,4,2,1,70,0,1
99044,-100,4,2,1,70,0,0
100862,-100,4,2,1,70,0,1
122681,-100,4,2,1,70,0,0
136317,-200,4,2,1,70,0,0
136999,-100,4,2,1,70,0,0
162681,-100,4,2,1,80,0,1
189953,-100,4,2,1,80,0,0
191772,-100,4,2,1,80,0,1
213590,-100,4,2,1,30,0,0
213590,-100,4,2,1,50,0,0
213690,-100,4,2,1,30,0,0
224499,1016.49090909091,4,2,1,70,1,0
224499,-117.647058823529,4,2,1,25,0,0
225134,-117.647058823529,4,2,1,5,0,0
225515,1030.97547169811,4,2,1,70,1,0
225515,-142.857142857143,4,2,1,20,0,0
226159,-142.857142857143,4,2,1,5,0,0
226545,1174.47058823529,4,2,1,70,1,0
226545,-181.818181818182,4,2,1,15,0,0
227279,-181.818181818182,4,2,1,5,0,0
227719,1315.53333333333,4,2,1,30,1,0
227719,-200,4,2,1,10,0,0
229034,-200,4,2,1,5,0,0
230350,-200,4,2,1,7,0,0

[Colours]
Combo1 : 115,185,255
Combo2 : 255,38,147
Combo3 : 255,128,192
Combo4 : 0,128,255

[HitObjects]
132,316,863,6,0,P|208:336|256:324,1,119.999995231629
120,216,1772,2,0,P|56:236|16:288,1,119.999995231629,2|0,0:0|0:0,0:0:0:0:
228,236,2681,2,0,P|240:172|208:124,1,119.999995231629
104,24,3590,2,0,P|180:40|240:12,1,119.999995231629,2|0,0:0|0:0,0:0:0:0:
416,24,4499,6,0,L|404:152,1,119.999995231629
496,240,5408,2,0,B|464:264|464:264|376:256,1,119.999995231629,2|0,0:0|0:0,0:0:0:0:
296,360,6317,2,0,L|276:228,1,119.999995231629
260,72,7226,2,0,P|192:108|140:108,1,119.999995231629,2|0,0:0|0:0,0:0:0:0:
100,32,7908,1,0,0:0:0:0:
20,68,8135,38,0,B|28:112|28:112|24:160|24:160|32:192,1,119.999995231629
192,160,9044,2,0,P|220:164|252:160,2,59.9999976158143,2|0|0,0:0|0:0|0:0,0:0:0:0:
312,152,9726,2,0,L|304:300,1,119.999995231629,2|0,0:0|0:0,0:0:0:0:
476,232,10635,1,0,0:0:0:0:
336,312,10863,1,2,0:0:0:0:
388,204,11090,1,0,0:0:0:0:
412,360,11317,1,0,0:0:0:0:
296,232,11544,1,2,0:0:0:0:
388,128,11772,6,0,P|328:100|308:40,1,119.999995231629
156,24,12681,2,0,B|140:64|140:64|164:144,1,119.999995231629,2|0,0:0|0:0,0:0:0:0:
252,200,13362,2,0,L|244:248,1,29.9999988079071
236,268,13590,38,0,B|268:280|268:280|300:268|344:272,1,89.9999998569489,4|0,0:0|0:0,0:0:0:0:
484,168,14499,2,0,P|420:136|396:68,1,119.999995231629,2|0,0:0|0:0,0:0:0:0:
188,44,15408,22,0,P|252:76|276:144,1,119.999995231629,4|0,1:0|0:0,0:0:0:0:
172,252,16317,1,0,0:0:0:0:
192,268,16999,1,0,0:0:0:0:
192,268,17226,2,0,L|324:280,1,119.999995231629,4|0,1:0|0:0,0:0:0:0:
480,280,18135,2,0,P|480:312|472:336,2,39.9999984105428,2|0|0,0:0|0:0|0:0,0:0:0:0:
404,224,18590,2,8,P|404:192|412:168,2,39.9999984105428,0|8|8,0:0|0:0|0:0,0:0:0:0:
496,144,19044,6,0,P|424:92|340:116,1,179.999992847443,4|0,1:0|0:0,0:0:0:0:
260,156,19953,2,0,L|140:144,1,119.999995231629,2|0,0:0|0:0,0:0:0:0:
60,172,20635,2,0,P|56:188|56:208,1,29.9999988079071,8|0,0:0|0:0,0:0:0:0:
20,228,20863,2,0,P|88:244|112:296,1,119.999995231629,8|4,1:2|1:0,0:0:0:0:
256,368,21772,2,0,L|396:356,1,119.999995231629,2|0,0:0|0:0,0:0:0:0:
456,376,22453,1,0,0:0:0:0:
500,304,22681,38,0,P|516:244|504:180,1,119.999995231629,4|0,1:0|0:0,0:0:0:0:
448,128,23362,1,0,0:0:0:0:
368,148,23590,2,0,L|212:132,1,119.999995231629,2|0,0:0|0:0,0:0:0:0:
168,112,24272,2,8,L|164:92,3,14.9999994039536
172,132,24499,2,0,P|128:168|68:160,1,119.999995231629,4|0,0:1|0:0,0:0:0:0:
4,108,25181,1,0,0:0:0:0:
36,236,25408,2,0,L|28:284,2,39.9999984105428,2|8|8,1:2|0:0|0:0,0:0:0:0:
124,272,25862,2,0,L|116:320,2,39.9999984105428,2|8|8,1:2|0:0|0:0,0:0:0:0:
212,220,26317,6,0,P|272:228|324:264,1,119.999995231629,4|0,1:0|0:0,0:0:0:0:
444,352,27226,2,0,L|460:228,1,119.999995231629,2|0,0:0|0:0,0:0:0:0:
432,152,27908,2,0,L|436:120,1,29.9999988079071,8|8,1:0|0:1,0:0:0:0:
404,168,28135,2,0,P|348:164|280:120,1,119.999995231629,0|8,1:0|0:3,0:0:0:0:
232,76,28817,1,8,0:3:0:0:
216,160,29044,1,0,0:0:0:0:
296,136,29272,1,4,0:3:0:0:
152,100,29499,1,8,0:3:0:0:
280,220,29726,1,4,0:3:0:0:
140,152,29953,6,0,P|124:196|176:264,1,119.999995231629,4|0,1:0|0:0,0:0:0:0:
224,340,30635,1,0,1:0:0:0:
108,368,30862,2,0,B|52:364|52:364|0:300,1,119.999995231629,8|0,0:0|0:0,0:0:0:0:
72,148,31544,2,0,L|84:200,2,29.9999988079071,0|0|0,1:0|0:0|1:0,0:0:0:0:
200,104,31999,2,0,L|188:224,1,119.999995231629
256,360,32681,2,0,P|308:336|332:256,1,119.999995231629,8|0,0:0|0:0,0:0:0:0:
268,192,33363,1,0,0:0:0:0:
372,156,33590,6,0,P|436:172|492:160,1,119.999995231629,0|0,1:0|0:0,0:0:0:0:
388,28,34272,1,0,0:0:0:0:
296,72,34499,2,0,B|280:108|280:108|300:196,1,119.999995231629,8|0,0:0|0:0,0:0:0:0:
440,176,35181,2,0,L|436:212,2,29.9999988079071,0|0|0,1:0|0:0|1:0,0:0:0:0:
312,252,35635,2,0,L|392:260,1,59.9999976158143
444,320,36090,1,0,0:0:0:0:
348,356,36317,2,0,L|216:348,1,119.999995231629,8|0,0:0|0:0,0:0:0:0:
40,284,37226,38,0,P|92:260|108:192,1,119.999995231629,0|0,1:0|0:0,0:0:0:0:
48,136,37908,1,0,0:0:0:0:
160,88,38135,2,0,L|280:96,1,119.999995231629,8|0,0:0|0:0,0:0:0:0:
376,168,38817,2,0,L|296:164,1,59.9999976158143,0|0,1:0|1:0,0:0:0:0:
232,224,39272,1,0,0:0:0:0:
328,292,39499,2,0,P|304:348|244:372,1,119.999995231629,0|8,1:0|0:0,0:0:0:0:
132,304,40181,2,0,L|148:368,1,59.9999976158143
240,288,40635,1,0,1:0:0:0:
160,208,40863,6,0,P|104:232|40:228,1,119.999995231629,0|0,1:0|0:0,0:0:0:0:
212,136,41772,2,0,P|276:144|332:176,1,119.999995231629,8|0,0:0|0:0,0:0:0:0:
444,124,42453,2,0,L|435:183,1,59.9999976158143,0|0,1:0|0:0,0:0:0:0:
304,160,42908,2,0,L|320:228,1,59.9999976158143
436,264,43362,2,0,L|392:276,2,29.9999988079071,0|0|8,1:0|0:0|1:2,0:0:0:0:
268,320,43817,1,4,1:3:0:0:
436,348,44044,1,8,1:3:0:0:
316,256,44272,1,4,1:3:0:0:
424,192,44499,6,0,P|368:168|360:108,1,119.999995231629,4|0,1:0|0:0,0:0:0:0:
400,40,45181,1,0,0:0:0:0:
276,84,45408,2,0,L|200:76,1,59.9999976158143,8|0,0:0|0:0,0:0:0:0:
140,112,45862,1,0,0:0:0:0:
268,220,46090,2,0,P|288:188|288:152,1,59.9999976158143,0|0,1:0|1:0,0:0:0:0:
204,280,46544,6,0,P|280:336|364:312,1,179.999992847443,0|8,0:0|0:0,0:0:0:0:
420,260,47453,1,0,0:0:0:0:
492,308,47681,2,0,P|504:344|500:376,1,59.9999976158143
420,260,48135,2,0,P|404:204|436:140,1,119.999995231629,0|0,1:0|0:0,0:0:0:0:
308,32,49044,38,0,P|324:88|292:152,1,119.999995231629,8|0,0:0|0:0,0:0:0:0:
228,188,49726,2,0,P|164:140|236:116,1,179.999992847443
300,244,50635,2,0,P|248:276|176:276,1,119.999995231629
84,324,51317,2,0,P|92:292|84:256,1,59.9999976158143
24,208,51772,6,0,L|36:68,1,119.999995231629,0|0,0:1|0:0,0:0:0:0:
140,8,52681,1,8,0:0:0:0:
264,52,53135,2,0,P|268:88|256:116,1,59.9999976158143,0|0,0:0|1:0,0:0:0:0:
200,168,53590,2,0,L|328:180,1,119.999995231629,0|0,1:0|0:0,0:0:0:0:
388,132,54272,2,0,P|360:188|376:240,1,119.999995231629
428,304,54953,2,0,L|420:364,1,59.9999976158143
348,324,55408,38,0,P|284:316|220:340,1,119.999995231629,4|4,1:0|1:3,0:0:0:0:
160,376,56090,1,8,1:3:0:0:
88,260,56317,1,8,0:0:0:0:
268,164,56772,1,8,0:3:0:0:
360,284,56999,1,0,1:3:0:0:
360,284,57226,22,0,B|412:276|412:276|452:204,1,119.999995231629,4|0,1:0|0:0,0:0:0:0:
496,128,57908,1,0,0:0:0:0:
388,88,58135,2,0,L|308:100,1,59.9999976158143,8|0,0:0|0:0,0:0:0:0:
360,208,58590,2,0,L|264:200,1,59.9999976158143,0|0,0:0|1:0,0:0:0:0:
220,96,59044,6,0,P|152:128|76:120,1,119.999995231629,0|0,1:0|0:0,0:0:0:0:
28,80,59726,1,0,0:0:0:0:
136,20,59953,2,0,P|200:28|224:44,1,59.9999976158143,8|0,0:0|0:0,0:0:0:0:
264,112,60408,2,0,P|288:84|292:36,1,59.9999976158143,0|0,0:0|1:0,0:0:0:0:
168,124,60862,38,0,P|192:180|244:204,1,119.999995231629,0|0,1:0|0:0,0:0:0:0:
392,176,61544,2,0,L|376:248,1,59.9999976158143,0|8,0:0|0:0,0:0:0:0:
256,236,61999,2,0,L|276:328,1,59.9999976158143
224,368,62453,1,0,1:0:0:0:
136,320,62681,6,0,L|0:328,2,119.999995231629,0|0|8,1:0|1:0|0:0,0:0:0:0:
180,176,64044,2,0,L|188:252,1,59.9999976158143,0|0,0:0|1:0,0:0:0:0:
108,124,64499,38,0,P|160:96|224:104,1,119.999995231629,4|0,1:0|0:0,0:0:0:0:
328,136,65181,1,0,0:0:0:0:
400,40,65408,2,0,P|352:48|276:24,1,119.999995231629,8|0,0:0|0:0,0:0:0:0:
236,120,66090,1,0,1:0:0:0:
364,168,66317,6,0,L|512:164,1,119.999995231629,0|0,1:0|0:0,0:0:0:0:
384,248,67226,2,0,L|244:252,1,119.999995231629,8|0,0:0|0:0,0:0:0:0:
204,332,67908,1,0,1:0:0:0:
308,364,68135,38,0,P|324:320|304:248,1,119.999995231629,4|0,1:0|0:0,0:0:0:0:
216,160,68817,2,0,P|264:160|300:144,1,59.9999976158143,0|8,0:0|0:0,0:0:0:0:
216,76,69272,1,0,0:0:0:0:
140,160,69499,2,0,P|144:200|176:240,1,59.9999976158143,0|0,0:0|1:0,0:0:0:0:
224,312,69953,6,0,L|76:320,1,119.999995231629,4|8,1:0|0:0,0:0:0:0:
32,236,70635,1,8,0:0:0:0:
200,184,70863,1,0,1:0:0:0:
52,160,71090,1,4,0:3:0:0:
216,292,71317,1,8,0:3:0:0:
140,112,71544,1,0,0:0:0:0:
256,24,71772,6,0,P|324:64|384:52,1,119.999995231629,4|0,1:0|3:0,0:0:0:0:
440,28,72453,1,0,0:0:0:0:
504,124,72681,2,0,L|496:200,1,59.9999976158143,8|0,3:2|0:0,0:0:0:0:
364,216,73135,2,0,L|372:140,1,59.9999976158143,0|0,3:0|1:0,0:0:0:0:
400,312,73590,6,0,P|344:300|272:328,1,119.999995231629,2|0,1:0|3:0,0:0:0:0:
212,360,74272,1,0,0:0:0:0:
148,260,74499,2,0,L|72:252,1,59.9999976158143,8|0,3:2|0:0,0:0:0:0:
16,168,74953,2,0,L|88:160,1,59.9999976158143,0|2,3:0|0:3,0:0:0:0:
108,136,75294,1,2,0:3:0:0:
108,136,75408,38,0,L|240:144,1,119.999995231629,2|0,1:0|3:0,0:0:0:0:
300,184,76090,1,0,0:0:0:0:
404,136,76317,2,0,P|416:104|412:56,1,59.9999976158143,8|0,3:2|0:0,0:0:0:0:
356,20,76772,1,0,3:0:0:0:
500,124,76999,1,0,1:0:0:0:
339,225,77226,6,0,P|315:208|299:183,1,59.9999976158143,2|0,1:0|0:0,0:0:0:0:
456,240,77681,2,0,P|452:272|432:300,1,59.9999976158143,2|0,1:0|0:0,0:0:0:0:
320,340,78135,2,0,L|240:332,1,59.9999976158143,8|0,3:2|0:0,0:0:0:0:
144,288,78590,2,0,P|132:324|140:360,1,59.9999976158143,0|0,3:0|0:0,0:0:0:0:
44,268,79044,38,0,L|32:136,1,119.999995231629,2|0,1:0|3:0,0:0:0:0:
68,72,79726,1,0,0:0:0:0:
192,120,79953,2,0,P|204:152|200:180,1,59.9999976158143,8|0,3:2|0:0,0:0:0:0:
148,240,80408,1,0,3:0:0:0:
33,148,80635,1,0,1:0:0:0:
220,92,80863,6,0,L|356:100,1,119.999995231629,2|0,1:0|3:0,0:0:0:0:
416,140,81544,1,0,0:0:0:0:
312,184,81772,2,0,P|304:220|308:252,1,59.9999976158143,8|0,3:2|0:0,0:0:0:0:
432,296,82226,2,0,P|440:260|436:228,1,59.9999976158143,0|2,3:0|0:3,0:0:0:0:
352,344,82681,38,0,B|220:352,1,119.999995231629,2|0,1:0|3:0,0:0:0:0:
156,320,83362,1,0,0:0:0:0:
312,184,83590,2,0,L|188:176,1,119.999995231629,8|0,3:2|3:0,0:0:0:0:
116,140,84272,1,0,1:0:0:0:
36,212,84499,6,0,P|32:248|44:280,1,59.9999976158143,2|0,1:0|0:0,0:0:0:0:
116,140,84953,2,0,P|120:104|108:72,1,59.9999976158143,0|0,1:0|0:0,0:0:0:0:
44,32,85408,1,8,3:2:0:0:
184,52,85635,1,4,0:3:0:0:
116,140,85862,1,8,0:3:0:0:
272,112,86090,1,0,0:0:0:0:
352,216,86317,6,0,L|216:204,1,119.999995231629,4|0,1:0|3:0,0:0:0:0:
104,192,86999,1,0,0:0:0:0:
216,116,87226,2,0,L|280:124,1,59.9999976158143,8|0,3:2|0:0,0:0:0:0:
352,24,87681,2,0,L|360:96,1,59.9999976158143,0|0,3:0|1:0,0:0:0:0:
496,100,88135,6,0,L|488:172,1,59.9999976158143,2|0,1:0|0:0,0:0:0:0:
348,152,88590,2,0,L|364:236,1,59.9999976158143,0|0,1:0|0:0,0:0:0:0:
448,284,89044,1,8,3:2:0:0:
368,356,89272,2,0,L|232:368,1,119.999995231629,4|0,1:0|0:0,0:0:0:0:
164,216,89953,2,0,P|188:288|120:260,1,179.999992847443,2|0,1:0|0:0,0:0:0:0:
240,152,90862,38,0,P|308:168|344:200,1,119.999995231629,8|0,3:2|3:0,0:0:0:0:
400,32,91544,1,2,3:0:0:0:
400,32,91658,1,2,3:0:0:0:
400,32,91772,2,0,B|364:52|364:52|248:32,1,119.999995231629,2|0,1:0|3:0,0:0:0:0:
156,56,92453,2,0,L|164:124,1,59.9999976158143,0|8,0:0|3:2,0:0:0:0:
264,184,92908,2,0,L|192:188,1,59.9999976158143,0|0,0:0|3:0,0:0:0:0:
88,208,93362,1,0,1:0:0:0:
204,288,93590,6,0,L|68:300,1,119.999995231629,2|0,1:0|1:0,0:0:0:0:
232,208,94499,2,0,P|288:236|288:304,1,119.999995231629,8|0,3:2|3:0,0:0:0:0:
236,368,95181,1,0,1:0:0:0:
384,360,95408,38,0,B|404:316|404:316|376:244,1,119.999995231629,2|0,1:0|1:0,0:0:0:0:
320,168,96090,1,0,0:0:0:0:
464,112,96317,2,0,P|472:144|460:184,1,59.9999976158143,8|0,3:2|0:0,0:0:0:0:
400,40,96772,2,0,P|436:24|484:36,1,59.9999976158143,0|0,3:0|1:0,0:0:0:0:
336,128,97226,6,0,P|296:68|316:0,1,119.999995231629,2|0,1:0|1:0,0:0:0:0:
408,120,97908,1,0,0:0:0:0:
256,156,98135,2,0,L|172:164,1,59.9999976158143,8|0,3:2|0:0,0:0:0:0:
216,276,98590,2,0,L|112:268,1,59.9999976158143,0|0,3:0|0:0,0:0:0:0:
28,208,99044,38,0,P|88:212|76:160,1,119.999995231629,2|0,1:0|1:3,0:0:0:0:
60,68,99726,1,4,1:3:0:0:
232,176,99953,1,8,3:2:0:0:
184,24,100181,1,4,0:3:0:0:
120,144,100408,1,8,1:3:0:0:
296,60,100635,1,0,1:0:0:0:
328,168,100862,22,0,P|364:212|424:184,1,119.999995231629,4|0,1:0|3:0,0:0:0:0:
264,244,101544,1,0,0:0:0:0:
264,244,101772,2,0,P|257:285|260:324,1,59.9999976158143,8|0,3:2|0:0,0:0:0:0:
356,292,102226,2,0,P|396:300|424:324,1,59.9999976158143,0|0,3:0|1:0,0:0:0:0:
172,360,102681,6,0,B|48:352,1,119.999995231629,2|0,1:0|1:0,0:0:0:0:
0,288,103362,1,0,0:0:0:0:
132,212,103590,2,0,P|152:248|152:280,1,59.9999976158143,8|0,3:2|0:0,0:0:0:0:
56,172,104044,2,0,P|61:142|77:117,1,59.9999976158143,0|2,3:0|0:3,0:0:0:0:
112,92,104385,1,2,0:3:0:0:
112,92,104499,38,0,L|244:104,1,119.999995231629,2|0,1:0|3:0,0:0:0:0:
304,148,105181,1,0,1:0:0:0:
428,104,105408,2,0,P|440:80|440:40,1,59.9999976158143,8|0,3:2|0:0,0:0:0:0:
304,148,105862,2,0,P|304:177|317:204,1,59.9999976158143,0|0,3:0|1:0,0:0:0:0:
404,284,106317,6,0,P|340:284|296:328,2,119.999995231629,2|0|8,1:0|1:0|3:2,0:0:0:0:
216,352,107681,1,0,3:0:0:0:
188,272,107908,1,0,1:0:0:0:
164,192,108135,38,0,P|108:168|48:188,1,119.999995231629,2|0,1:0|1:0,0:0:0:0:
104,252,108817,1,0,0:0:0:0:
248,212,109044,2,0,P|264:168|260:136,1,59.9999976158143,8|0,3:2|0:0,0:0:0:0:
263,155,109726,5,0,1:0:0:0:
263,155,109953,2,0,L|404:168,1,119.999995231629,2|0,1:0|1:0,0:0:0:0:
456,212,110635,1,0,0:0:0:0:
384,256,110862,2,0,P|372:288|376:324,1,59.9999976158143,8|0,3:2|0:0,0:0:0:0:
456,212,111317,2,0,P|468:180|464:144,1,59.9999976158143,0|2,3:0|3:0,0:0:0:0:
448,116,111658,1,2,3:0:0:0:
412,92,111772,38,0,L|284:80,1,119.999995231629,2|0,1:0|3:0,0:0:0:0:
208,72,112453,1,0,1:0:0:0:
136,196,112681,2,0,P|204:188|240:144,1,119.999995231629,8|0,3:2|3:0,0:0:0:0:
208,72,113362,1,0,0:0:0:0:
328,160,113590,6,0,P|336:200|332:232,1,59.9999976158143,2|0,1:0|0:0,0:0:0:0:
212,291,114044,2,0,P|233:270|260:256,1,59.9999976158143,0|0,1:0|0:0,0:0:0:0:
396,292,114499,1,8,3:2:0:0:
396,292,114726,1,8,3:2:0:0:
284,340,114953,1,8,1:3:0:0:
334,218,115181,1,4,1:3:0:0:
200,160,115408,6,0,L|64:152,1,119.999995231629,4|0,1:0|3:0,0:0:0:0:
276,200,116090,2,0,P|288:168|280:132,1,59.9999976158143,0|8,0:0|3:2,0:0:0:0:
168,96,116544,1,0,0:0:0:0:
272,32,116772,2,0,L|340:36,1,59.9999976158143,0|0,3:0|1:0,0:0:0:0:
476,152,117226,6,0,P|420:112|448:80,1,119.999995231629,2|0,1:0|1:0,0:0:0:0:
312,220,118135,2,0,L|400:228,1,59.9999976158143,8|4,3:2|1:0,0:0:0:0:
492,296,118817,2,0,L|408:300,1,59.9999976158143,0|2,0:0|1:0,0:0:0:0:
304,196,119953,2,0,P|296:268|220:224,1,179.999992847443,0|0,3:0|0:0,0:0:0:0:
384,152,120862,38,0,P|444:176|464:224,1,119.999995231629,4|0,1:0|0:0,0:0:0:0:
300,128,121772,2,0,P|356:72|416:76,1,119.999995231629,0|0,3:0|0:0,0:0:0:0:
256,196,122681,21,4,1:0:0:0:
256,192,122794,12,0,126317,0:0:0:0:
256,192,126772,5,2,0:3:0:0:
256,192,127226,1,2,0:3:0:0:
176,236,127681,1,0,0:0:0:0:
256,192,127908,1,2,0:3:0:0:
88,124,128362,37,2,0:3:0:0:
220,68,128590,2,0,L|300:76,1,59.9999976158143
360,116,129044,2,0,L|432:108,1,59.9999976158143,2|2,0:3|0:3,0:0:0:0:
468,212,129499,2,0,L|408:205,1,59.9999976158143,0|0,1:0|0:0,0:0:0:0:
320,304,129953,6,0,L|184:316,1,119.999995231629,4|0,1:0|3:0,0:0:0:0:
120,352,130635,1,0,0:0:0:0:
32,268,130862,2,0,P|20:220|48:148,1,119.999995231629,8|0,0:0|0:0,0:0:0:0:
116,104,131544,1,0,1:0:0:0:
200,184,131772,38,0,L|344:172,1,119.999995231629,0|0,1:0|0:0,0:0:0:0:
388,116,132453,1,0,0:0:0:0:
332,248,132681,2,0,P|368:264|404:264,1,59.9999976158143,8|0,0:0|0:0,0:0:0:0:
493,187,133135,2,0,P|479:213|475:243,1,59.9999976158143,0|0,3:0|0:0,0:0:0:0:
500,332,133590,6,0,L|428:340,1,59.9999976158143,0|0,1:0|0:0,0:0:0:0:
352,364,134044,2,0,P|296:344|224:348,1,119.999995231629,0|8,0:0|0:0,0:0:0:0:
68,280,134953,2,0,L|60:356,1,59.9999976158143,0|0,3:0|0:0,0:0:0:0:
168,296,135408,38,0,L|152:156,1,119.999995231629,0|0,1:0|0:0,0:0:0:0:
100,104,136090,1,0,0:0:0:0:
244,172,136317,2,0,P|292:184|336:176,1,89.9999964237214,8|0,0:0|0:0,0:0:0:0:
400,136,137112,1,0,0:0:0:0:
400,136,137226,5,0,1:0:0:0:
340,256,137453,1,0,0:0:0:0:
292,96,137681,1,0,3:0:0:0:
460,192,137908,1,0,0:0:0:0:
340,256,138135,1,8,0:0:0:0:
400,136,138362,1,0,0:0:0:0:
448,312,138590,1,0,3:0:0:0:
268,220,138817,1,0,0:0:0:0:
460,192,139044,37,0,1:0:0:0:
336,344,139272,1,0,0:0:0:0:
284,136,139499,1,0,3:0:0:0:
388,240,139726,1,0,0:0:0:0:
212,288,139953,1,8,0:0:0:0:
336,344,140181,1,0,0:0:0:0:
180,208,140408,1,0,3:0:0:0:
144,352,140635,1,0,0:0:0:0:
268,220,140862,5,0,1:0:0:0:
88,148,141090,1,0,0:0:0:0:
248,76,141317,2,0,L|240:152,1,59.9999976158143,0|0,3:0|0:0,0:0:0:0:
356,260,141772,2,0,L|364:192,1,59.9999976158143,8|0,0:0|0:0,0:0:0:0:
372,112,142226,1,0,3:0:0:0:
444,236,142453,1,0,0:0:0:0:
280,312,142681,38,0,P|248:300|200:296,1,59.9999976158143,0|0,1:0|0:0,0:0:0:0:
72,348,143135,2,0,P|108:344|140:332,1,59.9999976158143,0|0,3:0|0:0,0:0:0:0:
232,216,143590,1,8,0:0:0:0:
76,152,143817,5,0,0:0:0:0:
144,244,144044,1,0,3:0:0:0:
216,88,144272,1,0,0:0:0:0:
300,144,144499,6,0,L|440:152,1,119.999995231629,4|0,1:0|3:0,0:0:0:0:
472,264,145181,1,0,0:0:0:0:
344,284,145408,2,0,L|212:292,1,119.999995231629,8|0,0:0|0:0,0:0:0:0:
372,152,146090,1,0,0:0:0:0:
372,152,146203,1,0,0:0:0:0:
372,152,146317,6,0,P|336:152|296:124,1,59.9999976158143,0|0,1:0|0:0,0:0:0:0:
476,96,146772,2,0,P|484:148|472:176,1,59.9999976158143,0|0,1:0|0:0,0:0:0:0:
352,40,147226,2,0,P|384:28|428:32,1,59.9999976158143,8|0,0:0|0:0,0:0:0:0:
236,128,147681,2,0,P|204:84|208:12,2,119.999995231629,0|0|0,0:0|1:0|0:0,0:0:0:0:
52,20,148817,38,0,L|60:88,1,59.9999976158143,0|8,0:0|0:0,0:0:0:0:
212,72,149272,2,0,L|204:144,1,59.9999976158143,0|0,0:0|3:0,0:0:0:0:
44,212,149726,2,0,L|192:220,1,119.999995231629
200,220,150294,1,0,0:0:0:0:
244,224,150408,2,0,P|252:264|232:300,1,59.9999976158143,0|0,1:0|0:0,0:0:0:0:
160,352,150862,1,8,0:0:0:0:
92,164,151317,5,2,3:0:0:0:
244,296,151544,1,0,0:0:0:0:
24,244,151772,1,6,1:0:0:0:
156,116,151999,1,0,0:0:0:0:
208,228,152226,1,0,3:0:0:0:
80,116,152453,1,0,0:0:0:0:
248,32,152681,2,0,B|256:116,1,59.9999976158143,8|0,0:0|0:0,0:0:0:0:
408,80,153135,2,0,L|396:160,1,59.9999976158143,0|0,3:0|0:0,0:0:0:0:
276,208,153590,38,0,L|364:212,1,59.9999976158143,4|0,1:0|0:0,0:0:0:0:
488,240,154044,1,0,3:0:0:0:
288,304,154272,1,0,0:0:0:0:
424,148,154499,1,8,0:0:0:0:
264,104,154726,1,0,0:0:0:0:
400,248,154953,1,0,3:0:0:0:
212,192,155181,1,0,0:0:0:0:
356,128,155408,6,0,P|364:100|356:80,2,39.9999984105428,4|0|0,1:0|0:0|0:0,0:0:0:0:
304,24,155862,2,0,P|280:24|252:44,2,39.9999984105428,0|0|0,3:0|0:0|0:0,0:0:0:0:
232,136,156317,2,0,P|264:148|288:144,2,39.9999984105428,8|0|0,0:0|0:0|0:0,0:0:0:0:
172,56,156772,2,0,P|148:68|132:96,2,39.9999984105428,0|0|0,3:0|0:0|0:0,0:0:0:0:
192,232,157226,38,0,P|148:204|132:180,1,59.9999976158143,4|0,1:0|0:0,0:0:0:0:
328,196,157681,2,0,P|348:228|348:256,1,59.9999976158143,0|0,3:0|0:0,0:0:0:0:
184,324,158135,2,0,P|156:316|132:288,1,59.9999976158143,8|0,0:0|0:0,0:0:0:0:
356,252,158590,2,0,L|440:256,1,59.9999976158143,0|0,3:0|0:0,0:0:0:0:
264,352,159044,6,0,L|140:348,1,119.999995231629,4|0,1:0|3:0,0:0:0:0:
224,220,159953,2,0,L|144:224,1,59.9999976158143,8|0,0:0|0:0,0:0:0:0:
24,200,160408,1,0,3:0:0:0:
184,152,160635,1,0,0:0:0:0:
24,296,160862,37,2,1:0:0:0:
96,124,161090,1,0,0:0:0:0:
252,256,161317,1,0,3:0:0:0:
120,224,161544,1,0,1:0:0:0:
280,104,161772,1,8,0:0:0:0:
228,208,161999,1,0,0:0:0:0:
184,40,162226,1,0,3:0:0:0:
332,168,162453,1,0,1:0:0:0:
256,260,162681,22,0,L|396:268,1,119.999995231629,4|0,1:0|3:0,0:0:0:0:
456,312,163362,1,0,0:0:0:0:
392,184,163590,2,0,P|388:152|400:108,1,59.9999976158143,8|0,3:2|0:0,0:0:0:0:
252,72,164044,2,0,P|256:101|252:131,1,59.9999976158143,0|0,3:0|1:0,0:0:0:0:
144,216,164499,6,0,P|68:224|28:192,1,119.999995231629,2|0,1:0|1:0,0:0:0:0:
100,136,165181,1,0,0:0:0:0:
220,256,165408,2,0,L|292:248,1,59.9999976158143,8|0,3:2|0:0,0:0:0:0:
368,168,165862,2,0,L|436:176,1,59.9999976158143,0|2,3:0|0:3,0:0:0:0:
468,196,166203,1,2,0:3:0:0:
468,196,166317,38,0,P|480:264|452:312,1,119.999995231629,2|0,1:0|3:0,0:0:0:0:
380,352,166999,1,0,0:0:0:0:
264,320,167226,2,0,L|188:328,1,59.9999976158143,8|0,3:2|0:0,0:0:0:0:
88,288,167681,1,0,3:0:0:0:
212,200,167908,1,0,1:0:0:0:
44,120,168135,6,0,P|20:172|32:244,2,119.999995231629,2|0|8,1:0|1:0|3:2,0:0:0:0:
108,76,169272,2,0,L|188:84,1,59.9999976158143,0|0,0:0|3:0,0:0:0:0:
232,128,169726,1,0,0:0:0:0:
388,48,169953,38,0,P|360:108|388:168,1,119.999995231629,4|0,1:0|3:0,0:0:0:0:
444,108,170635,1,0,0:0:0:0:
312,200,170862,2,0,L|324:280,1,59.9999976158143,8|0,3:2|0:0,0:0:0:0:
484,264,171317,2,0,P|444:244|420:240,1,59.9999976158143,0|0,3:0|1:0,0:0:0:0:
304,344,171772,6,0,L|168:336,1,119.999995231629,2|0,1:0|1:0,0:0:0:0:
112,296,172453,1,0,0:0:0:0:
232,244,172681,2,0,P|240:212|232:176,1,59.9999976158143,8|0,3:2|0:0,0:0:0:0:
127,95,173135,2,0,P|148:116|176:128,1,59.9999976158143,0|0,3:0|0:0,0:0:0:0:
280,72,173590,38,0,P|328:48|400:52,1,119.999995231629,4|0,1:2|0:0,0:0:0:0:
464,92,174272,1,0,0:0:0:0:
300,176,174499,6,0,P|276:128|280:56,1,119.999995231629,6|0,1:2|0:0,0:0:0:0:
464,92,175181,1,0,0:0:0:0:
300,176,175408,37,4,1:0:0:0:
300,176,175635,2,0,P|252:200|180:196,1,119.999995231629
112,164,176317,1,4,1:2:0:0:
248,80,176544,5,0,0:0:0:0:
168,280,176772,1,0,0:0:0:0:
302,185,176999,1,0,0:0:0:0:
360,312,177226,6,0,P|299:304|324:244,1,119.999995231629,12|0,1:0|3:0,0:0:0:0:
372,184,177908,1,0,0:0:0:0:
220,144,178135,2,0,P|260:156|284:152,1,59.9999976158143,8|0,3:2|0:0,0:0:0:0:
144,28,178590,2,0,P|112:48|100:76,1,59.9999976158143,0|0,3:0|1:0,0:0:0:0:
284,76,179044,6,0,L|368:84,1,59.9999976158143,2|0,1:0|0:0,0:0:0:0:
512,152,179499,2,0,L|428:156,1,59.9999976158143,0|0,1:0|0:0,0:0:0:0:
316,176,179953,1,8,3:2:0:0:
448,280,180181,2,0,L|320:288,1,119.999995231629,4|0,1:0|0:0,0:0:0:0:
400,88,180862,2,0,P|356:112|360:24,1,179.999992847443,2|0,1:0|0:0,0:0:0:0:
380,216,181771,38,0,P|332:220|264:176,1,119.999995231629,8|0,3:2|3:0,0:0:0:0:
176,28,182453,1,2,3:0:0:0:
176,28,182567,1,2,3:0:0:0:
176,28,182681,2,0,B|164:72|164:72|184:152,1,119.999995231629,2|0,1:0|3:0,0:0:0:0:
28,148,183362,2,0,P|90:155|112:148,1,59.9999976158143,0|8,0:0|3:2,0:0:0:0:
208,184,183817,2,0,P|212:216|200:256,1,59.9999976158143,0|0,0:0|3:0,0:0:0:0:
116,332,184271,1,0,1:0:0:0:
236,352,184499,6,0,P|299:348|331:301,2,119.999995231629,6|0|8,1:0|1:0|3:2,0:0:0:0:
331,159,185862,2,0,L|271:156,1,59.9999976158143,0|0,3:0|1:0,0:0:0:0:
296,36,186317,38,0,B|256:52|256:52|168:20,1,119.999995231629,2|0,1:0|1:0,0:0:0:0:
136,112,186999,1,0,0:0:0:0:
272,156,187226,2,0,L|344:160,1,59.9999976158143,8|0,3:2|0:0,0:0:0:0:
412,40,187681,2,0,L|408:112,1,59.9999976158143,0|0,3:0|1:0,0:0:0:0:
320,216,188135,6,0,P|356:264|428:256,1,119.999995231629,6|0,1:0|1:0,0:0:0:0:
444,364,188817,1,0,0:0:0:0:
272,348,189044,2,0,L|192:336,1,59.9999976158143,8|0,3:2|0:0,0:0:0:0:
184,180,189499,2,0,L|256:188,1,59.9999976158143,0|0,3:0|0:0,0:0:0:0:
348,16,189953,38,0,P|295:55|236:51,1,119.999995231629,6|0,1:0|1:3,0:0:0:0:
100,32,190635,1,4,1:3:0:0:
304,136,190862,1,8,3:2:0:0:
104,164,191090,1,4,0:3:0:0:
243,53,191317,1,8,1:3:0:0:
164,232,191544,1,0,1:0:0:0:
40,88,191772,22,0,L|168:80,1,119.999995231629,4|0,1:0|3:0,0:0:0:0:
232,124,192453,1,0,0:0:0:0:
328,28,192681,2,0,P|360:16|400:16,1,59.9999976158143,8|0,3:2|0:0,0:0:0:0:
460,48,193135,1,0,3:0:0:0:
416,120,193362,1,0,1:0:0:0:
280,204,193590,6,0,P|216:216|160:184,1,119.999995231629,2|0,1:0|3:0,0:0:0:0:
128,120,194272,1,0,0:0:0:0:
280,204,194499,2,0,P|284:244|276:276,1,59.9999976158143,8|0,3:2|0:0,0:0:0:0:
116,356,194953,2,0,P|112:316|120:284,1,59.9999976158143,0|2,3:0|0:3,0:0:0:0:
192,328,195294,1,2,0:3:0:0:
192,328,195408,38,0,L|328:336,1,119.999995231629,2|0,1:0|3:0,0:0:0:0:
392,364,196090,1,0,0:0:0:0:
484,292,196317,2,0,P|488:264|480:216,1,59.9999976158143,8|0,3:2|0:0,0:0:0:0:
352,192,196772,2,0,P|348:220|356:268,1,59.9999976158143,0|0,3:0|1:0,0:0:0:0:
408,140,197226,6,0,P|352:116|296:140,1,119.999995231629,2|0,1:0|1:0,0:0:0:0:
244,200,197908,1,0,0:0:0:0:
156,128,198135,2,0,L|148:56,1,59.9999976158143,8|0,3:2|0:0,0:0:0:0:
32,128,198590,2,0,L|40:200,1,59.9999976158143,0|0,3:0|1:0,0:0:0:0:
124,232,199044,38,0,P|140:288|112:352,1,119.999995231629,4|0,1:0|3:0,0:0:0:0:
44,284,199726,1,0,1:0:0:0:
204,368,199953,2,0,L|284:360,1,59.9999976158143,8|0,3:2|0:0,0:0:0:0:
263,362,200635,1,0,1:0:0:0:
263,362,200862,6,0,P|312:320|376:328,1,119.999995231629,2|0,1:0|3:0,0:0:0:0:
452,360,201544,1,0,1:0:0:0:
384,240,201772,2,0,P|376:208|384:164,1,59.9999976158143,8|0,3:2|0:0,0:0:0:0:
430,45,202226,2,0,P|437:74|436:104,1,59.9999976158143,0|2,3:0|0:3,0:0:0:0:
436,103,202567,1,2,0:3:0:0:
436,103,202681,38,0,P|376:88|312:116,1,119.999995231629,2|0,1:0|0:0,0:0:0:0:
260,176,203362,1,0,1:0:0:0:
140,112,203590,2,0,P|132:80|136:48,1,59.9999976158143,8|0,3:2|0:0,0:0:0:0:
132,196,204044,2,0,P|100:186|74:167,1,59.9999976158143,0|0,3:0|1:0,0:0:0:0:
204,256,204499,6,0,L|344:244,1,119.999995231629,4|0,1:0|1:0,0:0:0:0:
412,284,205181,1,0,0:0:0:0:
260,332,205408,1,8,3:2:0:0:
300,172,205635,37,8,3:2:0:0:
412,284,205862,1,8,0:3:0:0:
456,168,206090,1,4,0:3:0:0:
376,116,206317,22,0,P|324:92|320:32,1,119.999995231629,4|0,1:0|3:0,0:0:0:0:
484,172,206999,2,0,P|496:140|488:104,1,59.9999976158143,0|8,0:0|3:2,0:0:0:0:
356,184,207453,1,0,0:0:0:0:
440,272,207681,2,0,L|508:272,1,59.9999976158143,0|0,3:0|1:0,0:0:0:0:
324,344,208135,6,0,L|200:336,1,119.999995231629,2|0,1:0|1:0,0:0:0:0:
292,176,209044,2,0,L|380:184,1,59.9999976158143,8|4,3:2|1:0,0:0:0:0:
192,32,209726,2,0,L|108:36,1,59.9999976158143,0|4,1:0|1:0,0:0:0:0:
356,200,210862,2,0,P|300:144|372:124,1,179.999992847443
368,288,211771,38,0,P|336:340|256:336,1,119.999995231629,4|0,1:0|0:0,0:0:0:0:
108,184,212681,2,0,L|232:192,1,119.999995231629
360,124,213590,21,2,0:0:0:0:
248,292,214044,2,0,P|280:276|312:272,1,59.9999976158143
388,212,214499,2,0,P|376:272|408:320,1,119.999995231629,0|0,3:0|0:0,0:0:0:0:
500,140,215408,5,0,0:0:0:0:
408,96,215635,2,0,L|328:104,1,59.9999976158143
172,208,216317,1,0,3:0:0:0:
48,44,216772,1,0,0:0:0:0:
136,92,216999,1,0,0:0:0:0:
136,92,217226,38,0,L|228:100,2,89.9999964237214
300,32,218135,2,0,P|324:80|320:128,2,89.9999964237214,0|0|0,3:0|0:0|0:0,0:0:0:0:
225,99,219044,6,0,P|233:159|277:207,1,119.999995231629
464,256,219953,1,0,3:0:0:0:
318,295,220408,1,0,0:0:0:0:
270,203,220635,1,0,0:0:0:0:
178,247,220862,38,0,L|46:239,1,119.999995231629
192,124,221772,2,0,L|324:116,1,119.999995231629,0|0,0:0|0:0,0:0:0:0:
408,164,222453,1,0,0:0:0:0:
408,164,222908,5,0,0:0:0:0:
448,72,223135,2,0,L|368:68,1,59.9999976158143
280,28,223590,1,0,3:0:0:0:
280,28,223817,2,0,L|152:36,1,119.999995231629
84,44,224499,38,0,P|52:104|72:172,1,127.499997365475
148,240,225515,6,0,L|252:248,1,104.999992623329,0|0,3:0|0:0,0:0:0:0:
280,168,226545,38,0,L|188:160,1,82.4999992394448,0|0,3:0|0:0,0:0:0:0:
348,112,227719,6,0,P|368:172|344:224,1,119.999995231629,0|0,3:0|0:0,0:0:0:0:
256,192,230350,37,6,0:0:0:0:
256,192,230514,12,0,236927,0:0:0:0:
