osu file format v14

[General]
AudioFilename: audio.mp3
AudioLeadIn: 0
PreviewTime: -1
Countdown: 0
SampleSet: None
StackLeniency: 0.7
Mode: 0
LetterboxInBreaks: 0
WidescreenStoryboard: 0

[Editor]
DistanceSpacing: 0.2
BeatDivisor: 4
GridSize: 32
TimelineZoom: 1

[Metadata]
Title:Despacito 3
TitleUnicode:Despacito 3
Artist:ReptileLegit
ArtistUnicode:ReptileLegit
Creator:DominicsHase
Version:Better than the original
Source:
Tags:
BeatmapID:1787657
BeatmapSetID:855563

[Difficulty]
HPDrainRate:5
CircleSize:4
OverallDifficulty:5
ApproachRate:9.5
SliderMultiplier:1.9
SliderTickRate:1

[Events]
//Background and Video events
0,0,"despacito 3.jpg",0,0
//Break Periods
//Storyboard Layer 0 (Background)
//Storyboard Layer 1 (Fail)
//Storyboard Layer 2 (Pass)
//Storyboard Layer 3 (Foreground)
//Storyboard Sound Samples

[TimingPoints]
1281.41320023236,337.078651685393,4,2,0,100,1,0

[HitObjects]
271,49,1281,6,0,P|342:53|420:143,1,190
166,103,1955,1,0,0:0:0:0:
322,136,2124,1,0,0:0:0:0:
230,174,2292,1,0,0:0:0:0:
263,51,2461,1,0,0:0:0:0:
358,253,2629,6,0,L|241:301,2,95,0|0|8,0:0|0:0|0:0,0:0:0:0:
241,96,3135,1,0,0:0:0:0:
289,325,3303,1,0,0:0:0:0:
341,80,3472,1,0,0:0:0:0:
289,325,3640,1,0,0:0:0:0:
176,106,3809,1,0,0:0:0:0:
406,158,3978,2,0,P|429:200|369:165,1,190
189,52,4652,6,0,P|155:78|139:148,1,95
315,226,4989,2,0,L|308:127,1,95
125,97,5326,1,0,0:0:0:0:
211,293,5494,1,0,0:0:0:0:
311,82,5663,2,0,L|199:46,1,95
375,79,6000,6,0,L|471:69,1,95
254,248,6337,1,0,0:0:0:0:
181,187,6506,1,0,0:0:0:0:
357,266,6674,1,0,0:0:0:0:
147,108,6843,1,0,0:0:0:0:
389,147,7011,2,0,L|501:188,1,95
169,77,7348,6,0,P|113:111|94:135,1,95
147,262,7685,1,0,0:0:0:0:
235,48,7854,1,0,0:0:0:0:
197,273,8022,2,0,L|311:254,1,95
103,46,8360,2,0,L|26:135,1,95
320,50,8697,1,0,0:0:0:0:
75,175,8865,1,0,0:0:0:0:
376,69,9034,1,0,0:0:0:0:
50,92,9202,1,0,0:0:0:0:
330,110,9371,2,0,P|361:147|239:89,1,570
380,161,10719,5,0,0:0:0:0:
106,80,11393,1,0,0:0:0:0:
305,275,12067,6,0,P|355:246|394:204,2,95
137,240,12573,1,0,0:0:0:0:
370,114,12742,1,8,0:0:0:0:
268,257,12910,1,0,0:0:0:0:
260,90,13079,1,0,0:0:0:0:
438,200,13247,1,0,0:0:0:0:
230,88,13416,6,0,P|185:60|115:48,1,95
1,133,13753,1,0,0:0:0:0:
175,92,13921,1,0,0:0:0:0:
30,253,14090,1,0,0:0:0:0:
226,56,14258,1,0,0:0:0:0:
77,318,14427,1,0,0:0:0:0:
281,38,14596,1,0,0:0:0:0:
129,348,14764,2,0,P|175:318|338:303,1,190
427,93,15438,6,0,L|322:68,1,95
151,73,15775,1,0,0:0:0:0:
353,280,15944,1,0,0:0:0:0:
398,35,16112,2,0,L|300:105,1,95
142,242,16449,1,0,0:0:0:0:
259,90,16618,1,0,0:0:0:0:
37,80,16787,2,0,B|55:156|55:156|113:167|113:167|153:244,1,190
321,128,17292,1,0,0:0:0:0:
70,230,17461,2,0,B|110:294|110:294|231:268,1,190
236,54,18135,6,0,L|175:163,1,95
115,258,18472,1,0,0:0:0:0:
326,121,18640,1,0,0:0:0:0:
288,319,18809,1,0,0:0:0:0:
166,137,18978,1,0,0:0:0:0:
436,143,19146,1,0,0:0:0:0:
130,179,19315,1,0,0:0:0:0:
400,101,19483,2,0,L|530:64,1,95
365,242,19820,1,0,0:0:0:0:
134,45,19989,1,0,0:0:0:0:
367,44,20157,2,0,B|399:119|238:87|387:202|387:202|201:257|211:83|211:83|72:334|73:119,1,760
357,68,22180,5,0,0:0:0:0:
179,293,22517,1,0,0:0:0:0:
302,61,22854,6,0,L|391:139,1,95
181,88,23191,1,0,0:0:0:0:
115,286,23360,1,0,0:0:0:0:
85,114,23528,1,0,0:0:0:0:
261,152,23697,1,0,0:0:0:0:
60,304,23865,1,0,0:0:0:0:
269,43,24034,1,0,0:0:0:0:
350,283,24202,6,0,L|236:322,1,95
342,53,24539,1,0,0:0:0:0:
424,227,24708,1,0,0:0:0:0:
97,147,24876,1,0,0:0:0:0:
282,47,25045,1,0,0:0:0:0:
252,338,25213,1,0,0:0:0:0:
109,119,25382,1,0,0:0:0:0:
435,171,25551,5,0,0:0:0:0:
86,91,25719,1,0,0:0:0:0:
455,208,25888,1,0,0:0:0:0:
75,141,26056,1,0,0:0:0:0:
267,216,26225,1,0,0:0:0:0:
48,241,26393,1,0,0:0:0:0:
199,312,26562,1,0,0:0:0:0:
36,348,26730,1,0,0:0:0:0:
206,276,26899,6,0,L|317:218,1,95
460,147,27236,1,0,0:0:0:0:
185,163,27405,2,0,L|296:105,1,95
439,34,27742,1,0,0:0:0:0:
137,115,27910,1,0,0:0:0:0:
402,304,28079,1,0,0:0:0:0:
255,23,28247,5,0,0:0:0:0:
152,318,28416,1,0,0:0:0:0:
321,31,28584,1,0,0:0:0:0:
434,318,28753,1,0,0:0:0:0:
260,35,28921,1,0,0:0:0:0:
119,298,29090,1,0,0:0:0:0:
299,27,29258,1,0,0:0:0:0:
394,348,29427,1,0,0:0:0:0:
233,134,29596,6,0,P|177:100|110:83,1,95
279,250,29933,2,0,P|335:284|402:301,1,95
172,96,30270,1,0,0:0:0:0:
386,280,30438,1,0,0:0:0:0:
124,84,30607,1,0,0:0:0:0:
440,283,30775,1,0,0:0:0:0:
108,222,30944,6,0,P|155:274|197:302,1,95
349,125,31281,1,0,0:0:0:0:
114,124,31449,1,0,0:0:0:0:
348,260,31618,2,0,P|387:203|382:144,1,95
176,230,31955,2,0,L|269:277,1,95
196,67,32292,6,0,L|92:94,1,95
330,138,32629,2,0,L|437:171,1,95
117,165,32966,1,0,0:0:0:0:
456,117,33135,1,0,0:0:0:0:
78,209,33303,1,0,0:0:0:0:
466,73,33472,1,0,0:0:0:0:
158,252,33640,6,0,P|108:238|68:189,1,95
266,39,33978,1,0,0:0:0:0:
231,314,34146,1,0,0:0:0:0:
203,35,34315,1,0,0:0:0:0:
341,330,34483,1,0,0:0:0:0:
99,152,34652,2,0,L|201:180,1,95
442,206,34989,6,0,L|323:161,1,95
138,85,35326,1,0,0:0:0:0:
370,117,35494,1,0,0:0:0:0:
174,308,35663,1,0,0:0:0:0:
206,29,35831,1,0,0:0:0:0:
271,134,36000,1,0,0:0:0:0:
111,117,36169,1,0,0:0:0:0:
403,68,36337,2,0,B|405:256|405:256|307:113|212:95|130:109|83:232,1,570
379,70,37685,6,0,L|284:81,1,95
245,192,38022,1,0,0:0:0:0:
405,172,38191,1,0,0:0:0:0:
192,68,38360,1,0,0:0:0:0:
269,353,38528,1,0,0:0:0:0:
389,72,38697,1,0,0:0:0:0:
53,177,38865,1,0,0:0:0:0:
432,185,39034,6,0,L|387:94,1,95
344,227,39371,2,0,L|414:327,1,95
345,81,39708,2,0,L|217:58,1,95
392,296,40045,2,0,L|520:319,1,95
286,90,40382,6,0,L|161:142,1,95
434,192,40719,1,0,0:0:0:0:
216,35,40888,1,0,0:0:0:0:
253,310,41056,1,0,0:0:0:0:
439,120,41225,1,0,0:0:0:0:
147,140,41393,2,0,L|36:148,1,95
354,237,41730,6,0,L|354:125,1,95
355,28,42067,1,0,0:0:0:0:
169,299,42236,1,0,0:0:0:0:
237,29,42405,1,0,0:0:0:0:
382,312,42573,1,0,0:0:0:0:
323,36,42742,1,0,0:0:0:0:
146,307,42910,1,0,0:0:0:0:
413,155,43079,1,0,0:0:0:0:
114,92,44427,5,0,0:0:0:0:
114,92,44511,1,0,0:0:0:0:
114,92,44596,1,0,0:0:0:0:
267,245,44764,1,0,0:0:0:0:
227,42,44933,1,0,0:0:0:0:
121,243,45101,2,0,P|176:263|253:270,1,95
199,76,45438,2,0,L|141:201,1,95
376,93,45775,5,0,0:0:0:0:
376,93,45860,1,0,0:0:0:0:
376,93,45944,1,0,0:0:0:0:
147,196,46112,1,0,0:0:0:0:
418,237,46281,1,0,0:0:0:0:
182,122,46449,1,0,0:0:0:0:
364,296,46618,1,0,0:0:0:0:
240,70,46787,2,0,L|286:187,1,95
346,323,47124,5,0,0:0:0:0:
346,323,47208,1,0,0:0:0:0:
346,323,47292,1,0,0:0:0:0:
186,137,47461,1,0,0:0:0:0:
166,333,47629,1,0,0:0:0:0:
366,182,47798,2,0,L|268:113,1,95
258,311,48135,2,0,L|375:276,1,95
247,97,48472,5,0,0:0:0:0:
247,97,48556,1,0,0:0:0:0:
247,97,48640,1,0,0:0:0:0:
300,332,48809,1,0,0:0:0:0:
150,126,48978,1,0,0:0:0:0:
392,205,49146,1,0,0:0:0:0:
150,283,49315,1,0,0:0:0:0:
300,78,49483,2,0,P|346:64|408:65,1,95
159,236,49820,6,0,L|117:139,1,95
366,225,50157,1,0,0:0:0:0:
141,141,50326,1,0,0:0:0:0:
396,169,50494,1,0,0:0:0:0:
91,190,50663,1,0,0:0:0:0:
422,110,50831,2,0,L|526:92,1,95
80,227,51169,5,0,0:0:0:0:
440,73,51506,1,0,0:0:0:0:
171,300,51843,6,0,L|71:225,1,95
233,252,52180,1,0,0:0:0:0:
343,327,52348,1,0,0:0:0:0:
219,160,52517,6,0,L|131:93,1,95
298,134,52854,1,0,0:0:0:0:
298,292,53022,1,0,0:0:0:0:
126,93,53191,1,0,0:0:0:0:
364,145,53360,1,0,0:0:0:0:
124,253,53528,1,0,0:0:0:0:
219,35,53697,1,0,0:0:0:0:
368,293,53865,5,0,0:0:0:0:
88,67,54202,1,0,0:0:0:0:
331,269,54539,6,0,P|275:293|225:292,1,95
320,114,54876,1,0,0:0:0:0:
344,316,55045,1,0,0:0:0:0:
204,157,55213,6,0,P|161:104|118:80,1,95
151,317,55551,1,0,0:0:0:0:
366,126,55719,1,0,0:0:0:0:
205,343,55888,1,0,0:0:0:0:
338,78,56056,1,0,0:0:0:0:
269,353,56225,2,0,P|334:354|381:340,1,95
187,115,56562,6,0,L|103:208,1,95
370,107,56899,2,0,L|454:14,1,95
401,188,57236,5,0,0:0:0:0:
329,265,57405,1,0,0:0:0:0:
216,284,57573,1,0,0:0:0:0:
113,253,57742,1,0,0:0:0:0:
201,133,57910,6,0,L|305:81,2,95
81,212,58416,1,0,0:0:0:0:
306,52,58584,1,0,0:0:0:0:
316,320,58753,1,0,0:0:0:0:
150,133,58921,2,0,L|86:61,1,95
379,92,59258,6,0,L|270:163,1,95
124,289,59596,2,0,L|233:218,1,95
347,112,59933,1,0,0:0:0:0:
183,120,60101,1,0,0:0:0:0:
318,197,60270,1,0,0:0:0:0:
308,39,60438,1,0,0:0:0:0:
141,161,60607,6,0,L|56:229,1,95
382,82,60944,1,0,0:0:0:0:
203,311,61112,1,0,0:0:0:0:
217,39,61281,1,0,0:0:0:0:
292,328,61449,1,0,0:0:0:0:
404,42,61618,1,0,0:0:0:0:
226,328,61787,1,0,0:0:0:0:
121,62,61955,5,0,0:0:0:0:
420,244,62292,1,0,0:0:0:0:
89,148,62629,6,0,P|133:107|192:78,1,95
313,148,62966,1,0,0:0:0:0:
457,242,63135,1,0,0:0:0:0:
296,307,63303,5,0,0:0:0:0:
294,151,63472,1,0,0:0:0:0:
294,15,63640,1,0,0:0:0:0:
373,300,63809,1,0,0:0:0:0:
212,57,63978,1,0,0:0:0:0:
440,279,64146,1,0,0:0:0:0:
145,78,64315,1,0,0:0:0:0:
505,253,64483,1,0,0:0:0:0:
131,117,64652,6,0,P|87:135|121:152,1,95
277,108,64989,2,0,L|153:52,1,95
175,288,65326,1,0,0:0:0:0:
200,75,65494,1,0,0:0:0:0:
324,261,65663,1,0,0:0:0:0:
310,44,65831,1,0,0:0:0:0:
161,304,66000,5,0,0:0:0:0:
190,55,66168,1,0,0:0:0:0:
335,272,66337,1,0,0:0:0:0:
319,19,66505,1,0,0:0:0:0:
104,206,66674,2,0,L|167:303,1,95
218,109,67011,2,0,L|155:12,1,95
95,268,67348,6,0,L|214:304,1,95
308,136,67685,2,0,L|189:100,1,95
39,86,68022,1,0,0:0:0:0:
395,145,68191,1,0,0:0:0:0:
134,307,68360,1,0,0:0:0:0:
268,32,68528,1,0,0:0:0:0:
314,331,68697,6,0,P|236:343|193:321,1,95
59,193,69034,1,0,0:0:0:0:
406,130,69371,5,0,0:0:0:0:
256,238,69539,1,0,0:0:0:0:
442,115,69708,1,0,0:0:0:0:
151,97,69876,1,0,0:0:0:0:
484,105,70045,2,0,L|366:137,1,95
94,242,70382,2,0,L|212:210,1,95
404,133,70719,1,0,0:0:0:0:
285,48,70888,1,0,0:0:0:0:
139,65,71056,1,0,0:0:0:0:
45,168,71225,1,0,0:0:0:0:
241,295,71393,6,0,P|282:253|282:207,1,95
65,259,71730,2,0,L|184:287,1,95
373,202,72067,1,0,0:0:0:0:
100,142,72236,1,0,0:0:0:0:
279,240,72405,1,0,0:0:0:0:
207,136,72573,1,0,0:0:0:0:
238,294,72742,6,0,P|332:281|346:254,1,95
122,139,73079,2,0,L|124:259,1,95
350,187,73416,1,0,0:0:0:0:
174,130,73584,1,0,0:0:0:0:
283,280,73753,1,0,0:0:0:0:
283,95,73921,1,0,0:0:0:0:
174,244,74090,6,0,L|95:315,2,95
304,117,74596,1,0,0:0:0:0:
241,290,74764,1,0,0:0:0:0:
176,64,74933,1,0,0:0:0:0:
360,256,75101,1,0,0:0:0:0:
91,152,75270,1,0,0:0:0:0:
326,136,75438,2,0,L|427:114,1,95
185,242,75775,2,0,L|84:264,1,95
276,59,76112,5,0,0:0:0:0:
380,262,76281,1,0,0:0:0:0:
208,50,76449,1,0,0:0:0:0:
128,279,76618,1,0,0:0:0:0:
313,53,76787,1,0,0:0:0:0:
