osu file format v14

[General]
AudioFilename: audio.mp3
AudioLeadIn: 0
PreviewTime: 20191
Countdown: 0
SampleSet: Soft
StackLeniency: 0.7
Mode: 0
LetterboxInBreaks: 0
WidescreenStoryboard: 0

[Editor]
Bookmarks: 61965
DistanceSpacing: 1.2
BeatDivisor: 4
GridSize: 4
TimelineZoom: 2.7

[Metadata]
Title:Already Dead (MINECRAFT PARODY) (prod. deadman)
TitleUnicode:Already Dead (MINECRAFT PARODY) (prod. deadman 死人)
Artist:ReptileLegit
ArtistUnicode:ReptileLegit
Creator:Chompy
Version:Hardcore Mode
Source:
Tags:minecraft parody already dead reptilelegit deadman 死人 lil boom
BeatmapID:2141026
BeatmapSetID:1023482

[Difficulty]
HPDrainRate:5
CircleSize:5
OverallDifficulty:9
ApproachRate:8.8
SliderMultiplier:1.6
SliderTickRate:1

[Events]
//Background and Video events
0,0,"maxresdefault.jpg",0,0
//Break Periods
//Storyboard Layer 0 (Background)
//Storyboard Layer 1 (Fail)
//Storyboard Layer 2 (Pass)
//Storyboard Layer 3 (Foreground)
//Storyboard Layer 4 (Overlay)
//Storyboard Sound Samples

[TimingPoints]
30,322.58064516129,4,1,0,45,1,0
30,-125,4,2,0,45,0,0
20675,-100,4,1,0,60,0,0
61965,-100,4,1,0,60,0,1
82610,-100,4,1,0,60,0,0

[Colours]
Combo1 : 247,108,130
Combo2 : 119,249,165
Combo3 : 176,164,249

[HitObjects]
88,92,30,6,0,B|88:34|88:34|173:34,1,128
216,104,675,2,0,B|216:156|216:156|179:156,1,64
424,92,1320,6,0,B|424:34|424:34|339:34,1,128
292,108,1965,2,0,B|292:160|292:160|329:160,1,64
84,356,2610,6,0,B|84:256|84:256|116:256,1,128
200,244,3255,2,0,B|236:244|236:244|236:208,1,64
428,356,3900,6,0,B|428:256|428:256|396:256,1,128
312,244,4545,2,0,B|276:244|276:244|276:208,1,64
172,140,5191,6,0,B|88:140|88:140|88:92,1,128
168,56,5836,2,0,B|208:56|208:56|208:8,1,64
340,140,6481,6,0,B|424:140|424:140|424:92,1,128
344,56,7126,2,0,B|304:56|304:56|304:8,1,64
256,172,7771,6,0,B|256:272|256:272|216:272,1,128
152,224,8417,2,0,B|104:224|104:224|104:264,1,64
196,356,9062,6,0,B|312:356|312:356|312:324,1,128
336,256,9707,2,0,B|372:256|372:256|372:288,1,64
488,360,10352,6,0,B|488:248|488:248|460:248,1,128
396,200,10997,2,0,B|344:200|344:200|344:160,1,64
488,24,11642,6,0,B|488:136|488:136|460:136,1,128
396,184,12287,2,0,B|344:184|344:184|344:208,1,64
252,80,12933,6,0,B|148:80|148:80|148:116,1,128
204,176,13578,2,0,B|204:216|204:216|168:216,1,64
44,228,14223,6,0,B|44:332|44:332|80:332,1,128
140,276,14868,2,0,B|180:276|180:276|180:312,1,64
344,356,15513,6,0,B|368:356|368:356|368:248,1,128
364,164,16159,2,0,B|416:164|416:164|416:132,1,64
312,56,16804,6,0,B|312:31|312:31|204:31,1,128
120,32,17450,2,0,B|120:84|120:84|152:84,1,64
240,164,18094,6,0,B|355:163|355:163|356:180,1,128
332,264,18739,2,0,B|332:304|332:304|296:304,1,64
256,232,19223,1,0,0:0:0:0:
256,232,19384,1,0,0:0:0:0:
104,168,19868,6,0,B|104:128|104:128|140:128,1,64
216,132,20352,5,0,0:0:0:0:
216,248,20513,1,0,0:0:0:0:
216,248,20675,2,0,L|296:248,1,80
296,152,20997,1,0,0:0:0:0:
392,152,21159,1,0,0:0:0:0:
396,248,21320,6,0,L|396:328,1,80
492,328,21642,1,0,0:0:0:0:
492,232,21804,1,0,0:0:0:0:
492,136,21965,6,0,B|492:64|492:64|456:64,1,80
376,64,22288,1,0,0:0:0:0:
280,64,22449,1,0,0:0:0:0:
280,160,22610,2,0,B|280:220|280:220|204:220|204:220|204:168,1,160
108,28,23255,6,0,B|60:28|60:28|60:80,1,80
60,156,23578,1,0,0:0:0:0:
60,252,23739,1,0,0:0:0:0:
60,348,23900,6,0,L|140:348,1,80
140,252,24223,1,0,0:0:0:0:
236,252,24384,1,0,0:0:0:0:
316,308,24546,6,0,B|356:308|356:308|356:244,1,80
316,180,24868,2,0,B|356:180|356:180|356:244,1,80
264,244,25191,2,0,B|116:244|116:244|116:220,1,160
180,52,25836,5,0,0:0:0:0:
180,52,25997,2,0,L|288:52,1,80
356,52,26320,1,0,0:0:0:0:
452,52,26481,2,0,B|452:112|452:112|432:112,1,80
336,120,26804,1,0,0:0:0:0:
336,216,26965,1,0,0:0:0:0:
332,312,27126,6,0,B|260:312|260:312|260:276,1,80
260,208,27449,1,0,0:0:0:0:
260,112,27610,1,0,0:0:0:0:
164,112,27771,2,0,B|148:112|148:112|148:164|148:164|136:164,1,80
40,164,28094,5,0,0:0:0:0:
40,164,28255,1,0,0:0:0:0:
40,164,28417,2,0,L|40:268,1,80
40,340,28739,1,0,0:0:0:0:
40,340,28900,2,0,B|116:340|116:340|116:240,1,160
116,160,29384,5,0,0:0:0:0:
116,160,29546,1,0,0:0:0:0:
116,160,29707,2,0,B|184:160|184:160|184:128,1,80
280,140,30029,2,0,B|332:140|332:140|332:188,1,80
336,264,30352,2,0,B|336:364|336:364|256:364|256:364|256:224,1,320
48,32,31642,5,0,0:0:0:0:
48,224,31965,6,0,B|108:223|108:223|108:268,1,80
108,340,32288,2,0,B|156:340|156:340|156:304,1,80
252,308,32610,1,0,0:0:0:0:
252,308,32771,1,0,0:0:0:0:
252,308,32933,2,0,B|288:312|288:312|312:304|312:304|336:312|336:312|360:304|360:304|384:312|384:312|416:308,1,160
460,124,33578,5,0,0:0:0:0:
460,220,33739,1,0,0:0:0:0:
364,220,33900,1,0,0:0:0:0:
364,124,34062,1,0,0:0:0:0:
268,124,34223,2,0,B|244:124|244:124|244:192,1,80
244,276,34546,5,0,0:0:0:0:
244,276,34707,1,0,0:0:0:0:
244,276,34868,1,0,0:0:0:0:
244,372,35029,1,0,0:0:0:0:
148,372,35191,2,0,B|43:371|43:371|44:316,1,160
44,124,35836,5,0,0:0:0:0:
44,124,35997,1,0,0:0:0:0:
44,124,36159,1,0,0:0:0:0:
44,220,36320,1,0,0:0:0:0:
140,220,36481,1,0,0:0:0:0:
140,124,36642,1,0,0:0:0:0:
236,124,36804,2,0,B|236:104|236:104|268:104|268:104|268:76,1,80
364,76,37126,5,0,0:0:0:0:
364,172,37288,1,0,0:0:0:0:
268,172,37449,1,0,0:0:0:0:
268,172,37610,1,0,0:0:0:0:
268,172,37771,2,0,B|184:172|184:172|184:248,1,160
364,316,38417,6,0,B|404:316|404:316|404:264,1,80
404,180,38739,1,0,0:0:0:0:
500,180,38900,1,0,0:0:0:0:
496,84,39062,2,0,L|416:84,1,80
320,72,39384,2,0,B|316:104|316:104|300:124|300:124|300:168,1,80
304,244,39707,5,0,0:0:0:0:
208,244,39868,1,0,0:0:0:0:
208,148,40029,2,0,B|208:108|208:108|160:108,1,80
72,104,40352,2,0,B|72:272|72:272|216:272|216:272|216:104,1,480
408,28,41804,5,0,0:0:0:0:
408,28,41965,2,0,B|488:28,1,80
488,220,42449,5,0,0:0:0:0:
488,124,42610,2,0,B|488:96|488:96|432:96,1,80
372,168,42933,2,0,B|372:220|372:220|424:220|424:220|424:160,1,160
52,72,43900,5,0,0:0:0:0:
148,72,44062,1,0,0:0:0:0:
152,168,44223,1,0,0:0:0:0:
152,168,44384,1,0,0:0:0:0:
152,168,44546,2,0,B|96:168|96:168|96:216,1,80
96,284,44868,5,0,0:0:0:0:
96,284,45029,1,0,0:0:0:0:
96,284,45191,2,0,B|160:284|160:284|160:260,1,80
160,172,45513,1,0,0:0:0:0:
256,172,45675,1,0,0:0:0:0:
256,172,45836,2,0,B|308:172|308:172|308:204,1,80
308,296,46159,5,0,0:0:0:0:
308,296,46320,1,0,0:0:0:0:
308,296,46481,2,0,L|392:296,1,80
484,296,46804,2,0,B|484:364|484:364|384:364,1,160
200,364,47449,5,0,0:0:0:0:
104,364,47610,1,0,0:0:0:0:
104,268,47771,1,0,0:0:0:0:
200,268,47933,1,0,0:0:0:0:
200,268,48094,1,0,0:0:0:0:
200,268,48255,2,0,B|252:268|252:268|252:152,1,160
252,64,48739,5,0,0:0:0:0:
252,64,48900,1,0,0:0:0:0:
252,64,49062,2,0,L|156:64,1,80
172,160,49384,1,0,0:0:0:0:
268,160,49546,2,0,B|316:160|316:160|316:212|316:212|388:212,1,160
376,116,50029,5,0,0:0:0:0:
376,116,50191,1,0,0:0:0:0:
376,116,50352,2,0,L|480:116,1,80
460,212,50675,1,0,0:0:0:0:
460,212,50836,1,0,0:0:0:0:
460,212,50997,2,0,B|460:328|460:328|392:328,2,160
116,36,52288,6,0,B|36:36,1,80
36,228,52772,5,0,0:0:0:0:
36,132,52933,2,0,B|36:104|36:104|92:104,1,80
152,176,53256,2,0,B|152:228|152:228|100:228|100:228|100:168,1,160
472,80,54223,5,0,0:0:0:0:
376,80,54385,1,0,0:0:0:0:
384,176,54546,1,0,0:0:0:0:
384,176,54707,1,0,0:0:0:0:
384,176,54869,2,0,B|440:176|440:176|440:224,1,80
420,292,55191,5,0,0:0:0:0:
420,292,55352,1,0,0:0:0:0:
420,292,55514,2,0,B|356:292|356:292|356:268,1,80
356,180,55836,1,0,0:0:0:0:
260,180,55998,1,0,0:0:0:0:
260,180,56159,2,0,B|208:180|208:180|208:212,1,80
208,304,56482,5,0,0:0:0:0:
208,304,56643,1,0,0:0:0:0:
208,304,56804,2,0,L|124:304,1,80
32,304,57127,2,0,B|32:372|32:372|132:372,1,160
316,372,57772,5,0,0:0:0:0:
412,372,57933,1,0,0:0:0:0:
412,276,58094,1,0,0:0:0:0:
316,276,58256,1,0,0:0:0:0:
316,276,58417,1,0,0:0:0:0:
316,276,58578,2,0,B|264:276|264:276|264:160,1,160
264,72,59062,5,0,0:0:0:0:
264,72,59223,1,0,0:0:0:0:
264,72,59385,2,0,L|360:72,1,80
344,168,59707,1,0,0:0:0:0:
248,168,59869,2,0,B|200:168|200:168|200:220|200:220|128:220,1,160
140,124,60352,5,0,0:0:0:0:
140,124,60514,1,0,0:0:0:0:
140,124,60675,2,0,L|36:124,1,80
56,220,60998,1,0,0:0:0:0:
56,220,61159,1,0,0:0:0:0:
56,220,61320,2,0,B|56:336|56:336|124:336,2,160
152,220,62126,5,0,0:0:0:0:
152,220,62288,1,0,0:0:0:0:
152,220,62449,2,0,L|256:220,1,80
328,220,62771,5,0,0:0:0:0:
328,220,62933,2,0,B|328:148|328:148|352:148,1,80
432,156,63255,1,0,0:0:0:0:
432,252,63417,1,0,0:0:0:0:
348,296,63578,6,0,B|348:356|348:356|368:356,1,80
292,296,63900,2,0,B|292:356|292:356|272:356,1,80
200,292,64223,5,0,0:0:0:0:
200,292,64384,1,0,0:0:0:0:
200,292,64546,2,0,B|164:224|164:224|196:140,1,160
384,184,65191,2,0,L|384:292,1,80
384,360,65513,5,0,0:0:0:0:
288,360,65675,1,0,0:0:0:0:
252,272,65836,2,0,B|188:272|188:272|216:304,1,80
252,204,66159,1,0,0:0:0:0:
252,204,66320,1,0,0:0:0:0:
252,204,66481,2,0,B|124:204|124:204|164:232,1,160
152,320,66965,5,0,0:0:0:0:
248,320,67126,2,0,B|303:319|303:319|304:272,1,80
320,200,67449,2,0,B|360:200|360:200|360:248,1,80
400,328,67771,2,0,B|436:328|436:328|460:300|460:300|460:248|460:248|440:212,1,160
444,124,68255,5,0,0:0:0:0:
348,124,68417,1,0,0:0:0:0:
348,220,68578,2,0,B|348:288|348:288|324:288,1,80
240,288,68900,1,0,0:0:0:0:
240,288,69062,2,0,B|240:308|240:308|176:308,1,80
84,308,69384,5,0,0:0:0:0:
84,308,69546,1,0,0:0:0:0:
84,308,69707,2,0,B|84:236|84:236|116:236,1,80
188,236,70029,1,0,0:0:0:0:
188,140,70191,1,0,0:0:0:0:
284,140,70352,2,0,B|328:140|328:140|296:200|296:200|348:200,1,160
348,296,70836,5,0,0:0:0:0:
348,296,70997,2,0,B|404:296|404:296|404:244,1,80
404,176,71320,2,0,B|472:175|472:175|472:200,1,80
472,284,71642,2,0,B|472:356|472:356|440:352,1,80
368,356,71965,5,0,0:0:0:0:
368,356,72126,1,0,0:0:0:0:
368,356,72288,2,0,B|299:355|299:355|300:336,1,80
300,248,72610,2,0,B|196:248|196:248|196:312,1,160
12,360,73255,5,0,0:0:0:0:
12,360,73417,1,0,0:0:0:0:
12,360,73578,2,0,B|12:244|12:244|140:244,1,240
212,304,74223,2,0,B|280:304|280:304|280:260,1,80
280,196,74546,5,0,0:0:0:0:
280,196,74707,1,0,0:0:0:0:
280,196,74868,2,0,B|280:124|280:124|264:124,1,80
176,124,75191,1,0,0:0:0:0:
176,28,75352,1,0,0:0:0:0:
100,88,75513,2,0,B|82:118|82:118|82:170|82:170|106:198|106:198|142:198,1,160
240,200,75997,5,0,0:0:0:0:
240,200,76159,2,0,B|240:264|240:264|272:264,1,80
352,264,76481,2,0,B|352:328|352:328|320:328,1,80
240,336,76804,2,0,B|164:336|164:336|164:316,1,80
164,236,77126,5,0,0:0:0:0:
164,236,77288,1,0,0:0:0:0:
164,236,77449,2,0,B|88:236|88:236|88:244,1,80
56,152,77771,1,0,0:0:0:0:
56,152,77933,1,0,0:0:0:0:
56,152,78094,2,0,B|56:76|56:76|64:76,1,80
116,152,78417,2,0,B|116:76|116:76|108:76,1,80
208,76,78739,5,0,0:0:0:0:
208,76,78900,1,0,0:0:0:0:
208,76,79062,2,0,B|248:68|248:68|296:76|296:76|216:204,1,240
120,204,79707,5,0,0:0:0:0:
216,204,79868,1,0,0:0:0:0:
220,300,80029,1,0,0:0:0:0:
220,300,80191,1,0,0:0:0:0:
220,300,80352,2,0,B|296:300|296:300|296:276,1,80
360,368,80675,2,0,B|396:368|396:368|396:316,1,80
396,228,80997,1,0,0:0:0:0:
300,228,81159,5,0,0:0:0:0:
300,132,81320,2,0,B|224:132|224:132|224:144,1,80
128,136,81642,2,0,B|128:60|128:60|124:60,1,80
220,60,81965,2,0,B|296:60|296:60|296:72,1,80
304,160,82288,1,0,0:0:0:0:
304,160,82610,1,0,0:0:0:0:
256,192,82691,12,0,83900,0:0:0:0:
