osu file format v14

[General]
AudioFilename: audio.mp3
AudioLeadIn: 0
PreviewTime: 21403
Countdown: 0
SampleSet: Soft
StackLeniency: 0.3
Mode: 0
LetterboxInBreaks: 1
WidescreenStoryboard: 1

[Editor]
Bookmarks: 13586,36403,49959,63445,66825,91332,106965,107247,113726,114008,122601,139502,153023
DistanceSpacing: 2.1
BeatDivisor: 6
GridSize: 16
TimelineZoom: 2.48

[Metadata]
Title:My, Pierwsza Brygada (Krysiek Remix)
TitleUnicode:My, Pierwsza Brygada (Krysiek Remix)
Artist:Reprezentacyjny Zespol Armii Wojska Polskiego
ArtistUnicode:Reprezentacyjny Zespół Armii Wojska Polskiego
Creator:Antares-
Version:Legiony Polskie
Source:
Tags:
BeatmapID:1500824
BeatmapSetID:709978

[Difficulty]
HPDrainRate:5
CircleSize:3.8
OverallDifficulty:9
ApproachRate:9.7
SliderMultiplier:2.2
SliderTickRate:1

[Events]
//Background and Video events
0,0,"wp2040977.jpg",0,0
//Break Periods
2,13786,18161
//Storyboard Layer 0 (Background)
//Storyboard Layer 1 (Fail)
//Storyboard Layer 2 (Pass)
//Storyboard Layer 3 (Foreground)
//Storyboard Sound Samples

[TimingPoints]
65,422.535211267606,4,2,1,85,1,0
65,-133.333333333333,4,2,1,85,0,0
18656,-200,4,2,1,85,0,0
19501,-133.333333333333,4,2,1,85,0,0
22036,-133.333333333333,4,2,1,85,0,0
34712,-100,4,2,1,85,0,0
35557,-200,4,2,1,85,0,0
36262,-200,4,2,1,5,0,0
36403,422.535211267606,4,2,1,85,1,1
36403,-100,4,2,1,85,0,1
38093,-80,4,2,1,85,0,1
39783,-100,4,2,1,85,0,1
41473,-80,4,2,1,85,0,1
43163,-100,4,2,1,85,0,1
44853,-80,4,2,1,85,0,1
49924,-83.3333333333333,4,2,1,85,0,1
51614,-66.6666666666667,4,2,1,85,0,1
52142,-66.6666666666667,4,2,1,5,0,1
52248,-66.6666666666667,4,2,1,85,0,1
52353,-66.6666666666667,4,2,1,5,0,1
52459,-83.3333333333333,4,2,1,85,0,1
62177,-100,4,2,1,85,0,1
62600,-133.333333333333,4,2,1,85,0,1
63022,-200,4,2,1,85,0,1
63445,-133.333333333333,4,2,1,85,0,0
77811,422.535211267606,4,2,1,85,1,0
77811,-133.333333333333,4,2,1,85,0,0
91332,-100,4,2,1,85,0,1
104853,-83.3333333333333,4,2,1,85,0,1
106965,-50,4,2,1,85,0,1
107388,-83.3333333333333,4,2,1,85,0,1
119221,422.535211267606,4,2,1,85,1,0
122552,422.535211267606,4,2,1,85,1,0
122552,-200,4,2,1,85,0,0
123397,-133.333333333333,4,2,1,85,0,0
125981,422.535211267606,4,2,1,85,1,0
125981,-142.857142857143,4,2,1,85,0,0
131051,-125,4,2,1,85,0,0
131474,-111.111111111111,4,2,1,85,0,0
131897,-100,4,2,1,85,0,0
132319,-76.9230769230769,4,2,1,85,0,0
132742,-83.3333333333333,4,2,1,85,0,0
139502,-71.4285714285714,4,2,1,85,0,1
153023,-133.333333333333,4,2,1,85,0,1
161051,-133.333333333333,4,2,1,85,0,1
166544,-66.6666666666667,4,2,1,85,0,1
167390,-66.6666666666667,4,2,1,85,0,0

[Colours]
Combo1 : 0,128,128
Combo2 : 0,128,0
Combo3 : 0,174,0
Combo4 : 177,207,179
Combo5 : 128,128,255
Combo6 : 149,181,213

[HitObjects]
49,72,65,70,0,P|105:59|170:76,1,110.000004196167,0|0,0:1|0:0,0:0:0:0:
254,124,487,2,0,P|198:111|133:128,1,110.000004196167,0|0,0:2|0:0,0:0:0:0:
51,174,910,2,0,P|107:161|172:178,1,110.000004196167
235,236,1332,53,8,0:3:0:0:
182,245,1473,1,8,0:1:0:0:
130,255,1614,1,8,0:1:0:0:
69,313,1755,22,0,P|128:341|184:323,1,110.000004196167,0|0,0:3|0:0,0:0:0:0:
197,177,2177,2,0,P|143:214|130:271,1,110.000004196167
245,356,2600,2,0,P|239:290|196:251,1,110.000004196167
196,177,3022,53,8,0:3:0:0:
247,188,3163,1,8,0:1:0:0:
297,204,3304,1,8,0:1:0:0:
382,211,3445,22,0,P|354:143|316:124,1,110.000004196167
429,281,3867,2,0,P|463:215|453:174,1,110.000004196167
411,363,4290,2,0,P|482:347|508:313,1,110.000004196167
429,281,4712,53,8,0:3:0:0:
377,288,4853,1,8,0:1:0:0:
325,296,4994,1,8,0:1:0:0:
252,336,5135,22,0,P|245:282|271:235,1,110.000004196167
320,148,5557,2,0,P|277:181|223:182,1,110.000004196167
123,184,5980,2,0,P|173:204|201:250,1,110.000004196167
120,269,6403,53,8,0:3:0:0:
72,247,6543,1,8,0:1:0:0:
24,225,6684,1,8,0:1:0:0:
75,357,6825,6,0,L|194:341,1,110.000004196167,8|0,0:3|0:2,0:0:0:0:
252,289,7248,2,0,L|197:260,2,55.0000020980836,8|0|0,0:1|0:0|0:2,0:0:0:0:
222,375,7670,2,0,L|341:359,1,110.000004196167,8|0,0:3|0:2,0:0:0:0:
444,333,8093,5,8,0:3:0:0:
468,263,8234,1,8,0:1:0:0:
396,278,8374,1,8,0:1:0:0:
310,323,8515,70,0,L|330:207,1,110.000004196167,8|0,0:3|0:0,0:0:0:0:
297,136,8938,2,0,L|252:179,2,55.0000020980836,8|0|0,0:1|0:0|0:0,0:0:0:0:
371,205,9360,2,0,L|391:89,1,110.000004196167,8|0,0:3|0:0,0:0:0:0:
365,15,9783,5,8,0:3:0:0:
293,35,9924,1,8,0:1:0:0:
220,16,10065,1,8,0:1:0:0:
116,79,10205,70,0,L|231:108,1,110.000004196167,8|0,0:3|0:0,0:0:0:0:
254,195,10628,2,0,L|147:168,1,110.000004196167,8|0,0:1|0:0,0:0:0:0:
69,227,11050,2,0,L|184:256,1,110.000004196167,8|0,0:3|0:0,0:0:0:0:
305,283,11473,5,8,0:3:0:0:
367,242,11614,1,8,0:1:0:0:
372,317,11755,1,8,0:1:0:0:
282,204,11895,70,0,L|388:134,1,110.000004196167,8|0,0:3|0:0,0:0:0:0:
256,13,12318,2,0,L|263:139,1,110.000004196167,8|0,0:1|0:0,0:0:0:0:
434,85,12741,2,0,L|320:28,1,110.000004196167,8|0,0:3|0:0,0:0:0:0:
262,122,13163,21,8,0:3:0:0:
373,143,13304,1,8,0:1:0:0:
335,35,13445,1,8,0:1:0:0:
262,122,13586,5,8,0:3:0:0:
19,290,18656,54,0,P|68:302|136:284,1,110.000004196167,8|0,0:3|0:3,0:0:0:0:
290,197,19219,21,8,0:1:0:0:
317,290,19360,1,8,0:1:0:0:
223,267,19501,2,0,P|199:229|203:153,1,110.000004196167,8|0,0:3|0:0,0:0:0:0:
81,70,19924,2,0,P|105:108|101:184,1,110,8|0,0:3|0:0,0:0:0:0:
21,138,20346,5,8,0:3:0:0:
216,51,20557,37,8,0:1:0:0:
277,57,20663,1,0,0:0:0:0:
338,67,20769,1,8,0:1:0:0:
300,115,20874,1,0,0:0:0:0:
361,125,20980,1,8,0:1:0:0:
460,107,21121,5,8,0:3:0:0:
105,171,22036,22,0,P|77:214|78:296,1,110.000004196167,8|8,0:3|0:2,0:0:0:0:
125,365,22459,2,0,P|153:322|152:240,1,110.000004196167,8|8,0:3|0:2,0:0:0:0:
214,136,22881,2,0,L|214:192,1,55.0000020980836,8|0,0:3|0:0,0:0:0:0:
70,19,23163,1,8,0:2:0:0:
214,136,23304,53,8,3:3:0:0:
175,36,23445,1,8,3:1:0:0:
107,119,23586,1,8,3:1:0:0:
282,53,23726,22,0,P|365:39|434:58,1,110.000004196167,8|8,0:3|0:2,0:3:0:0:
363,178,24149,2,0,L|344:111,1,55.0000020980836,8|0,0:3|0:3,0:3:0:0:
477,71,24431,1,8,0:2:0:0:
438,239,24572,2,0,P|357:273|300:249,1,110.000004196167,8|8,0:3|0:2,0:3:0:0:
223,160,24994,5,8,3:3:0:0:
218,267,25135,1,8,3:1:0:0:
127,209,25276,1,8,3:1:0:0:
278,82,25417,54,0,P|316:149|306:221,1,110.000004196167,8|8,0:3|0:2,0:3:0:0:
91,290,25839,2,0,P|44:232|45:188,1,110.000004196167,8|8,0:3|0:2,0:3:0:0:
223,160,26262,2,0,L|166:160,1,55.0000020980836,8|0,0:3|0:0,0:0:0:0:
59,70,26543,1,8,0:2:0:0:
223,160,26685,69,8,3:3:0:0:
167,68,26826,1,8,3:1:0:0:
115,162,26966,1,8,3:1:0:0:
295,51,27107,6,0,L|296:108,1,55.0000020980836,8|0,0:3|0:2,0:3:0:0:
167,68,27388,1,8,0:2:0:0:
94,245,27529,53,8,0:3:0:0:
167,68,27670,1,8,0:1:0:0:
161,305,27811,1,8,0:1:0:0:
213,143,27952,38,0,L|277:143,1,55.0000020980836,8|0,0:3|0:0,0:0:0:0:
433,5,28234,1,8,0:2:0:0:
373,222,28374,53,8,3:0:0:0:
340,96,28515,1,8,3:1:0:0:
466,131,28656,1,8,3:1:0:0:
214,61,28797,6,0,P|151:47|92:61,1,110.000004196167,8|8,0:3|0:2,0:0:0:0:
21,238,29219,2,0,P|84:252|143:238,1,110.000004196167,8|8,0:3|0:2,0:0:0:0:
242,162,29642,2,0,L|175:162,1,55.0000020980836,8|0,0:3|0:0,0:0:0:0:
34,108,29924,1,8,0:2:0:0:
53,351,30065,21,8,3:3:0:0:
128,244,30206,1,8,3:1:0:0:
182,363,30347,1,8,3:1:0:0:
331,195,30487,70,0,P|395:176|454:191,1,110.000004196167,8|8,0:3|0:2,0:0:0:0:
128,244,30910,2,0,P|109:180|124:121,1,110.000004196167,8|8,0:3|0:2,0:0:0:0:
354,57,31332,2,0,L|317:116,1,55.0000020980836,8|0,0:3|0:0,0:0:0:0:
394,289,31613,1,8,0:2:0:0:
324,103,31754,53,8,3:3:0:0:
249,210,31895,1,8,3:1:0:0:
195,91,32037,1,8,3:1:0:0:
85,278,32177,6,0,P|57:226|61:164,1,110.000004196167,8|8,0:3|0:2,0:0:0:0:
323,135,32600,2,0,P|291:185|236:212,1,110.000004196167,8|8,0:3|0:2,0:0:0:0:
93,64,33022,2,0,P|152:65|203:100,1,110.000004196167,8|8,0:3|0:2,0:0:0:0:
249,210,33445,21,8,0:3:0:0:
154,255,33586,1,8,0:1:0:0:
242,316,33726,1,8,0:1:0:0:
161,149,33867,69,8,0:3:0:0:
242,316,34008,1,8,0:1:0:0:
154,255,34148,1,8,0:2:0:0:
328,374,34290,53,8,0:3:0:0:
336,269,34431,1,8,0:1:0:0:
423,327,34572,1,8,0:1:0:0:
350,166,34712,5,8,0:3:0:0:
348,116,34783,1,0,0:0:0:0:
380,79,34853,1,8,0:3:0:0:
428,68,34924,1,0,0:0:0:0:
475,79,34994,1,8,0:3:0:0:
499,120,35065,1,0,0:0:0:0:
494,167,35135,6,0,L|508:178,1,18.3333333333333,8|0,0:3|0:0,0:0:0:0:
454,193,35205,2,0,L|471:195,1,18.3333333333333,0|0,0:1|0:0,0:0:0:0:
427,233,35276,2,0,L|443:226,1,18.3333333333333,8|0,0:3|0:0,0:0:0:0:
419,279,35346,2,0,L|430:265,1,18.3333333333333,0|0,0:1|0:0,0:0:0:0:
423,327,35417,2,0,L|425:309,1,18.3333333333333,0|0,0:3|0:0,0:0:0:0:
457,359,35487,2,0,L|450:342,1,18.3333333333333,0|0,0:1|0:0,0:0:0:0:
423,327,35557,6,0,B|378:296|333:313|333:313|290:289|240:312,1,183.333333333333,8|0,0:3|0:0,0:0:0:0:
209,329,36403,5,8,0:3:0:0:
341,186,36614,1,8,0:0:0:0:
67,329,36825,5,8,0:3:0:0:
199,186,37036,2,0,L|66:186,1,110,8|8,0:0|0:3,0:0:0:0:
209,329,37459,5,8,0:3:0:0:
437,295,37670,1,8,0:3:0:0:
293,115,37881,1,8,0:3:0:0:
366,336,38093,54,0,P|422:375|508:356,1,137.5,8|0,0:3|0:0,0:0:0:0:
419,103,38515,2,0,P|332:91|277:133,1,137.5,8|0,0:3|0:0,0:0:0:0:
118,355,38938,2,0,P|125:301|88:222,1,137.5,8|0,0:3|0:0,0:0:0:0:
14,125,39360,5,8,0:3:0:0:
342,322,39572,1,8,0:3:0:0:
93,227,39783,5,8,0:3:0:0:
60,46,39994,1,8,0:0:0:0:
187,297,40205,53,8,0:3:0:0:
154,116,40417,2,0,L|290:131,1,110,8|8,0:0|0:3,0:0:0:0:
473,178,40839,5,8,0:3:0:0:
266,341,41050,1,8,0:3:0:0:
261,33,41262,1,8,0:3:0:0:
485,258,41473,6,0,P|430:246|398:156,1,137.5,8|0,0:3|0:0,0:0:0:0:
261,33,41895,2,0,P|202:86|134:85,1,137.5,8|0,0:3|0:0,0:0:0:0:
116,305,42318,2,0,P|182:289|254:320,1,137.5,8|0,0:3|0:0,0:0:0:0:
385,354,42741,37,8,0:3:0:0:
341,49,42952,1,8,0:3:0:0:
246,313,43163,5,8,0:3:0:0:
498,165,43374,1,8,0:0:0:0:
241,19,43586,1,0,0:3:0:0:
246,313,43797,1,8,0:0:0:0:
316,191,44008,1,8,0:0:0:0:
386,70,44219,1,8,0:3:0:0:
134,312,44431,5,8,0:3:0:0:
503,312,44642,1,8,0:3:0:0:
155,231,44853,54,0,P|88:244|48:310,1,137.5,8|0,0:3|0:0,0:0:0:0:
382,351,45276,2,0,P|417:309|409:218,1,137.5,8|0,0:3|0:0,0:0:0:0:
311,79,45698,5,8,0:3:0:0:
499,253,45910,1,8,0:3:0:0:
362,11,46121,5,8,0:3:0:0:
221,251,46332,1,8,0:3:0:0:
512,178,46543,6,0,P|438:200|424:274,1,137.5,8|0,0:3|0:0,0:0:0:0:
207,333,46966,2,0,P|272:316|299:224,1,137.5,8|0,0:3|0:0,0:0:0:0:
318,80,47388,37,8,0:3:0:0:
139,157,47600,1,8,0:3:0:0:
382,0,47811,5,8,0:3:0:0:
203,77,48023,1,8,0:3:0:0:
382,0,48233,6,0,P|380:77|425:142,1,137.5,8|0,0:3|0:0,0:0:0:0:
492,222,48656,5,8,0:3:0:0:
357,126,48867,1,8,0:3:0:0:
190,358,49079,37,8,0:3:0:0:
341,290,49290,1,8,0:3:0:0:
222,30,49501,5,8,0:3:0:0:
206,194,49712,1,8,0:3:0:0:
492,222,49924,38,0,P|433:146|357:126,1,175.999994628906,8|8,0:3|0:2,0:0:0:0:
190,358,50346,2,0,P|285:344|340:289,1,175.999994628906,8|8,0:3|0:2,0:0:0:0:
206,106,50769,2,0,L|206:242,1,87.9999973144532,8|0,0:3|0:0,0:0:0:0:
359,125,51050,1,8,0:2:0:0:
116,6,51191,5,8,0:3:0:0:
74,134,51332,1,8,0:1:0:0:
206,106,51473,1,8,0:1:0:0:
69,253,51614,6,0,B|68:307|68:307|167:363|167:363|232:333,1,220.000008392334,8|8,0:3|0:2,0:0:0:0:
277,146,52036,6,0,L|204:105,1,82.5000031471254,8|0,0:3|0:0,0:0:0:0:
194,216,52248,2,0,L|265:256,1,82.5000031471254,8|0,0:3|0:0,0:0:0:0:
468,323,52459,38,0,P|408:265|399:166,1,175.999994628906,8|8,0:3|0:2,0:0:0:0:
445,13,52881,5,8,0:3:0:0:
273,38,53022,1,8,0:1:0:0:
480,94,53163,1,8,0:1:0:0:
273,38,53304,6,0,P|182:23|89:42,1,175.999994628906,8|8,0:3|0:2,0:0:0:0:
21,215,53726,2,0,P|112:230|205:211,1,175.999994628906,8|8,0:3|0:2,0:0:0:0:
267,121,54149,2,0,L|159:121,1,87.9999973144532,8|0,0:3|0:0,0:0:0:0:
268,302,54431,1,8,0:2:0:0:
495,169,54572,69,8,0:3:0:0:
367,211,54713,1,8,0:1:0:0:
395,79,54854,1,8,0:1:0:0:
193,215,54994,54,0,P|107:230|21:214,1,175.999994628906,8|8,0:3|0:2,0:0:0:0:
222,77,55417,2,0,P|308:62|394:78,1,175.999994628906,8|8,0:3|0:2,0:0:0:0:
204,334,55839,2,0,P|189:248|205:162,1,175.999994628906,8|8,0:3|0:2,0:0:0:0:
346,27,56262,21,8,0:3:0:0:
172,69,56403,1,8,0:1:0:0:
387,99,56544,1,8,0:1:0:0:
172,69,56684,6,0,P|86:81|48:170,1,175.999994628906,8|8,0:3|0:2,0:0:0:0:
140,157,57107,5,8,3:3:0:0:
232,141,57212,1,0,3:0:0:0:
322,170,57318,1,0,3:3:0:0:
414,154,57423,1,0,3:0:0:0:
500,193,57529,38,0,P|461:135|463:102,1,87.9999973144532,8|0,3:3|0:0,0:0:0:0:
498,24,57811,1,8,0:2:0:0:
322,170,57952,69,8,0:3:0:0:
283,25,58093,1,8,0:2:0:0:
256,223,58233,1,8,0:2:0:0:
200,55,58374,21,8,0:3:0:0:
178,50,58445,1,0,0:0:0:0:
156,47,58515,1,8,0:1:0:0:
134,42,58586,1,0,0:0:0:0:
112,38,58656,1,0,0:1:0:0:
34,73,58797,6,0,P|52:158|26:241,1,175.999994628906,8|8,0:3|0:2,0:0:0:0:
77,365,59219,2,0,L|123:286,1,87.9999973144532,8|0,0:3|0:0,0:0:0:0:
139,169,59501,1,8,0:2:0:0:
237,380,59642,53,8,0:3:0:0:
234,243,59783,1,8,0:1:0:0:
354,308,59924,1,8,0:1:0:0:
511,188,60064,70,0,P|425:203|328:179,1,175.999994628906,8|8,0:3|0:2,0:0:0:0:
295,66,60487,2,0,L|390:68,1,87.9999973144532,8|0,0:3|0:0,0:0:0:0:
339,184,60769,1,8,0:2:0:0:
396,54,60910,2,0,L|308:54,1,87.9999973144532,8|0,0:3|0:0,0:0:0:0:
212,140,61191,1,8,0:2:0:0:
161,310,61332,5,8,0:3:0:0:
261,217,61473,1,8,0:1:0:0:
130,177,61614,1,8,0:1:0:0:
46,35,61755,22,0,P|113:99|126:206,1,175.999994628906,8|0,0:3|0:0,0:0:0:0:
123,84,62177,54,0,P|152:187|132:250,1,146.666666666667,8|0,0:3|0:0,0:0:0:0:
180,180,62600,70,0,P|169:264|146:294,1,110.000004196167,8|0,0:3|0:0,0:0:0:0:
202,275,63022,6,0,P|161:321|143:328,1,73.3333333333333,8|0,0:3|0:0,0:0:0:0:
287,128,63445,5,8,3:3:0:0:
277,246,63586,1,0,3:1:0:0:
180,180,63726,1,0,3:1:0:0:
287,128,63867,5,8,3:3:0:0:
277,246,64008,1,0,3:1:0:0:
180,180,64148,1,0,3:1:0:0:
287,128,64290,53,8,3:3:0:0:
180,180,64431,1,8,3:3:0:0:
384,194,64572,1,8,3:1:0:0:
179,290,64712,70,0,P|123:277|76:230,1,110.000004196167,8|8,0:3|0:2,0:0:0:0:
128,74,65135,5,8,3:0:0:0:
180,180,65276,1,0,3:1:0:0:
246,81,65417,1,0,3:1:0:0:
128,74,65557,21,8,3:0:0:0:
180,180,65698,1,0,3:1:0:0:
246,81,65839,1,0,3:1:0:0:
128,74,65980,69,8,3:0:0:0:
246,81,66121,1,8,3:3:0:0:
62,173,66262,2,0,L|38:172,4,13.7500005245209,8|0|0|0|0,3:1|0:0|0:0|0:0|0:0,0:0:0:0:
246,81,66544,53,8,0:3:0:0:
62,173,66684,1,8,0:1:0:0:
244,244,66825,6,0,P|299:255|356:244,1,110.000004196167,8|8,0:3|0:2,0:0:0:0:
465,175,67248,21,8,0:3:0:0:
421,93,67388,1,8,0:1:0:0:
437,0,67529,1,8,0:1:0:0:
465,175,67670,69,8,0:3:0:0:
421,93,67811,1,8,0:1:0:0:
351,244,67952,1,8,0:2:0:0:
254,109,68093,54,0,P|199:98|142:109,1,110.000004196167,8|8,0:3|0:2,0:0:0:0:
15,203,68515,5,8,0:3:0:0:
114,207,68656,1,8,0:1:0:0:
60,291,68797,1,8,0:2:0:0:
15,203,68938,21,8,0:3:0:0:
114,207,69079,1,8,0:1:0:0:
160,295,69219,1,8,2:1:0:0:
317,210,69360,69,8,0:3:0:0:
218,206,69501,1,8,0:1:0:0:
272,122,69642,1,8,0:2:0:0:
317,210,69783,53,8,0:3:0:0:
218,206,69924,1,8,0:1:0:0:
172,118,70064,1,8,2:1:0:0:
396,107,70205,5,8,0:3:0:0:
335,210,70346,1,8,0:1:0:0:
275,106,70487,1,8,0:2:0:0:
396,107,70628,21,8,0:3:0:0:
335,210,70769,1,8,0:1:0:0:
275,106,70910,1,8,0:1:0:0:
396,107,71050,69,8,0:3:0:0:
217,214,71191,1,8,0:1:0:0:
335,210,71332,1,8,0:2:0:0:
157,110,71473,54,0,P|105:102|52:124,1,110.000004196167,8|8,0:3|0:2,0:0:0:0:
50,327,71895,21,8,0:3:0:0:
114,200,72036,1,8,0:1:0:0:
192,319,72177,1,8,0:2:0:0:
50,327,72318,5,8,0:3:0:0:
114,200,72459,1,8,0:1:0:0:
192,319,72600,1,8,0:1:0:0:
50,327,72741,69,8,0:3:0:0:
178,73,72881,1,8,0:1:0:0:
114,200,73022,1,8,0:2:0:0:
287,251,73163,54,0,P|349:260|417:241,1,110.000004196167,8|8,0:3|0:2,0:0:0:0:
496,170,73586,5,8,0:3:0:0:
389,69,73726,1,8,0:1:0:0:
242,86,73867,1,8,0:2:0:0:
496,170,74008,21,8,0:3:0:0:
389,69,74149,1,8,0:1:0:0:
242,86,74290,1,8,0:1:0:0:
496,170,74431,70,0,P|464:220|409:247,1,110.000004196167,8|8,0:3|0:2,0:0:0:0:
140,59,74853,2,0,P|199:60|250:95,1,110.000004196167,8|8,0:3|0:2,0:0:0:0:
275,167,75276,53,8,0:3:0:0:
106,228,75417,1,8,0:1:0:0:
242,343,75557,1,0,0:2:0:0:
174,140,75698,5,8,0:3:0:0:
242,343,75839,1,8,0:1:0:0:
106,228,75980,1,8,0:1:0:0:
362,384,76121,22,0,P|370:330|354:266,1,110.000004196167,8|8,0:3|0:2,0:0:0:0:
450,125,76543,2,0,P|442:179|458:243,1,110.000004196167,8|8,0:3|0:2,0:0:0:0:
505,358,76966,53,8,0:3:0:0:
421,145,77811,6,0,P|439:200|425:261,1,110.000004196167,8|8,0:3|0:2,0:0:0:0:
318,327,78233,2,0,P|300:272|314:211,1,110.000004196167,8|8,0:3|0:2,0:0:0:0:
421,90,78656,2,0,L|421:146,1,55.0000020980836,8|0,0:3|0:0,0:0:0:0:
502,22,78938,1,8,0:2:0:0:
314,107,79079,5,8,3:3:0:0:
353,7,79220,1,8,3:1:0:0:
421,90,79361,1,8,3:1:0:0:
246,24,79501,54,0,P|163:10|94:29,1,110.000004196167,8|8,0:3|0:2,0:3:0:0:
56,114,79923,2,0,P|139:128|208:109,1,110.000004196167,8|8,0:3|0:2,0:3:0:0:
314,107,80346,2,0,L|337:48,1,55.0000020980836,8|0,0:3|0:3,0:3:0:0:
163,124,80628,1,8,0:2:0:0:
372,198,80769,69,8,3:3:0:0:
314,107,80910,1,8,3:1:0:0:
264,203,81051,1,8,3:1:0:0:
163,124,81192,22,0,P|131:168|123:222,1,110.000004196167,8|8,0:3|0:2,0:3:0:0:
372,253,81614,2,0,L|372:189,1,55.0000020980836,8|0,0:3|0:0,0:0:0:0:
314,107,81895,1,8,0:2:0:0:
213,270,82037,2,0,P|160:261|123:222,1,110.000004196167,8|8,0:3|0:2,0:3:0:0:
219,32,82458,5,8,3:3:0:0:
163,124,82599,1,8,3:1:0:0:
111,30,82741,1,8,3:1:0:0:
314,107,82882,54,0,L|315:164,1,55.0000020980836,8|0,0:3|0:2,0:3:0:0:
219,32,83163,1,8,0:2:0:0:
107,216,83304,69,8,0:3:0:0:
219,32,83445,1,8,0:1:0:0:
176,277,83586,1,8,0:1:0:0:
245,111,83726,5,8,0:3:0:0:
279,102,83796,1,0,0:0:0:0:
314,107,83867,1,8,0:1:0:0:
346,120,83937,1,0,0:0:0:0:
380,109,84008,1,8,0:1:0:0:
415,107,84078,1,0,0:0:0:0:
447,121,84149,2,0,P|418:59|423:1,1,110.000004196167,8|8,0:3|0:2,0:0:0:0:
510,236,84571,22,0,P|451:251|389:228,1,110.000004196167,8|8,0:3|0:2,0:0:0:0:
265,328,84994,2,0,P|328:314|387:328,1,110.000004196167,8|8,0:3|0:2,0:0:0:0:
456,152,85417,2,0,L|389:152,1,55.0000020980836,8|0,0:3|0:0,0:0:0:0:
298,201,85699,1,8,0:2:0:0:
140,361,85840,53,8,3:3:0:0:
173,234,85981,1,8,3:1:0:0:
265,328,86120,1,8,3:1:0:0:
54,268,86261,70,0,P|35:204|50:145,1,110.000004196167,8|8,0:3|0:2,0:0:0:0:
187,46,86685,2,0,P|206:110|191:169,1,110.000004196167,8|8,0:3|0:2,0:0:0:0:
140,361,87106,2,0,L|156:305,1,55.0000020980836,8|0,0:3|0:0,0:0:0:0:
249,210,87388,1,8,0:2:0:0:
346,359,87529,21,8,3:3:0:0:
401,240,87670,1,8,3:1:0:0:
476,347,87811,1,8,3:1:0:0:
319,156,87951,6,0,P|267:128|205:132,1,110.000004196167,8|8,0:3|0:2,0:0:0:0:
80,267,88374,2,0,P|130:235|157:180,1,110.000004196167,8|8,0:3|0:2,0:0:0:0:
103,9,88796,2,0,P|104:68|139:119,1,110.000004196167,8|8,0:3|0:2,0:0:0:0:
205,201,89219,53,8,0:3:0:0:
167,335,89360,1,8,0:1:0:0:
70,235,89501,1,8,0:2:0:0:
316,52,89641,69,8,0:3:0:0:
384,125,89782,1,8,0:1:0:0:
287,146,89923,1,8,0:1:0:0:
326,357,90064,21,8,0:3:0:0:
254,287,90205,1,8,0:1:0:0:
350,261,90346,1,8,0:2:0:0:
198,102,90487,5,8,0:3:0:0:
205,201,90627,1,8,0:1:0:0:
115,158,90768,1,8,0:1:0:0:
112,144,90839,1,8,0:1:0:0:
109,130,90909,1,8,0:3:0:0:
254,287,91050,53,8,0:1:0:0:
198,102,91191,1,8,0:1:0:0:
158,289,91332,37,8,0:3:0:0:
