osu file format v14

[General]
AudioFilename: audio.mp3
AudioLeadIn: 0
PreviewTime: 46602
Countdown: 0
SampleSet: Soft
StackLeniency: 0.7
Mode: 0
LetterboxInBreaks: 0
WidescreenStoryboard: 1

[Editor]
Bookmarks: 1826,3617,10781,17945,25109,32273,39437,46602,53766,60930,68094,75258,77049,84214,91378
DistanceSpacing: 0.3
BeatDivisor: 4
GridSize: 4
TimelineZoom: 2.699999

[Metadata]
Title:Ooedo Ranvu (Cut Ver.)
TitleUnicode:オオエドランヴ (Cut Ver.)
Artist:Reol, nqrse
ArtistUnicode:れをる, nqrse
Creator:- Rem -
Version:Collab Insane
Source:
Tags:no title- ギガP gigap giga-p れをる japanese pop reworu naruse なるせ marcobrolo laquarius rem tryz try-z milcaf dora- doraemonelf boydalat [boy]dalat stormiverse wanpachi cycopton ayate ayayabob
BeatmapID:3612591
BeatmapSetID:1757368

[Difficulty]
HPDrainRate:4.5
CircleSize:4
OverallDifficulty:7.5
ApproachRate:9
SliderMultiplier:2
SliderTickRate:1

[Events]
//Background and Video events
0,0,"xiang-meng-1.jpg",0,0
//Break Periods
//Storyboard Layer 0 (Background)
//Storyboard Layer 1 (Fail)
//Storyboard Layer 2 (Pass)
//Storyboard Layer 3 (Foreground)
//Storyboard Layer 4 (Overlay)
//Storyboard Sound Samples

[TimingPoints]
35,447.761194029851,4,2,1,55,1,0
35,-166.666666666667,4,2,1,55,0,0
1826,-125,4,2,1,55,0,0
2721,-125,4,2,2,55,0,0
2945,-66.6666666666667,4,2,2,55,0,0
3393,-66.6666666666667,4,2,3,55,0,0
3505,-125,4,2,2,55,0,0
3617,-76.9230769230769,4,2,1,60,0,0
4064,-76.9230769230769,4,2,4,60,0,0
5184,-76.9230769230769,4,2,1,60,0,0
5855,-76.9230769230769,4,2,4,60,0,0
6975,-76.9230769230769,4,2,1,60,0,0
7087,-76.9230769230769,4,2,4,60,0,0
7199,-76.9230769230769,4,2,1,60,0,0
7535,-76.9230769230769,4,2,4,60,0,0
8542,-76.9230769230769,4,2,5,60,0,0
8654,-76.9230769230769,4,2,4,60,0,0
8766,-76.9230769230769,4,2,1,60,0,0
8878,-76.9230769230769,4,2,4,60,0,0
8990,-76.9230769230769,4,2,1,60,0,0
9437,-76.9230769230769,4,2,2,60,0,0
9549,-76.9230769230769,4,2,1,60,0,0
9885,-66.6666666666667,4,2,2,60,0,0
9997,-76.9230769230769,4,2,1,60,0,0
10109,-66.6666666666667,4,2,2,60,0,0
10221,-76.9230769230769,4,2,1,60,0,0
10333,-58.8235294117647,4,2,2,60,0,0
10781,-71.4285714285714,4,2,1,65,0,0
11005,-71.4285714285714,4,2,4,65,0,0
11229,-71.4285714285714,4,2,6,65,0,0
11340,-71.4285714285714,4,2,4,65,0,0
11452,-71.4285714285714,4,2,6,65,0,0
11676,-71.4285714285714,4,2,4,65,0,0
12012,-71.4285714285714,4,2,1,65,0,0
12124,-71.4285714285714,4,2,7,65,0,0
12348,-71.4285714285714,4,2,6,65,0,0
12460,-71.4285714285714,4,2,4,65,0,0
12572,-71.4285714285714,4,2,1,65,0,0
12796,-71.4285714285714,4,2,4,65,0,0
13020,-71.4285714285714,4,2,8,65,0,0
13243,-71.4285714285714,4,2,6,65,0,0
13355,-71.4285714285714,4,2,4,65,0,0
13803,-71.4285714285714,4,2,1,65,0,0
13915,-71.4285714285714,4,2,7,65,0,0
14027,-71.4285714285714,4,2,1,65,0,0
14139,-71.4285714285714,4,2,8,65,0,0
14363,-71.4285714285714,4,2,1,65,0,0
14587,-71.4285714285714,4,2,4,65,0,0
14811,-71.4285714285714,4,2,6,65,0,0
14923,-71.4285714285714,4,2,4,65,0,0
15035,-71.4285714285714,4,2,6,65,0,0
15146,-71.4285714285714,4,2,4,65,0,0
15706,-71.4285714285714,4,2,7,65,0,0
15818,-71.4285714285714,4,2,4,65,0,0
15930,-71.4285714285714,4,2,8,65,0,0
16042,-71.4285714285714,4,2,1,65,0,0
16602,-71.4285714285714,4,2,8,65,0,0
17049,-71.4285714285714,4,2,9,65,0,0
17161,-71.4285714285714,4,2,1,65,0,0
17497,-71.4285714285714,4,2,10,65,0,0
17721,-71.4285714285714,4,2,8,65,0,0
17945,-71.4285714285714,4,2,1,65,0,0
18169,-71.4285714285714,4,2,4,65,0,0
18393,-71.4285714285714,4,2,6,65,0,0
18505,-71.4285714285714,4,2,4,65,0,0
18617,-71.4285714285714,4,2,6,65,0,0
18729,-71.4285714285714,4,2,4,65,0,0
19176,-71.4285714285714,4,2,1,65,0,0
19288,-71.4285714285714,4,2,7,65,0,0
19400,-71.4285714285714,4,2,4,65,0,0
19512,-71.4285714285714,4,2,6,65,0,0
19736,-71.4285714285714,4,2,1,65,0,0
19960,-71.4285714285714,4,2,4,65,0,0
20184,-71.4285714285714,4,2,6,65,0,0
20296,-71.4285714285714,4,2,4,65,0,0
20408,-71.4285714285714,4,2,6,65,0,0
20632,-71.4285714285714,4,2,4,65,0,0
20967,-71.4285714285714,4,2,1,65,0,0
21079,-71.4285714285714,4,2,7,65,0,0
21191,-71.4285714285714,4,2,1,65,0,0
21303,-71.4285714285714,4,2,8,65,0,0
21527,-71.4285714285714,4,2,1,65,0,0
21975,-71.4285714285714,4,2,6,65,0,0
22087,-71.4285714285714,4,2,4,65,0,0
22199,-71.4285714285714,4,2,6,65,0,0
22311,-71.4285714285714,4,2,4,65,0,0
22870,-71.4285714285714,4,2,6,65,0,0
23206,-71.4285714285714,4,2,4,65,0,0
23318,-71.4285714285714,4,2,1,65,0,0
23542,-71.4285714285714,4,2,4,65,0,0
23766,-71.4285714285714,4,2,8,65,0,0
24214,-71.4285714285714,4,2,5,65,0,0
24437,-71.4285714285714,4,2,1,65,0,0
24997,-71.4285714285714,4,2,4,65,0,0
25109,-66.6666666666667,4,2,11,60,0,0
25333,-66.6666666666667,4,2,4,60,0,0
25445,-66.6666666666667,4,2,1,60,0,0
25557,-66.6666666666667,4,2,3,60,0,0
25669,-66.6666666666667,4,2,4,60,0,0
25781,-66.6666666666667,4,2,1,60,0,0
26005,-66.6666666666667,4,2,12,60,0,0
26117,-66.6666666666667,4,2,1,60,0,0
26229,-66.6666666666667,4,2,4,60,0,0
26788,-66.6666666666667,4,2,1,60,0,0
27012,-66.6666666666667,4,2,12,60,0,0
27236,-66.6666666666667,4,2,4,60,0,0
27348,-66.6666666666667,4,2,13,60,0,0
27460,-66.6666666666667,4,2,4,60,0,0
27684,-66.6666666666667,4,2,1,60,0,0
27796,-66.6666666666667,4,2,2,60,0,0
27908,-66.6666666666667,4,2,1,60,0,0
28132,-66.6666666666667,4,2,4,60,0,0
28691,-66.6666666666667,4,2,11,60,0,0
28803,-66.6666666666667,4,2,1,60,0,0
28915,-66.6666666666667,4,2,4,60,0,0
29139,-66.6666666666667,4,2,13,60,0,0
29251,-66.6666666666667,4,2,4,60,0,0
29587,-66.6666666666667,4,2,12,60,0,0
29699,-66.6666666666667,4,2,4,60,0,0
30035,-66.6666666666667,4,2,5,60,0,0
30258,-66.6666666666667,4,2,1,60,0,0
30594,-66.6666666666667,4,2,12,60,0,0
30818,-66.6666666666667,4,2,4,60,0,0
30930,-66.6666666666667,4,2,13,60,0,0
31042,-66.6666666666667,4,2,4,60,0,0
31378,-66.6666666666667,4,2,12,60,0,0
31490,-66.6666666666667,4,2,4,60,0,0
31714,-66.6666666666667,4,2,1,60,0,0
32273,-66.6666666666667,4,2,11,60,0,0
32497,-66.6666666666667,4,2,1,60,0,0
32609,-66.6666666666667,4,2,4,60,0,0
32721,-66.6666666666667,4,2,13,60,0,0
32833,-66.6666666666667,4,2,4,60,0,0
33169,-66.6666666666667,4,2,12,60,0,0
33281,-66.6666666666667,4,2,4,60,0,0
34064,-66.6666666666667,4,2,1,60,0,0
34176,-66.6666666666667,4,2,12,60,0,0
34400,-66.6666666666667,4,2,4,60,0,0
34512,-66.6666666666667,4,2,13,60,0,0
34624,-66.6666666666667,4,2,4,60,0,0
34960,-66.6666666666667,4,2,12,60,0,0
35072,-66.6666666666667,4,2,4,60,0,0
35296,-66.6666666666667,4,2,1,60,0,0
35408,-66.6666666666667,4,2,4,60,0,0
35520,-66.6666666666667,4,2,1,60,0,0
35743,-66.6666666666667,4,2,4,60,0,0
35855,-66.6666666666667,4,2,14,60,0,0
35967,-66.6666666666667,4,2,4,60,0,0
36303,-66.6666666666667,4,2,13,60,0,0
36415,-66.6666666666667,4,2,4,60,0,0
36751,-66.6666666666667,4,2,12,60,0,0
36863,-66.6666666666667,4,2,4,60,0,0
37199,-66.6666666666667,4,2,5,60,0,0
37311,-66.6666666666667,4,2,1,60,0,0
37870,-66.6666666666667,4,2,2,60,0,0
37982,-66.6666666666667,4,2,4,60,0,0
38094,-66.6666666666667,4,2,13,60,0,0
38206,-66.6666666666667,4,2,4,60,0,0
38542,-66.6666666666667,4,2,12,60,0,0
38654,-66.6666666666667,4,2,4,60,0,0
38878,-66.6666666666667,4,2,12,60,0,0
38990,-66.6666666666667,4,2,1,60,0,0
39214,-66.6666666666667,4,2,9,60,0,0
39326,-66.6666666666667,4,2,1,60,0,0
39437,-66.6666666666667,4,2,9,50,0,0
39661,-66.6666666666667,4,2,4,50,0,0
41005,-66.6666666666667,4,2,1,50,0,0
41676,-66.6666666666667,4,2,4,50,0,0
42460,-66.6666666666667,4,2,1,50,0,0
42572,-66.6666666666667,4,2,4,50,0,0
42796,-66.6666666666667,4,2,1,50,0,0
43467,-66.6666666666667,4,2,4,50,0,0
44587,-66.6666666666667,4,2,15,50,0,0
44811,-142.857142857143,4,2,15,75,0,0
45258,-111.111111111111,4,2,15,75,0,0
45706,-90.9090909090909,4,2,15,75,0,0
46154,-76.9230769230769,4,2,15,75,0,0
46602,-66.6666666666667,4,2,5,80,0,0
46826,-66.6666666666667,4,2,16,80,0,0
47049,-100,4,2,16,80,0,0
47497,-76.9230769230769,4,2,16,80,0,0
48169,-100,4,2,16,80,0,0
48393,-76.9230769230769,4,2,16,80,0,0
48840,-100,4,2,16,80,0,0
49736,-76.9230769230769,4,2,16,80,0,0
50184,-76.9230769230769,4,2,16,80,0,0
52423,-133.333333333333,4,2,16,80,0,0
52870,-100,4,2,16,80,0,0
53318,-80,4,2,16,80,0,0
53766,-66.6666666666667,4,2,5,80,0,0
53990,-66.6666666666667,4,2,16,80,0,0
54214,-100,4,2,16,80,0,0
54661,-76.9230769230769,4,2,16,80,0,0
55333,-100,4,2,16,80,0,0
55557,-76.9230769230769,4,2,16,80,0,0
56005,-100,4,2,16,80,0,0
56900,-76.9230769230769,4,2,16,80,0,0
58243,-76.9230769230769,4,2,16,80,0,0
59139,-66.6666666666667,4,2,16,80,0,0
59363,-133.333333333333,4,2,16,80,0,0
59587,-66.6666666666667,4,2,16,80,0,0
59811,-133.333333333333,4,2,16,80,0,0
60035,-133.333333333333,4,2,3,80,0,0
60930,-66.6666666666667,4,2,17,85,0,0
61154,-66.6666666666667,4,2,16,85,0,0
61378,-100,4,2,16,85,0,0
61826,-76.9230769230769,4,2,16,85,0,0
62497,-100,4,2,16,85,0,0
62721,-76.9230769230769,4,2,16,85,0,0
63169,-100,4,2,16,85,0,0
64064,-76.9230769230769,4,2,16,85,0,0
65408,-76.9230769230769,4,2,16,85,0,0
67199,-100,4,2,16,85,0,0
67646,-76.9230769230769,4,2,16,85,0,0
68094,-66.6666666666667,4,2,5,85,0,0
68318,-66.6666666666667,4,2,16,85,0,0
68542,-100,4,2,16,85,0,0
68990,-76.9230769230769,4,2,16,85,0,0
69661,-100,4,2,16,85,0,0
69885,-76.9230769230769,4,2,16,85,0,0
70333,-100,4,2,16,85,0,0
71229,-76.9230769230769,4,2,16,85,0,0
72572,-76.9230769230769,4,2,16,85,0,0
74363,-100,4,2,16,85,0,0
74587,-100,4,2,4,85,0,0
74811,-66.6666666666667,4,2,4,85,0,0
75258,-66.6666666666667,4,2,2,75,0,0
76826,-66.6666666666667,4,2,3,75,0,0
77049,-133.333333333333,4,2,1,60,0,0
77273,-133.333333333333,4,2,4,60,0,0
78393,-133.333333333333,4,2,5,60,0,0
78617,-133.333333333333,4,2,1,60,0,0
79176,-133.333333333333,4,2,4,60,0,0
80184,-133.333333333333,4,2,5,60,0,0
80408,-133.333333333333,4,2,1,60,0,0
80855,-133.333333333333,4,2,4,60,0,0
81975,-133.333333333333,4,2,5,60,0,0
82199,-133.333333333333,4,2,1,60,0,0
82535,-133.333333333333,4,2,4,60,0,0
83766,-133.333333333333,4,2,5,60,0,0
83990,-133.333333333333,4,2,1,60,0,0
84214,-133.333333333333,4,2,1,65,0,0
84326,-133.333333333333,4,2,4,65,0,0
84661,-133.333333333333,4,2,18,65,0,0
84773,-133.333333333333,4,2,4,65,0,0
84885,-133.333333333333,4,2,6,65,0,0
84997,-133.333333333333,4,2,12,65,0,0
85221,-133.333333333333,4,2,4,65,0,0
85557,-133.333333333333,4,2,10,65,0,0
85781,-133.333333333333,4,2,8,65,0,0
86005,-133.333333333333,4,2,1,65,0,0
86117,-133.333333333333,4,2,4,65,0,0
86340,-133.333333333333,4,2,1,65,0,0
86452,-133.333333333333,4,2,18,65,0,0
86564,-133.333333333333,4,2,4,65,0,0
86676,-133.333333333333,4,2,6,65,0,0
86788,-133.333333333333,4,2,12,65,0,0
87012,-133.333333333333,4,2,4,65,0,0
87348,-133.333333333333,4,2,10,65,0,0
87572,-133.333333333333,4,2,8,65,0,0
87796,-133.333333333333,4,2,1,65,0,0
87908,-133.333333333333,4,2,4,65,0,0
88243,-133.333333333333,4,2,18,65,0,0
88355,-133.333333333333,4,2,6,65,0,0
88579,-133.333333333333,4,2,12,65,0,0
88803,-133.333333333333,4,2,4,65,0,0
89139,-133.333333333333,4,2,10,65,0,0
89363,-133.333333333333,4,2,8,65,0,0
89587,-133.333333333333,4,2,1,65,0,0
89811,-133.333333333333,4,2,4,65,0,0
90035,-133.333333333333,4,2,18,65,0,0
90146,-133.333333333333,4,2,6,65,0,0
90370,-133.333333333333,4,2,12,65,0,0
90482,-100,4,2,12,65,0,0
90706,-80,4,2,12,65,0,0
90930,-66.6666666666667,4,2,2,65,0,0
91154,-57.1428571428571,4,2,2,65,0,0
91378,-57.1428571428571,4,2,4,65,0,0

[Colours]
Combo1 : 255,255,128
Combo2 : 211,152,208
Combo3 : 253,167,138
Combo4 : 255,128,192

[HitObjects]
100,10,35,6,0,P|46:4|-2:49,1,119.999996337891,2|2,2:2|2:2,0:0:0:0:
44,157,930,2,0,P|97:162|146:117,1,119.999996337891,2|2,2:2|2:2,0:0:0:0:
181,366,1825,5,0,1:1:0:0:
201,351,2049,5,0,1:1:0:0:
194,374,2273,5,0,1:1:0:0:
186,351,2497,5,0,1:1:0:0:
206,366,2721,5,2,1:2:0:0:
269,290,2945,6,0,L|333:302,2,37.5000014305115,2|0|0,1:2|0:0|0:0,0:0:0:0:
309,384,3169,1,2,2:2:0:0:
309,384,3281,1,2,2:2:0:0:
309,384,3393,2,0,L|401:368,1,75.0000028610231,6|2,2:2|2:2,0:0:0:0:
474,313,3617,6,0,P|499:259|452:183,1,129.999994049073,6|8,3:2|2:2,0:0:0:0:
345,21,4064,2,0,P|333:50|344:84,1,64.9999970245363,2|10,3:2|2:2,0:0:0:0:
272,139,4288,2,0,P|292:163|327:171,1,64.9999970245363,10|2,2:2|2:2,0:0:0:0:
308,246,4512,1,10,3:2:0:0:
320,258,4624,1,10,2:2:0:0:
337,261,4736,2,0,P|368:256|392:229,1,64.9999970245363,2|10,2:2|2:2,0:0:0:0:
406,146,4960,1,10,3:2:0:0:
327,343,5184,1,10,2:2:0:0:
245,166,5408,6,0,B|141:135|161:233|58:193,1,194.999991073609,2|8,3:2|2:2,0:0:0:0:
128,107,5855,2,0,P|154:159|170:258,1,129.999994049073,2|10,3:2|2:2,0:0:0:0:
233,329,6191,1,2,2:2:0:0:
250,342,6303,2,0,P|324:304|308:194,1,194.999991073609,10|10,3:2|2:2,0:0:0:0:
269,107,6751,2,0,P|253:135|245:167,1,64.9999970245363,10|0,3:2|0:0,0:0:0:0:
167,4,6975,2,0,P|183:31|192:84,1,64.9999970245363,10|2,2:2|2:2,0:0:0:0:
141,186,7199,6,0,P|76:184|46:130,1,129.999994049073,2|8,3:2|2:2,0:0:0:0:
17,320,7646,2,0,P|12:288|0:259,1,64.9999970245363,2|10,3:2|2:2,0:0:0:0:
87,352,7870,2,0,P|116:339|149:337,1,64.9999970245363,10|2,2:2|2:2,0:0:0:0:
90,266,8094,1,10,3:2:0:0:
235,362,8318,1,2,2:2:0:0:
255,362,8430,1,10,2:2:0:0:
275,351,8542,2,0,P|287:321|279:290,1,64.9999970245363,10|2,3:2|2:2,0:0:0:0:
217,213,8766,2,0,P|205:183|212:152,1,64.9999970245363,10|2,2:2|2:2,0:0:0:0:
187,52,8990,6,0,P|248:72|326:78,1,129.999994049073,2|10,3:2|2:2,0:0:0:0:
388,25,9326,2,0,P|456:23|482:77,1,129.999994049073,10|10,2:2|2:2,0:0:0:0:
421,172,9661,2,0,P|417:139|404:109,1,64.9999970245363,10|0,2:2|0:0,0:0:0:0:
344,229,9885,6,0,P|329:263|324:301,1,75.0000028610231,8|8,2:2|2:2,0:0:0:0:
476,246,10109,2,0,P|461:280|456:318,1,75.0000028610231,8|8,2:2|2:2,0:0:0:0:
381,360,10333,6,0,P|321:342|224:333,1,127.50000243187,4|0,2:2|0:0,0:0:0:0:
241,344,10557,2,0,P|200:356|160:342,1,85.0000016212464
46,242,10781,6,0,P|62:271|69:313,1,69.9999978637696,6|0,3:2|0:0,0:0:0:0:
179,230,11005,2,0,P|185:195|202:165,1,69.9999978637696,10|8,2:2|2:2,0:0:0:0:
53,81,11229,2,0,P|70:111|76:146,2,69.9999978637696,2|10|10,3:2|2:2|2:2,0:0:0:0:
152,17,11676,6,0,P|223:27|296:58,1,139.999995727539,10|0,3:2|0:0,0:0:0:0:
332,117,12012,2,0,P|327:152|298:177,1,69.9999978637696,10|10,2:2|3:2,0:0:0:0:
365,40,12236,1,0,0:0:0:0:
381,25,12348,2,0,P|413:11|450:24,1,69.9999978637696,10|2,2:2|2:2,0:0:0:0:
512,227,12572,6,0,B|435:250|456:189|369:217,1,139.999995727539,2|10,3:2|2:2,0:0:0:0:
479,101,12908,1,10,2:2:0:0:
462,111,13020,2,0,P|451:144|448:182,1,69.9999978637696,2|8,3:2|2:2,0:0:0:0:
301,261,13243,2,0,P|297:226|286:193,1,69.9999978637696,10|2,2:2|2:2,0:0:0:0:
440,306,13467,5,10,3:2:0:0:
426,358,13579,1,10,2:2:0:0:
376,382,13691,1,2,2:2:0:0:
330,373,13803,2,0,P|291:343|302:259,1,139.999995727539,10|2,2:2|2:2,0:0:0:0:
363,305,14139,1,10,2:2:0:0:
210,369,14363,6,0,P|141:350|65:348,1,139.999995727539,2|10,3:2|2:2,0:0:0:0:
12,283,14699,1,10,2:2:0:0:
0,269,14811,2,0,P|-3:234|19:199,1,69.9999978637696,2|10,3:2|2:2,0:0:0:0:
0,120,15035,2,0,P|28:99|69:102,1,69.9999978637696,10|2,2:2|2:2,0:0:0:0:
208,90,15258,6,0,P|145:132|101:180,1,139.999995727539,10|2,3:2|2:2,0:0:0:0:
122,268,15594,2,0,P|178:241|185:164,1,139.999995727539,10|2,2:2|2:2,0:0:0:0:
124,53,15930,1,10,2:2:0:0:
116,34,16042,1,2,2:2:0:0:
123,14,16154,5,2,3:2:0:0:
269,31,16378,1,10,2:2:0:0:
354,5,16602,5,2,3:2:0:0:
208,90,16826,1,10,2:2:0:0:
291,247,17049,5,10,2:2:0:0:
331,85,17273,1,10,2:2:0:0:
413,69,17497,5,10,2:2:0:0:
271,149,17721,1,10,2:2:0:0:
348,183,17945,6,0,P|382:171|433:166,1,69.9999978637696,6|0,3:2|0:0,0:0:0:0:
376,299,18169,1,10,2:2:0:0:
363,285,18281,1,10,2:2:0:0:
347,275,18393,2,0,P|313:263|262:258,1,69.9999978637696,2|10,3:2|2:2,0:0:0:0:
271,149,18617,2,0,P|236:139|185:137,1,69.9999978637696,10|2,2:2|2:2,0:0:0:0:
123,192,18840,6,0,P|114:224|128:261,2,69.9999978637696,10|10|2,3:2|2:2|2:2,0:0:0:0:
201,222,19176,2,0,P|168:288|154:357,1,139.999995727539,10|2,2:2|2:2,0:0:0:0:
73,384,19512,1,10,2:2:0:0:
0,253,19736,6,0,B|-17:181|41:193|20:112,1,139.999995727539,2|10,3:2|2:2,0:0:0:0:
43,12,20072,1,10,2:2:0:0:
62,12,20184,2,0,P|85:31|91:70,1,69.9999978637696,2|10,3:2|2:2,0:0:0:0:
55,192,20408,1,10,2:2:0:0:
247,94,20632,5,10,3:2:0:0:
259,109,20743,2,0,P|293:114|326:126,1,69.9999978637696,10|0,2:2|0:0,0:0:0:0:
309,219,20967,2,0,P|343:214|376:201,1,69.9999978637696,10|10,2:2|3:2,0:0:0:0:
493,127,21191,1,2,2:2:0:0:
477,145,21303,2,0,P|444:133|410:128,1,69.9999978637696,10|0,2:2|0:0,0:0:0:0:
344,295,21527,6,0,P|375:354|442:353,1,139.999995727539,2|10,3:2|2:2,0:0:0:0:
457,261,21863,1,8,2:2:0:0:
444,272,21975,1,2,3:2:0:0:
422,273,22087,2,0,P|357:246|288:235,2,139.999995727539,10|2|10,2:2|2:2|2:2,0:0:0:0:
288,351,22758,1,10,2:2:0:0:
272,364,22870,2,0,P|237:367|204:378,1,69.9999978637696,10|0,3:2|0:0,0:0:0:0:
196,216,23094,1,10,2:2:0:0:
195,237,23206,1,2,2:2:0:0:
202,257,23318,6,0,B|225:188|166:191|187:117,1,139.999995727539,2|10,3:2|2:2,0:0:0:0:
140,0,23654,1,10,2:2:0:0:
126,10,23766,2,0,P|115:42|130:81,1,69.9999978637696,2|8,3:2|2:2,0:0:0:0:
247,72,23990,2,0,P|257:39|246:6,1,69.9999978637696,10|0,2:2|0:0,0:0:0:0:
185,122,24214,6,0,P|206:144|228:179,1,69.9999978637696,2|0,3:2|0:0,0:0:0:0:
311,182,24437,2,0,P|336:158|343:125,1,69.9999978637696,10|0,2:3|0:0,0:0:0:0:
202,257,24661,2,0,P|234:267|267:256,1,69.9999978637696,10|0,2:3|0:0,0:0:0:0:
82,200,24885,2,0,P|89:233|115:256,1,69.9999978637696,10|2,2:3|2:2,0:0:0:0:
253,348,25109,6,0,P|326:327|405:321,1,150.000005722046,14|10,3:2|2:2,0:0:0:0:
461,382,25445,2,0,P|483:355|476:296,1,75.0000028610231,10|8,2:2|3:2,0:0:0:0:
447,167,25669,1,10,2:2:0:0:
463,165,25781,2,0,P|495:182|512:216,1,75.0000028610231,10|0,2:2|0:0,0:0:0:0:
434,252,26005,6,0,P|400:239|359:235,1,75.0000028610231,10|10,3:2|2:2,0:0:0:0:
253,348,26229,2,0,P|287:334|325:330,1,75.0000028610231,2|10,2:2|2:2,0:0:0:0:
276,243,26452,1,10,3:2:0:0:
372,120,26676,5,10,2:2:0:0:
361,136,26788,2,0,P|327:149|286:153,1,75.0000028610231,2|0,2:2|3:3,0:0:0:0:
182,80,27012,1,2,2:2:0:0:
178,57,27124,1,10,2:2:0:0:
186,36,27236,1,10,2:2:0:0:
205,24,27348,1,10,3:2:0:0:
40,1,27572,5,10,2:2:0:0:
30,23,27684,2,0,P|45:52|54:95,1,75.0000028610231,2|8,2:2|3:2,0:0:0:0:
23,194,27908,2,0,P|8:223|-1:266,1,75.0000028610231,10|0,2:2|0:0,0:0:0:0:
41,358,28132,1,10,2:2:0:0:
55,369,28243,2,0,P|116:349|125:268,1,150.000005722046,10|10,3:2|2:2,0:0:0:0:
247,253,28579,1,2,2:2:0:0:
229,256,28691,6,0,P|197:240|189:203,1,75.0000028610231,8|2,3:2|2:2,0:0:0:0:
106,197,28915,2,0,P|103:161|131:135,1,75.0000028610231,10|10,2:2|2:2,0:0:0:0:
115,60,29139,2,0,P|144:40|180:51,1,75.0000028610231,10|10,3:2|2:2,0:0:0:0:
254,16,29363,2,0,P|286:32|294:69,1,75.0000028610231,10|2,2:2|2:2,0:0:0:0:
305,161,29587,6,0,P|269:145|221:137,1,75.0000028610231,10|10,3:2|2:2,0:0:0:0:
289,302,29811,2,0,P|341:284|408:277,1,112.500004291535,2|0,2:2|0:0,0:0:0:0:
413,269,30035,2,0,P|426:233|415:196,1,75.0000028610231,10|0,3:2|0:0,0:0:0:0:
381,123,30258,2,0,P|370:86|385:50,1,75.0000028610231,10|0,2:2|0:0,0:0:0:0:
495,25,30482,6,0,P|471:55|457:93,1,75.0000028610231,0|2,3:3|2:2,0:0:0:0:
481,163,30706,2,0,P|445:176|414:202,1,75.0000028610231,10|10,2:2|2:2,0:0:0:0:
398,277,30930,2,0,P|360:271|320:278,1,75.0000028610231,10|10,3:2|2:2,0:0:0:0:
265,331,31154,2,0,P|234:307|196:292,1,75.0000028610231,10|2,2:2|2:2,0:0:0:0:
166,160,31378,5,10,2:2:0:0:
186,153,31490,1,10,2:2:0:0:
211,154,31602,1,10,2:2:0:0:
227,166,31714,1,10,2:2:0:0:
240,179,31826,2,0,P|275:189|317:174,1,75.0000028610231,10|0,2:2|0:0,0:0:0:0:
230,66,32049,2,0,P|194:55|158:65,1,75.0000028610231,2|0,2:2|0:0,0:0:0:0:
32,69,32273,6,0,P|66:131|85:211,1,150.000005722046,12|10,3:2|2:2,0:0:0:0:
9,352,32609,1,10,2:2:0:0:
0,335,32721,2,0,P|6:298|25:263,1,75.0000028610231,10|10,3:2|2:2,0:0:0:0:
103,308,32945,2,0,P|126:278|160:258,1,75.0000028610231,10|2,2:2|2:2,0:0:0:0:
324,354,33169,5,10,3:2:0:0:
302,355,33281,1,10,2:2:0:0:
283,350,33393,2,0,P|269:312|285:271,1,75.0000028610231,2|10,2:2|2:2,0:0:0:0:
352,188,33617,5,10,3:2:0:0:
373,182,33729,1,2,2:2:0:0:
392,187,33841,2,0,P|406:225|390:266,1,75.0000028610231,10|2,2:2|2:2,0:0:0:0:
203,184,34064,6,0,P|241:188|280:204,1,75.0000028610231,2|2,3:2|2:2,0:0:0:0:
138,119,34288,2,0,P|172:103|214:97,1,75.0000028610231,10|10,2:2|2:2,0:0:0:0:
107,214,34512,2,0,P|137:236|163:269,1,75.0000028610231,10|10,3:2|2:2,0:0:0:0:
51,138,34736,1,10,2:2:0:0:
30,132,34848,1,2,2:2:0:0:
16,118,34960,6,0,P|3:80|16:43,2,75.0000028610231,10|10|2,3:2|2:2|2:2,0:0:0:0:
98,0,35296,2,0,P|172:7|244:32,2,150.000005722046,10|2|2,2:2|2:2|2:2,0:0:0:0:
155,90,35855,6,0,P|173:121|183:160,1,75.0000028610231,10|2,3:2|2:2,0:0:0:0:
279,142,36079,2,0,P|261:173|251:212,1,75.0000028610231,10|10,2:2|2:2,0:0:0:0:
118,220,36303,2,0,P|149:237|177:266,1,75.0000028610231,10|10,3:2|2:2,0:0:0:0:
328,261,36527,2,0,P|296:278|268:307,1,75.0000028610231,10|2,2:2|2:2,0:0:0:0:
347,372,36751,5,10,3:2:0:0:
365,383,36863,1,10,2:2:0:0:
384,384,36975,2,0,P|419:372|440:338,1,75.0000028610231,2|10,2:2|2:2,0:0:0:0:
410,166,37199,5,10,3:2:0:0:
432,165,37311,1,2,2:2:0:0:
449,174,37423,2,0,P|473:201|475:241,1,75.0000028610231,10|0,2:2|0:0,0:0:0:0:
395,267,37646,5,0,3:3:0:0:
375,275,37758,2,0,P|306:247|224:234,2,150.000005722046,2|10|10,2:2|2:2|2:2,0:0:0:0:
307,199,38318,2,0,P|297:162|313:122,1,75.0000028610231,10|2,2:2|2:2,0:0:0:0:
408,45,38542,5,10,2:2:0:0:
430,42,38654,1,10,2:2:0:0:
456,50,38766,1,10,2:2:0:0:
469,69,38878,1,10,2:2:0:0:
474,91,38990,1,10,2:2:0:0:
412,173,39214,5,10,2:2:0:0:
394,169,39326,1,10,2:2:0:0:
376,165,39437,1,4,3:2:0:0:
186,74,41005,5,0,3:3:0:0:
277,214,41229,1,0,3:3:0:0:
509,364,42460,5,0,3:3:0:0:
319,305,42796,5,8,3:2:0:0:
445,254,43020,1,0,3:3:0:0:
473,33,44587,5,0,3:3:0:0:
403,127,44811,6,0,P|381:113|405:123,1,69.9999978637696,2|0,3:2|0:0,0:0:0:0:
249,170,45258,6,0,P|259:137|254:171,1,89.9999972534181,2|0,2:2|0:0,0:0:0:0:
90,128,45706,6,0,P|126:109|92:133,1,110.000003356934,2|0,2:2|0:0,0:0:0:0:
4,0,46154,6,0,P|45:26|0:6,1,129.999994049073,2|0,2:2|0:0,0:0:0:0:
90,128,46602,6,0,B|263:88|263:88|271:66|287:48,1,225.000008583069,6|0,3:2|0:0,0:0:0:0:
295,41,47049,6,0,P|313:57|337:61,1,50,2|0,1:2|0:0,0:0:0:0:
392,115,47273,2,0,P|373:131|349:135,1,50,10|0,1:2|0:0,0:0:0:0:
309,273,47497,6,0,B|308:213|262:212|260:154,1,129.999994049073,2|10,3:2|2:2,0:0:0:0:
205,99,47833,1,2,2:2:0:0:
212,84,47945,1,0,1:1:0:0:
22,17,48169,2,0,P|21:41|13:65,1,50,10|0,2:2|0:0,0:0:0:0:
149,189,48393,6,0,P|121:96|110:0,1,194.999991073609,6|0,3:2|0:0,0:0:0:0:
120,0,48840,6,0,P|143:8|168:10,1,50,2|0,1:2|0:0,0:0:0:0:
260,73,49064,2,0,P|236:81|211:83,1,50,10|0,1:2|0:0,0:0:0:0:
72,139,49288,6,0,P|119:149|148:189,1,100,2|8,3:2|2:2,0:0:0:0:
151,198,49624,1,0,0:0:0:0:
204,262,49736,2,0,P|313:240|338:157,1,194.999991073609,2|0,1:2|0:0,0:0:0:0:
359,90,50184,5,6,3:2:0:0:
414,256,50408,1,10,2:2:0:0:
242,174,50632,1,2,1:2:0:0:
312,7,50855,1,10,1:2:0:0:
152,60,51079,6,0,P|151:93|163:123,1,64.9999970245363,2|0,3:2|0:0,0:0:0:0:
69,203,51303,1,10,2:2:0:0:
135,241,51415,2,0,B|192:236|182:189|242:175,1,129.999994049073,2|0,2:2|0:0,0:0:0:0:
323,158,51751,2,0,P|324:186|305:230,1,64.9999970245363,10|0,2:2|0:0,0:0:0:0:
269,382,51975,5,6,3:2:0:0:
269,382,52199,1,10,2:2:0:0:
204,317,52423,6,0,P|187:325|168:328,1,37.5000014305115,2|0,1:2|0:0,0:0:0:0:
281,294,52646,2,0,P|297:302|316:305,1,37.5000014305115,10|0,1:2|0:0,0:0:0:0:
152,226,52870,6,0,P|138:246|118:261,1,50,2|0,3:2|0:0,0:0:0:0:
292,169,53094,2,0,P|305:189|325:204,1,50,10|0,2:2|0:0,0:0:0:0:
99,117,53318,6,0,P|93:148|81:177,1,62.5,2|0,1:2|0:0,0:0:0:0:
289,27,53542,2,0,P|294:57|306:86,1,62.5,10|0,2:2|0:0,0:0:0:0:
19,30,53766,6,0,B|8:6|8:6|202:53,1,225.000008583069,6|0,3:2|0:0,0:0:0:0:
202,63,54214,6,0,L|190:127,1,50,2|0,1:2|0:0,0:0:0:0:
253,166,54437,2,0,L|241:230,1,50,10|0,1:2|0:0,0:0:0:0:
75,269,54661,6,0,B|137:245|137:245|190:279,1,129.999994049073,2|10,3:2|2:2,0:0:0:0:
137,353,54997,1,2,2:2:0:0:
131,337,55109,1,0,1:1:0:0:
243,215,55333,2,0,P|260:232|282:243,1,50,10|0,2:2|0:0,0:0:0:0:
366,384,55557,6,0,B|375:283|449:316|453:217,1,194.999991073609,6|0,3:2|0:0,0:0:0:0:
462,220,56005,6,0,P|469:260|478:285,1,50,2|0,1:2|0:0,0:0:0:0:
376,219,56229,2,0,P|373:195|367:171,1,50,10|0,1:2|0:0,0:0:0:0:
511,0,56452,6,0,P|473:31|425:40,1,100,2|8,3:2|2:2,0:0:0:0:
413,40,56788,1,0,0:0:0:0:
355,96,56900,2,0,P|276:39|180:27,1,194.999991073609,2|0,1:2|0:0,0:0:0:0:
114,66,57348,5,6,3:2:0:0:
47,205,57572,1,10,2:2:0:0:
211,169,57796,1,2,1:2:0:0:
268,351,58020,1,10,1:2:0:0:
155,307,58243,6,0,P|166:276|173:244,1,64.9999970245363,2|0,3:2|0:0,0:0:0:0:
237,88,58467,1,10,2:2:0:0:
294,160,58579,2,0,P|299:224|320:286,1,129.999994049073,2|0,2:2|0:0,0:0:0:0:
268,351,58915,2,0,P|296:366|328:367,1,64.9999970245363,10|0,2:2|0:0,0:0:0:0:
405,223,59139,6,0,L|422:140,1,75.0000028610231,6|0,3:2|0:0,0:0:0:0:
351,64,59363,2,0,L|365:118,1,37.5000014305115,10|0,2:2|0:0,0:0:0:0:
218,159,59587,6,0,L|201:76,1,75.0000028610231,2|0,1:2|0:0,0:0:0:0:
272,0,59811,2,0,L|258:54,1,37.5000014305115,2|0,2:2|0:0,0:0:0:0:
133,137,60035,5,8,3:2:0:0:
127,139,60146,1,0,0:0:0:0:
121,142,60258,1,0,0:0:0:0:
116,146,60370,1,0,0:0:0:0:
68,207,60482,5,8,2:2:0:0:
73,211,60594,1,0,0:0:0:0:
86,252,60706,5,0,0:0:0:0:
84,257,60817,1,0,0:0:0:0:
53,329,60930,6,0,B|116:263|220:245|220:245|225:220|230:210,1,225.000008583069,6|0,3:2|0:0,0:0:0:0:
239,210,61378,6,0,P|240:234|246:259,1,50,2|0,1:2|0:0,0:0:0:0:
304,367,61602,2,0,P|303:342|309:317,1,50,10|0,1:2|0:0,0:0:0:0:
396,165,61826,6,0,P|331:156|273:128,1,129.999994049073,2|10,3:2|2:2,0:0:0:0:
257,55,62161,1,2,2:2:0:0:
261,42,62273,1,0,1:1:0:0:
115,115,62497,2,0,P|117:146|128:168,1,50,10|0,2:2|0:0,0:0:0:0:
291,231,62721,6,0,B|308:242|308:242|213:245|147:302,1,194.999991073609,6|0,3:2|0:0,0:0:0:0:
144,311,63169,6,0,P|164:327|207:336,1,50,2|0,1:2|0:0,0:0:0:0:
291,360,63393,2,0,P|271:376|228:385,1,50,10|0,1:2|0:0,0:0:0:0:
54,348,63617,6,0,L|72:249,1,100,2|8,3:2|2:2,0:0:0:0:
76,240,63952,1,0,0:0:0:0:
0,212,64064,2,0,L|189:166,1,194.999991073609,2|0,1:2|0:0,0:0:0:0:
268,149,64512,5,6,3:2:0:0:
99,73,64736,1,10,2:2:0:0:
165,262,64960,1,2,1:2:0:0:
354,176,65184,1,10,1:2:0:0:
233,320,65408,6,0,P|257:323|305:355,1,64.9999970245363,2|0,3:2|0:0,0:0:0:0:
370,363,65632,1,10,2:2:0:0:
403,291,65743,2,0,B|402:222|358:238|353:175,1,129.999994049073,2|0,2:2|0:0,0:0:0:0:
458,108,66079,2,0,P|439:134|433:166,1,64.9999970245363,10|0,2:2|0:0,0:0:0:0:
296,249,66303,5,6,3:2:0:0:
285,245,66527,1,10,2:2:0:0:
158,347,66751,5,2,1:2:0:0:
233,320,66975,1,10,1:2:0:0:
353,175,67199,6,0,P|333:160|308:156,1,50,2|0,3:2|0:0,0:0:0:0:
232,165,67423,2,0,P|207:168|187:183,1,50,10|0,2:2|0:0,0:0:0:0:
0,139,67646,6,0,P|31:145|59:161,1,64.9999970245363,2|0,1:2|0:0,0:0:0:0:
143,250,67870,2,0,P|160:276|169:308,1,64.9999970245363,10|0,2:2|0:0,0:0:0:0:
347,337,68094,6,0,B|309:353|309:353|352:174,1,225.000008583069,6|0,3:2|0:0,0:0:0:0:
358,168,68542,6,0,P|362:192|374:214,1,50,2|0,1:2|0:0,0:0:0:0:
426,332,68766,2,0,P|421:307|409:285,1,50,10|0,1:2|0:0,0:0:0:0:
251,192,68990,6,0,P|188:203|142:249,1,129.999994049073,2|10,3:2|2:2,0:0:0:0:
111,318,69326,1,2,2:2:0:0:
97,309,69437,1,0,1:1:0:0:
74,126,69661,2,0,P|96:137|120:143,1,50,10|0,2:2|0:0,0:0:0:0:
247,279,69885,6,0,L|189:70,1,194.999991073609,6|0,3:2|0:0,0:0:0:0:
203,83,70333,6,0,L|216:12,1,50,2|0,1:2|0:0,0:0:0:0:
137,15,70557,2,0,L|127:64,1,50,10|0,1:2|0:0,0:0:0:0:
310,189,70781,6,0,B|338:153|338:153|336:99,1,100,2|8,3:2|2:2,0:0:0:0:
331,89,71117,1,0,0:0:0:0:
298,12,71229,2,0,B|377:74|377:74|470:60,1,194.999991073609,2|0,1:2|0:0,0:0:0:0:
512,129,71676,5,6,3:2:0:0:
437,310,71900,1,10,2:2:0:0:
310,189,72124,1,2,1:2:0:0:
512,259,72348,1,10,1:2:0:0:
377,383,72572,6,0,L|283:359,1,64.9999970245363,2|0,3:2|0:0,0:0:0:0:
219,330,72796,1,10,2:2:0:0:
248,258,72908,2,0,L|287:427,1,129.999994049073,2|0,2:2|0:0,0:0:0:0:
135,345,73243,2,0,L|144:266,1,64.9999970245363,10|0,2:2|0:0,0:0:0:0:
86,78,73467,5,6,3:2:0:0:
298,146,73691,1,10,2:2:0:0:
222,0,73915,5,2,1:2:0:0:
223,9,74139,1,2,1:2:0:0:
371,189,74363,6,0,P|377:164|379:140,1,50,0|0,3:3|0:0,0:0:0:0:
452,92,74587,2,0,P|458:116|460:140,1,50,8|8,2:2|2:2,0:0:0:0:
335,303,74811,6,0,P|313:269|304:234,1,75.0000028610231,8|0,1:2|0:0,0:0:0:0:
211,109,75035,2,0,P|189:142|180:177,1,75.0000028610231,8|0,2:2|0:0,0:0:0:0:
136,352,75258,5,0,1:1:0:0:
121,332,75482,5,0,1:1:0:0:
144,339,75706,5,0,1:1:0:0:
121,347,75930,5,0,1:1:0:0:
136,327,76154,5,2,1:2:0:0:
51,281,76378,6,0,L|63:217,2,37.5000014305115,2|0|0,1:2|0:0|0:0,0:0:0:0:
147,249,76602,1,2,2:2:0:0:
147,249,76714,1,2,2:2:0:0:
147,249,76826,2,0,L|131:157,1,75.0000028610231,6|0,2:2|0:0,0:0:0:0:
131,70,77049,5,6,3:2:0:0:
54,87,77273,1,10,2:2:0:0:
52,98,77385,1,10,2:2:0:0:
0,160,77609,1,10,2:2:0:0:
3,171,77721,1,10,2:2:0:0:
7,179,77833,1,2,2:2:0:0:
0,217,77945,5,10,3:2:0:0:
49,232,78057,1,10,2:2:0:0:
154,336,78281,5,10,2:2:0:0:
203,321,78393,1,10,3:2:0:0:
285,188,78617,5,10,2:2:0:0:
409,331,78840,5,2,3:2:0:0:
468,284,79064,1,10,2:2:0:0:
464,274,79176,1,10,2:2:0:0:
405,219,79400,1,10,2:2:0:0:
406,207,79512,1,10,2:2:0:0:
453,102,79736,5,10,3:2:0:0:
444,106,79848,1,10,2:2:0:0:
342,28,80072,5,10,2:2:0:0:
351,32,80184,1,10,3:2:0:0:
280,137,80408,5,10,2:2:0:0:
146,43,80632,5,2,3:2:0:0:
85,94,80855,1,10,2:2:0:0:
82,104,80967,1,10,2:2:0:0:
145,152,81191,1,10,2:2:0:0:
156,149,81303,1,10,2:2:0:0:
166,147,81415,1,2,2:2:0:0:
201,157,81527,5,10,3:2:0:0:
211,194,81639,1,10,2:2:0:0:
65,250,81863,5,10,2:2:0:0:
75,287,81975,1,10,3:2:0:0:
211,339,82199,5,10,2:2:0:0:
334,225,82423,5,2,3:2:0:0:
343,227,82534,1,2,2:2:0:0:
352,229,82646,1,10,2:2:0:0:
361,231,82758,1,10,2:2:0:0:
370,233,82870,1,2,3:2:0:0:
379,235,82981,1,10,2:2:0:0:
388,237,83093,1,10,2:2:0:0:
424,51,83318,5,10,3:2:0:0:
397,95,83430,1,10,2:2:0:0:
414,47,83542,5,10,2:2:0:0:
406,99,83654,1,10,2:2:0:0:
443,168,83766,5,10,3:2:0:0:
240,200,83990,1,10,2:2:0:0:
410,322,84214,6,0,L|417:375,3,37.5000014305115,6|2|10|10,3:2|2:2|2:2|2:2,0:0:0:0:
335,331,84661,2,0,L|342:384,3,37.5000014305115,10|10|10|2,3:2|2:2|2:2|2:2,0:0:0:0:
259,339,85109,2,0,L|266:392,3,37.5000014305115,10|10|2|10,3:2|2:2|2:2|2:2,0:0:0:0:
194,256,85557,6,0,L|180:321,1,37.5000014305115,10|0,3:2|0:0,0:0:0:0:
120,235,85781,2,0,L|106:300,1,37.5000014305115,10|0,2:2|0:0,0:0:0:0:
6,170,86005,6,0,L|69:155,3,37.5000014305115,2|2|10|10,3:2|2:2|2:2|2:2,0:0:0:0:
75,89,86452,2,0,L|27:77,1,37.5000014305115,10|10,3:2|2:2,0:0:0:0:
0,9,86676,2,0,L|48:-3,1,37.5000014305115,10|2,2:2|2:2,0:0:0:0:
158,68,86900,6,0,P|169:52|172:33,2,37.5000014305115,10|10|2,3:2|2:2|2:2,0:0:0:0:
309,113,87348,6,0,P|317:129|331:141,1,37.5000014305115,10|0,3:2|0:0,0:0:0:0:
231,128,87572,2,0,P|229:146|236:164,1,37.5000014305115,10|0,2:2|0:0,0:0:0:0:
148,282,87796,6,0,L|111:271,3,37.5000014305115,2|2|10|10,3:2|2:2|2:2|2:2,0:0:0:0:
189,353,88243,2,0,L|225:342,1,37.5000014305115,10|8,3:2|2:2,0:0:0:0:
274,282,88467,2,0,L|310:292,1,37.5000014305115,10|2,2:2|2:2,0:0:0:0:
396,238,88691,6,0,P|386:221|381:203,3,37.5000014305115,10|10|2|10,3:2|2:2|2:2|2:2,0:0:0:0:
304,197,89139,2,0,P|304:178|309:160,1,37.5000014305115,10|0,3:2|0:0,0:0:0:0:
244,115,89363,2,0,P|253:98|266:85,1,37.5000014305115,10|0,2:2|0:0,0:0:0:0:
161,65,89587,6,0,L|149:118,3,37.5000014305115,2|0|10|10,3:2|0:0|2:2|2:2,0:0:0:0:
88,48,90035,2,0,L|76:101,1,37.5000014305115,10|8,3:2|2:2,0:0:0:0:
17,29,90258,2,0,L|5:82,1,37.5000014305115,2|2,1:2|1:2,0:0:0:0:
41,289,90482,6,0,P|23:271|15:242,1,50,2|2,1:2|1:2,0:0:0:0:
89,224,90706,6,0,P|89:192|102:164,1,62.5,2|2,1:2|2:2,0:0:0:0:
183,177,90930,6,0,P|211:153|247:141,1,75.0000028610231,4|0,2:2|0:0,0:0:0:0:
313,233,91154,6,0,P|356:229|407:256,1,87.500000834465,0|0,3:2|0:0,0:0:0:0:
