osu file format v14

[General]
AudioFilename: audio.mp3
AudioLeadIn: 0
PreviewTime: 443789
Countdown: 0
SampleSet: Soft
StackLeniency: 1
Mode: 0
LetterboxInBreaks: 0
WidescreenStoryboard: 0

[Editor]
Bookmarks: 49411,88026,115333,157777,191210,235449,266467,303800,327288,351607,387923,437787,473217,509952,571014,605388,642345,679462,719676
DistanceSpacing: 0.9
BeatDivisor: 4
GridSize: 4
TimelineZoom: 1.9

[Metadata]
Title:Utaite Compilation
TitleUnicode:Utaite Compilation
Artist:Reol, Wotamin, Hanatan, 96neko, Yuikonnu
ArtistUnicode:れをる, ヲタみん, 花たん, 96猫, ゆいこんぬ
Creator:Kami-senpai
Version:Utathon
Source:nico nico douga
Tags:reol, wotamin, hanatan, 96neko, yuikonnu, echo, rain stops good bye, orange, love colored canvas, wave, drop pop candy, hitorinbo envy, hibikase, isshin furan, yi er fanclub, kinyoubi no ohayou, senbonzakura, pilot panic, romeo to cinderella, netgame haijin sprechchor, plus danshi, chikyuu saigo no kokuhaku wo, hatsukoi no ehon, gigantic otn, caramel heaven, marathon
BeatmapID:957956
BeatmapSetID:445971

[Difficulty]
HPDrainRate:6
CircleSize:4.2
OverallDifficulty:8
ApproachRate:9.2
SliderMultiplier:1.9
SliderTickRate:1

[Events]
//Background and Video events
0,0,"vocaloid_7th_dragon_aqua_hair_choker_clouds_cu_riyan_dress_hatsune_miku_headphones_long_hair_ribbons_sky_thighhighs_twintails_vocaloid_3695x2164.jpg",0,0
//Break Periods
2,45948,48811
2,82043,87426
2,109359,118362
2,152307,159023
2,181977,194302
2,228332,238030
2,262921,267581
2,297524,303200
2,322802,328373
2,347350,354207
2,382207,390439
2,431759,440189
2,467989,474028
2,505887,512094
2,562266,573080
2,600547,607314
2,635903,643008
2,671597,681388
2,711240,719072
//Storyboard Layer 0 (Background)
//Storyboard Layer 1 (Fail)
//Storyboard Layer 2 (Pass)
//Storyboard Layer 3 (Foreground)
//Storyboard Sound Samples

[TimingPoints]
-1524,909.090909090909,4,2,1,100,1,0
2112,-125,4,2,1,10,0,0
5521,-125,4,2,1,30,0,0
16657,-100,4,2,1,50,0,0
31203,-90.9090909090909,4,2,1,60,0,0
45748,-90.9090909090909,4,2,1,30,0,0
49411,810.810810810811,4,2,2,100,1,0
49411,-133.333333333333,4,2,2,30,0,0
52654,-117.647058823529,4,2,2,50,0,0
55897,-100,4,2,2,60,0,0
67248,-111.111111111111,4,2,2,70,0,0
68870,-100,4,2,2,60,0,0
72113,-125,4,2,2,60,0,0
75356,-100,4,2,2,70,0,0
88026,666.666666666667,4,2,2,100,1,0
88026,-100,4,2,2,40,0,0
89359,-100,4,2,2,60,0,0
90359,-71.4285714285714,4,2,2,60,0,0
91192,-100,4,2,2,60,0,0
98692,-125,4,2,2,60,0,0
101359,-100,4,2,2,70,0,0
115333,483.870967741935,4,2,3,100,1,0
118962,-133.333333333333,4,2,3,60,0,0
121139,-100,4,2,3,60,0,0
136623,-90.9090909090909,4,2,3,70,0,0
157777,461.538461538462,4,2,4,100,1,0
159623,-100,4,2,4,20,0,0
161469,-100,4,2,4,50,0,0
162853,-133.333333333333,4,2,4,70,0,0
163315,-83.3333333333333,4,2,4,60,0,0
167930,-100,4,2,4,60,0,0
168853,-83.3333333333333,4,2,4,60,0,0
178084,-111.111111111111,4,2,4,50,0,0
179007,-90.9090909090909,4,2,4,70,0,0
179930,-100,4,2,4,60,0,0
191210,461.538461538462,4,2,5,100,1,0
194902,-100,4,2,5,50,0,0
196748,-100,4,2,5,70,0,0
211517,-90.9090909090909,4,2,5,70,0,0
217056,-83.3333333333333,4,2,5,80,0,0
218902,-90.9090909090909,4,2,5,70,0,0
226517,-166.666666666667,4,2,5,50,0,0
235449,454.545454545455,4,2,6,100,1,0
238630,-125,4,2,6,60,0,0
249994,-100,4,2,6,60,0,0
253630,-90.9090909090909,4,2,6,70,0,0
255449,-125,4,2,6,50,0,0
258630,-200,4,2,6,70,0,0
260676,-166.666666666667,4,2,6,30,0,0
261585,-111.111111111111,4,2,6,20,0,0
266467,428.571428571429,4,2,4,100,1,0
268181,-133.333333333333,4,2,4,40,0,0
269038,-133.333333333333,4,2,4,70,0,0
269895,-100,4,2,4,70,0,0
278467,-90.9090909090909,4,2,4,70,0,0
280181,-83.3333333333333,4,2,4,70,0,0
283609,-100,4,2,4,70,0,0
290467,-90.9090909090909,4,2,4,70,0,0
293895,-76.9230769230769,4,2,4,70,0,0
294324,-100,4,2,4,70,0,0
294752,-71.4285714285714,4,2,4,70,0,0
295181,-90.9090909090909,4,2,4,70,0,0
295609,-100,4,2,4,50,0,0
296895,-142.857142857143,4,2,4,50,0,0
303800,422.535211267606,4,2,4,100,1,0
303800,-100,4,2,4,20,0,0
304645,-100,4,2,4,40,0,0
305490,-100,4,2,4,70,0,0
306335,-166.666666666667,4,2,4,50,0,0
307180,-111.111111111111,4,2,4,70,0,0
310983,-133.333333333333,4,2,4,60,0,0
312250,-111.111111111111,4,2,4,70,0,0
313940,-90.9090909090909,4,2,4,70,0,0
317321,-111.111111111111,4,2,4,70,0,0
317954,-133.333333333333,4,2,4,70,0,0
319011,-100,4,2,4,70,0,0
320701,-166.666666666667,4,2,4,40,0,0
327288,413.793103448276,4,2,7,100,1,0
328943,-100,4,2,7,40,0,0
329770,-100,4,2,7,60,0,0
330598,-100,4,2,7,70,0,0
343839,-166.666666666667,4,2,7,50,0,0
345494,-100,4,2,7,70,0,0
346736,-200,4,2,7,10,0,0
347150,-200,4,2,7,60,0,0
351607,400,4,2,8,100,1,0
354807,-100,4,2,8,50,0,0
355607,-100,4,2,8,70,0,0
368407,-100,4,2,8,40,0,0
368807,-100,4,2,8,80,0,0
369207,-90.9090909090909,4,2,8,70,0,0
380207,-125,4,2,8,80,0,0
387923,389.61038961039,4,2,9,100,1,0
391036,-100,4,2,9,50,0,0
392595,-100,4,2,9,70,0,0
415971,-125,4,2,9,70,0,0
416751,-90.9090909090909,4,2,9,50,0,0
423764,-76.9230769230769,4,2,9,50,0,0
425322,-90.9090909090909,4,2,9,50,0,0
429997,-166.666666666667,4,2,9,70,0,0
430777,-166.666666666667,4,2,9,40,0,0
437789,375,4,2,2,100,1,0
440787,-100,4,2,2,50,0,0
441912,-100,4,2,2,30,0,0
443037,-100,4,2,2,60,0,0
452787,-125,4,2,2,50,0,0
455787,-100,4,2,2,70,0,0
461599,-111.111111111111,4,2,2,50,0,0
464787,-100,4,2,2,70,0,0
466287,-100,4,2,2,40,0,0
467787,-100,4,2,2,70,0,0
473217,352.941176470588,4,2,8,100,1,0
474628,-100,4,2,8,30,0,0
476040,-200,4,2,8,10,0,0
476746,-200,4,2,8,60,0,0
477452,-100,4,2,8,60,0,0
485922,-133.333333333333,4,2,8,50,0,0
486805,-100,4,2,8,70,0,0
487334,-83.3333333333333,4,2,8,70,0,0
488746,-100,4,2,8,60,0,0
494393,-111.111111111111,4,2,8,60,0,0
497217,-133.333333333333,4,2,8,50,0,0
498099,-100,4,2,8,70,0,0
500040,-100,4,2,8,50,0,0
504275,-76.9230769230769,4,2,8,70,0,0
509952,342.857142857143,4,2,10,100,1,0
512694,-100,4,2,0,40,0,0
513380,-100,4,2,0,60,0,0
514066,-153.846153846153,4,2,10,50,0,0
514752,-100,4,2,10,70,0,0
523666,-125,4,2,0,60,0,0
525037,-100,4,2,10,70,0,0
534637,-100,4,2,0,50,0,0
536009,-166.666666666667,4,2,10,30,0,0
536352,-166.666666666667,4,2,10,70,0,0
536866,-100,4,2,10,70,0,0
537380,-90.9090909090909,4,2,10,70,0,0
545609,-125,4,2,0,50,0,0
546980,-125,4,2,10,70,0,0
548352,-90.9090909090909,4,2,10,70,0,0
556580,-125,4,2,0,50,0,0
557952,-200,4,2,10,30,0,0
558637,-200,4,2,10,70,0,0
559323,-200,4,2,10,20,0,0
562066,-200,4,2,10,60,0,0
571014,333.333333333333,4,2,11,100,1,0
573680,-200,4,2,11,30,0,0
575680,-200,4,2,11,60,0,0
576014,-200,4,2,11,80,0,0
576347,-100,4,2,11,70,0,0
583014,-111.111111111111,4,2,11,70,0,0
587014,-83.3333333333333,4,2,11,70,0,0
591014,-100,4,2,11,70,0,0
591347,-90.9090909090909,4,2,11,70,0,0
592014,-100,4,2,11,70,0,0
595014,-83.3333333333333,4,2,11,70,0,0
596347,-66.6666666666667,4,2,11,70,0,0
596680,-62.5,4,2,11,70,0,0
597014,-58.8235294117647,4,2,11,70,0,0
597347,-55.5555555555556,4,2,11,70,0,0
597680,-133.333333333333,4,2,11,40,0,0
600014,-133.333333333333,4,2,11,60,0,0
600347,-133.333333333333,4,2,11,80,0,0
605388,315.789473684211,4,2,12,100,1,0
607914,-200,4,2,12,20,0,0
609809,-90.9090909090909,4,2,12,70,0,0
612966,-100,4,2,12,60,0,0
622756,-133.333333333333,4,2,12,40,0,0
623388,-100,4,2,12,50,0,0
624177,-100,4,2,12,60,0,0
626703,-133.333333333333,4,2,12,60,0,0
627966,-133.333333333333,4,2,12,50,0,0
633177,-133.333333333333,4,2,12,60,0,0
635703,-133.333333333333,4,2,12,30,0,0
642345,315.789473684211,4,2,2,100,1,0
643608,-200,4,2,2,30,0,0
646134,-133.333333333333,4,2,2,10,0,0
648029,-133.333333333333,4,2,2,50,0,0
648660,-100,4,2,2,60,0,0
657502,-100,4,2,2,50,0,0
658766,-100,4,2,2,60,0,0
665081,-100,4,2,2,40,0,0
666108,-100,4,2,2,20,0,0
668239,-100,4,2,2,50,0,0
668871,-133.333333333333,4,2,2,50,0,0
679462,315.789473684211,4,2,13,100,1,0
681988,-166.666666666667,4,2,13,40,0,0
684514,-166.666666666667,4,2,13,60,0,0
688304,-100,4,2,13,60,0,0
708514,-100,4,2,13,90,0,0
719672,309.278350515464,4,2,14,100,1,0
719672,-166.666666666667,4,2,14,20,0,0
721991,-166.666666666667,4,2,14,30,0,0
724620,-133.333333333333,4,2,14,40,0,0
731888,-111.111111111111,4,2,14,40,0,0
733280,-111.111111111111,4,2,14,70,0,0
734517,-100,4,2,14,60,0,0
752919,-117.647058823529,4,2,14,60,0,0
754311,-111.111111111111,4,2,14,50,0,0
773950,-200,4,2,14,20,0,0
778434,-200,4,2,14,5,0,0

[Colours]
Combo1 : 255,34,34
Combo2 : 232,0,116
Combo3 : 37,185,239
Combo4 : 255,128,128
Combo5 : 192,192,192
Combo6 : 255,128,64
Combo7 : 128,0,0
Combo8 : 255,255,51

[HitObjects]
212,104,2112,6,8,P|176:144|182:256,1,152,8|0,0:0|0:0,0:0:0:0:
256,192,3476,1,0,0:0:0:0:
296,272,3703,1,0,0:0:0:0:
300,272,3816,1,0,0:0:0:0:
304,272,3930,2,0,P|348:212|344:160,1,114,8|0,0:0|0:0,0:0:0:0:
288,84,4839,1,0,0:0:0:0:
171,238,5294,5,0,0:0:0:0:
136,152,5521,1,0,0:0:0:0:
171,238,5748,2,8,B|192:272|224:256|264:240|284:272,1,114,8|0,0:0|0:0,0:0:0:0:
232,336,6657,1,0,0:0:0:0:
224,184,6885,1,0,0:0:0:0:
352,200,7112,1,0,0:0:0:0:
304,112,7339,1,0,0:0:0:0:
300,108,7453,1,0,0:0:0:0:
296,104,7566,6,0,L|248:120,2,38
168,228,8248,1,0,0:0:0:0:
280,340,8476,2,0,P|340:356|368:348,1,76,8|0,0:0|0:0,0:0:0:0:
372,348,9044,1,0,0:0:0:0:
388,340,9157,1,0,0:0:0:0:
400,324,9271,1,0,0:0:0:0:
408,308,9385,6,0,P|416:248|400:208,1,76,8|0,0:0|0:0,0:0:0:0:
300,184,10294,2,0,P|292:244|308:284,1,76
408,308,11203,1,8,0:0:0:0:
452,236,11430,1,0,0:0:0:0:
364,236,11657,1,0,0:0:0:0:
408,308,11885,1,0,0:0:0:0:
412,172,12112,2,0,P|351:156|313:175,1,76
192,256,13021,6,0,P|216:280|236:280,1,38,8|0,0:0|0:0,0:0:0:0:
304,280,13475,1,0,0:0:0:0:
256,216,13703,1,0,0:0:0:0:
312,276,13930,2,0,P|364:304|400:304,1,76
288,144,14839,6,0,P|256:136|240:144,1,38,8|0,0:0|0:0,0:0:0:0:
184,168,15294,1,0,0:0:0:0:
252,216,15521,1,0,0:0:0:0:
252,216,15635,1,0,0:0:0:0:
252,216,15748,1,2,0:0:0:0:
84,124,16657,6,0,P|136:84|188:80,1,95,10|0,0:3|0:0,0:0:0:0:
331,170,17566,2,0,P|279:210|227:214,1,95,2|0,0:0|0:0,0:0:0:0:
64,188,18476,2,0,P|40:256|56:300,1,95,2|0,0:0|0:0,0:0:0:0:
272,320,19385,2,0,P|244:264|200:248,1,95,2|0,0:0|0:0,0:0:0:0:
64,188,20294,5,10,0:3:0:0:
208,60,20748,1,0,0:0:0:0:
264,236,21203,2,0,L|304:328,1,95,2|0,0:0|0:0,0:0:0:0:
295,70,22112,2,0,P|235:50|203:62,1,95,2|0,0:0|0:0,0:0:0:0:
112,160,23021,5,10,0:0:0:0:
260,184,23248,1,0,0:0:0:0:
112,244,23475,1,8,0:0:0:0:
260,264,23703,1,0,0:0:0:0:
180,120,23930,6,0,P|132:80|80:88,2,95,10|0|2,0:3|0:0|0:0,0:0:0:0:
176,304,25294,1,0,0:0:0:0:
176,304,25748,2,0,P|224:344|276:336,1,95,2|0,0:0|0:0,0:0:0:0:
376,312,26657,1,2,0:0:0:0:
176,184,27112,1,0,0:0:0:0:
360,180,27566,5,10,0:3:0:0:
152,292,28021,1,0,0:0:0:0:
144,84,28475,1,2,0:0:0:0:
296,264,28930,2,0,P|328:280|356:280,1,47.5
372,80,29385,2,0,P|288:80|248:104,1,95,2|0,0:0|0:0,0:0:0:0:
124,180,30066,1,0,0:0:0:0:
332,152,30294,2,0,L|388:144,2,47.5,10|0|8,0:0|0:0|0:0,0:0:0:0:
92,244,31203,6,0,P|104:324|144:348,1,104.500003189087,10|0,0:3|0:0,0:0:0:0:
336,140,32112,2,0,P|324:60|284:36,1,104.500003189087,2|0,0:0|0:0,0:0:0:0:
60,112,33021,2,0,P|103:84|154:91,1,104.500003189087,2|0,0:0|0:0,0:0:0:0:
344,268,33930,2,0,P|301:296|250:291,1,104.500003189087,2|0,0:0|0:0,0:0:0:0:
216,140,34612,1,0,0:0:0:0:
216,140,34726,1,0,0:0:0:0:
216,140,34839,6,0,P|268:176|280:228,1,104.500003189087,10|0,0:3|0:0,0:0:0:0:
56,276,35748,1,2,0:0:0:0:
144,84,36203,1,0,0:0:0:0:
188,232,36430,1,0,0:0:0:0:
196,252,36544,1,0,0:0:0:0:
204,272,36657,6,0,P|232:308|256:320,1,52.2500015945435,2|0,0:0|0:0,0:0:0:0:
392,320,37112,1,0,0:0:0:0:
320,208,37339,2,0,L|252:112,1,104.500003189087,2|0,0:0|0:0,0:0:0:0:
259,122,38021,1,8,0:0:0:0:
204,272,38248,1,0,0:0:0:0:
264,116,38476,6,0,P|329:56|359:46,2,104.500003189087,10|0|2,0:3|0:0|0:0,0:0:0:0:
204,272,40066,1,0,0:0:0:0:
204,272,40294,6,0,P|155:345|129:363,2,104.500003189087,10|0|2,0:3|0:0|0:0,0:0:0:0:
48,180,41885,1,0,0:0:0:0:
128,276,42112,5,2,0:0:0:0:
328,144,42566,1,8,0:0:0:0:
120,40,43021,1,2,0:0:0:0:
260,264,43475,1,8,0:0:0:0:
120,40,43930,6,0,P|64:96|94:143,1,104.500003189087,10|0,0:3|0:0,0:0:0:0:
256,192,44612,1,0,0:0:0:0:
267,124,44839,2,0,P|327:184|252:262,1,209.000006378174,2|0,0:0|0:0,0:0:0:0:
160,88,49411,6,0,P|116:140|116:168,1,71.2500027179719,6|0,0:0|0:0,0:0:0:0:
152,224,50221,2,0,P|196:172|196:144,1,71.2500027179719,8|0,0:0|0:0,0:0:0:0:
160,88,50829,1,8,0:0:0:0:
160,88,50931,1,8,0:0:0:0:
160,88,51032,5,2,0:0:0:0:
200,164,51235,1,0,0:0:0:0:
248,84,51438,1,2,0:0:0:0:
92,176,51843,2,0,P|112:228|132:248,1,71.2500027179719,8|0,0:0|0:0,0:0:0:0:
288,300,52654,6,0,L|368:328,2,80.750001540184,6|0|8,0:0|0:0|0:0,0:0:0:0:
121,239,53870,1,0,0:0:0:0:
288,192,54275,6,0,P|341:156|360:112,1,80.750001540184,2|0,0:0|0:0,0:0:0:0:
264,96,54883,1,8,0:0:0:0:
264,96,54985,1,8,0:0:0:0:
264,96,55086,1,8,0:0:0:0:
156,96,55289,1,8,0:0:0:0:
212,184,55492,1,6,0:0:0:0:
48,208,55897,6,0,P|52:240|64:252,1,47.5,6|0,0:0|0:0,0:0:0:0:
164,304,56302,1,2,0:0:0:0:
164,200,56505,1,0,0:0:0:0:
168,196,56606,1,0,0:0:0:0:
172,192,56708,2,0,L|228:156,2,47.5,8|0|2,0:0|0:0|0:0,0:0:0:0:
300,280,57316,1,2,0:0:0:0:
416,212,57519,6,0,L|392:164,1,47.5,2|0,0:0|0:0,0:0:0:0:
280,124,57924,1,2,0:0:0:0:
452,92,58127,1,0,0:0:0:0:
460,92,58228,1,0,0:0:0:0:
468,92,58329,2,0,L|492:144,2,47.5,8|0|2,0:0|0:0|0:0,0:0:0:0:
336,52,58938,1,0,0:0:0:0:
336,196,59140,5,6,0:0:0:0:
244,292,59546,1,0,0:0:0:0:
424,256,59951,1,8,0:0:0:0:
300,132,60356,1,2,0:0:0:0:
300,132,60559,1,0,0:0:0:0:
296,312,60762,6,0,L|336:280,1,47.5,2|2,0:0|0:0,0:0:0:0:
448,128,61167,1,8,0:0:0:0:
448,128,61370,1,2,0:0:0:0:
440,248,61573,2,0,P|460:220|464:200,1,47.5,2|8,0:0|0:0,0:0:0:0:
384,188,61978,2,0,P|364:216|360:236,1,47.5,2|8,0:0|0:0,0:0:0:0:
496,104,62383,6,0,P|424:84|400:88,1,95,6|2,0:0|0:0,0:0:0:0:
244,120,62992,1,0,0:0:0:0:
384,188,63194,2,0,P|420:176|432:164,2,47.5,8|0|0,0:0|0:0|0:0,0:0:0:0:
244,120,63802,1,8,0:0:0:0:
136,212,64005,5,2,0:0:0:0:
112,96,64208,1,0,0:0:0:0:
136,212,64411,2,0,P|176:212|192:200,1,47.5,2|0,0:0|0:0,0:0:0:0:
276,96,64816,2,0,L|324:96,2,47.5,8|0|2,0:0|0:0|0:0,0:0:0:0:
112,96,65424,1,2,0:0:0:0:
168,272,65627,6,0,P|208:300|264:292,1,95,6|0,0:0|0:0,0:0:0:0:
252,100,66438,1,8,0:0:0:0:
180,44,66640,1,2,0:0:0:0:
168,132,66843,1,2,0:0:0:0:
360,76,67248,6,0,P|412:108|424:140,1,85.4999973907472,6|8,0:0|0:0,0:0:0:0:
296,204,67856,1,0,0:0:0:0:
416,280,68059,2,0,P|428:260|432:228,1,42.7499986953736,2|0,0:0|0:0,0:0:0:0:
421,128,68465,1,8,0:0:0:0:
360,228,68667,1,2,0:0:0:0:
428,120,68870,6,0,P|436:88|432:64,1,47.5,6|0,0:0|0:0,0:0:0:0:
296,84,69275,1,2,0:0:0:0:
464,200,69478,1,0,0:0:0:0:
464,208,69579,1,0,0:0:0:0:
464,216,69681,2,0,L|464:268,2,47.5,8|0|2,0:0|0:0|0:0,0:0:0:0:
336,288,70289,1,0,0:0:0:0:
304,188,70492,6,0,L|252:168,1,47.5,2|0,0:0|0:0,0:0:0:0:
108,124,70897,2,0,L|100:212,1,71.25,2|0,0:0|0:0,0:0:0:0:
100,228,71302,2,0,L|152:228,2,47.5,8|0|0,0:0|0:0|0:0,0:0:0:0:
8,168,71911,1,2,0:0:0:0:
248,116,72113,6,0,L|276:164,1,38,2|0,0:0|0:0,0:0:0:0:
216,300,72519,2,0,L|192:260,1,38,8|0,0:0|0:0,0:0:0:0:
328,260,72924,1,2,0:0:0:0:
172,168,73127,1,2,0:0:0:0:
312,52,73329,1,8,0:0:0:0:
264,208,73532,1,8,0:0:0:0:
264,208,73633,1,8,0:0:0:0:
264,208,73735,5,8,0:0:0:0:
236,84,73938,1,8,0:0:0:0:
360,132,74140,2,0,P|392:164|400:188,1,57,2|0,0:0|0:0,0:0:0:0:
400,208,74546,1,8,0:0:0:0:
392,288,74748,1,0,0:0:0:0:
320,204,74951,2,0,L|288:164,1,38,8|2,0:0|0:0,0:0:0:0:
267,305,75356,6,0,P|327:325|396:280,1,142.5,6|8,0:0|0:0,0:0:0:0:
420,216,76167,1,2,0:0:0:0:
424,140,76370,1,8,0:0:0:0:
388,72,76573,1,2,0:0:0:0:
320,40,76775,1,8,0:0:0:0:
304,152,76978,5,8,0:0:0:0:
288,40,77181,1,8,0:0:0:0:
360,128,77383,1,8,0:0:0:0:
244,124,77586,1,8,0:0:0:0:
360,56,77789,2,0,L|416:28,1,47.5,2|8,0:0|0:0,0:0:0:0:
288,40,78194,2,0,L|224:68,1,47.5,2|8,0:0|0:0,0:0:0:0:
340,200,78600,6,0,P|396:192|428:160,1,95,6|8,0:0|0:0,0:0:0:0:
116,152,79411,1,8,0:0:0:0:
236,196,79613,1,8,0:0:0:0:
108,148,79816,2,0,L|56:128,1,47.5,6|0,0:0|0:0,0:0:0:0:
92,244,80221,6,0,P|144:240|184:200,1,95,6|8,0:0|0:0,0:0:0:0:
200,120,80829,1,8,0:0:0:0:
108,148,81032,1,10,0:0:0:0:
176,213,81235,1,8,0:0:0:0:
128,48,81438,1,10,0:0:0:0:
52,220,81640,1,8,0:0:0:0:
256,196,81843,5,14,0:0:0:0:
256,188,88026,5,2,0:0:0:0:
256,200,88359,1,2,0:0:0:0:
256,216,88692,1,2,0:0:0:0:
256,232,89026,5,6,0:0:0:0:
172,136,90692,6,0,P|168:240|204:276,1,132.999995941162,4|2,0:0|0:0,0:0:0:0:
256,192,91192,1,0,0:0:0:0:
256,192,91359,2,0,P|312:176|372:188,1,95,8|0,0:0|0:0,0:0:0:0:
188,260,92026,6,0,P|132:284|68:284,1,95,2|2,0:0|0:0,0:0:0:0:
120,212,92526,1,0,0:0:0:0:
72,288,92692,2,0,P|80:320|92:336,1,47.5,8|0,0:0|0:0,0:0:0:0:
172,264,93026,1,8,0:0:0:0:
120,212,93192,1,2,0:0:0:0:
72,288,93359,6,0,L|152:340,1,95,6|2,0:0|0:0,0:0:0:0:
296,212,94026,1,8,0:0:0:0:
108,160,94359,2,0,P|104:132|133:68,1,95,0|2,0:0|0:0,0:0:0:0:
129,71,94859,1,8,0:0:0:0:
236,100,95026,2,0,P|224:128|204:144,1,47.5,8|2,0:0|0:0,0:0:0:0:
109,115,95359,2,0,P|121:87|141:71,1,47.5,8|2,0:0|0:0,0:0:0:0:
279,120,95692,2,0,L|236:101,1,47.5,8|2,0:0|0:0,0:0:0:0:
179,192,96026,6,0,P|196:253|234:273,1,95,6|2,0:0|0:0,0:0:0:0:
361,252,96692,2,0,P|338:227|307:216,1,47.5,8|0,0:0|0:0,0:0:0:0:
256,204,97026,1,2,0:0:0:0:
420,192,97192,1,0,0:0:0:0:
420,192,97276,1,0,0:0:0:0:
420,192,97359,2,0,L|352:120,1,95,2|0,0:0|0:0,0:0:0:0:
184,70,97859,2,0,P|208:98|231:97,1,47.5,0|8,0:0|0:0,0:0:0:0:
289,82,98192,1,0,0:0:0:0:
184,69,98359,2,0,L|128:63,1,47.5,2|0,0:0|0:0,0:0:0:0:
136,189,98692,5,6,0:0:0:0:
136,189,99026,2,0,L|222:189,1,76,2|8,0:0|0:0,0:0:0:0:
91,117,99692,6,0,P|57:155|86:259,1,152,6|2,0:0|0:0,0:0:0:0:
234,287,100692,1,8,0:3:0:0:
296,319,100859,1,8,0:3:0:0:
340,367,101026,1,8,0:3:0:0:
349,164,101359,5,6,0:0:0:0:
349,164,101692,1,2,0:0:0:0:
413,61,102026,2,0,P|452:98|466:142,1,95,8|0,0:0|0:0,0:0:0:0:
296,68,102692,1,2,0:0:0:0:
296,68,103026,1,2,0:0:0:0:
384,235,103359,2,0,P|414:223|427:203,1,47.5,8|0,0:0|0:0,0:0:0:0:
349,164,103692,2,0,P|319:176|306:196,1,47.5,2|0,0:0|0:0,0:0:0:0:
346,307,104026,6,0,P|408:315|442:282,1,95,6|2,0:0|0:0,0:0:0:0:
453,226,104526,1,0,0:0:0:0:
432,155,104692,2,0,L|415:108,1,47.5,8|0,0:0|0:0,0:0:0:0:
321,65,105026,2,0,L|338:112,1,47.5,8|0,0:0|0:0,0:0:0:0:
376,199,105359,2,0,L|328:217,1,47.5,2|8,0:0|0:0,0:0:0:0:
264,164,105692,1,2,0:0:0:0:
264,164,105859,1,0,0:0:0:0:
152,280,106026,6,0,L|120:236,1,47.5,8|2,0:0|0:0,0:0:0:0:
184,160,106359,1,8,0:0:0:0:
240,264,106526,1,2,0:0:0:0:
136,92,106692,6,0,L|44:128,2,95,6|0|8,0:0|0:0|3:0,0:0:0:0:
192,56,107526,1,8,0:0:0:0:
256,40,107692,1,0,0:3:0:0:
320,56,107859,1,0,0:3:0:0:
376,88,108026,5,6,0:0:0:0:
255,193,108359,2,0,L|255:289,2,95,2|0|0,0:0|0:0|0:0,0:0:0:0:
150,121,118962,6,0,P|117:157|140:248,1,142.500005435944,6|8,0:0|0:0,0:0:0:0:
336,292,119687,1,8,0:0:0:0:
288,80,119929,1,8,0:0:0:0:
428,266,120413,6,0,P|444:239|445:222,1,35.625001358986,2|2,0:0|0:0,0:0:0:0:
449,192,120655,1,10,0:0:0:0:
445,149,120776,1,10,0:0:0:0:
430,108,120897,1,8,0:0:0:0:
399,78,121018,1,8,0:0:0:0:
360,58,121139,5,6,0:0:0:0:
335,174,121381,1,0,0:0:0:0:
335,174,121623,2,0,L|312:278,1,95,8|0,0:0|0:0,0:0:0:0:
340,276,121986,1,0,0:0:0:0:
340,276,122107,2,0,L|318:368,1,95,2|0,0:0|0:0,0:0:0:0:
197,279,122591,1,8,0:0:0:0:
300,360,122832,1,0,0:0:0:0:
312,364,122953,1,0,0:0:0:0:
324,368,123074,6,0,P|380:364|432:340,1,95
359,208,123558,1,8,0:0:0:0:
481,176,123800,1,0,0:0:0:0:
456,292,124042,2,0,L|429:397,1,95,2|0,0:0|0:0,0:0:0:0:
359,208,124526,2,0,L|391:95,1,95,8|0,0:0|0:0,0:0:0:0:
343,298,125010,5,6,0:0:0:0:
343,298,125252,1,0,0:0:0:0:
219,211,125494,2,0,P|202:173|207:88,1,95,8|0,0:0|0:0,0:0:0:0:
212,92,125857,1,0,0:0:0:0:
212,92,125978,1,0,0:0:0:0:
322,216,126220,1,0,0:0:0:0:
312,56,126462,1,8,0:0:0:0:
480,96,126703,1,0,0:0:0:0:
480,96,126945,6,0,P|484:152|444:224,1,95
333,135,127429,1,8,0:0:0:0:
208,156,127671,1,0,0:0:0:0:
356,40,127913,2,0,L|449:80,1,95,2|8,0:0|0:0,0:0:0:0:
468,88,128276,1,8,0:0:0:0:
496,100,128397,1,8,0:0:0:0:
333,135,128639,1,8,0:0:0:0:
217,38,128881,5,6,0:0:0:0:
356,40,129123,1,0,0:0:0:0:
204,40,129365,2,0,P|140:67|104:100,2,95,8|0|2,0:0|0:0|0:0,0:0:0:0:
356,40,130091,1,0,0:0:0:0:
210,141,130332,1,8,0:0:0:0:
460,28,130574,1,0,0:0:0:0:
464,44,130695,1,0,0:0:0:0:
468,56,130816,6,0,P|472:124|456:156,1,95
344,203,131300,1,8,0:0:0:0:
258,73,131542,1,0,0:0:0:0:
405,131,131784,2,0,P|439:188|429:239,1,95,2|0,0:0|0:0,0:0:0:0:
239,204,132268,1,8,0:0:0:0:
239,204,132510,6,0,L|41:203,1,190,6|8,0:0|0:0,0:0:0:0:
271,115,133236,2,0,P|312:143|337:193,1,95,8|8,0:0|0:0,0:0:0:0:
340,200,133599,1,8,0:0:0:0:
344,220,133720,2,0,P|347:269|316:322,1,95,2|0,0:0|0:0,0:0:0:0:
248,248,134203,1,8,0:0:0:0:
341,44,134445,6,0,P|228:25|155:54,1,190,6|2,0:0|0:0,0:0:0:0:
139,183,135171,1,8,0:0:0:0:
255,119,135413,1,8,0:0:0:0:
255,119,135534,1,8,0:0:0:0:
255,119,135655,5,10,0:0:0:0:
106,45,135897,1,2,0:0:0:0:
133,291,136139,1,10,0:0:0:0:
354,171,136381,1,2,0:0:0:0:
175,198,136623,5,6,0:0:0:0:
256,288,136865,1,0,0:0:0:0:
354,171,137107,2,0,L|391:58,1,104.500003189087,8|0,0:0|0:0,0:0:0:0:
408,66,137470,1,8,0:0:0:0:
408,66,137591,1,10,0:0:0:0:
212,101,137832,1,0,0:0:0:0:
332,244,138074,1,8,0:0:0:0:
308,56,138316,1,0,0:0:0:0:
300,48,138437,1,0,0:0:0:0:
292,40,138558,6,0,P|228:8|176:16,1,104.500003189087
152,96,139042,2,0,P|174:142|171:194,1,104.500003189087,8|0,0:0|0:0,0:0:0:0:
64,160,139526,2,0,P|41:113|44:61,1,104.500003189087,2|0,0:0|0:0,0:0:0:0:
256,204,140010,1,12,0:0:0:0:
264,196,140494,5,6,0:0:0:0:
332,84,140736,1,0,0:0:0:0:
176,152,140978,1,8,0:0:0:0:
176,152,141220,1,0,0:0:0:0:
344,172,141462,2,0,L|464:208,2,104.500003189087,2|0|8,0:0|0:0|0:0,0:0:0:0:
132,32,142187,2,0,L|100:76,1,52.2500015945435
28,184,142429,6,0,P|84:176|128:192,1,104.500003189087
228,348,142913,1,8,0:0:0:0:
164,264,143155,1,0,0:0:0:0:
126,365,143397,2,0,P|184:363|250:333,1,104.500003189087,2|0,0:0|0:0,0:0:0:0:
412,240,143881,2,0,P|356:248|288:272,1,104.500003189087,8|2,0:0|0:0,0:0:0:0:
176,160,144365,5,6,0:0:0:0:
156,264,144607,1,0,0:0:0:0:
272,176,144849,2,0,P|256:104|220:76,1,104.500003189087,8|8,0:0|0:0,0:0:0:0:
212,76,145212,1,8,0:0:0:0:
188,72,145332,2,0,P|132:72|72:108,1,104.500003189087,2|0,0:0|0:0,0:0:0:0:
272,176,145816,1,8,0:0:0:0:
32,160,146058,1,0,0:0:0:0:
36,168,146179,1,0,0:0:0:0:
40,176,146300,6,0,L|96:264,1,104.500003189087
168,372,146784,1,8,0:0:0:0:
160,152,147026,1,0,0:0:0:0:
72,335,147268,2,0,P|136:367|184:371,1,104.500003189087,2|0,0:0|0:0,0:0:0:0:
168,240,147752,1,8,0:0:0:0:
340,264,147994,6,0,B|380:264|432:204|404:140|404:140|448:84,1,209.000006378174,6|2,0:0|0:0,0:0:0:0:
320,172,148720,1,8,0:0:0:0:
484,164,148962,1,8,0:0:0:0:
484,164,149082,1,8,0:0:0:0:
484,164,149203,2,0,L|396:92,1,104.500003189087,2|0,0:0|0:0,0:0:0:0:
320,172,149687,1,8,0:0:0:0:
368,300,149929,6,0,L|152:272,1,209.000006378174,6|8,0:0|0:0,0:0:0:0:
376,208,150655,1,8,0:0:0:0:
172,176,150897,1,8,0:0:0:0:
404,124,151139,1,2,0:0:0:0:
144,92,151381,1,8,0:0:0:0:
420,40,151623,1,2,0:0:0:0:
420,40,151744,1,2,0:0:0:0:
420,40,151865,1,8,0:0:0:0:
256,192,152107,5,6,0:0:0:0:
112,76,159623,5,2,0:0:0:0:
376,292,160084,1,2,0:0:0:0:
32,280,160546,1,2,0:0:0:0:
304,72,161007,1,2,0:0:0:0:
140,372,161469,5,2,0:0:0:0:
156,32,161930,1,2,0:0:0:0:
472,164,162392,1,2,0:0:0:0:
184,204,162853,2,0,L|268:188,1,71.2500027179719,4|0,0:3|0:0,0:0:0:0:
412,80,163315,6,0,P|340:44|300:44,1,113.999996520996,6|8,0:0|0:0,0:0:0:0:
268,52,163661,1,0,0:0:0:0:
268,52,163777,2,0,L|284:108,1,56.9999982604981,2|0,0:0|0:0,0:0:0:0:
199,149,164007,2,0,L|183:205,1,56.9999982604981,8|0,0:0|0:0,0:0:0:0:
288,296,164238,1,2,0:0:0:0:
120,176,164469,1,8,0:0:0:0:
264,224,164700,1,2,0:0:0:0:
76,264,164930,1,8,0:0:0:0:
171,38,165161,6,0,L|199:150,1,113.999996520996,2|0,0:0|0:0,0:0:0:0:
232,180,165507,1,0,0:0:0:0:
232,180,165623,2,0,L|288:144,1,56.9999982604981,2|0,0:0|0:0,0:0:0:0:
344,216,165853,2,0,L|400:252,1,56.9999982604981,8|0,0:0|0:0,0:0:0:0:
456,168,166084,1,2,0:0:0:0:
216,272,166315,1,8,0:0:0:0:
344,132,166546,1,2,0:0:0:0:
336,312,166777,1,8,0:0:0:0:
328,48,167007,6,0,P|392:56|424:116,1,113.999996520996,6|8,0:0|0:0,0:0:0:0:
440,120,167353,1,0,0:0:0:0:
440,120,167469,2,0,L|496:152,1,56.9999982604981,2|0,0:0|0:0,0:0:0:0:
396,200,167700,2,0,L|346:171,1,56.9999982604981,8|0,0:0|0:0,0:0:0:0:
248,124,167930,2,0,L|144:176,1,95,2|8,0:0|0:0,0:0:0:0:
144,300,168392,2,0,L|248:248,1,95,2|8,0:0|0:0,0:0:0:0:
368,124,168853,6,0,P|388:192|348:240,1,113.999996520996,0|8,0:0|0:0,0:0:0:0:
336,248,169200,1,0,0:0:0:0:
336,248,169315,2,0,L|336:304,1,56.9999982604981,2|0,0:0|0:0,0:0:0:0:
216,288,169546,2,0,L|216:232,1,56.9999982604981,8|0,0:0|0:0,0:0:0:0:
216,108,169777,1,2,0:0:0:0:
464,132,170007,1,2,0:0:0:0:
464,132,170123,1,2,0:0:0:0:
464,132,170238,1,2,0:0:0:0:
336,248,170469,1,4,0:3:0:0:
316,44,170700,6,0,L|192:16,1,113.999996520996,6|8,0:0|0:0,0:0:0:0:
164,16,171046,1,0,0:0:0:0:
164,16,171161,2,0,L|164:88,1,56.9999982604981,2|0,0:0|0:0,0:0:0:0:
160,196,171392,1,8,0:0:0:0:
148,196,171507,1,0,0:0:0:0:
136,196,171623,1,2,0:0:0:0:
64,64,171853,1,8,0:0:0:0:
284,188,172084,2,0,P|304:128|292:64,1,113.999996520996,2|8,0:0|0:0,0:0:0:0:
56,244,172546,6,0,P|124:284|184:272,1,113.999996520996,2|8,0:0|0:0,0:0:0:0:
176,304,172892,1,0,0:0:0:0:
176,304,173007,2,0,L|232:360,1,56.9999982604981,2|0,0:0|0:0,0:0:0:0:
368,336,173238,1,8,0:0:0:0:
368,336,173353,1,0,0:0:0:0:
368,336,173469,1,2,0:0:0:0:
296,144,173700,1,8,0:0:0:0:
292,292,173930,1,2,0:0:0:0:
472,116,174161,1,0,0:0:0:0:
224,192,174392,6,0,L|148:80,1,113.999996520996,6|8,0:0|0:0,0:0:0:0:
140,64,174738,1,0,0:0:0:0:
140,64,174853,2,0,L|100:112,1,56.9999982604981,2|0,0:0|0:0,0:0:0:0:
80,252,175084,2,0,L|128:192,1,56.9999982604981,8|0,0:0|0:0,0:0:0:0:
232,64,175315,1,2,0:0:0:0:
300,136,175546,1,8,0:0:0:0:
176,0,175777,1,2,0:0:0:0:
360,204,176007,1,8,0:0:0:0:
220,260,176238,6,0,P|252:308|308:336,1,113.999996520996,2|8,0:0|0:0,0:0:0:0:
340,336,176584,1,0,0:0:0:0:
340,336,176700,2,0,L|400:308,1,56.9999982604981,2|0,0:0|0:0,0:0:0:0:
504,260,176930,2,0,L|448:232,1,56.9999982604981,8|0,0:0|0:0,0:0:0:0:
328,184,177161,2,0,P|300:124|328:76,1,113.999996520996,2|8,0:0|0:0,0:0:0:0:
352,60,177507,1,0,0:0:0:0:
352,60,177623,2,0,L|288:36,1,56.9999982604981,2|0,0:0|0:0,0:0:0:0:
176,4,177853,2,0,L|172:64,1,56.9999982604981,8|0,0:0|0:0,0:0:0:0:
196,304,178084,6,0,P|260:304|296:272,1,85.4999973907472,6|8,0:0|0:0,0:0:0:0:
288,320,178430,2,0,P|336:272|336:224,1,85.4999973907472,8|8,0:0|0:0,0:0:0:0:
368,264,178777,1,8,0:0:0:0:
212,148,179007,6,0,P|148:148|108:188,1,104.500003189087,2|8,0:0|0:0,0:0:0:0:
100,140,179353,2,8,P|52:188|44:248,1,104.500003189087
12,212,179700,1,8,0:0:0:0:
240,292,179930,5,2,0:0:0:0:
244,116,180161,1,8,0:0:0:0:
116,208,180392,1,2,0:0:0:0:
368,212,180623,1,8,0:0:0:0:
152,44,180853,1,4,0:3:0:0:
84,320,181084,1,8,0:0:0:0:
248,196,181315,5,8,0:0:0:0:
256,192,181777,5,8,0:0:0:0:
256,92,194902,5,8,0:0:0:0:
148,192,195363,1,8,0:0:0:0:
256,288,195825,5,12,0:0:0:0:
364,192,196286,1,8,0:0:0:0:
128,272,196748,5,2,0:0:0:0:
268,164,196979,1,0,0:0:0:0:
116,280,197210,2,0,P|64:304|20:304,1,95,8|0,0:0|0:0,0:0:0:0:
64,128,197671,1,2,0:0:0:0:
92,104,197786,1,0,0:0:0:0:
128,88,197902,2,0,P|176:72|224:80,1,95,0|8,0:0|0:0,0:0:0:0:
176,200,198363,1,0,0:0:0:0:
120,80,198594,5,2,0:0:0:0:
260,88,198825,1,0,0:0:0:0:
124,96,199056,1,8,0:0:0:0:
196,0,199286,1,0,0:0:0:0:
196,224,199517,5,2,0:0:0:0:
192,72,199748,1,0,0:0:0:0:
368,220,199979,1,8,0:0:0:0:
128,168,200210,1,0,0:0:0:0:
320,36,200440,6,0,P|432:24|476:96,1,190,2|8,0:0|0:0,0:0:0:0:
320,36,201133,1,0,0:0:0:0:
456,144,201363,2,0,P|488:172|504:224,1,95,2|0,0:0|0:0,0:0:0:0:
416,220,201825,1,8,0:0:0:0:
472,72,202056,1,0,0:0:0:0:
472,72,202171,1,0,0:0:0:0:
472,72,202286,6,0,B|396:56|396:56|372:80|344:104|308:104|260:80,1,190,2|8,0:0|0:0,0:0:0:0:
320,16,202979,1,0,0:0:0:0:
320,16,203094,1,0,0:0:0:0:
320,16,203210,1,2,0:0:0:0:
392,200,203440,1,0,0:0:0:0:
256,144,203671,2,0,L|160:96,1,95,8|8,0:0|0:0,0:0:0:0:
132,240,204133,6,0,L|196:328,1,95,2|0,0:0|0:0,0:0:0:0:
336,252,204594,1,8,0:0:0:0:
128,224,204825,1,0,0:0:0:0:
348,256,205056,1,2,0:0:0:0:
388,264,205171,1,0,0:0:0:0:
428,272,205286,2,0,L|420:160,1,95,0|8,0:0|0:0,0:0:0:0:
416,48,205748,1,0,0:0:0:0:
284,136,205979,5,2,0:0:0:0:
421,177,206210,1,0,0:0:0:0:
268,60,206440,1,8,0:0:0:0:
336,216,206671,1,0,0:0:0:0:
368,16,206902,1,2,0:0:0:0:
176,152,207133,1,0,0:0:0:0:
356,148,207363,1,8,0:0:0:0:
180,32,207594,1,0,0:0:0:0:
288,236,207825,6,0,P|232:288|124:216,1,190,2|8,0:0|0:0,0:0:0:0:
196,128,208517,1,0,0:0:0:0:
208,204,208748,2,0,L|220:308,1,95,2|0,0:0|0:0,0:0:0:0:
300,236,209210,1,8,0:0:0:0:
148,272,209440,1,0,0:0:0:0:
104,272,209556,1,0,0:0:0:0:
60,272,209671,6,0,B|8:252|-16:168|-16:168|44:148,1,190,2|8,0:0|0:0,0:0:0:0:
276,124,210363,1,0,0:0:0:0:
276,124,210479,1,0,0:0:0:0:
276,124,210594,1,2,0:0:0:0:
176,176,210825,2,2,P|208:216|272:228,1,95,6|2,0:3|0:3,0:3:0:0:
272,232,211171,1,2,0:3:0:0:
296,232,211286,1,2,0:3:0:0:
436,128,211517,5,2,0:0:0:0:
332,72,211748,1,0,0:0:0:0:
328,224,211979,1,8,0:0:0:0:
468,192,212210,1,0,0:0:0:0:
312,232,212440,2,0,P|220:224|180:196,1,104.500003189087,2|0,0:0|0:0,0:0:0:0:
188,200,212786,2,0,L|264:108,1,104.500003189087,8|0,0:0|0:0,0:0:0:0:
276,96,213133,1,0,0:0:0:0:
240,280,213363,5,2,0:0:0:0:
240,280,213594,2,0,P|168:300|96:296,2,104.500003189087,0|8|0,0:0|0:0|0:0,0:0:0:0:
340,164,214286,2,0,P|412:144|484:148,1,104.500003189087,2|0,0:0|0:0,0:0:0:0:
468,160,214633,2,0,L|376:236,1,104.500003189087,0|8,0:0|0:0,0:0:0:0:
364,244,214979,1,0,0:0:0:0:
272,80,215210,5,2,0:0:0:0:
384,80,215440,1,0,0:0:0:0:
272,208,215671,1,8,0:0:0:0:
160,76,215902,1,0,0:0:0:0:
340,164,216133,2,0,L|440:212,1,104.500003189087,2|0,0:0|0:0,0:0:0:0:
464,220,216479,2,0,P|488:160|476:112,1,104.500003189087,8|0,0:0|0:0,0:0:0:0:
464,96,216825,1,0,0:0:0:0:
400,156,217056,5,2,0:0:0:0:
492,280,217286,1,0,0:0:0:0:
268,248,217517,2,0,L|140:224,1,113.999996520996,8|4,0:0|0:3,0:0:0:0:
40,208,217979,1,2,0:0:0:0:
268,232,218210,1,0,0:0:0:0:
60,140,218440,2,0,L|184:164,1,113.999996520996,8|0,0:0|0:0,0:0:0:0:
268,232,218902,5,2,0:0:0:0:
240,128,219133,1,0,0:0:0:0:
120,240,219363,2,0,P|84:300|96:352,1,104.500003189087,8|0,0:0|0:0,0:0:0:0:
268,232,219825,2,0,L|376:176,1,104.500003189087,2|0,0:0|0:0,0:0:0:0:
332,172,220171,2,0,L|224:164,1,104.500003189087,0|8,0:0|0:0,0:0:0:0:
240,128,220517,1,0,0:0:0:0:
268,232,220748,5,2,0:0:0:0:
344,72,220979,1,0,0:0:0:0:
276,236,221210,1,8,0:0:0:0:
420,180,221440,1,0,0:0:0:0:
240,128,221671,2,0,P|192:152|160:192,1,104.500003189087,2|0,0:0|0:0,0:0:0:0:
148,220,222017,2,0,P|104:176|32:168,1,104.500003189087,0|8,0:0|0:0,0:0:0:0:
56,196,222363,1,0,0:0:0:0:
268,232,222594,5,2,0:0:0:0:
132,296,222825,1,0,0:0:0:0:
148,152,223056,1,8,0:0:0:0:
240,292,223286,1,0,0:0:0:0:
56,196,223517,2,0,P|48:120|76:88,1,104.500003189087,2|0,0:0|0:0,0:0:0:0:
112,152,223863,2,0,P|128:208|100:252,1,104.500003189087,8|0,0:0|0:0,0:0:0:0:
48,196,224210,1,0,0:0:0:0:
176,228,224440,5,2,0:0:0:0:
284,56,224671,1,0,0:0:0:0:
80,40,224902,2,0,P|32:64|8:116,1,104.500003189087,8|0,0:0|0:0,0:0:0:0:
336,260,225363,1,2,0:0:0:0:
200,40,225594,1,4,0:3:0:0:
84,272,225825,1,8,0:0:0:0:
312,128,226056,2,0,P|380:84|404:76,1,104.500003189087,8|2,0:0|0:0,0:0:0:0:
192,204,226517,6,0,P|195:329|253:194,1,398.999987823487,8|0,0:3|0:0,0:0:0:0:
260,196,238630,5,4,0:0:0:0:
260,196,239085,6,0,P|292:168|308:120,1,76,2|0,0:0|0:0,0:0:0:0:
304,44,239539,1,8,0:0:0:0:
216,120,239767,2,0,P|172:152|144:152,1,76,0|2,0:0|0:0,0:0:0:0:
152,52,240221,2,0,P|196:24|232:24,1,76,2|8,0:0|0:0,0:0:0:0:
80,144,240676,1,0,0:0:0:0:
80,144,240903,6,0,L|96:228,1,76,2|0,0:0|0:0,0:0:0:0:
220,232,241358,1,8,0:0:0:0:
288,136,241585,1,0,0:0:0:0:
228,236,241812,2,0,P|276:252|316:256,2,76,2|2|8,0:0|0:0|0:0,0:0:0:0:
256,52,242721,6,0,P|316:60|344:80,1,76,2|0,0:0|0:0,0:0:0:0:
280,136,243176,1,8,0:0:0:0:
168,216,243403,2,0,P|192:160|212:148,1,76,0|2,0:0|0:0,0:0:0:0:
312,268,243858,2,0,P|288:324|268:336,1,76,2|8,0:0|0:0,0:0:0:0:
280,136,244312,1,0,0:0:0:0:
412,64,244539,6,0,L|436:168,1,76,0|8,0:0|0:0,0:0:0:0:
448,156,244880,1,8,0:0:0:0:
448,156,244994,1,8,0:0:0:0:
252,308,245221,1,8,0:0:0:0:
204,96,245449,1,2,0:0:0:0:
360,152,245676,2,8,L|448:180,1,76
104,216,246358,6,0,P|68:160|68:124,1,76,6|0,0:0|0:0,0:0:0:0:
88,40,246812,1,8,0:0:0:0:
104,232,247039,2,0,L|120:320,1,76,0|2,0:0|0:0,0:0:0:0:
192,160,247494,2,0,L|176:72,1,76,2|8,0:0|0:0,0:0:0:0:
32,144,247949,1,0,0:0:0:0:
112,304,248176,6,0,P|180:348|192:344,1,76,2|0,0:0|0:0,0:0:0:0:
284,304,248630,1,8,0:0:0:0:
192,160,248858,1,0,0:0:0:0:
112,304,249085,2,0,L|64:380,1,76,2|2,0:0|0:0,0:0:0:0:
300,380,249539,1,8,0:0:0:0:
258,196,249767,1,0,0:0:0:0:
64,204,249994,6,0,P|32:256|32:300,1,95,6|0,0:0|0:0,0:0:0:0:
258,196,250449,2,0,P|290:144|290:100,1,95,8|0,0:0|0:0,0:0:0:0:
20,124,250903,2,0,P|92:116|128:144,1,95,2|2,0:0|0:0,0:0:0:0:
232,280,251358,1,8,0:0:0:0:
232,280,251585,1,0,0:0:0:0:
200,116,251812,6,0,P|224:64|276:28,1,95,2|2,0:0|0:0,0:0:0:0:
420,28,252267,1,8,0:0:0:0:
292,108,252494,1,2,0:0:0:0:
148,24,252721,1,8,0:0:0:0:
356,68,252949,1,2,0:0:0:0:
144,36,253176,2,0,P|96:52|56:88,1,95,6|2,0:0|0:0,0:0:0:0:
176,176,253630,5,6,0:0:0:0:
48,24,253858,1,8,0:0:0:0:
48,24,254085,2,0,L|116:103,1,104.500003189087,8|2,0:0|0:0,0:0:0:0:
256,264,254539,5,12,0:0:0:0:
192,64,254767,1,2,0:0:0:0:
396,260,254994,5,12,0:0:0:0:
328,76,255221,1,2,0:0:0:0:
192,228,255449,6,0,P|152:256|112:256,1,76,2|0,0:0|0:0,0:0:0:0:
100,256,255789,1,0,0:0:0:0:
76,248,255903,2,0,P|32:216|12:176,1,76,8|0,0:0|0:0,0:0:0:0:
24,76,256358,1,2,0:0:0:0:
108,168,256585,1,0,0:0:0:0:
108,168,256699,1,0,0:0:0:0:
108,168,256812,2,0,L|168:224,1,76,8|0,0:0|0:0,0:0:0:0:
240,292,257267,5,2,0:0:0:0:
216,168,257494,1,0,0:0:0:0:
216,168,257608,1,0,0:0:0:0:
216,168,257721,1,8,0:0:0:0:
64,280,257949,1,0,0:0:0:0:
288,220,258176,2,0,P|360:220|392:236,1,76,2|0,0:0|0:0,0:0:0:0:
248,224,258630,6,0,P|212:232|148:196,1,95,12|8,0:0|0:0,0:0:0:0:
172,108,260676,6,0,P|200:84|228:84,1,56.9999982604981
328,120,261358,1,0,0:0:0:0:
144,228,261812,6,0,L|64:280,1,85.4999973907472,8|0,0:0|0:0,0:0:0:0:
144,128,262267,2,8,L|64:180,1,85.4999973907472,8|0,0:0|0:0,0:0:0:0:
256,188,262721,5,2,0:0:0:0:
300,100,268181,5,2,0:0:0:0:
188,120,268395,2,0,L|176:108,3,17.812500679493
168,164,268609,2,0,L|136:156,5,23.7500009059906,2|0|0|0|0|0,0:0|0:0|0:0|0:0|0:0|0:0,0:0:0:0:
160,208,269038,2,0,L|96:220,3,47.5000018119813,2|0|0|6,0:0|0:0|0:0|0:3,0:0:0:0:
104,320,269681,1,0,0:0:0:0:
256,192,269895,5,2,0:3:0:0:
236,304,270109,1,0,0:0:0:0:
144,232,270324,2,0,P|108:200|96:148,1,95,8|0,0:0|0:0,0:0:0:0:
240,88,270752,1,2,0:0:0:0:
240,88,270859,2,0,P|312:96|352:136,1,95
348,124,271181,1,10,0:0:0:0:
256,192,271395,1,0,0:0:0:0:
240,88,271609,5,2,0:0:0:0:
356,224,271824,1,0,0:0:0:0:
160,256,272038,2,8,L|60:276,1,95
146,114,272467,1,2,0:0:0:0:
146,114,272574,2,0,L|234:174,1,95
246,182,272895,2,0,L|238:70,1,95,10|0,0:0|0:0,0:0:0:0:
239,87,273324,5,2,0:0:0:0:
376,176,273538,1,0,0:0:0:0:
248,272,273752,2,0,P|168:292|116:272,1,95,8|0,0:0|0:0,0:0:0:0:
192,176,274181,1,2,0:0:0:0:
192,176,274288,2,0,P|272:156|324:176,1,95
304,168,274609,1,10,0:0:0:0:
184,80,274824,1,0,0:0:0:0:
256,304,275038,5,2,0:0:0:0:
304,168,275252,2,0,L|336:64,1,95,0|8,0:0|0:0,0:0:0:0:
192,176,275681,1,0,0:0:0:0:
168,200,275788,1,0,0:0:0:0:
140,216,275895,1,2,0:0:0:0:
108,228,276002,2,0,L|184:288,1,95
209,264,276324,2,0,P|216:200|188:160,1,95,10|0,0:0|0:0,0:0:0:0:
100,232,276752,5,2,0:3:0:0:
152,100,276967,1,0,0:0:0:0:
96,244,277181,2,8,P|108:308|140:336,1,95
112,160,277609,1,2,0:0:0:0:
112,160,277717,2,0,P|115:112|101:67,1,95
60,48,278038,2,0,L|164:52,1,95,10|0,0:0|0:0,0:0:0:0:
280,52,278467,5,2,0:0:0:0:
192,176,278681,1,0,0:0:0:0:
392,248,278895,1,8,0:0:0:0:
368,60,279109,1,0,0:0:0:0:
368,60,279217,1,0,0:0:0:0:
368,60,279324,2,0,L|328:116,1,52.2500015945435,2|0,0:0|0:0,0:0:0:0:
264,208,279645,1,0,0:0:0:0:
268,212,279752,2,0,P|276:292|312:328,1,104.500003189087,10|0,0:0|0:0,0:0:0:0:
376,216,280181,6,0,P|328:116|256:100,1,170.999994781494,6|0,0:0|0:0,0:0:0:0:
276,99,280609,2,0,P|236:23|180:-5,1,113.999996520996,8|0,0:0|0:0,0:0:0:0:
124,232,281038,2,0,P|140:284|200:320,1,113.999996520996,6|0,0:0|0:0,0:0:0:0:
208,312,281359,1,0,0:0:0:0:
224,308,281467,2,0,P|272:372|320:374,1,113.999996520996,8|0,0:0|0:0,0:0:0:0:
432,280,281895,5,2,0:0:0:0:
288,72,282109,1,0,0:0:0:0:
152,296,282324,1,8,0:0:0:0:
152,296,282431,1,0,0:0:0:0:
152,296,282538,2,0,L|212:260,1,56.9999982604981
384,168,282752,2,0,P|408:92|408:48,1,113.999996520996,0|4,0:0|0:3,0:0:0:0:
176,186,283181,2,0,P|152:262|152:306,1,113.999996520996,2|2,0:0|0:0,0:0:0:0:
312,100,283609,5,2,0:3:0:0:
184,88,283824,1,0,0:0:0:0:
312,220,284038,2,0,P|392:256|416:256,1,95,8|0,0:0|0:0,0:0:0:0:
275,145,284467,1,2,0:0:0:0:
275,145,284574,2,0,P|203:157|167:173,1,95
151,177,284895,2,0,L|191:69,1,95,10|0,0:0|0:0,0:0:0:0:
236,232,285324,5,2,0:0:0:0:
76,216,285538,1,0,0:0:0:0:
256,100,285752,1,8,0:0:0:0:
400,252,285967,1,0,0:0:0:0:
376,280,286074,1,0,0:0:0:0:
348,304,286181,1,2,0:0:0:0:
320,320,286288,2,0,P|248:328|208:320,1,95
196,316,286609,2,0,P|232:264|244:212,1,95,10|0,0:0|0:0,0:0:0:0:
144,232,287038,5,2,0:0:0:0:
352,216,287252,1,0,0:0:0:0:
240,72,287467,1,8,0:0:0:0:
144,232,287681,1,0,0:0:0:0:
256,80,287895,1,2,0:0:0:0:
256,80,288002,2,0,P|316:72|368:80,1,95
388,84,288324,2,0,P|352:144|308:168,1,95,10|0,0:0|0:0,0:0:0:0:
236,164,288752,5,2,0:0:0:0:
352,252,288967,2,0,P|376:304|364:344,1,95,0|8,0:0|0:0,0:0:0:0:
164,264,289395,1,0,0:0:0:0:
288,304,289609,1,2,0:0:0:0:
288,304,289717,2,0,P|360:312|400:300,1,95
416,288,290038,2,0,P|364:232|352:176,1,95,10|0,0:0|0:0,0:0:0:0:
448,196,290467,5,6,0:0:0:0:
248,152,290681,1,0,0:0:0:0:
444,208,290895,1,8,0:0:0:0:
384,28,291109,1,0,0:0:0:0:
316,216,291324,2,0,P|264:248|216:244,1,104.500003189087,2|0,0:0|0:0,0:0:0:0:
228,276,291645,1,0,0:0:0:0:
228,276,291752,2,0,L|120:300,1,104.500003189087,10|0,0:0|0:0,0:0:0:0:
92,168,292181,5,2,0:0:0:0:
328,284,292395,1,0,0:0:0:0:
304,32,292609,1,10,0:0:0:0:
304,32,292717,1,0,0:0:0:0:
304,32,292824,2,0,L|256:108,1,52.2500015945435
184,252,293038,2,0,P|196:328|240:356,1,104.500003189087,2|0,0:0|0:0,0:0:0:0:
333,124,293467,2,0,P|321:48|277:20,1,104.500003189087,2|0,0:0|0:0,0:0:0:0:
184,252,293895,6,0,P|268:316|328:308,1,123.499994346619,6|0,0:0|0:0,0:0:0:0:
308,312,294217,1,0,0:0:0:0:
308,312,294324,2,0,L|336:260,1,47.5,2|0,0:0|0:0,0:0:0:0:
392,168,294538,2,0,L|328:136,1,47.5
168,80,294752,6,0,B|144:112|144:112|176:180|152:192|152:192|96:176,1,132.999995941162,6|4,0:0|0:3,0:0:0:0:
108,192,295074,1,0,0:0:0:0:
108,192,295181,2,0,L|36:176,1,52.2500015945435,2|0,0:0|0:0,0:0:0:0:
4,260,295395,2,0,L|76:276,1,52.2500015945435
300,336,295609,6,0,P|258:357|211:360,1,95,2|0,0:0|0:0,0:0:0:0:
180,360,295931,2,0,L|136:332,1,47.5,0|2,0:0|0:0,0:0:0:0:
256,192,296252,1,0,0:0:0:0:
336,336,296467,1,2,0:0:0:0:
144,212,296681,1,0,0:0:0:0:
388,136,296895,2,0,P|392:180|364:212,1,66.4999979705811,8|0,0:0|0:0,0:0:0:0:
256,192,297324,5,6,0:0:0:0:
152,176,303800,5,2,0:0:0:0:
208,112,304011,1,2,0:0:0:0:
224,196,304222,1,2,0:0:0:0:
152,120,304433,1,2,0:0:0:0:
264,132,304645,1,2,0:0:0:0:
196,224,304856,1,2,0:0:0:0:
208,52,305067,1,2,0:0:0:0:
308,192,305278,1,2,0:0:0:0:
128,184,305490,5,10,0:0:0:0:
308,48,305701,1,10,0:0:0:0:
348,272,305912,1,10,0:0:0:0:
148,112,306123,1,10,0:0:0:0:
364,120,306335,6,0,P|392:152|408:184,1,56.9999982604981,0|4,0:0|0:3,0:0:0:0:
272,168,306757,2,0,P|244:136|228:104,1,56.9999982604981
244,20,307180,5,6,0:0:0:0:
344,216,307391,1,8,0:0:0:0:
120,160,307602,2,0,P|52:180|20:216,1,85.4999973907472,2|8,0:0|0:0,0:0:0:0:
20,224,307919,1,8,0:0:0:0:
12,256,308025,1,10,0:0:0:0:
20,288,308130,1,8,0:0:0:0:
44,312,308236,2,0,L|108:312,1,42.7499986953736,8|0,0:0|0:0,0:0:0:0:
232,312,308447,2,0,P|220:252|240:200,1,85.4999973907472,2|8,0:0|0:0,0:0:0:0:
320,100,308870,6,0,L|328:200,1,85.4999973907472,2|0,0:0|0:0,0:0:0:0:
436,92,309292,2,0,P|408:32|368:4,1,85.4999973907472,2|8,0:0|0:0,0:0:0:0:
352,16,309609,1,8,0:0:0:0:
316,16,309715,1,10,0:0:0:0:
280,16,309821,1,8,0:0:0:0:
248,16,309926,2,0,L|220:88,1,42.7499986953736,8|0,0:0|0:0,0:0:0:0:
184,188,310138,1,2,0:0:0:0:
352,140,310349,1,0,0:0:0:0:
360,148,310454,1,0,0:0:0:0:
368,156,310560,6,0,L|332:252,1,85.4999973907472,6|0,0:0|0:0,0:0:0:0:
232,344,310983,1,10,0:0:0:0:
220,344,311088,1,8,0:0:0:0:
212,344,311194,2,8,L|176:312,3,35.625001358986,8|8|10|8,0:0|0:0|0:0|0:0,0:0:0:0:
128,264,311616,2,0,L|132:168,1,71.2500027179719,0|2,0:0|0:0,0:0:0:0:
248,76,312039,1,0,0:0:0:0:
248,76,312250,6,0,P|208:28|160:12,1,85.4999973907472,6|8,0:0|0:0,0:0:0:0:
148,20,312567,1,0,0:0:0:0:
140,20,312673,1,2,0:0:0:0:
32,136,312884,2,0,L|84:160,1,42.7499986953736,8|0,0:0|0:0,0:0:0:0:
184,204,313095,5,6,0:0:0:0:
160,108,313307,1,4,0:3:0:0:
112,292,313518,1,2,0:0:0:0:
328,100,313729,1,0,0:0:0:0:
336,100,313835,1,0,0:0:0:0:
344,100,313940,6,0,L|392:200,1,104.500003189087,6|0,0:0|0:0,0:0:0:0:
468,308,314363,1,10,0:0:0:0:
472,128,314574,1,8,0:0:0:0:
464,88,314680,1,8,0:0:0:0:
436,56,314785,1,10,0:0:0:0:
400,32,314891,1,8,0:0:0:0:
360,24,314997,1,8,0:0:0:0:
204,40,315208,2,0,P|192:116|128:180,1,156.750004783631,2|0,0:0|0:0,0:0:0:0:
104,196,315630,5,2,0:0:0:0:
80,60,315842,1,0,0:0:0:0:
276,176,316053,2,0,L|244:296,1,104.500003189087,2|8,0:0|0:0,0:0:0:0:
240,312,316370,1,8,0:0:0:0:
240,312,316476,2,8,L|292:344,1,52.2500015945435,10|8,0:0|0:0,0:0:0:0:
464,352,316687,2,8,L|419:324,1,52.2500015945435
341,240,316898,2,0,L|368:140,1,104.500003189087,2|0,0:0|0:0,0:0:0:0:
396,116,317215,1,0,0:0:0:0:
396,116,317321,6,0,P|444:120|480:152,1,85.4999973907472,6|0,0:0|0:0,0:0:0:0:
432,260,317743,1,10,0:0:0:0:
428,268,317849,1,8,0:0:0:0:
424,276,317954,1,8,0:0:0:0:
420,284,318060,1,8,0:0:0:0:
416,292,318166,2,0,L|360:324,1,35.625001358986,2|0,0:0|0:0,0:0:0:0:
240,312,318377,2,8,L|270:294,1,35.625001358986
344,208,318588,1,2,0:0:0:0:
148,172,318800,1,0,0:0:0:0:
148,164,318905,1,0,0:0:0:0:
148,156,319011,6,0,L|148:56,1,95,6|0,0:0|0:0,0:0:0:0:
148,264,319433,1,10,0:0:0:0:
284,144,319856,6,0,L|284:44,1,95,6|4,0:0|0:3,0:0:0:0:
284,296,320278,1,10,0:0:0:0:
448,200,320701,5,2,0:0:0:0:
452,208,320807,1,0,0:0:0:0:
456,216,320912,1,0,0:0:0:0:
456,224,321018,1,0,0:0:0:0:
456,232,321123,1,0,0:0:0:0:
452,240,321229,1,0,0:0:0:0:
448,248,321335,1,0,0:0:0:0:
440,252,321440,1,0,0:0:0:0:
432,256,321546,6,0,L|384:256,1,28.4999991302491
264,252,321757,2,0,L|304:220,1,28.4999991302491
384,148,321969,2,0,L|360:120,1,28.4999991302491,4|0,0:3|0:0,0:0:0:0:
276,12,322180,2,0,L|272:48,1,28.4999991302491
256,192,322602,5,0,0:0:0:0:
188,192,328943,5,10,0:0:0:0:
224,192,329356,1,10,0:0:0:0:
264,192,329770,5,10,0:0:0:0:
284,192,329977,1,10,0:0:0:0:
304,192,330184,1,10,0:0:0:0:
320,192,330391,1,10,0:0:0:0:
356,68,330598,6,0,P|300:48|252:60,1,95,6|2,0:0|0:0,0:0:0:0:
320,192,331012,2,0,P|376:212|424:200,1,95,8|2,0:0|0:0,0:0:0:0:
188,112,331425,1,0,0:0:0:0:
376,132,331632,1,2,0:0:0:0:
268,268,331839,2,0,L|200:348,1,95,8|2,0:0|0:0,0:0:0:0:
116,196,332253,5,0,0:0:0:0:
196,356,332460,1,2,0:0:0:0:
100,204,332667,1,8,0:0:0:0:
280,200,332874,1,2,0:0:0:0:
100,320,333081,1,2,0:0:0:0:
192,92,333288,1,2,0:0:0:0:
276,324,333494,2,0,P|324:348|376:348,1,95,8|2,0:0|0:0,0:0:0:0:
348,156,333908,5,2,0:0:0:0:
348,156,334322,2,0,P|324:80|276:60,1,95,8|2,0:0|0:0,0:0:0:0:
88,40,334736,1,2,0:0:0:0:
240,32,334943,1,0,0:0:0:0:
36,128,335150,2,0,L|120:176,1,95,8|0,0:0|0:0,0:0:0:0:
168,64,335563,5,2,0:0:0:0:
100,256,335770,1,2,0:0:0:0:
256,176,335977,1,8,0:0:0:0:
0,208,336184,1,2,0:0:0:0:
316,224,336391,1,2,0:0:0:0:
336,236,336494,1,2,0:0:0:0:
356,248,336598,1,2,0:0:0:0:
264,48,336805,1,8,0:0:0:0:
196,248,337012,1,2,0:0:0:0:
188,268,337115,1,2,0:0:0:0:
176,288,337219,6,0,P|132:328|76:336,1,95,6|2,0:0|0:0,0:0:0:0:
116,196,337632,2,0,P|160:156|216:148,1,95,10|2,0:0|0:0,0:0:0:0:
372,152,338046,1,2,0:0:0:0:
188,236,338253,1,2,0:0:0:0:
200,32,338460,2,0,L|256:120,1,95,10|2,0:0|0:0,0:0:0:0:
280,296,338874,6,0,P|176:336|96:296,1,190,2|8,0:0|0:0,0:0:0:0:
188,128,339494,1,2,0:0:0:0:
288,304,339701,1,2,0:0:0:0:
288,304,339805,1,2,0:0:0:0:
288,304,339908,1,2,0:0:0:0:
96,192,340115,2,0,P|72:128|88:76,1,95,8|2,0:0|0:0,0:0:0:0:
324,152,340529,6,0,L|424:176,2,95,2|2|8,0:0|0:0|0:0,0:0:0:0:
188,128,341150,1,2,0:0:0:0:
296,36,341356,1,2,0:0:0:0:
296,36,341460,1,2,0:0:0:0:
296,36,341563,1,2,0:0:0:0:
236,240,341770,1,8,0:0:0:0:
128,136,341977,1,2,0:0:0:0:
336,148,342184,6,0,P|396:192|412:228,1,95,2|2,0:0|0:0,0:0:0:0:
236,240,342598,2,0,P|176:196|160:160,1,95,8|2,0:0|0:0,0:0:0:0:
320,40,343012,1,2,0:0:0:0:
368,52,343115,1,2,0:0:0:0:
404,80,343219,1,2,0:0:0:0:
432,116,343322,1,2,0:0:0:0:
444,164,343425,1,10,0:0:0:0:
440,212,343529,1,10,0:0:0:0:
428,260,343632,1,10,0:0:0:0:
396,296,343736,1,10,0:0:0:0:
348,308,343839,6,0,B|280:304|248:264|248:264|292:240|296:212|296:212,1,170.999994781494,6|0,0:0|0:0,0:0:0:0:
180,160,344667,2,0,L|128:116,2,56.9999982604981,4|0|8,0:0|0:0|0:0,0:0:0:0:
180,160,345288,1,2,0:0:0:0:
104,272,345494,5,10,0:0:0:0:
136,304,345598,1,10,0:0:0:0:
172,328,345701,1,10,0:0:0:0:
216,336,345805,1,10,0:0:0:0:
260,332,345908,1,10,0:0:0:0:
412,132,346115,5,10,0:0:0:0:
380,164,346219,1,10,0:0:0:0:
344,188,346322,1,10,0:0:0:0:
300,196,346425,1,10,0:0:0:0:
256,192,346529,1,10,0:0:0:0:
192,136,346736,6,0,P|248:108|272:112,1,71.25,4|0,0:3|0:0,0:0:0:0:
256,192,347150,5,6,0:0:0:0:
144,116,354807,5,10,0:0:0:0:
364,172,355007,1,10,0:0:0:0:
148,248,355207,1,10,0:0:0:0:
368,300,355407,1,10,0:0:0:0:
256,192,355607,5,14,0:0:0:0:
140,52,356407,6,0,P|92:124|124:228,1,190,6|8,0:0|0:0,0:0:0:0:
260,160,357007,1,8,0:0:0:0:
260,160,357107,1,8,0:0:0:0:
260,160,357207,2,0,L|132:128,1,95,2|0,0:0|0:0,0:0:0:0:
188,272,357607,1,8,0:0:0:0:
332,192,357807,1,0,0:0:0:0:
140,52,358007,5,2,0:0:0:0:
214,69,358207,2,0,P|190:109|147:127,1,95,0|8,0:0|0:0,0:0:0:0:
332,88,358607,1,8,0:0:0:0:
332,88,358707,1,8,0:0:0:0:
332,88,358807,2,0,L|440:80,1,95,2|0,0:0|0:0,0:0:0:0:
256,184,359207,2,0,L|148:192,1,95,8|0,0:0|0:0,0:0:0:0:
392,284,359607,5,2,0:0:0:0:
404,284,360007,1,8,0:0:0:0:
280,104,360207,1,0,0:0:0:0:
184,284,360407,1,2,0:0:0:0:
392,192,360607,1,0,0:0:0:0:
156,144,360807,1,8,0:0:0:0:
288,268,361007,1,0,0:0:0:0:
288,268,361107,1,0,0:0:0:0:
288,268,361207,5,2,0:0:0:0:
204,56,361407,1,0,0:0:0:0:
204,56,361507,1,0,0:0:0:0:
204,56,361607,1,10,0:0:0:0:
408,212,361807,1,8,0:0:0:0:
432,252,361907,1,8,0:0:0:0:
440,300,362007,2,0,P|416:360|376:384,1,95,2|0,0:0|0:0,0:0:0:0:
312,196,362407,2,0,P|340:140|380:120,1,95,8|0,0:0|0:0,0:0:0:0:
336,368,362807,6,0,B|168:360|168:360|192:320,1,190,6|8,0:0|0:0,0:0:0:0:
308,200,363407,1,8,0:0:0:0:
308,200,363507,1,8,0:0:0:0:
308,200,363607,2,0,P|364:136|368:104,2,95,2|0|8,0:0|0:0|0:0,0:0:0:0:
152,212,364207,1,0,0:0:0:0:
120,24,364407,5,2,0:0:0:0:
288,84,364607,1,0,0:0:0:0:
288,88,364707,1,0,0:0:0:0:
288,92,364807,2,0,L|280:200,1,95,8|0,0:0|0:0,0:0:0:0:
224,280,365207,1,2,0:0:0:0:
356,64,365407,1,0,0:0:0:0:
500,280,365607,1,8,0:0:0:0:
244,192,365807,1,8,0:0:0:0:
244,192,365907,1,8,0:0:0:0:
244,192,366007,5,2,0:0:0:0:
428,116,366207,1,0,0:0:0:0:
432,116,366307,1,0,0:0:0:0:
436,116,366407,1,8,0:0:0:0:
300,332,366607,1,0,0:0:0:0:
300,336,366707,1,0,0:0:0:0:
300,340,366807,1,2,0:0:0:0:
144,200,367007,1,8,0:0:0:0:
144,200,367107,1,8,0:0:0:0:
144,200,367207,1,8,0:0:0:0:
384,104,367407,6,0,B|444:176|312:208|392:280,1,190,6|0,0:0|0:0,0:0:0:0:
212,124,368007,1,8,0:0:0:0:
456,228,368207,1,8,0:0:0:0:
228,360,368407,5,8,0:0:0:0:
104,320,368607,1,2,0:0:0:0:
104,200,368807,1,10,0:0:0:0:
12,128,369007,1,2,0:0:0:0:
196,208,369207,6,0,B|344:248|364:200|364:200|336:160,1,209.000006378174,6|8,0:0|0:0,0:0:0:0:
252,84,369807,1,0,0:0:0:0:
428,148,370007,2,0,P|448:204|428:248,1,104.500003189087,2|0,0:0|0:0,0:0:0:0:
428,276,370307,1,0,0:0:0:0:
428,276,370407,1,8,0:0:0:0:
236,184,370607,1,0,0:0:0:0:
292,256,370807,5,2,0:0:0:0:
292,344,371007,2,0,L|176:288,1,104.500003189087,0|8,0:0|0:0,0:0:0:0:
164,284,371307,1,0,0:0:0:0:
160,284,371407,1,0,0:0:0:0:
168,144,371607,1,2,0:0:0:0:
40,232,371807,1,0,0:0:0:0:
332,180,372007,1,8,0:0:0:0:
116,204,372207,1,0,0:0:0:0:
104,192,372307,1,0,0:0:0:0:
92,180,372407,5,2,0:0:0:0:
96,160,372807,1,8,0:0:0:0:
264,140,373007,1,0,0:0:0:0:
104,272,373207,1,2,0:0:0:0:
184,40,373407,1,0,0:0:0:0:
256,288,373607,1,8,0:0:0:0:
104,276,373807,6,0,B|28:264|8:220|8:220|64:204|92:148,1,209.000006378174,2|0,0:0|0:0,0:0:0:0:
176,4,374407,1,8,0:0:0:0:
160,152,374607,1,2,0:0:0:0:
356,72,374807,5,8,0:0:0:0:
160,160,375007,1,2,0:0:0:0:
372,200,375207,5,8,0:0:0:0:
184,96,375407,1,8,0:0:0:0:
152,84,375507,1,8,0:0:0:0:
116,80,375607,6,0,B|64:56|8:120|0:160|-4:196|8:232,1,209.000006378174,6|8,0:0|0:0,0:0:0:0:
240,316,376207,1,0,0:0:0:0:
44,308,376407,2,0,B|116:256|64:212|56:184|80:168|92:144|104:148|104:148|148:168,1,209.000006378174,2|8,0:0|0:0,0:0:0:0:
280,132,377007,1,0,0:0:0:0:
100,47,377207,5,2,0:0:0:0:
216,216,377407,1,0,0:0:0:0:
216,228,377507,1,0,0:0:0:0:
216,240,377607,2,0,L|216:344,1,104.500003189087,8|0,0:0|0:0,0:0:0:0:
348,304,378007,1,2,0:0:0:0:
208,128,378207,1,0,0:0:0:0:
392,200,378407,1,8,0:0:0:0:
156,296,378607,1,8,0:0:0:0:
156,296,378707,1,8,0:0:0:0:
156,296,378807,5,2,0:0:0:0:
264,176,379007,2,0,P|356:112|456:96,1,209.000006378174,8|0,0:0|0:0,0:0:0:0:
400,276,379607,1,2,0:0:0:0:
472,104,379807,1,0,0:0:0:0:
420,284,380007,1,8,0:0:0:0:
264,176,380207,6,0,P|192:160|104:168,1,152,6|8,0:0|0:0,0:0:0:0:
200,332,380807,1,10,0:0:0:0:
396,88,381007,1,10,0:0:0:0:
88,80,381207,1,10,0:0:0:0:
256,192,382007,5,6,0:0:0:0:
120,120,391039,5,10,0:0:0:0:
368,120,391234,1,8,0:0:0:0:
380,120,391624,5,8,0:0:0:0:
120,120,391819,1,8,0:0:0:0:
112,120,392208,5,8,0:0:0:0:
256,300,392598,5,10,0:0:0:0:
256,68,392987,5,8,0:0:0:0:
256,308,393182,1,8,0:0:0:0:
164,60,394156,6,0,P|80:108|72:156,1,142.5,6|0,0:0|0:0,0:0:0:0:
76,180,394546,1,8,0:0:0:0:
232,184,394741,1,0,0:0:0:0:
144,284,394935,1,2,0:0:0:0:
160,144,395130,1,8,0:0:0:0:
160,144,395228,1,8,0:0:0:0:
160,144,395325,1,8,0:0:0:0:
268,304,395520,1,0,0:0:0:0:
144,160,395715,5,2,0:0:0:0:
336,120,395910,1,0,0:0:0:0:
160,288,396104,1,8,0:0:0:0:
208,36,396299,1,0,0:0:0:0:
396,184,396494,2,0,L|476:248,1,95,2|0,0:0|0:0,0:0:0:0:
256,192,396884,2,0,P|196:196|140:216,1,95,8|0,0:0|0:0,0:0:0:0:
348,236,397273,6,0,P|360:176|292:92,1,142.5,2|0,0:0|0:0,0:0:0:0:
288,96,397663,1,8,0:0:0:0:
256,192,397858,1,0,0:0:0:0:
256,192,397955,1,0,0:0:0:0:
256,192,398052,2,0,L|372:164,1,95,2|0,0:0|0:0,0:0:0:0:
256,280,398442,2,0,L|140:308,1,95,8|0,0:0|0:0,0:0:0:0:
72,176,398832,5,2,0:0:0:0:
268,288,399026,1,0,0:0:0:0:
60,188,399221,1,8,0:0:0:0:
252,72,399416,1,0,0:0:0:0:
192,340,399611,1,2,0:0:0:0:
208,168,399806,1,2,0:0:0:0:
208,168,399903,1,2,0:0:0:0:
208,168,400000,1,0,0:0:0:0:
92,300,400195,1,2,0:0:0:0:
252,72,400390,6,0,P|316:32|400:52,1,142.5,6|0,0:0|0:0,0:0:0:0:
408,60,400780,1,8,0:0:0:0:
444,184,400974,1,0,0:0:0:0:
264,228,401169,2,0,P|200:208|168:160,1,95,2|0,0:0|0:0,0:0:0:0:
340,136,401559,1,8,0:0:0:0:
340,304,401754,1,0,0:0:0:0:
264,216,401948,5,2,0:0:0:0:
440,216,402143,1,0,0:0:0:0:
352,360,402338,1,8,0:0:0:0:
248,136,402533,1,0,0:0:0:0:
492,172,402728,2,0,P|508:220|480:272,1,95,2|0,0:0|0:0,0:0:0:0:
216,248,403117,1,8,0:0:0:0:
440,216,403312,1,2,0:0:0:0:
240,344,403507,6,0,P|164:340|120:308,1,95,8|2,0:0|0:0,0:0:0:0:
216,248,403897,2,0,P|263:251|307:236,1,95,8|2,0:0|0:0,0:0:0:0:
236,156,404286,2,0,P|160:152|116:120,1,95,8|2,0:0|0:0,0:0:0:0:
212,60,404676,2,0,P|259:63|303:48,1,95,8|2,0:0|0:0,0:0:0:0:
360,280,405065,5,14,0:0:0:0:
200,64,405260,1,0,0:0:0:0:
168,312,405455,5,2,0:0:0:0:
332,68,405650,1,8,0:0:0:0:
84,160,405845,5,2,0:0:0:0:
252,192,406039,1,2,0:0:0:0:
296,200,406137,1,2,0:0:0:0:
340,200,406234,1,8,0:0:0:0:
380,188,406332,1,8,0:0:0:0:
416,168,406429,1,8,0:0:0:0:
444,136,406526,1,8,0:0:0:0:
468,100,406624,6,0,L|472:260,1,142.5,6|0,0:0|0:0,0:0:0:0:
472,276,407013,1,8,0:0:0:0:
288,280,407208,1,0,0:0:0:0:
360,120,407403,2,0,P|316:84|260:88,1,95,2|0,0:0|0:0,0:0:0:0:
180,140,407793,2,0,P|224:176|280:172,1,95,8|0,0:0|0:0,0:0:0:0:
364,128,408182,5,2,0:0:0:0:
176,248,408377,1,0,0:0:0:0:
288,60,408572,1,8,0:0:0:0:
104,188,408767,1,0,0:0:0:0:
328,208,408961,2,0,L|432:216,1,95,2|0,0:0|0:0,0:0:0:0:
448,228,409254,1,0,0:0:0:0:
448,228,409351,1,8,0:0:0:0:
464,76,409546,1,0,0:0:0:0:
288,60,409741,6,0,B|224:32|176:64|176:64|208:100,1,142.5,2|0,0:0|0:0,0:0:0:0:
244,112,410130,1,8,0:0:0:0:
328,208,410325,1,0,0:0:0:0:
372,124,410520,2,0,P|416:156|424:208,1,95,2|0,0:0|0:0,0:0:0:0:
408,296,410910,1,8,0:0:0:0:
248,188,411104,1,0,0:0:0:0:
248,320,411299,5,2,0:0:0:0:
248,96,411494,1,0,0:0:0:0:
372,200,411689,1,8,0:0:0:0:
128,200,411884,1,0,0:0:0:0:
368,104,412078,2,0,L|464:48,1,95,2|0,0:0|0:0,0:0:0:0:
504,176,412468,1,8,0:0:0:0:
300,40,412663,1,0,0:0:0:0:
300,40,412760,1,0,0:0:0:0:
300,40,412858,6,0,P|216:12|152:32,1,142.5,6|0,0:0|0:0,0:0:0:0:
136,40,413247,1,8,0:0:0:0:
236,180,413442,1,0,0:0:0:0:
112,68,413637,2,0,P|76:104|68:156,1,95,2|0,0:0|0:0,0:0:0:0:
88,280,414026,1,8,0:0:0:0:
152,144,414221,1,0,0:0:0:0:
8,164,414416,5,2,0:0:0:0:
228,256,414611,1,0,0:0:0:0:
112,52,414806,1,8,0:0:0:0:
72,200,415000,1,0,0:0:0:0:
232,48,415195,1,2,0:0:0:0:
0,92,415390,1,0,0:0:0:0:
96,284,415585,2,0,L|208:280,1,95,8|0,0:0|0:0,0:0:0:0:
386,221,415974,6,0,P|387:184|368:152,1,76,8|2,0:0|0:0,0:0:0:0:
109,146,416364,2,0,P|108:183|128:216,1,76,8|2,0:0|0:0,0:0:0:0:
422,230,416754,6,0,P|430:179|404:136,1,104.500003189087,8|2,0:0|0:0,0:0:0:0:
86,122,417143,2,0,P|77:172|104:216,1,104.500003189087,10|2,0:0|0:0,0:0:0:0:
336,52,417533,5,6,0:0:0:0:
160,324,417728,1,0,0:0:0:0:
168,56,417923,5,6,0:0:0:0:
340,332,418117,1,0,0:0:0:0:
256,28,418312,5,8,0:0:0:0:
260,40,418702,1,8,0:0:0:0:
260,40,418897,1,8,0:0:0:0:
136,216,419091,6,0,L|136:328,1,104.500003189087,6|0,0:0|0:0,0:0:0:0:
224,164,419481,1,8,0:0:0:0:
252,164,419578,1,0,0:0:0:0:
280,164,419676,1,8,0:0:0:0:
308,164,419773,1,0,0:0:0:0:
336,164,419871,6,0,L|336:272,1,104.500003189087,2|0,0:0|0:0,0:0:0:0:
136,72,420260,1,8,0:0:0:0:
120,92,420358,1,0,0:0:0:0:
108,112,420455,1,8,0:0:0:0:
100,136,420552,1,0,0:0:0:0:
96,164,420650,6,0,L|200:164,1,104.500003189087,2|0,0:0|0:0,0:0:0:0:
360,292,421039,1,8,0:0:0:0:
380,276,421137,1,0,0:0:0:0:
396,256,421234,1,8,0:0:0:0:
408,232,421332,1,0,0:0:0:0:
416,208,421429,1,2,0:0:0:0:
252,148,421624,2,8,L|280:100,2,34.8333343963623
236,168,421819,2,0,P|184:200|128:204,1,104.500003189087,8|0,0:0|0:0,0:0:0:0:
176,60,422208,6,0,P|228:28|284:24,1,104.500003189087
240,224,422598,1,8,0:0:0:0:
252,200,422695,1,0,0:0:0:0:
260,176,422793,1,8,0:0:0:0:
260,148,422890,1,0,0:0:0:0:
256,124,422987,6,0,P|312:156|364:148,1,104.500003189087,2|0,0:0|0:0,0:0:0:0:
408,16,423377,1,8,0:0:0:0:
380,16,423474,1,0,0:0:0:0:
356,24,423572,1,8,0:0:0:0:
336,40,423669,1,0,0:0:0:0:
324,68,423767,6,8,L|172:12,1,123.499994346619
340,176,424156,1,8,0:0:0:0:
120,92,424351,1,8,0:0:0:0:
288,280,424546,5,2,0:0:0:0:
246,296,424643,1,0,0:0:0:0:
201,294,424741,1,2,0:0:0:0:
163,273,424838,1,0,0:0:0:0:
140,237,424935,1,8,0:0:0:0:
216,136,425130,1,10,0:0:0:0:
216,136,425228,1,8,0:0:0:0:
216,136,425325,6,0,L|280:36,1,104.500003189087,6|0,0:0|0:0,0:0:0:0:
308,224,425715,1,8,0:0:0:0:
288,240,425812,1,0,0:0:0:0:
264,248,425910,1,8,0:0:0:0:
240,248,426007,1,0,0:0:0:0:
216,244,426104,6,0,L|216:352,1,104.500003189087,2|0,0:0|0:0,0:0:0:0:
360,104,426494,1,8,0:0:0:0:
384,112,426591,1,0,0:0:0:0:
408,120,426689,1,8,0:0:0:0:
432,128,426786,1,0,0:0:0:0:
456,136,426884,6,0,P|420:176|404:232,1,104.500003189087,2|0,0:0|0:0,0:0:0:0:
288,272,427273,1,8,0:0:0:0:
304,292,427371,1,0,0:0:0:0:
324,308,427468,1,8,0:0:0:0:
348,316,427565,1,0,0:0:0:0:
376,316,427663,1,2,0:0:0:0:
184,252,427858,2,8,L|164:284,2,34.8333343963623
200,232,428052,2,0,P|272:176|320:184,1,104.500003189087,8|0,0:0|0:0,0:0:0:0:
272,72,428442,5,2,0:0:0:0:
252,80,428539,1,2,0:0:0:0:
232,92,428637,1,2,0:0:0:0:
216,104,428734,1,2,0:0:0:0:
200,120,428832,5,8,0:0:0:0:
172,88,428929,1,8,0:0:0:0:
136,64,429026,1,8,0:0:0:0:
96,52,429124,1,8,0:0:0:0:
56,60,429221,2,0,L|88:168,1,104.500003189087,2|8,0:0|0:0,0:0:0:0:
136,336,429611,1,8,0:0:0:0:
136,336,429806,1,8,0:0:0:0:
384,220,430000,5,4,0:0:0:0:
88,40,430293,1,8,0:0:0:0:
240,348,430585,1,8,0:0:0:0:
268,36,430780,2,0,P|350:18|393:36,1,113.999996520996,8|2,0:0|0:0,0:0:0:0:
256,192,431559,5,4,0:0:0:0:
188,208,440789,5,2,0:0:0:0:
280,100,440976,1,0,0:0:0:0:
280,244,441164,1,2,0:0:0:0:
192,136,441351,1,2,0:0:0:0:
184,128,441726,1,2,0:0:0:0:
172,120,442101,1,8,0:0:0:0:
172,128,442195,1,8,0:0:0:0:
172,136,442289,5,8,0:0:0:0:
172,144,442382,1,8,0:0:0:0:
172,152,442476,1,8,0:0:0:0:
172,160,442570,1,8,0:0:0:0:
172,168,442664,1,8,0:0:0:0:
172,176,442757,1,8,0:0:0:0:
172,184,442851,1,8,0:0:0:0:
172,192,442945,1,8,0:0:0:0:
172,200,443039,5,8,0:0:0:0:
172,208,443132,1,8,0:0:0:0:
172,216,443226,1,8,0:0:0:0:
172,224,443320,1,8,0:0:0:0:
172,232,443414,1,8,0:0:0:0:
172,240,443507,1,8,0:0:0:0:
172,248,443601,1,8,0:0:0:0:
172,256,443695,1,8,0:0:0:0:
172,264,443789,6,0,L|280:264,1,95,6|0,0:0|0:0,0:0:0:0:
420,260,444164,1,8,0:0:0:0:
336,132,444351,1,0,0:0:0:0:
272,272,444539,2,0,P|236:324|176:352,1,95,2|0,0:0|0:0,0:0:0:0:
72,312,444914,1,8,0:0:0:0:
244,180,445101,1,0,0:0:0:0:
252,180,445195,1,0,0:0:0:0:
260,180,445289,6,0,L|364:220,2,95,2|0|8,0:0|0:0|0:0,0:0:0:0:
440,120,445851,1,0,0:0:0:0:
272,40,446039,2,0,P|216:56|172:96,1,95,2|0,0:0|0:0,0:0:0:0:
296,212,446414,1,8,0:0:0:0:
72,56,446789,5,2,0:0:0:0:
196,168,446976,1,0,0:0:0:0:
80,152,447164,1,8,0:0:0:0:
224,24,447351,1,0,0:0:0:0:
232,240,447539,1,2,0:0:0:0:
88,144,447726,2,0,P|40:168|16:216,1,95,0|8,0:0|0:0,0:0:0:0:
96,336,448101,1,0,0:0:0:0:
288,172,448289,6,0,P|288:224|291:267,1,95,2|0,0:0|0:0,0:0:0:0:
460,232,448664,1,8,0:0:0:0:
288,172,448851,1,0,0:0:0:0:
452,144,449039,1,2,0:0:0:0:
276,96,449226,2,0,L|172:68,1,95,0|8,0:0|0:0,0:0:0:0:
392,64,449601,6,0,B|424:112|400:176|358:201|358:201|376:248,1,190,6|0,0:0|0:0,0:0:0:0:
444,352,450164,1,8,0:0:0:0:
377,263,450351,1,0,0:0:0:0:
488,280,450539,1,2,0:0:0:0:
340,368,450726,2,0,P|284:372|236:360,1,95,0|8,0:0|0:0,0:0:0:0:
128,204,451101,6,0,P|252:232|300:320,1,190,6|0,0:0|0:0,0:0:0:0:
160,308,451664,1,8,0:0:0:0:
328,168,451851,1,0,0:0:0:0:
356,296,452039,1,2,0:0:0:0:
256,120,452226,1,0,0:0:0:0:
476,216,452414,1,8,0:0:0:0:
256,232,452601,1,0,0:0:0:0:
400,116,452789,5,2,0:0:0:0:
256,120,452976,1,0,0:0:0:0:
320,308,453164,2,0,P|252:328|188:312,1,114,8|0,0:0|0:0,0:0:0:0:
176,304,453539,1,2,0:0:0:0:
184,140,453726,1,0,0:0:0:0:
256,240,453914,1,8,0:0:0:0:
104,248,454101,1,0,0:0:0:0:
96,248,454195,1,0,0:0:0:0:
88,248,454289,6,0,L|36:176,2,76,2|0|8,0:0|0:0|0:0,0:0:0:0:
276,164,454851,1,0,0:0:0:0:
112,80,455039,1,0,0:0:0:0:
112,80,455226,1,0,0:0:0:0:
192,180,455414,1,8,0:0:0:0:
204,16,455601,1,2,0:0:0:0:
24,148,455789,5,6,0:0:0:0:
112,296,455976,1,0,0:0:0:0:
124,168,456164,1,8,0:0:0:0:
16,304,456351,1,0,0:0:0:0:
196,336,456539,1,2,0:0:0:0:
124,160,456726,2,0,P|120:96|136:48,1,95,0|8,0:0|0:0,0:0:0:0:
260,220,457101,1,0,0:0:0:0:
268,224,457195,1,0,0:0:0:0:
276,228,457289,6,0,L|376:232,1,95,2|0,0:0|0:0,0:0:0:0:
360,324,457664,1,8,0:0:0:0:
472,168,457851,1,0,0:0:0:0:
460,276,458039,1,2,0:0:0:0:
340,144,458226,2,0,L|356:28,1,95,0|8,0:0|0:0,0:0:0:0:
360,28,458789,5,2,0:0:0:0:
244,136,458976,1,0,0:0:0:0:
428,116,459164,1,8,0:0:0:0:
192,56,459351,1,0,0:0:0:0:
204,224,459539,1,2,0:0:0:0:
272,64,459726,2,0,L|392:128,1,95,0|8,0:0|0:0,0:0:0:0:
220,152,460101,6,0,L|40:52,1,190,2|0,0:0|0:0,0:0:0:0:
88,236,460664,1,8,0:0:0:0:
228,156,460851,1,0,0:0:0:0:
56,148,461039,1,2,0:0:0:0:
216,308,461226,1,0,0:0:0:0:
344,136,461414,1,8,0:0:0:0:
152,192,461601,1,0,0:0:0:0:
360,240,461789,6,0,L|360:336,1,85.4999973907472,6|0,0:0|0:0,0:0:0:0:
216,308,462164,1,8,0:0:0:0:
464,248,462351,1,0,0:0:0:0:
400,104,462539,1,2,0:0:0:0:
288,308,462726,1,0,0:0:0:0:
480,152,462914,1,8,0:0:0:0:
352,32,463101,6,0,P|269:13|190:42,1,170.999994781494,6|0,0:0|0:0,0:0:0:0:
396,164,463664,1,8,0:0:0:0:
196,208,463851,1,0,0:0:0:0:
396,252,464039,1,2,0:0:0:0:
196,308,464226,1,0,0:0:0:0:
396,344,464414,1,8,0:0:0:0:
280,180,464601,1,0,0:0:0:0:
108,292,464789,6,0,P|60:328|16:348,1,95,2|0,0:0|0:0,0:0:0:0:
112,164,465164,1,8,0:0:0:0:
228,280,465351,1,0,0:0:0:0:
152,84,465539,1,2,0:0:0:0:
108,292,465726,1,0,0:0:0:0:
268,120,465914,1,8,0:0:0:0:
36,192,466101,1,2,0:0:0:0:
192,36,466289,5,8,0:0:0:0:
228,28,466382,1,8,0:0:0:0:
268,24,466476,1,8,0:0:0:0:
308,28,466570,1,8,0:0:0:0:
344,40,466664,1,8,0:0:0:0:
372,60,466757,1,8,0:0:0:0:
388,88,466851,1,8,0:0:0:0:
384,124,466945,1,8,0:0:0:0:
364,148,467039,5,8,0:0:0:0:
332,148,467132,1,8,0:0:0:0:
300,132,467226,1,8,0:0:0:0:
268,124,467320,1,8,0:0:0:0:
232,128,467414,1,8,0:0:0:0:
204,144,467507,1,8,0:0:0:0:
196,176,467601,1,8,0:0:0:0:
224,200,467695,1,8,0:0:0:0:
256,192,467789,5,4,0:0:0:0:
256,104,474628,5,4,0:0:0:0:
256,120,474981,1,4,0:0:0:0:
256,140,475334,1,4,0:0:0:0:
256,252,475511,1,8,0:0:0:0:
256,252,475599,1,8,0:0:0:0:
256,252,475687,1,8,0:0:0:0:
256,132,475864,1,8,0:0:0:0:
260,300,476040,6,0,B|216:292|256:352|308:340|308:340|320:268|284:260,1,190,0|8,0:0|0:0,0:0:0:0:
264,236,476834,1,8,0:0:0:0:
244,220,476922,1,8,0:0:0:0:
224,204,477011,1,8,0:0:0:0:
204,188,477099,1,8,0:0:0:0:
208,60,477275,1,8,0:0:0:0:
236,88,477364,1,8,0:0:0:0:
264,112,477452,6,0,P|328:160|436:216,1,190,6|8,0:0|0:0,0:0:0:0:
412,76,477981,1,0,0:0:0:0:
256,216,478158,1,2,0:0:0:0:
392,288,478334,1,2,0:0:0:0:
392,288,478422,1,0,0:0:0:0:
392,288,478511,1,8,0:0:0:0:
320,92,478687,1,0,0:0:0:0:
316,84,478775,1,0,0:0:0:0:
312,76,478864,6,0,L|212:92,1,95,2|0,0:0|0:0,0:0:0:0:
120,240,479217,2,0,L|136:340,2,95,8|0|2,0:0|0:0|0:0,0:0:0:0:
104,136,479746,1,2,0:0:0:0:
236,328,479922,1,8,0:0:0:0:
88,144,480099,1,0,0:0:0:0:
240,316,480275,6,0,B|357:354|399:342|399:342|351:297,1,190,2|8,0:0|0:0,0:0:0:0:
248,184,480805,2,0,P|220:136|216:88,1,95,0|2,0:0|0:0,0:0:0:0:
428,128,481158,1,2,0:0:0:0:
348,232,481334,1,8,0:0:0:0:
292,112,481511,1,0,0:0:0:0:
448,224,481687,6,0,B|452:276|428:320|372:340|348:332|348:332|380:364,1,190,2|8,0:0|0:0,0:0:0:0:
196,212,482217,1,0,0:0:0:0:
196,204,482305,1,0,0:0:0:0:
196,196,482393,1,2,0:0:0:0:
348,232,482569,1,0,0:0:0:0:
225,361,482746,1,8,0:0:0:0:
288,168,482922,1,2,0:0:0:0:
132,244,483099,6,0,B|48:176|48:176|72:176|96:160|108:128|112:104,1,190,6|8,0:0|0:0,0:0:0:0:
56,16,483628,2,0,P|28:72|48:120,1,95,0|2,0:0|0:0,0:0:0:0:
216,64,483981,1,2,0:0:0:0:
216,64,484069,1,0,0:0:0:0:
216,64,484158,1,8,0:0:0:0:
40,108,484334,1,0,0:0:0:0:
176,208,484511,5,2,0:0:0:0:
96,16,484687,1,0,0:0:0:0:
164,212,484864,1,8,0:0:0:0:
308,44,485040,2,0,P|360:64|384:96,1,95,0|2,0:0|0:0,0:0:0:0:
288,256,485393,1,2,0:0:0:0:
304,124,485569,1,8,0:0:0:0:
408,200,485746,1,0,0:0:0:0:
196,176,485922,6,0,L|120:168,2,71.2500027179719,2|0|8,0:0|0:0|0:0,0:0:0:0:
320,192,486452,2,0,P|360:240|360:280,1,71.2500027179719,0|2,0:0|0:0,0:0:0:0:
192,276,486805,1,8,0:0:0:0:
156,288,486893,1,8,0:0:0:0:
120,300,486981,2,0,L|128:188,1,95,8|0,0:0|0:0,0:0:0:0:
152,40,487334,6,0,P|216:48|244:108,1,113.999996520996,6|0,0:0|0:0,0:0:0:0:
256,76,487599,1,8,0:0:0:0:
272,64,487687,1,8,0:0:0:0:
126,205,487864,1,8,0:0:0:0:
116,216,488217,1,8,0:0:0:0:
272,64,488393,1,8,0:0:0:0:
332,268,488569,1,8,0:0:0:0:
216,160,488746,6,0,B|164:84|72:112|72:112|96:52,1,190,6|8,0:0|0:0,0:0:0:0:
164,20,489275,1,0,0:0:0:0:
116,216,489452,1,2,0:0:0:0:
232,172,489628,1,2,0:0:0:0:
8,168,489805,2,0,L|48:260,1,95,8|0,0:0|0:0,0:0:0:0:
152,76,490158,5,2,0:0:0:0:
84,320,490334,1,0,0:0:0:0:
328,240,490511,1,8,0:0:0:0:
76,120,490687,2,0,P|68:48|88:8,1,95,0|2,0:0|0:0,0:0:0:0:
212,200,491040,1,2,0:0:0:0:
152,76,491217,1,8,0:0:0:0:
200,204,491393,1,0,0:0:0:0:
372,144,491569,6,0,B|456:124|456:124|488:176|440:216,1,190,6|8,0:0|0:0,0:0:0:0:
276,312,492099,2,0,P|212:328|164:320,1,95,0|2,0:0|0:0,0:0:0:0:
88,216,492452,1,2,0:0:0:0:
324,180,492628,1,8,0:0:0:0:
324,172,492717,1,0,0:0:0:0:
324,164,492805,1,0,0:0:0:0:
183,325,492981,6,0,P|307:349|384:312,1,190,2|8,0:0|0:0,0:0:0:0:
264,116,493511,1,0,0:0:0:0:
256,116,493599,1,0,0:0:0:0:
248,116,493687,2,0,L|144:116,1,95,2|0,0:0|0:0,0:0:0:0:
120,288,494040,1,8,0:0:0:0:
268,232,494217,1,2,0:0:0:0:
112,56,494393,6,0,B|40:108|124:180|36:212,1,170.999994781494,6|8,0:0|0:0,0:0:0:0:
166,120,494922,2,0,P|210:144|236:181,1,85.4999973907472,0|2,0:0|0:0,0:0:0:0:
144,216,495275,2,0,P|152:248|168:256,1,42.7499986953736,2|0,0:0|0:0,0:0:0:0:
312,276,495452,1,8,0:0:0:0:
148,200,495628,1,0,0:0:0:0:
360,172,495805,5,2,0:0:0:0:
200,312,495981,1,0,0:0:0:0:
276,76,496158,1,8,0:0:0:0:
312,276,496334,2,0,L|140:196,1,170.999994781494,4|0,0:0|0:0,0:0:0:0:
248,152,496864,1,8,0:0:0:0:
136,292,497040,1,2,0:0:0:0:
200,80,497217,6,0,L|112:36,2,71.2500027179719,2|0|8,0:0|0:0|0:0,0:0:0:0:
388,152,497746,1,0,0:0:0:0:
264,216,497922,1,2,0:0:0:0:
360,68,498099,1,8,0:0:0:0:
360,68,498187,1,8,0:0:0:0:
360,68,498275,1,8,0:0:0:0:
460,208,498452,1,2,0:0:0:0:
212,56,498628,5,8,0:0:0:0:
344,340,498805,1,2,0:0:0:0:
360,68,498981,5,8,0:0:0:0:
184,336,499158,1,2,0:0:0:0:
404,152,499334,5,8,0:0:0:0:
196,188,499511,1,8,0:0:0:0:
160,192,499599,1,8,0:0:0:0:
124,188,499687,1,8,0:0:0:0:
92,172,499775,1,8,0:0:0:0:
68,140,499864,1,8,0:0:0:0:
56,104,499952,1,8,0:0:0:0:
52,68,500040,6,0,P|28:200|44:264,1,190,6|8,0:0|0:0,0:0:0:0:
191,281,500569,2,0,P|199:229|187:157,1,95,0|2,0:0|0:0,0:0:0:0:
176,68,500922,1,2,0:0:0:0:
80,208,501099,1,8,0:0:0:0:
280,200,501275,1,0,0:0:0:0:
109,123,501452,6,0,P|77:191|89:231,1,95,2|0,0:0|0:0,0:0:0:0:
332,264,501805,2,0,P|364:196|352:156,1,95,8|0,0:0|0:0,0:0:0:0:
124,264,502158,2,0,P|183:310|224:307,1,95,2|0,0:0|0:0,0:0:0:0:
311,78,502511,2,0,P|251:31|210:34,1,95,8|0,0:0|0:0,0:0:0:0:
256,192,502775,12,8,503922,0:0:0:0:
384,120,504275,6,0,B|340:128|308:100|316:72|308:44|276:20|220:32|204:56,2,185.249991519928,6|8|2,0:0|0:0|0:0,0:0:0:0:
104,196,504981,6,0,B|144:220|176:200|184:168|176:140|208:112|252:112,2,185.249991519928,6|8|2,0:0|0:0|0:0,0:0:0:0:
256,188,505687,5,4,0:0:0:0:
144,72,512694,5,2,0:0:0:0:
144,88,512780,1,2,0:0:0:0:
148,100,512866,1,2,0:0:0:0:
156,112,512952,1,2,0:0:0:0:
168,120,513037,1,2,0:0:0:0:
180,128,513123,1,2,0:0:0:0:
196,132,513209,1,2,0:0:0:0:
212,132,513294,1,2,0:0:0:0:
252,128,513380,5,2,0:0:0:0:
288,117,513466,1,2,0:0:0:0:
328,116,513552,1,2,0:0:0:0:
364,128,513637,1,2,0:0:0:0:
396,148,513723,1,2,0:0:0:0:
420,176,513809,1,2,0:0:0:0:
436,212,513894,1,2,0:0:0:0:
440,248,513980,1,2,0:0:0:0:
436,284,514066,6,0,P|388:332|324:324,1,123.499994346619,12|8,0:0|0:0,0:0:0:0:
240,256,514580,1,2,0:0:0:0:
320,80,514752,5,8,0:0:0:0:
160,176,514923,1,2,0:0:0:0:
160,176,515009,1,2,0:0:0:0:
160,176,515094,1,2,0:0:0:0:
396,164,515266,1,8,0:0:0:0:
176,60,515437,6,0,P|84:96|48:180,2,190,2|8|2,0:0|0:0|0:0,0:0:0:0:
272,136,516294,1,2,0:0:0:0:
160,176,516466,1,2,0:0:0:0:
188,60,516637,1,0,0:0:0:0:
252,252,516809,6,0,P|316:304|348:308,1,95,2|0,0:0|0:0,0:0:0:0:
340,184,517152,1,8,0:0:0:0:
376,368,517323,1,0,0:0:0:0:
136,304,517494,2,0,L|72:220,1,95,2|2,0:0|0:0,0:0:0:0:
68,200,517752,1,8,0:0:0:0:
68,196,517837,1,8,0:0:0:0:
80,48,518009,1,0,0:0:0:0:
224,160,518180,6,0,L|312:212,1,95,2|0,0:0|0:0,0:0:0:0:
232,80,518523,2,0,L|144:28,1,95,8|0,0:0|0:0,0:0:0:0:
305,208,518866,2,0,L|253:304,1,95,2|0,0:0|0:0,0:0:0:0:
264,316,519123,1,8,0:0:0:0:
264,316,519209,1,8,0:0:0:0:
140,144,519380,1,0,0:0:0:0:
172,328,519552,5,2,0:0:0:0:
232,80,519723,1,2,0:0:0:0:
232,80,519894,1,8,0:0:0:0:
136,264,520066,2,0,P|88:292|36:288,1,95,2|0,0:0|0:0,0:0:0:0:
120,116,520409,1,8,0:0:0:0:
132,88,520494,1,8,0:0:0:0:
144,56,520580,1,8,0:0:0:0:
152,40,520923,5,2,0:0:0:0:
280,160,521094,1,0,0:0:0:0:
180,216,521266,1,8,0:0:0:0:
256,52,521437,1,0,0:0:0:0:
104,172,521609,2,0,L|72:280,2,95
76,40,522123,1,0,0:0:0:0:
256,52,522294,6,0,P|308:64|340:108,1,95,2|0,0:0|0:0,0:0:0:0:
196,224,522637,1,8,0:0:0:0:
264,132,522809,1,0,0:0:0:0:
436,88,522980,2,0,L|448:208,1,95
436,204,523237,1,8,0:0:0:0:
432,208,523323,1,8,0:0:0:0:
280,240,523494,1,0,0:0:0:0:
112,68,523666,6,0,L|160:84,1,38,2|2,0:0|0:0,0:0:0:0:
300,122,523837,2,0,L|252:134,1,38,2|2,0:0|0:0,0:0:0:0:
92,176,524009,2,0,L|144:192,1,38,2|2,0:0|0:0,0:0:0:0:
316,229,524180,2,0,L|260:245,1,38,2|2,0:0|0:0,0:0:0:0:
108,332,524352,6,0,L|120:288,1,38,2|2,0:0|0:0,0:0:0:0:
208,216,524523,2,0,L|220:268,1,38,2|2,0:0|0:0,0:0:0:0:
344,336,524694,2,0,L|352:296,1,38,2|2,0:0|0:0,0:0:0:0:
432,200,524866,2,0,L|444:256,1,38,2|2,0:0|0:0,0:0:0:0:
472,352,525037,5,8,0:0:0:0:
332,112,525209,1,8,0:0:0:0:
332,112,525294,1,8,0:0:0:0:
332,112,525380,1,12,0:0:0:0:
220,216,525552,5,8,0:0:0:0:
180,220,525637,1,8,0:0:0:0:
136,228,525723,1,8,0:0:0:0:
172,252,525809,1,8,0:0:0:0:
208,272,525894,1,8,0:0:0:0:
248,288,525980,1,8,0:0:0:0:
288,304,526066,5,2,0:0:0:0:
248,320,526152,1,2,0:0:0:0:
208,332,526237,1,2,0:0:0:0:
168,344,526323,1,2,0:0:0:0:
128,356,526409,6,0,P|60:308|44:268,1,95
24,104,526752,2,0,P|92:152|108:192,1,95,8|0,0:0|0:0,0:0:0:0:
8,204,527094,1,2,0:0:0:0:
164,108,527266,2,0,L|260:56,1,95,2|0,0:0|0:0,0:0:0:0:
176,264,527609,1,0,0:0:0:0:
356,176,527780,6,0,L|440:120,1,95,2|0,0:0|0:0,0:0:0:0:
435,123,528123,1,8,0:0:0:0:
248,80,528294,2,0,L|252:136,1,47.5
268,252,528466,2,0,L|332:344,1,95
352,340,528723,1,8,0:0:0:0:
352,340,528809,1,8,0:0:0:0:
356,176,528980,1,2,0:0:0:0:
156,248,529152,6,0,P|84:256|40:248,1,95,2|0,0:0|0:0,0:0:0:0:
140,136,529494,2,0,P|212:128|256:136,1,95,8|0,0:0|0:0,0:0:0:0:
64,248,529837,2,0,P|48:184|64:144,1,95,2|0,0:0|0:0,0:0:0:0:
44,144,530094,1,8,0:0:0:0:
40,140,530180,1,8,0:0:0:0:
220,248,530352,1,0,0:0:0:0:
144,60,530523,5,2,0:0:0:0:
144,60,530694,1,2,0:0:0:0:
144,324,530866,1,8,0:0:0:0:
296,144,531037,2,0,P|348:120|400:120,1,95,2|0,0:0|0:0,0:0:0:0:
376,264,531380,2,0,L|316:284,1,47.5,8|8,0:0|0:0,0:0:0:0:
144,324,531552,1,8,0:0:0:0:
128,332,531894,5,2,0:0:0:0:
224,184,532066,1,0,0:0:0:0:
240,320,532237,1,8,0:0:0:0:
88,196,532409,1,0,0:0:0:0:
344,176,532580,2,0,L|288:272,1,95
256,116,532923,1,8,0:0:0:0:
376,280,533094,1,0,0:0:0:0:
348,94,533266,6,0,L|244:118,1,95,2|0,0:0|0:0,0:0:0:0:
180,272,533609,1,8,0:0:0:0:
148,112,533780,1,0,0:0:0:0:
244,196,533952,2,0,P|296:180|336:124,1,95
352,160,534209,1,8,0:0:0:0:
352,160,534294,1,8,0:0:0:0:
340,320,534466,1,0,0:0:0:0:
148,244,534637,5,2,0:0:0:0:
136,228,534723,1,2,0:0:0:0:
128,212,534809,1,2,0:0:0:0:
124,192,534894,1,2,0:0:0:0:
124,172,534980,1,2,0:0:0:0:
128,152,535066,1,2,0:0:0:0:
136,136,535152,1,2,0:0:0:0:
148,124,535237,1,2,0:0:0:0:
172,104,535323,5,2,0:0:0:0:
203,85,535409,1,2,0:0:0:0:
244,76,535494,1,2,0:0:0:0:
288,80,535580,1,2,0:0:0:0:
336,92,535666,1,2,0:0:0:0:
376,128,535752,1,2,0:0:0:0:
404,176,535837,1,2,0:0:0:0:
416,232,535923,1,2,0:0:0:0:
400,288,536009,6,0,B|368:324|328:332|328:332|304:296,1,113.999996520996,2|12,0:0|0:0,0:0:0:0:
248,164,536523,6,0,P|224:144|184:136,1,56.9999982604981,2|8,0:0|0:0,0:0:0:0:
76,288,536866,1,8,0:0:0:0:
76,288,536952,1,8,0:0:0:0:
76,288,537037,1,8,0:0:0:0:
312,308,537209,1,8,0:0:0:0:
108,124,537380,6,0,B|52:96|60:28|60:28|120:8|176:4,2,209.000006378174,0|8|2,0:0|0:0|0:0,0:0:0:0:
308,196,538237,1,2,0:0:0:0:
96,284,538409,1,8,0:0:0:0:
232,308,538580,1,0,0:0:0:0:
200,116,538752,6,0,P|228:56|268:32,1,104.500003189087,2|0,0:0|0:0,0:0:0:0:
300,120,539094,1,8,0:0:0:0:
142,28,539266,1,0,0:0:0:0:
32,164,539437,2,0,L|68:280,1,104.500003189087
92,284,539694,1,8,0:0:0:0:
92,284,539780,1,8,0:0:0:0:
300,260,539952,1,0,0:0:0:0:
200,116,540123,6,0,L|140:24,1,104.500003189087,2|0,0:0|0:0,0:0:0:0:
300,120,540466,2,0,L|240:28,1,104.500003189087,8|0,0:0|0:0,0:0:0:0:
200,200,540809,2,0,L|142:287,1,104.500003189087,2|0,0:0|0:0,0:0:0:0:
160,300,541066,1,8,0:0:0:0:
160,300,541152,1,8,0:0:0:0:
300,260,541323,1,0,0:0:0:0:
100,180,541494,5,2,0:0:0:0:
100,180,541666,1,2,0:0:0:0:
288,128,541837,5,8,0:0:0:0:
96,168,542009,1,2,0:0:0:0:
304,20,542180,5,8,0:0:0:0:
96,164,542352,1,8,0:0:0:0:
88,172,542437,1,8,0:0:0:0:
84,180,542523,1,8,0:0:0:0:
344,312,542866,5,2,0:0:0:0:
232,136,543037,1,0,0:0:0:0:
208,256,543209,1,8,0:0:0:0:
364,152,543380,1,0,0:0:0:0:
148,200,543552,1,2,0:0:0:0:
408,236,543723,1,2,0:0:0:0:
268,88,543894,1,8,0:0:0:0:
264,356,544066,1,0,0:0:0:0:
348,108,544237,6,0,P|408:80|444:84,1,104.500003189087,2|0,0:0|0:0,0:0:0:0:
444,84,544580,1,8,0:0:0:0:
356,240,544752,2,0,P|280:248|168:168,1,209.000006378174,2|0,0:0|0:0,0:0:0:0:
160,176,545180,1,8,0:0:0:0:
156,181,545266,1,8,0:0:0:0:
288,144,545437,1,8,0:0:0:0:
128,284,545609,5,2,0:0:0:0:
96,268,545694,1,2,0:0:0:0:
72,240,545780,1,2,0:0:0:0:
64,204,545866,1,2,0:0:0:0:
68,168,545952,6,0,L|72:128,1,38,2|2,0:0|0:0,0:0:0:0:
232,48,546123,2,0,L|228:100,1,38,2|2,0:0|0:0,0:0:0:0:
148,164,546294,2,0,L|156:92,1,38,2|2,0:0|0:0,0:0:0:0:
316,44,546466,2,0,L|312:96,1,38,2|2,0:0|0:0,0:0:0:0:
248,204,546637,5,2,0:0:0:0:
268,236,546723,1,2,0:0:0:0:
300,256,546809,1,2,0:0:0:0:
336,260,546894,1,2,0:0:0:0:
372,252,546980,5,2,0:0:0:0:
324,52,547152,1,12,0:0:0:0:
324,52,547237,1,8,0:0:0:0:
324,52,547323,1,8,0:0:0:0:
152,168,547494,1,2,0:0:0:0:
152,168,547580,1,2,0:0:0:0:
152,168,547666,6,0,L|200:208,1,38,8|8,0:0|0:0,0:0:0:0:
300,256,547837,2,0,L|256:284,1,38,2|2,0:0|0:0,0:0:0:0:
120,288,548009,1,8,0:0:0:0:
144,316,548094,1,8,0:0:0:0:
176,336,548180,1,8,0:0:0:0:
212,348,548266,1,8,0:0:0:0:
252,348,548352,6,0,P|320:344|376:320,2,104.500003189087,0|0|8,0:0|0:0|0:0,0:0:0:0:
264,184,548866,1,0,0:0:0:0:
376,320,549037,1,2,0:0:0:0:
208,256,549209,1,2,0:0:0:0:
420,232,549380,1,8,0:0:0:0:
252,348,549552,1,0,0:0:0:0:
356,148,549723,6,0,L|408:40,1,104.500003189087,2|0,0:0|0:0,0:0:0:0:
304,36,550066,1,8,0:0:0:0:
492,152,550237,1,0,0:0:0:0:
400,252,550409,2,0,L|472:336,1,104.500003189087
496,332,550666,1,8,0:0:0:0:
496,332,550752,1,8,0:0:0:0:
300,268,550923,1,0,0:0:0:0:
428,124,551094,6,0,P|440:68|416:28,1,104.500003189087,2|0,0:0|0:0,0:0:0:0:
288,36,551437,2,0,P|311:81|298:130,1,104.500003189087,8|0,0:0|0:0,0:0:0:0:
168,132,551780,2,0,P|181:82|157:37,1,104.500003189087,2|2,0:0|0:0,0:0:0:0:
64,96,552123,1,8,0:0:0:0:
64,96,552209,1,0,0:0:0:0:
64,96,552294,1,2,0:0:0:0:
184,252,552466,5,2,0:0:0:0:
400,148,552637,1,2,0:0:0:0:
168,132,552809,1,8,0:0:0:0:
280,244,552980,1,2,0:0:0:0:
236,36,553152,1,8,0:0:0:0:
184,252,553323,2,0,L|208:172,1,52.2500015945435,8|8,0:0|0:0,0:0:0:0:
232,56,553494,1,8,0:0:0:0:
236,36,553837,6,0,L|128:16,2,104.500003189087,2|0|8,0:0|0:0|0:0,0:0:0:0:
376,72,554352,1,0,0:0:0:0:
208,136,554523,2,0,P|220:200|260:228,1,104.500003189087,2|2,0:0|0:0,0:0:0:0:
404,176,554866,1,8,0:0:0:0:
272,44,555037,1,0,0:0:0:0:
332,256,555209,6,0,P|268:312|224:316,1,104.500003189087,2|0,0:0|0:0,0:0:0:0:
128,312,555552,1,8,0:0:0:0:
344,252,555723,2,0,B|452:208|452:208|412:184|408:128,1,209.000006378174,2|0,0:0|0:0,0:0:0:0:
388,120,556152,1,8,0:0:0:0:
388,120,556237,1,8,0:0:0:0:
500,132,556409,1,0,0:0:0:0:
280,160,556580,6,0,L|224:172,1,38,2|2,0:0|0:0,0:0:0:0:
88,120,556752,2,0,L|152:112,1,38,2|2,0:0|0:0,0:0:0:0:
268,64,556923,2,0,L|216:72,1,38,2|2,0:0|0:0,0:0:0:0:
100,224,557094,2,0,L|148:216,1,38,2|2,0:0|0:0,0:0:0:0:
291,270,557266,6,0,L|328:280,1,38,2|2,0:0|0:0,0:0:0:0:
352,152,557437,2,0,L|344:204,1,38,2|2,0:0|0:0,0:0:0:0:
475,240,557609,2,0,L|440:228,1,38,2|2,0:0|0:0,0:0:0:0:
400,332,557780,2,0,L|408:276,1,38,2|2,0:0|0:0,0:0:0:0:
410,155,557952,6,0,P|355:166|358:171,1,95,2|12,0:0|0:0,0:0:0:0:
348,248,558466,1,2,0:0:0:0:
464,80,558637,5,8,0:0:0:0:
212,216,558809,1,8,0:0:0:0:
212,216,558894,1,8,0:0:0:0:
212,216,558980,1,8,0:0:0:0:
176,28,559152,1,2,0:0:0:0:
256,192,559323,12,8,561723,0:0:0:0:
256,188,562066,5,2,0:0:0:0:
152,100,573680,5,2,0:3:0:0:
368,304,574014,5,2,0:3:0:0:
368,100,574347,5,2,0:3:0:0:
152,300,574680,6,0,B|164:270|141:258|141:258|96:204|141:178|141:178|186:204,1,190,2|0,0:3|0:0,0:0:0:0:
197,217,575514,5,2,0:3:0:0:
197,217,575680,1,2,0:3:0:0:
197,217,575847,1,2,0:3:0:0:
197,217,576014,1,2,0:3:0:0:
197,217,576180,1,2,0:3:0:0:
332,296,576347,6,0,P|429:219|414:129,1,190,6|10,0:0|0:0,0:0:0:0:
144,164,576847,1,0,0:0:0:0:
260,52,577014,1,2,0:0:0:0:
264,56,577097,1,0,0:0:0:0:
268,60,577180,2,0,L|324:136,1,95,0|10,0:0|0:0,0:0:0:0:
160,60,577514,1,0,0:0:0:0:
372,40,577680,5,2,0:0:0:0:
404,212,577847,1,0,0:0:0:0:
248,168,578014,1,10,0:0:0:0:
468,100,578180,1,0,0:0:0:0:
468,100,578264,1,0,0:0:0:0:
468,100,578347,2,0,L|436:156,1,47.5,2|0,0:0|0:0,0:0:0:0:
348,276,578514,2,0,L|300:252,1,47.5
156,204,578680,2,0,L|208:160,1,47.5,10|0,0:0|0:0,0:0:0:0:
328,68,578847,2,0,L|324:140,1,47.5
300,340,579014,5,2,0:0:0:0:
248,168,579180,1,0,0:0:0:0:
252,164,579264,1,0,0:0:0:0:
256,160,579347,1,10,0:0:0:0:
380,208,579514,1,0,0:0:0:0:
120,272,579680,2,0,L|84:168,1,95,2|0,0:0|0:0,0:0:0:0:
104,148,579930,1,0,0:0:0:0:
104,148,580014,1,10,0:0:0:0:
256,272,580180,2,0,L|288:228,1,47.5
392,84,580347,6,0,P|304:64|252:28,1,142.5,2|0,0:0|0:0,0:0:0:0:
228,16,580680,2,0,L|212:80,1,47.5,10|0,0:0|0:0,0:0:0:0:
176,164,580847,1,0,0:0:0:0:
32,140,581014,2,0,L|80:140,1,47.5,2|0,0:0|0:0,0:0:0:0:
296,136,581180,2,0,L|256:168,1,47.5
84,272,581347,2,0,L|112:228,1,47.5,10|0,0:0|0:0,0:0:0:0:
148,56,581514,2,0,L|168:108,1,47.5
220,236,581680,5,2,0:0:0:0:
376,40,581847,1,0,0:0:0:0:
312,264,582014,5,10,0:0:0:0:
280,24,582180,1,0,0:0:0:0:
396,224,582347,5,2,0:0:0:0:
204,52,582514,1,0,0:0:0:0:
424,144,582680,5,10,0:0:0:0:
156,120,582847,1,0,0:0:0:0:
420,32,583014,5,2,0:0:0:0:
248,156,583180,1,0,0:0:0:0:
248,160,583264,1,0,0:0:0:0:
248,164,583347,1,10,0:0:0:0:
352,172,583514,1,0,0:0:0:0:
284,40,583680,1,2,0:0:0:0:
264,284,583847,1,0,0:0:0:0:
416,96,584014,2,0,L|364:96,1,42.7499986953736,10|0,0:0|0:0,0:0:0:0:
148,108,584180,2,0,L|180:160,1,42.7499986953736
239,227,584347,5,2,0:0:0:0:
290,138,584514,1,0,0:0:0:0:
341,227,584680,1,10,0:0:0:0:
207,249,584847,5,0,0:0:0:0:
290,104,585014,1,2,0:0:0:0:
373,249,585180,1,0,0:0:0:0:
180,266,585347,5,10,0:0:0:0:
289,77,585514,1,0,0:0:0:0:
398,266,585680,1,2,0:0:0:0:
156,292,585847,5,0,0:0:0:0:
288,56,586014,1,10,0:0:0:0:
424,292,586180,1,0,0:0:0:0:
292,196,586347,5,8,0:0:0:0:
292,196,586680,5,4,0:0:0:0:
160,56,587014,6,0,B|108:96|108:100|164:132|168:180|168:180|84:236,1,227.999993041992,6|10,0:0|0:0,0:0:0:0:
12,300,587514,1,0,0:0:0:0:
16,304,587597,1,0,0:0:0:0:
20,308,587680,1,2,0:0:0:0:
152,316,587847,1,0,0:0:0:0:
16,184,588014,2,0,L|72:160,1,56.9999982604981,10|0,0:0|0:0,0:0:0:0:
224,96,588180,2,0,L|224:188,1,56.9999982604981
288,312,588347,6,0,B|324:340|384:312|384:312|380:284|396:264|396:264|360:240|360:240|320:256,1,227.999993041992,2|10,0:0|0:0,0:0:0:0:
216,236,588847,1,0,0:0:0:0:
212,232,588930,1,0,0:0:0:0:
208,228,589014,1,2,0:0:0:0:
372,136,589180,1,0,0:0:0:0:
444,292,589347,2,0,L|392:264,1,56.9999982604981,10|0,0:0|0:0,0:0:0:0:
260,176,589514,2,0,L|336:188,1,56.9999982604981
480,184,589680,6,0,B|496:120|476:72|476:72|432:72|412:32|412:32|352:32,1,227.999993041992,2|10,0:0|0:0,0:0:0:0:
232,32,590180,1,0,0:0:0:0:
228,36,590264,1,0,0:0:0:0:
224,40,590347,1,2,0:0:0:0:
180,212,590514,1,0,0:0:0:0:
292,120,590680,2,0,L|224:112,1,56.9999982604981,10|0,0:0|0:0,0:0:0:0:
36,68,590847,2,0,L|36:144,1,56.9999982604981
40,316,591014,6,0,L|104:316,1,47.5,2|0,0:0|0:0,0:0:0:0:
328,264,591180,2,0,L|280:264,1,47.5
36,200,591347,2,0,L|104:200,1,52.2500015945435,10|0,0:0|0:0,0:0:0:0:
324,148,591513,2,0,L|272:148,1,52.2500015945435
36,68,591680,1,2,0:0:0:0:
176,64,591847,1,0,0:0:0:0:
176,276,592014,1,10,0:0:0:0:
184,308,592097,1,0,0:0:0:0:
200,336,592180,1,0,0:0:0:0:
228,356,592264,1,0,0:0:0:0:
260,356,592347,6,0,L|364:356,1,95,6|0,0:0|0:0,0:0:0:0:
436,260,592680,1,10,0:0:0:0:
416,232,592764,1,0,0:0:0:0:
408,200,592847,1,0,0:0:0:0:
404,168,592930,1,0,0:0:0:0:
420,140,593014,1,2,0:0:0:0:
312,44,593180,1,0,0:0:0:0:
216,204,593347,2,0,L|288:192,1,47.5,10|0,0:0|0:0,0:0:0:0:
404,168,593514,2,0,L|344:152,1,47.5
168,104,593680,5,2,0:0:0:0:
132,256,593847,1,0,0:0:0:0:
268,76,594014,1,10,0:0:0:0:
268,68,594097,1,0,0:0:0:0:
268,60,594180,2,0,L|208:28,1,47.5
48,36,594347,6,0,L|24:84,1,47.5,2|0,0:0|0:0,0:0:0:0:
100,136,594514,2,0,L|124:184,1,47.5
24,232,594680,2,0,L|0:280,1,47.5,10|0,0:0|0:0,0:0:0:0:
88,328,594847,2,0,L|112:376,1,47.5
200,248,595014,5,2,0:0:0:0:
352,164,595180,1,0,0:0:0:0:
364,176,595264,1,0,0:0:0:0:
376,188,595347,1,10,0:0:0:0:
256,200,595514,1,0,0:0:0:0:
276,220,595597,1,0,0:0:0:0:
296,240,595680,1,2,0:0:0:0:
472,232,595847,1,0,0:0:0:0:
388,296,596014,1,10,0:0:0:0:
480,92,596180,2,0,L|412:84,1,56.9999982604981
180,76,596347,6,0,P|140:76|192:116,1,142.500005435944,2|0,0:0|0:0,0:0:0:0:
324,128,596680,6,0,P|372:136|320:184,1,152,2|0,0:0|0:0,0:0:0:0:
148,224,597014,6,0,P|100:232|160:280,1,161.500003080368,2|0,0:0|0:0,0:0:0:0:
312,269,597347,6,0,P|372:293|308:333,1,170.999994781494,2|0,0:0|0:0,0:0:0:0:
192,96,597680,5,2,0:0:0:0:
192,96,597847,1,2,0:3:0:0:
324,152,598014,1,2,0:3:0:0:
184,116,598180,1,2,0:3:0:0:
292,40,598347,5,8,0:0:0:0:
208,232,598514,1,8,0:0:0:0:
424,208,598680,2,0,P|472:188|488:152,1,71.2500027179719,0|2,0:3|0:3,0:0:0:0:
396,56,599014,5,4,0:0:0:0:
296,296,599180,1,2,0:3:0:0:
296,296,599264,1,2,0:3:0:0:
296,296,599347,1,0,0:0:0:0:
128,140,599514,1,0,0:0:0:0:
392,144,599680,1,8,0:0:0:0:
256,136,599847,101,2,0:0:0:0:
256,152,600014,101,10,0:0:0:0:
256,168,600180,5,2,0:0:0:0:
256,188,600347,101,14,0:0:0:0:
148,156,607914,6,0,B|112:180|196:220|124:248|124:248|148:300|208:296|208:296|200:256,1,237.5,4|0,0:0|0:0,0:0:0:0:
300,272,608861,1,0,0:0:0:0:
332,288,609019,2,0,B|368:292|392:240|392:240|320:212|404:184|360:148,1,190
256,192,609809,5,8,0:0:0:0:
256,200,610124,1,8,0:0:0:0:
200,128,610440,5,2,0:0:0:0:
340,184,610598,1,8,0:0:0:0:
204,116,610756,1,2,0:0:0:0:
204,272,610914,5,2,0:0:0:0:
284,60,611072,1,8,0:0:0:0:
188,268,611230,1,2,0:0:0:0:
340,184,611388,5,2,0:0:0:0:
104,132,611545,1,8,0:0:0:0:
360,320,611861,5,8,0:0:0:0:
100,128,612019,1,8,0:0:0:0:
304,112,612966,6,0,P|380:148|396:260,1,190,6|8,0:0|0:0,0:0:0:0:
228,260,613440,1,0,0:0:0:0:
312,196,613598,1,2,0:0:0:0:
328,304,613756,1,2,0:0:0:0:
192,180,613914,1,8,0:0:0:0:
401,244,614072,1,0,0:0:0:0:
256,340,614230,6,0,P|208:340|152:216,1,190,2|8,0:0|0:0,0:0:0:0:
212,120,614703,1,0,0:0:0:0:
280,204,614861,1,2,0:0:0:0:
95,137,615019,1,2,0:0:0:0:
296,120,615177,2,0,L|376:56,1,95,8|0,0:0|0:0,0:0:0:0:
128,56,615493,6,0,P|92:116|104:156,1,95,2|0,0:0|0:0,0:0:0:0:
212,276,615809,1,8,0:0:0:0:
176,120,615966,1,0,0:0:0:0:
180,116,616045,1,0,0:0:0:0:
184,112,616124,2,0,L|284:96,2,95,2|0|8,0:0|0:0|0:0,0:0:0:0:
288,232,616598,1,0,0:0:0:0:
420,104,616756,6,0,L|504:36,1,95,2|0,0:0|0:0,0:0:0:0:
351,37,617072,2,0,L|267:105,1,95,8|0,0:0|0:0,0:0:0:0:
384,236,617388,1,2,0:0:0:0:
384,236,617466,1,0,0:0:0:0:
384,236,617545,1,2,0:0:0:0:
248,260,617703,2,0,P|192:220|184:180,1,95,8|0,0:0|0:0,0:0:0:0:
440,152,618019,6,0,P|492:216|460:316,1,190,2|8,0:0|0:0,0:0:0:0:
316,288,618493,1,0,0:0:0:0:
408,368,618651,1,2,0:0:0:0:
384,240,618809,2,0,L|300:160,1,95,2|8,0:0|0:0,0:0:0:0:
224,256,619124,1,0,0:0:0:0:
436,152,619282,6,0,P|492:228|444:328,1,190,2|8,0:0|0:0,0:0:0:0:
296,204,619756,1,0,0:0:0:0:
391,74,619914,2,0,P|435:154|423:186,1,95,2|2,0:0|0:0,0:0:0:0:
288,128,620230,1,8,0:0:0:0:
260,120,620309,1,8,0:0:0:0:
232,112,620388,1,8,0:0:0:0:
204,104,620466,1,8,0:0:0:0:
176,96,620545,5,8,0:0:0:0:
104,172,620703,1,2,0:0:0:0:
204,196,620861,1,2,0:0:0:0:
100,92,621019,5,8,0:0:0:0:
132,280,621177,1,2,0:0:0:0:
204,104,621335,1,2,0:0:0:0:
28,160,621493,5,8,0:0:0:0:
240,220,621651,1,2,0:0:0:0:
276,232,621730,1,2,0:0:0:0:
312,236,621809,5,2,0:0:0:0:
348,232,621888,1,2,0:0:0:0:
384,220,621966,1,2,0:0:0:0:
416,200,622045,1,2,0:0:0:0:
444,172,622124,1,2,0:0:0:0:
456,136,622203,1,2,0:0:0:0:
452,100,622282,1,2,0:0:0:0:
432,68,622361,1,2,0:0:0:0:
400,44,622440,5,8,0:0:0:0:
364,36,622519,1,8,0:0:0:0:
328,36,622598,1,8,0:0:0:0:
292,48,622677,1,8,0:0:0:0:
260,72,622756,6,8,L|204:104,1,35.625001358986
224,192,622914,2,8,L|264:172,1,35.625001358986
360,136,623072,5,10,0:0:0:0:
360,136,623151,1,10,0:0:0:0:
360,136,623230,1,10,0:0:0:0:
168,124,623388,5,6,0:0:0:0:
168,124,623545,2,0,P|120:160|96:208,1,95,0|8,0:0|0:0,0:0:0:0:
194,229,623861,2,0,L|226:189,1,47.5
312,180,624019,2,0,L|276:236,1,47.5,2|0,0:0|0:0,0:0:0:0:
224,316,624177,6,0,P|140:344|52:288,1,190,2|0,0:0|0:0,0:0:0:0:
57,295,624651,1,8,0:0:0:0:
148,168,624809,1,0,0:0:0:0:
56,228,624966,1,2,0:0:0:0:
194,229,625124,1,2,0:0:0:0:
20,136,625282,1,8,0:0:0:0:
148,268,625440,1,0,0:0:0:0:
144,96,625598,6,0,P|188:64|244:76,1,95,2|0,0:0|0:0,0:0:0:0:
360,148,625914,1,8,0:0:0:0:
264,200,626072,1,0,0:0:0:0:
336,48,626230,1,8,0:0:0:0:
384,48,626309,1,8,0:0:0:0:
428,64,626388,1,8,0:0:0:0:
452,104,626466,1,8,0:0:0:0:
464,152,626545,1,8,0:0:0:0:
452,196,626624,1,8,0:0:0:0:
428,232,626703,6,0,P|356:272|300:272,1,106.875004076958,6|0,0:0|0:0,0:0:0:0:
332,274,627019,1,8,0:0:0:0:
332,274,627098,1,8,0:0:0:0:
332,274,627177,1,8,0:0:0:0:
332,274,627256,1,8,0:0:0:0:
332,274,627335,5,10,0:0:0:0:
140,136,627651,1,10,0:0:0:0:
360,300,627966,6,0,P|428:276|448:200,1,142.500005435944,6|0,0:0|0:0,0:0:0:0:
328,192,628440,1,8,0:0:0:0:
448,192,628598,1,0,0:0:0:0:
332,208,628756,2,0,B|252:216|252:216|256:176|208:124|208:124|184:160,1,213.750008153916,8|0,0:0|0:0,0:0:0:0:
184,164,629309,1,8,0:0:0:0:
176,180,629388,5,8,0:0:0:0:
136,276,629545,1,2,0:0:0:0:
192,192,629703,1,8,0:0:0:0:
120,272,629861,1,2,0:0:0:0:
236,292,630019,2,0,L|392:316,1,142.500005435944,10|0,0:0|0:0,0:0:0:0:
400,328,630414,1,8,0:0:0:0:
400,328,630493,1,8,0:0:0:0:
368,208,630651,5,8,0:0:0:0:
412,152,630809,1,2,0:0:0:0:
444,216,630966,1,8,0:0:0:0:
408,160,631124,1,2,0:0:0:0:
392,272,631282,6,0,P|480:288|504:172,1,213.750008153916,2|0,0:0|0:0,0:0:0:0:
496,160,631835,1,8,0:0:0:0:
472,136,631914,1,8,0:0:0:0:
392,96,632072,1,2,0:0:0:0:
292,120,632230,1,8,0:0:0:0:
204,84,632388,1,2,0:0:0:0:
128,136,632545,5,2,0:0:0:0:
109,151,632624,1,2,0:0:0:0:
96,172,632703,1,2,0:0:0:0:
88,192,632782,1,2,0:0:0:0:
84,212,632861,1,2,0:0:0:0:
80,232,632940,1,2,0:0:0:0:
80,252,633019,1,2,0:0:0:0:
84,272,633098,1,2,0:0:0:0:
92,295,633177,5,8,0:0:0:0:
135,278,633256,1,8,0:0:0:0:
177,260,633335,1,8,0:0:0:0:
219,242,633414,1,8,0:0:0:0:
261,223,633493,1,8,0:0:0:0:
303,204,633572,1,8,0:0:0:0:
345,186,633651,5,8,0:0:0:0:
146,55,633966,2,0,L|196:53,1,35.625001358986,2|2,0:0|0:0,0:0:0:0:
360,56,634124,1,2,0:0:0:0:
256,140,634282,5,8,0:0:0:0:
256,192,634361,12,4,635703,0:0:0:0:
150,138,643608,6,0,P|218:139|240:160,1,95,4|4,0:0|0:3,0:0:0:0:
98,306,644555,5,4,0:3:0:0:
275,55,645187,5,4,0:3:0:0:
342,338,645818,5,4,0:3:0:0:
184,267,646134,5,4,0:3:0:0:
174,252,646213,1,4,0:3:0:0:
168,235,646292,1,4,0:3:0:0:
164,217,646371,1,4,0:3:0:0:
165,188,646450,1,4,0:3:0:0:
171,160,646529,1,4,0:3:0:0:
183,134,646608,1,4,0:3:0:0:
205,115,646687,1,4,0:3:0:0:
245,101,646766,5,4,0:3:0:0:
287,102,646845,1,4,0:3:0:0:
325,118,646923,1,4,0:3:0:0:
356,147,647002,1,4,0:3:0:0:
370,194,647081,1,4,0:3:0:0:
360,242,647160,1,4,0:3:0:0:
331,282,647239,1,4,0:3:0:0:
284,298,647318,1,4,0:3:0:0:
226,299,647397,5,4,0:3:0:0:
254,187,648029,5,0,0:0:0:0:
254,187,648345,1,0,0:0:0:0:
167,63,648660,6,0,P|92:131|83:236,1,190,6|8,0:0|0:0,0:0:0:0:
200,264,649134,1,0,0:0:0:0:
297,83,649292,2,0,L|408:103,1,95,2|0,0:0|0:0,0:0:0:0:
254,187,649608,2,0,L|143:167,1,95,8|0,0:0|0:0,0:0:0:0:
396,104,649923,6,0,L|456:196,2,95
348,288,650397,1,0,0:0:0:0:
224,200,650555,1,2,0:0:0:0:
416,236,650713,1,0,0:0:0:0:
252,296,650871,1,8,0:0:0:0:
328,108,651029,1,0,0:0:0:0:
443,336,651187,6,0,B|497:250|497:250|477:153,1,190,2|8,0:0|0:0,0:0:0:0:
441,58,651660,1,0,0:0:0:0:
305,183,651818,2,0,B|280:232|280:232|300:300,1,95,2|0,0:0|0:0,0:0:0:0:
356,356,652134,2,0,B|384:308|384:308|375:265,1,95,8|0,0:0|0:0,0:0:0:0:
112,135,652450,6,0,P|179:94|218:91,1,95,2|0,0:0|0:0,0:0:0:0:
260,287,652766,2,0,P|184:240|180:206,1,95,8|0,0:0|0:0,0:0:0:0:
393,61,653081,2,0,L|315:145,1,95,2|0,0:0|0:0,0:0:0:0:
26,160,653397,2,0,B|44:208|110:220,1,95,8|0,0:0|0:0,0:0:0:0:
371,257,653713,6,0,P|279:200|193:196,1,190,2|8,0:0|0:0,0:0:0:0:
256,304,654187,1,0,0:0:0:0:
282,127,654345,2,0,B|365:158|365:158|346:217|378:270,1,190,2|8,0:0|0:0,0:0:0:0:
456,204,654818,1,0,0:0:0:0:
225,206,654976,6,0,L|89:206,1,95,2|0,0:0|0:0,0:0:0:0:
174,107,655292,1,8,0:0:0:0:
178,301,655450,1,0,0:0:0:0:
65,153,655608,2,0,P|53:84|66:46,1,95,2|0,0:0|0:0,0:0:0:0:
174,107,655923,1,8,0:0:0:0:
60,263,656081,1,0,0:0:0:0:
165,98,656239,5,2,0:0:0:0:
179,231,656397,1,0,0:0:0:0:
65,153,656555,2,0,L|146:209,1,95,8|0,0:0|0:0,0:0:0:0:
295,86,656871,1,2,0:0:0:0:
179,231,657029,1,0,0:0:0:0:
388,242,657187,2,0,L|276:235,1,95,8|0,0:0|0:0,0:0:0:0:
171,86,657502,5,8,0:0:0:0:
196,64,657581,1,8,0:0:0:0:
226,50,657660,1,8,0:0:0:0:
258,43,657739,1,8,0:0:0:0:
288,60,657818,1,8,0:0:0:0:
320,72,657897,1,8,0:0:0:0:
352,68,657976,1,8,0:0:0:0:
384,56,658055,1,8,0:0:0:0:
412,72,658134,6,8,L|460:117,1,47.5
467,279,658292,2,8,L|426:235,1,47.5
360,140,658450,2,8,L|397:172,1,47.5
409,337,658608,2,8,L|368:293,1,47.5
277,221,658766,6,0,P|176:204|88:224,2,190,6|8|2,0:0|0:0|0:0,0:0:0:0:
184,320,659555,1,0,0:0:0:0:
135,129,659713,2,0,P|174:78|204:78,1,95,8|0,0:0|0:0,0:0:0:0:
37,221,660029,6,0,P|17:123|57:34,2,190,2|8|2,0:0|0:0|0:0,0:0:0:0:
179,261,660818,1,0,0:0:0:0:
135,129,660976,1,8,0:0:0:0:
41,234,661134,1,0,0:0:0:0:
229,176,661292,6,0,B|323:158|359:233|359:233|409:231,1,190,2|8,0:0|0:0,0:0:0:0:
394,231,661766,1,0,0:0:0:0:
232,333,661923,2,0,L|280:240,1,95,2|0,0:0|0:0,0:0:0:0:
272,91,662239,2,0,L|224:184,1,95,8|0,0:0|0:0,0:0:0:0:
312,19,662555,6,0,P|346:59|348:119,1,95,2|0,0:0|0:0,0:0:0:0:
188,260,662871,2,0,P|153:224|147:155,1,95,8|0,0:0|0:0,0:0:0:0:
367,207,663187,2,0,P|329:240|260:243,1,95,2|0,0:0|0:0,0:0:0:0:
132,71,663502,2,0,P|170:38|239:35,1,95,8|0,0:0|0:0,0:0:0:0:
79,271,663818,5,2,0:0:0:0:
79,271,663976,2,0,P|121:333|249:339,1,190,2|2,0:0|0:0,0:0:0:0:
184,252,664450,2,0,B|144:108|144:108|193:118,1,190,8|8,0:0|0:0,0:0:0:0:
308,148,664923,1,2,0:0:0:0:
81,221,665081,5,6,0:0:0:0:
63,227,665397,1,6,0:3:0:0:
45,234,665713,1,6,0:3:0:0:
27,241,666029,1,4,0:3:0:0:
256,192,666108,12,0,667923,0:0:0:0:
165,233,668239,5,4,0:3:0:0:
264,72,668397,1,4,0:3:0:0:
308,265,668555,1,4,0:3:0:0:
180,88,668713,1,4,0:3:0:0:
348,178,668871,6,0,P|400:234|389:318,1,142.500005435944,2|8,0:0|0:0,0:0:0:0:
221,329,669345,1,8,0:0:0:0:
308,265,669502,1,8,0:0:0:0:
315,364,669660,1,8,0:0:0:0:
176,248,669818,1,8,0:0:0:0:
348,178,669976,1,8,0:0:0:0:
48,252,670134,6,4,L|92:224,1,35.625001358986,4|4,0:3|0:3,0:3:0:0:
252,132,670292,2,4,L|212:156,1,35.625001358986,4|4,0:3|0:3,0:3:0:0:
156,312,670450,2,4,L|156:276,1,35.625001358986,4|4,0:3|0:3,0:3:0:0:
152,84,670608,2,4,L|152:136,1,35.625001358986,4|4,0:3|0:3,0:3:0:0:
260,256,670766,2,4,L|212:228,1,35.625001358986,4|4,0:3|0:3,0:3:0:0:
44,136,670923,2,4,L|92:164,1,35.625001358986,4|4,0:3|0:3,0:3:0:0:
135,324,671081,5,8,0:0:0:0:
183,312,671160,1,8,0:0:0:0:
227,288,671239,1,8,0:0:0:0:
254,245,671318,1,8,0:0:0:0:
257,195,671397,5,14,0:0:0:0:
168,120,681988,5,2,0:0:0:0:
168,120,682146,2,0,P|128:152|120:216,1,113.999996520996
272,208,682619,2,0,L|304:152,1,56.9999982604981
200,196,682935,2,0,L|168:252,1,56.9999982604981,8|0,0:0|0:0,0:0:0:0:
298,308,683251,5,2,0:0:0:0:
298,308,683409,2,0,B|302:236|302:236|258:196,1,113.999996520996,2|2,0:0|0:0,0:0:0:0:
248,364,683883,2,0,P|292:384|316:380,1,56.9999982604981,8|2,0:0|0:0,0:0:0:0:
384,340,684198,1,2,0:0:0:0:
420,264,684356,1,8,0:0:0:0:
271,207,684514,5,2,0:0:0:0:
480,280,684672,1,2,0:0:0:0:
312,284,684830,1,2,0:0:0:0:
492,144,684988,1,2,0:0:0:0:
396,56,685146,1,2,0:0:0:0:
384,68,685225,1,2,0:0:0:0:
372,80,685304,1,2,0:0:0:0:
360,92,685383,1,2,0:0:0:0:
348,104,685462,1,2,0:0:0:0:
336,116,685540,1,2,0:0:0:0:
324,128,685619,1,2,0:0:0:0:
312,140,685698,1,2,0:0:0:0:
300,152,685777,5,2,0:0:0:0:
152,84,686093,1,2,0:0:0:0:
156,280,686409,1,2,0:0:0:0:
288,112,686725,1,2,0:0:0:0:
288,112,686883,1,2,0:0:0:0:
452,136,687040,5,10,0:0:0:0:
328,308,687198,1,2,0:0:0:0:
208,112,687356,1,10,0:0:0:0:
408,216,687514,1,2,0:0:0:0:
168,240,687672,1,2,0:0:0:0:
152,240,687988,5,0,0:0:0:0:
327,102,688304,5,2,0:3:0:0:
408,216,688462,1,0,0:0:0:0:
272,160,688619,2,0,L|168:112,1,95,10|0,0:0|0:0,0:0:0:0:
380,16,688935,1,2,0:0:0:0:
380,16,689014,1,0,0:0:0:0:
380,16,689093,1,0,0:0:0:0:
256,24,689251,1,10,0:0:0:0:
432,120,689409,1,0,0:0:0:0:
432,120,689488,1,0,0:0:0:0:
432,120,689567,5,2,0:0:0:0:
264,112,689725,1,0,0:0:0:0:
492,44,689883,2,0,P|524:120|516:148,1,95,10|0,0:0|0:0,0:0:0:0:
376,188,690198,1,2,0:0:0:0:
244,252,690356,1,0,0:0:0:0:
264,112,690514,1,10,0:0:0:0:
340,268,690672,1,0,0:0:0:0:
148,128,690830,6,0,B|132:52|180:12|180:12|184:36,1,142.5,6|0,0:0|0:0,0:0:0:0:
196,64,691146,2,0,L|64:72,1,95,10|0,0:0|0:0,0:0:0:0:
8,144,691462,1,2,0:0:0:0:
152,224,691619,1,0,0:0:0:0:
16,40,691777,1,10,0:0:0:0:
32,268,691935,1,0,0:0:0:0:
32,276,692014,1,0,0:0:0:0:
32,284,692093,5,2,0:0:0:0:
160,312,692251,1,0,0:0:0:0:
8,144,692409,2,0,L|100:104,1,95,10|0,0:0|0:0,0:0:0:0:
276,224,692725,1,2,0:0:0:0:
260,80,692883,1,0,0:0:0:0:
84,216,693040,1,8,0:0:0:0:
84,216,693119,1,0,0:0:0:0:
84,216,693198,1,0,0:0:0:0:
216,272,693356,5,6,0:0:0:0:
136,140,693514,1,0,0:0:0:0:
96,324,693672,2,0,L|144:268,1,47.5,10|0,0:0|0:0,0:0:0:0:
264,128,693830,1,0,0:0:0:0:
268,120,693909,1,0,0:0:0:0:
272,112,693988,2,0,L|300:168,1,47.5,2|0,0:0|0:0,0:0:0:0:
344,248,694146,1,0,0:0:0:0:
172,56,694304,1,10,0:0:0:0:
424,116,694462,1,0,0:0:0:0:
192,240,694619,6,0,L|220:184,1,47.5,2|0,0:0|0:0,0:0:0:0:
288,20,694777,2,0,L|348:72,1,47.5
468,184,694935,2,0,L|412:168,1,47.5,10|0,0:0|0:0,0:0:0:0:
232,120,695093,2,0,L|296:96,1,47.5
440,48,695251,1,2,0:0:0:0:
392,248,695409,1,0,0:0:0:0:
384,256,695488,1,0,0:0:0:0:
376,264,695567,2,0,L|268:260,1,95,10|0,0:0|0:0,0:0:0:0:
340,128,695883,5,2,0:0:0:0:
396,348,696040,1,0,0:0:0:0:
292,188,696198,1,10,0:0:0:0:
492,288,696356,1,0,0:0:0:0:
452,168,696514,2,0,L|404:200,1,47.5,2|0,0:0|0:0,0:0:0:0:
248,336,696672,2,0,L|248:268,1,47.5
240,88,696830,2,0,L|292:120,1,47.5,10|0,0:0|0:0,0:0:0:0:
396,260,696988,2,0,L|324:232,1,47.5
168,156,697146,5,2,0:0:0:0:
220,256,697304,1,2,0:0:0:0:
80,192,697462,1,2,0:0:0:0:
264,176,697619,1,2,0:0:0:0:
60,332,697777,5,10,0:0:0:0:
108,352,697856,1,8,0:0:0:0:
160,360,697935,1,8,0:0:0:0:
212,356,698014,1,8,0:0:0:0:
264,352,698093,1,10,0:0:0:0:
316,336,698172,1,8,0:0:0:0:
360,308,698251,1,8,0:0:0:0:
400,276,698330,1,8,0:0:0:0:
416,228,698409,6,0,L|292:200,1,95,2|0,0:3|0:0,0:0:0:0:
192,176,698725,1,10,0:0:0:0:
324,128,698883,1,0,0:0:0:0:
260,256,699040,2,0,P|176:280|136:272,2,95,2|0|10,0:0|0:0|0:0,0:0:0:0:
200,72,699514,1,0,0:0:0:0:
192,72,699593,1,0,0:0:0:0:
184,72,699672,6,0,L|100:144,1,95,2|0,0:0|0:0,0:0:0:0:
112,280,699988,1,10,0:0:0:0:
176,176,700146,1,0,0:0:0:0:
64,200,700304,1,2,0:0:0:0:
244,280,700462,1,0,0:0:0:0:
36,88,700619,1,10,0:0:0:0:
16,272,700777,1,0,0:0:0:0:
228,108,700935,6,0,L|280:160,1,47.5,2|0,0:0|0:0,0:0:0:0:
376,232,701093,1,0,0:0:0:0:
376,240,701172,1,0,0:0:0:0:
376,248,701251,2,0,L|328:268,1,47.5,10|0,0:0|0:0,0:0:0:0:
144,332,701409,1,0,0:0:0:0:
140,324,701488,1,0,0:0:0:0:
136,316,701567,2,0,L|132:256,2,47.5,2|0|0,0:0|0:0|0:0,0:0:0:0:
292,352,701883,1,10,0:0:0:0:
248,160,702040,1,0,0:0:0:0:
236,136,702119,1,0,0:0:0:0:
216,116,702198,6,0,L|152:104,1,47.5,2|0,0:0|0:0,0:0:0:0:
48,236,702356,2,0,L|94:244,1,47.5
184,192,702514,2,0,L|120:180,1,47.5,10|0,0:0|0:0,0:0:0:0:
24,304,702672,2,0,L|70:312,1,47.5
196,296,702830,1,2,0:0:0:0:
52,152,702988,1,0,0:0:0:0:
276,228,703146,1,10,0:0:0:0:
324,224,703225,1,0,0:0:0:0:
368,204,703304,1,0,0:0:0:0:
396,164,703383,1,0,0:0:0:0:
400,116,703462,6,0,L|320:40,1,95,6|0,0:0|0:0,0:0:0:0:
236,124,703777,1,10,0:0:0:0:
416,256,703935,1,0,0:0:0:0:
416,260,704014,1,0,0:0:0:0:
416,264,704093,1,2,0:0:0:0:
312,140,704251,1,0,0:0:0:0:
452,84,704409,1,10,0:0:0:0:
332,304,704567,1,0,0:0:0:0:
172,216,704725,6,0,L|124:184,1,47.5,2|0,0:0|0:0,0:0:0:0:
32,120,704883,2,0,L|88:108,1,47.5
240,88,705040,2,0,L|192:140,1,47.5,10|0,0:0|0:0,0:0:0:0:
56,264,705198,2,0,L|56:200,1,47.5
60,32,705356,1,2,0:0:0:0:
172,216,705514,2,0,L|280:216,1,95,0|10,0:0|0:0,0:0:0:0:
240,88,705830,1,0,0:0:0:0:
208,304,705988,5,2,0:0:0:0:
392,256,706146,1,0,0:0:0:0:
388,240,706225,1,0,0:0:0:0:
384,228,706304,1,10,0:0:0:0:
300,336,706462,5,0,0:0:0:0:
292,308,706540,1,0,0:0:0:0:
284,280,706619,1,2,0:0:0:0:
180,376,706777,5,0,0:0:0:0:
172,344,706856,1,0,0:0:0:0:
164,312,706935,1,10,0:0:0:0:
156,280,707014,1,0,0:0:0:0:
148,248,707093,1,0,0:0:0:0:
140,216,707172,1,0,0:0:0:0:
132,184,707251,6,0,L|168:148,1,47.5,2|0,0:0|0:0,0:0:0:0:
332,32,707409,2,0,L|340:108,1,47.5,2|0,0:0|0:0,0:0:0:0:
352,280,707567,2,0,L|316:244,1,47.5,10|0,0:0|0:0,0:0:0:0:
156,84,707725,2,0,L|228:88,1,47.5,2|0,0:0|0:0,0:0:0:0:
436,144,707883,5,10,0:0:0:0:
424,184,707962,1,8,0:0:0:0:
384,196,708040,1,8,0:0:0:0:
344,180,708119,1,8,0:0:0:0:
336,136,708198,5,10,0:0:0:0:
296,144,708277,1,8,0:0:0:0:
260,120,708356,1,8,0:0:0:0:
260,76,708435,1,8,0:0:0:0:
292,48,708514,5,6,0:0:0:0:
364,292,708830,1,2,0:0:0:0:
56,356,709146,5,2,0:0:0:0:
184,176,709304,1,2,0:0:0:0:
272,364,709462,1,2,0:0:0:0:
56,216,709619,1,2,0:0:0:0:
348,128,709777,5,2,0:0:0:0:
120,304,709935,1,2,0:0:0:0:
256,48,710093,5,2,0:0:0:0:
256,64,710172,1,2,0:0:0:0:
256,80,710251,1,2,0:0:0:0:
256,96,710330,1,2,0:0:0:0:
256,112,710409,1,2,0:0:0:0:
256,344,710725,5,2,0:3:0:0:
256,192,711040,5,4,0:0:0:0:
148,120,719672,6,0,P|148:192|180:236,1,113.999996520996
248,156,720135,1,0,0:0:0:0:
288,248,720290,1,0,0:0:0:0:
180,240,720445,1,0,0:0:0:0:
292,236,720599,1,0,0:0:0:0:
180,316,720754,6,0,P|114:278|104:236,1,113.999996520996
184,152,721218,1,0,0:0:0:0:
184,152,721373,1,0,0:0:0:0:
180,240,721527,2,0,L|136:280,1,56.9999982604981
120,92,721991,6,0,P|196:68|248:88,1,113.999996520996
304,176,722455,1,0,0:0:0:0:
304,176,722610,1,0,0:0:0:0:
184,152,722764,2,0,P|144:160|112:176,2,56.9999982604981
184,256,723228,6,0,P|116:284|64:284,1,113.999996520996
80,112,723692,1,0,0:0:0:0:
192,264,723847,2,0,P|268:308|304:308,1,113.999996520996
292,309,724311,1,0,0:0:0:0:
324,104,724620,6,0,P|264:176|272:228,1,142.500005435944,8|8,0:0|0:0,0:0:0:0:
352,188,725084,1,0,0:0:0:0:
192,144,725239,1,8,0:0:0:0:
264,64,725393,1,0,0:0:0:0:
204,152,725548,1,8,0:0:0:0:
48,52,725702,6,0,P|128:52|184:100,1,142.500005435944,8|0,0:0|0:0,0:0:0:0:
88,152,726166,2,0,L|52:240,1,71.2500027179719,8|0,0:0|0:0,0:0:0:0:
240,276,726476,1,8,0:0:0:0:
240,276,726630,2,0,L|144:248,1,71.2500027179719,0|8,0:0|0:0,0:0:0:0:
326,322,726940,6,0,P|336:252|292:192,1,142.500005435944,8|0,0:0|0:0,0:0:0:0:
172,112,727403,1,8,0:0:0:0:
184,120,727481,1,0,0:0:0:0:
196,128,727558,1,0,0:0:0:0:
252,64,727713,1,8,0:0:0:0:
264,72,727790,1,0,0:0:0:0:
276,80,727867,2,0,L|348:128,1,71.2500027179719,0|8,0:0|0:0,0:0:0:0:
458,191,728177,6,0,L|321:111,1,142.500005435944,8|0,0:0|0:0,0:0:0:0:
456,88,728641,1,8,0:0:0:0:
460,204,728795,2,0,L|464:352,1,142.500005435944,8|0,0:0|0:0,0:0:0:0:
288,232,729259,2,0,L|356:284,1,71.2500027179719,8|0,0:0|0:0,0:0:0:0:
260,136,729568,6,0,P|200:184|192:264,2,142.500005435944,8|8|8,0:0|0:0|0:0,0:0:0:0:
384,192,730342,1,0,0:0:0:0:
288,232,730496,1,8,0:0:0:0:
358,61,730651,6,0,P|394:141|374:209,1,142.500005435944,8|0,0:0|0:0,0:0:0:0:
264,144,731115,1,8,0:0:0:0:
380,208,731269,1,0,0:0:0:0:
476,120,731424,1,8,0:0:0:0:
358,61,731579,2,0,L|272:52,1,71.2500027179719,0|8,0:0|0:0,0:0:0:0:
196,232,731888,6,0,P|156:140|180:64,1,170.999994781494,8|0,0:0|0:0,0:0:0:0:
264,144,732352,1,8,0:0:0:0:
72,216,732507,1,0,0:0:0:0:
48,20,732661,1,8,0:0:0:0:
48,20,732739,1,8,0:0:0:0:
48,20,732816,1,8,0:0:0:0:
156,144,732970,1,8,0:0:0:0:
12,112,733125,1,0,0:0:0:0:
176,44,733280,5,2,0:0:0:0:
132,292,733434,1,2,0:0:0:0:
276,44,733744,5,2,0:0:0:0:
240,292,733898,1,2,0:0:0:0:
392,96,734208,5,8,0:0:0:0:
412,128,734285,1,8,0:0:0:0:
420,164,734362,1,8,0:0:0:0:
412,204,734440,1,8,0:0:0:0:
388,240,734517,6,0,B|264:196|236:168|236:168|272:144,1,190,6|8,0:0|0:0,0:0:0:0:
412,128,734981,1,0,0:0:0:0:
216,248,735135,1,2,0:0:0:0:
254,46,735290,1,2,0:0:0:0:
228,248,735445,1,8,0:0:0:0:
48,172,735599,6,0,P|152:140|232:176,1,190,2|2,0:0|0:0,0:0:0:0:
136,328,736063,2,0,L|136:224,1,95,8|0,0:0|0:0,0:0:0:0:
140,64,736373,1,2,0:0:0:0:
260,128,736527,1,2,0:0:0:0:
260,128,736604,1,0,0:0:0:0:
260,128,736682,1,8,0:0:0:0:
48,172,736836,6,0,P|100:260|204:288,1,190,2|2,0:0|0:0,0:0:0:0:
204,288,737223,1,0,0:0:0:0:
228,288,737300,1,8,0:0:0:0:
192,184,737455,5,0,0:0:0:0:
228,184,737532,1,0,0:0:0:0:
268,184,737610,1,2,0:0:0:0:
176,72,737764,5,0,0:0:0:0:
232,72,737842,1,0,0:0:0:0:
288,72,737919,1,8,0:0:0:0:
111,175,738074,6,0,B|52:131|59:91|59:91|99:70|108:12,1,190,2|2,0:0|0:0,0:0:0:0:
232,72,738537,1,8,0:0:0:0:
112,196,738692,2,0,L|40:268,1,95,0|2,0:0|0:0,0:0:0:0:
248,324,739001,5,2,0:0:0:0:
184,128,739156,1,8,0:0:0:0:
312,168,739311,1,8,0:0:0:0:
332,180,739388,1,8,0:0:0:0:
352,192,739465,6,0,B|408:240|401:316|401:316|352:368,1,190,6|8,0:0|0:0,0:0:0:0:
260,240,739929,1,0,0:0:0:0:
392,184,740084,1,2,0:0:0:0:
268,260,740239,1,2,0:0:0:0:
280,120,740393,1,8,0:0:0:0:
468,284,740548,6,0,B|396:356|396:356|372:300|308:296,1,190,2|2,0:0|0:0,0:0:0:0:
392,184,741012,1,8,0:0:0:0:
476,280,741166,1,0,0:0:0:0:
320,376,741321,2,0,P|256:372|200:348,1,95,2|2,0:0|0:0,0:0:0:0:
198,347,741553,1,0,0:0:0:0:
198,347,741630,1,8,0:0:0:0:
320,216,741785,6,0,B|208:176|208:176|252:136|232:80,1,190,2|2,0:0|0:0,0:0:0:0:
240,16,742249,1,8,0:0:0:0:
155,114,742403,1,8,0:0:0:0:
320,128,742558,1,2,0:0:0:0:
172,40,742713,1,2,0:0:0:0:
324,116,742867,1,8,0:0:0:0:
152,204,743022,6,0,P|80:164|88:52,1,190,2|2,0:0|0:0,0:0:0:0:
248,88,743486,1,8,0:0:0:0:
140,220,743641,2,0,L|64:308,1,95,8|2,0:0|0:0,0:0:0:0:
268,328,743950,5,2,0:0:0:0:
72,296,744104,1,8,0:0:0:0:
48,260,744182,1,8,0:0:0:0:
36,220,744259,1,8,0:0:0:0:
40,176,744336,1,8,0:0:0:0:
68,140,744414,6,0,P|176:168|268:144,1,190,6|8,0:0|0:0,0:0:0:0:
160,76,744878,1,0,0:0:0:0:
232,240,745032,1,2,0:0:0:0:
344,112,745187,1,2,0:0:0:0:
176,168,745342,1,8,0:0:0:0:
328,20,745496,6,0,P|440:24|496:92,1,190,2|2,0:0|0:0,0:0:0:0:
360,216,745960,1,8,0:0:0:0:
388,100,746115,1,0,0:0:0:0:
480,192,746269,2,0,P|484:256|460:292,1,95,2|2,0:0|0:0,0:0:0:0:
272,168,746579,1,8,0:0:0:0:
327,20,746733,6,0,P|419:14|489:76,1,190,2|2,0:0|0:0,0:0:0:0:
272,168,747197,1,8,0:0:0:0:
388,100,747352,1,8,0:0:0:0:
232,56,747507,1,2,0:0:0:0:
232,56,747584,1,0,0:0:0:0:
232,56,747661,1,0,0:0:0:0:
272,168,747816,1,8,0:0:0:0:
332,48,747970,6,0,P|400:136|392:224,1,190,2|2,0:0|0:0,0:0:0:0:
272,168,748434,1,8,0:0:0:0:
396,220,748589,2,0,P|452:276|456:308,1,95,0|2,0:0|0:0,0:0:0:0:
308,312,748898,1,2,0:0:0:0:
392,136,749053,1,8,0:0:0:0:
400,108,749130,1,8,0:0:0:0:
400,80,749208,1,8,0:0:0:0:
216,144,749362,6,0,P|124:188|0:192,2,190,6|8|2,0:0|0:0|0:0,0:0:0:0:
92,64,750135,1,2,0:0:0:0:
224,136,750290,1,8,0:0:0:0:
120,276,750445,6,0,P|56:176|52:92,1,190,2|2,0:0|0:0,0:0:0:0:
224,136,750909,1,8,0:0:0:0:
136,204,751063,1,8,0:0:0:0:
144,100,751218,2,0,P|196:56|252:56,1,95,2|2,0:0|0:0,0:0:0:0:
220,36,751450,1,8,0:0:0:0:
220,20,751527,1,8,0:0:0:0:
300,303,751682,6,0,P|240:219|224:119,1,190,2|2,0:0|0:0,0:0:0:0:
400,92,752146,1,8,0:0:0:0:
328,192,752300,1,8,0:0:0:0:
336,32,752455,1,2,0:0:0:0:
336,32,752532,1,2,0:0:0:0:
336,32,752610,1,2,0:0:0:0:
464,124,752764,1,8,0:0:0:0:
256,84,752919,6,0,L|92:68,1,161.500003080368,2|2,0:0|0:0,0:0:0:0:
164,200,753383,1,8,0:0:0:0:
320,144,753537,1,8,0:0:0:0:
184,48,753692,1,2,0:0:0:0:
192,292,753847,1,2,0:0:0:0:
432,192,754001,1,8,0:0:0:0:
456,160,754079,1,8,0:0:0:0:
464,120,754156,1,8,0:0:0:0:
456,80,754233,1,8,0:0:0:0:
431,52,754311,6,0,L|468:22,2,42.7499986953736
319,143,754620,2,0,L|254:199,1,85.4999973907472,10|0,0:0|0:0,0:0:0:0:
260,36,754929,1,2,0:0:0:0:
332,128,755084,1,2,0:0:0:0:
204,128,755239,1,8,0:0:0:0:
344,56,755393,1,0,0:0:0:0:
480,140,755548,5,2,0:0:0:0:
388,184,755702,1,2,0:0:0:0:
404,92,755857,1,8,0:0:0:0:
464,216,756012,1,8,0:0:0:0:
324,204,756166,1,2,0:0:0:0:
476,128,756321,2,8,L|516:100,2,42.7499986953736
308,212,756630,6,0,B|248:292|244:352|244:352|284:340,1,170.999994781494,2|2,0:0|0:0,0:0:0:0:
368,304,757094,1,8,0:0:0:0:
324,204,757249,1,0,0:0:0:0:
436,220,757403,1,2,0:0:0:0:
452,224,757481,1,8,0:0:0:0:
468,228,757558,1,8,0:0:0:0:
440,336,757713,1,8,0:0:0:0:
372,244,757867,1,2,0:0:0:0:
468,116,758022,5,8,0:0:0:0:
280,292,758177,1,2,0:0:0:0:
364,80,758331,5,8,0:0:0:0:
376,320,758486,1,2,0:0:0:0:
268,96,758641,5,8,0:0:0:0:
472,272,758795,1,2,0:0:0:0:
212,180,758950,2,8,L|256:192,1,42.7499986953736
372,244,759104,2,8,L|320:256,1,42.7499986953736
156,292,759259,6,0,L|164:348,2,42.7499986953736,2|2|2,0:0|0:0|0:0,0:0:0:0:
56,192,759568,1,8,0:0:0:0:
212,180,759723,1,0,0:0:0:0:
68,272,759878,1,2,0:0:0:0:
128,116,760032,1,2,0:0:0:0:
244,248,760187,1,8,0:0:0:0:
140,200,760342,1,2,0:0:0:0:
248,112,760496,5,2,0:0:0:0:
376,288,760651,1,0,0:0:0:0:
172,320,760806,1,8,0:0:0:0:
332,152,760960,2,0,L|400:68,1,85.4999973907472,0|2,0:0|0:0,0:0:0:0:
276,216,761269,1,2,0:0:0:0:
260,232,761347,1,2,0:0:0:0:
244,248,761424,1,10,0:0:0:0:
464,132,761579,6,0,P|460:36|396:0,1,170.999994781494,2|2,0:0|0:0,0:0:0:0:
332,152,762043,2,0,L|400:68,1,85.4999973907472,8|0,0:0|0:0,0:0:0:0:
224,40,762352,2,0,L|188:16,2,42.7499986953736,2|2|2,0:0|0:0|0:0,0:0:0:0:
216,168,762661,1,8,0:0:0:0:
328,80,762816,5,2,0:0:0:0:
136,112,762970,1,2,0:0:0:0:
272,244,763125,1,2,0:0:0:0:
308,156,763280,1,8,0:0:0:0:
216,168,763434,1,8,0:0:0:0:
356,220,763589,1,2,0:0:0:0:
244,36,763744,1,2,0:0:0:0:
272,244,763898,1,8,0:0:0:0:
292,280,763976,1,8,0:0:0:0:
324,304,764053,1,8,0:0:0:0:
360,308,764130,1,8,0:0:0:0:
396,300,764208,6,0,L|420:240,1,42.7499986953736,6|2,0:0|0:0,0:0:0:0:
448,168,764362,1,0,0:0:0:0:
356,56,764517,1,8,0:0:0:0:
308,184,764672,1,2,0:0:0:0:
428,88,764826,1,8,0:0:0:0:
300,176,764981,1,2,0:0:0:0:
448,168,765135,1,8,0:0:0:0:
296,164,765290,1,2,0:0:0:0:
276,32,765445,5,8,0:0:0:0:
388,240,765599,1,2,0:0:0:0:
352,16,765754,1,8,0:0:0:0:
376,240,765909,1,2,0:0:0:0:
432,24,766063,1,8,0:0:0:0:
296,164,766218,2,0,L|244:176,2,42.7499986953736,2|2|2,0:0|0:0|0:0,0:0:0:0:
448,168,766527,1,2,0:0:0:0:
216,76,766682,5,8,0:0:0:0:
460,76,766836,1,2,0:0:0:0:
224,196,766991,1,8,0:0:0:0:
452,64,767146,1,2,0:0:0:0:
328,264,767300,1,8,0:0:0:0:
440,56,767455,1,2,0:0:0:0:
432,304,767610,2,0,P|392:352|352:372,1,85.4999973907472,8|2,0:0|0:0,0:0:0:0:
200,352,767919,5,8,0:0:0:0:
72,268,768074,1,2,0:0:0:0:
68,116,768228,1,8,0:0:0:0:
176,8,768383,1,2,0:0:0:0:
252,156,768537,1,8,0:0:0:0:
144,132,768692,1,2,0:0:0:0:
284,36,768847,1,2,0:0:0:0:
284,36,768924,1,2,0:0:0:0:
284,36,769001,1,2,0:0:0:0:
212,260,769156,6,0,L|172:292,2,42.7499986953736,6|2|2,0:0|0:0|0:0,0:0:0:0:
352,252,769465,1,8,0:0:0:0:
312,148,769620,1,2,0:0:0:0:
288,296,769775,1,8,0:0:0:0:
380,112,769929,1,2,0:0:0:0:
216,320,770084,1,8,0:0:0:0:
448,84,770239,1,2,0:0:0:0:
416,196,770393,5,8,0:0:0:0:
312,148,770548,1,2,0:0:0:0:
464,136,770702,1,8,0:0:0:0:
268,204,770857,1,2,0:0:0:0:
488,68,771012,1,8,0:0:0:0:
236,268,771166,1,2,0:0:0:0:
236,268,771244,1,2,0:0:0:0:
236,268,771321,1,2,0:0:0:0:
416,196,771476,6,0,P|404:84|344:44,1,170.999994781494,6|0,0:0|0:0,0:0:0:0:
176,96,771940,1,8,0:0:0:0:
312,148,772094,1,0,0:0:0:0:
276,24,772249,1,2,0:0:0:0:
276,24,772326,1,2,0:0:0:0:
276,24,772403,1,2,0:0:0:0:
196,184,772558,1,8,0:0:0:0:
368,84,772713,1,2,0:0:0:0:
52,152,772867,5,10,0:0:0:0:
412,276,773022,1,10,0:0:0:0:
16,228,773177,5,10,0:0:0:0:
420,196,773331,1,10,0:0:0:0:
120,360,773486,5,8,0:0:0:0:
100,320,773563,1,8,0:0:0:0:
100,272,773641,1,8,0:0:0:0:
124,228,773718,1,8,0:0:0:0:
164,204,773795,1,8,0:0:0:0:
208,192,773873,1,8,0:0:0:0:
256,192,773950,6,0,B|288:184|312:192|316:212|320:236|320:248|316:272|292:300|260:296|240:288|228:260|188:296|168:272|160:256|160:240|152:224|148:192|146:171|144:148|172:136|181:127|188:120|200:100|209:95|244:96|260:88|276:96|284:84|296:96|308:100|320:104|340:108|356:112|364:120|376:124|388:128|404:144|416:156|448:220|452:248|460:272|432:340|384:344|362:358|344:384|320:388|292:392|260:392|224:376|188:392|156:380|148:368|136:344|112:328|80:300|68:276|60:248|56:216|68:184|72:152|84:128|96:108|100:92|116:72|144:60|176:36|196:27|224:20,1,1377.5,4|0,0:0|0:0,0:0:0:0:
