osu file format v14

[General]
AudioFilename: audio.mp3
AudioLeadIn: 0
PreviewTime: 66461
Countdown: 1
SampleSet: None
StackLeniency: 0.7
Mode: 0
LetterboxInBreaks: 0
WidescreenStoryboard: 1

[Editor]
DistanceSpacing: 1
BeatDivisor: 4
GridSize: 16
TimelineZoom: 1

[Metadata]
Title:drop pop candy (feat. Giga-P)
TitleUnicode:drop pop candy (feat. Giga-P)
Artist:Reol
ArtistUnicode:れをる
Creator:HeyItsBast
Version:Easy
Source:
Tags:
BeatmapID:1442654
BeatmapSetID:682236

[Difficulty]
HPDrainRate:3
CircleSize:3
OverallDifficulty:3
ApproachRate:3
SliderMultiplier:1
SliderTickRate:1

[Events]
//Background and Video events
0,0,"2.jpg",0,0
//Break Periods
//Storyboard Layer 0 (Background)
//Storyboard Layer 1 (Fail)
//Storyboard Layer 2 (Pass)
//Storyboard Layer 3 (Foreground)
//Storyboard Sound Samples

[TimingPoints]
0,461.538461538462,4,3,0,100,1,0
51692,-100,4,3,0,100,0,1
66000,-100,4,3,0,100,0,0
66461,-100,4,3,0,100,0,1
81230,-100,4,3,0,100,0,0
125538,-100,4,3,0,100,0,1
139846,-100,4,3,0,100,0,0
140307,-100,4,3,0,100,0,1
155076,-100,4,3,0,100,0,0
171692,-100,4,3,0,100,0,1
186000,-100,4,3,0,100,0,0
186461,-100,4,3,0,100,0,1
201230,-100,4,3,0,100,0,0

[HitObjects]
32,48,0,6,0,B|80:64|128:48|128:48|160:112|208:96,1,200
304,96,1384,1,2,0:0:0:0:
288,144,1615,1,2,0:0:0:0:
256,176,1846,2,0,P|208:192|160:176,1,100
128,208,2538,2,0,B|176:272|224:272|224:272|240:320|240:320|320:272,1,250
400,272,4153,6,0,L|384:224,1,50
368,176,4615,2,0,B|304:144|304:144|272:192,1,100,0|2,0:0|0:0,0:0:0:0:
240,144,5307,2,0,B|176:128|144:160|144:160|176:208|128:256|128:256|160:288,1,250,2|0,0:0|0:0,0:0:0:0:
256,256,6923,1,0,0:0:0:0:
336,192,7384,6,0,P|304:160|240:160,1,100,0|2,0:0|0:0,0:0:0:0:
160,176,8307,2,0,P|112:160|80:112,1,100,0|2,0:0|0:0,0:0:0:0:
176,80,9230,1,0,0:0:0:0:
224,160,9692,1,2,0:0:0:0:
272,144,9923,2,0,B|336:96|336:96|368:160|448:160|448:160|480:208,1,250
384,240,11538,5,2,0:0:0:0:
288,240,12000,2,0,P|256:288|208:288,2,100,0|2|0,0:0|0:0|0:0,0:0:0:0:
224,160,13384,1,0,0:0:0:0:
240,208,13615,1,2,0:0:0:0:
208,240,13846,2,0,B|160:224|128:176|128:176|96:224|48:160,1,200
112,80,15230,5,2,0:0:0:0:
208,80,15692,2,0,P|224:192|304:208,1,200
320,128,17076,1,2,0:0:0:0:
400,192,17538,1,0,0:0:0:0:
320,256,18000,1,2,0:0:0:0:
240,192,18461,1,0,0:0:0:0:
160,240,18923,6,0,B|96:240|80:208|80:208|128:160|128:160|96:128|96:128|128:96|128:96|176:112|176:112|240:80|240:80|272:128,1,400,2|0,0:0|0:0,0:0:0:0:
352,128,21230,2,0,P|336:176|288:192,1,100,0|2,0:0|0:0,0:0:0:0:
192,160,22153,1,0,0:0:0:0:
128,240,22615,1,2,0:0:0:0:
208,176,23076,2,0,P|240:256|272:256,1,100,0|2,0:0|0:0,0:0:0:0:
336,272,24000,2,0,L|416:192,1,100,0|2,0:0|0:0,0:0:0:0:
336,144,24923,2,0,L|265:214,1,100,0|2,0:0|0:0,0:0:0:0:
176,256,25846,5,0,0:0:0:0:
96,192,26307,1,2,0:0:0:0:
160,112,26769,2,0,L|192:160,1,50
272,96,27461,2,0,B|304:160|336:144|400:144|400:144|416:208|384:240,1,250
352,336,29076,1,2,0:0:0:0:
256,304,29538,6,0,B|176:256|192:224|192:224|224:176|224:176|192:160|160:112|256:80,1,300,0|2,0:0|0:0,0:0:0:0:
320,144,31384,1,0,0:0:0:0:
400,208,31846,1,2,0:0:0:0:
304,240,32307,1,0,0:0:0:0:
224,176,32769,1,2,0:0:0:0:
128,144,33230,6,0,B|96:208|128:256|128:256|224:240|256:272|256:272|304:208,1,300,0|2,0:0|0:0,0:0:0:0:
224,160,35076,2,0,L|304:80,1,100,0|2,0:0|0:0,0:0:0:0:
384,128,36000,2,0,P|384:192|352:224,1,100,0|2,0:0|0:0,0:0:0:0:
272,272,36923,6,0,B|224:240|256:208|256:208|208:144|208:144|176:192|112:272,1,300,0|2,0:0|0:0,0:0:0:0:
64,176,38769,2,0,L|176:160,1,100,0|2,0:0|0:0,0:0:0:0:
224,240,39692,1,0,0:0:0:0:
288,160,40153,1,2,0:0:0:0:
192,128,40615,6,0,L|288:96,1,100,0|2,0:0|0:0,0:0:0:0:
384,128,41538,2,0,L|336:160,3,50,0|0|2|0,0:0|0:0|0:0|0:0,0:0:0:0:
304,176,42461,2,0,B|320:240|288:240|288:240|224:304|224:304|176:256|96:272|96:272|128:224|112:176,1,400
96,80,44769,6,0,P|144:112|192:112,1,100,2|0,0:0|0:0,0:0:0:0:
288,144,45692,2,0,P|239:150|202:120,1,100,2|0,0:0|0:0,0:0:0:0:
112,144,46615,6,0,P|160:176|208:176,1,100,2|0,0:0|0:0,0:0:0:0:
304,208,47538,2,0,P|255:214|218:184,1,100,2|0,0:0|0:0,0:0:0:0:
112,192,48461,6,0,P|160:224|208:224,1,100,2|0,0:0|0:0,0:0:0:0:
304,240,49384,1,2,0:0:0:0:
384,176,49846,1,4,0:0:0:0:
304,128,50307,1,4,0:0:0:0:
208,176,50769,1,4,0:0:0:0:
128,112,51230,1,14,0:0:0:0:
64,176,51692,6,0,B|96:224|144:208|144:208|176:256|240:224,1,200
176,144,53076,1,2,0:0:0:0:
224,64,53538,2,0,B|272:112|272:160|272:160|240:192|272:256,1,200
368,256,54923,1,2,0:0:0:0:
416,176,55384,2,0,P|320:176|304:192,1,100,0|2,0:0|0:0,0:0:0:0:
256,240,56307,2,0,P|160:240|144:224,1,100,0|2,0:0|0:0,0:0:0:0:
96,176,57230,2,0,B|160:144|208:160|240:192|240:192|272:160|352:160|352:160|336:128,1,300
256,80,59076,6,0,P|240:144|256:176,1,100,0|2,0:0|0:0,0:0:0:0:
352,208,60000,1,0,0:0:0:0:
272,272,60461,1,2,0:0:0:0:
176,240,60923,2,0,B|112:208|112:208|144:176|144:176|112:144|112:144|160:112,1,200
240,160,62307,1,2,0:0:0:0:
304,80,62769,2,0,B|352:144|384:144|384:144|352:192|368:256|400:288,1,250
288,304,64615,2,0,B|256:256|192:256|192:256|224:208|192:160|192:160|256:160|288:144,1,300
176,128,66461,5,0,0:0:0:0:
80,160,66923,2,0,B|112:224|144:224|144:224|176:272|176:272|224:240,1,200,2|0,0:0|0:0,0:0:0:0:
208,144,68307,5,0,0:0:0:0:
304,160,68769,2,0,B|336:208|336:256|336:256|384:272|432:224,1,200,2|0,0:0|0:0,0:0:0:0:
384,144,70153,5,0,0:0:0:0:
288,128,70615,1,2,0:0:0:0:
256,224,71076,2,0,L|176:144,1,100,0|2,0:0|0:0,0:0:0:0:
128,64,72000,5,0,0:0:0:0:
96,96,72230,1,0,0:0:0:0:
80,144,72461,2,0,B|128:192|160:176|160:176|208:208|208:208|256:160,1,200,2|0,0:0|0:0,0:0:0:0:
320,112,73846,5,0,0:0:0:0:
272,208,74307,2,0,B|336:208|384:176|384:176|416:208|416:208|416:256,1,200,2|0,0:0|0:0,0:0:0:0:
336,288,75692,5,0,0:0:0:0:
240,256,76153,2,0,B|288:224|272:192|272:192|336:128|336:128|320:80,1,200,2|0,0:0|0:0,0:0:0:0:
224,96,77538,5,0,0:0:0:0:
144,144,78000,2,0,B|136:209|136:209|227:193|227:193|240:249,1,200,2|0,0:0|0:0,0:0:0:0:
320,272,79384,1,0,0:0:0:0:
304,176,79846,5,2,0:0:0:0:
400,176,80307,2,0,B|368:112|368:112|336:96,1,100,0|2,0:0|0:0,0:0:0:0:
192,80,81461,2,0,B|144:112|144:112|192:128|192:128|144:160|144:160|144:240|144:240|192:272|192:272|240:272,1,350
80,192,86769,6,2,L|160:128,1,100,2|6,0:0|0:0,0:0:0:0:
256,160,87692,2,0,P|280:163|299:148,2,50,4|4|4,0:0|0:0|0:0,0:0:0:0:
176,224,88615,6,0,P|224:256|272:256,1,100
352,304,89538,2,0,P|368:240|352:192,1,100
336,160,90230,2,0,P|288:128|240:128,1,100
192,128,90923,2,0,P|128:144|96:176,1,100
192,224,91846,1,0,0:0:0:0:
96,256,92307,1,0,0:0:0:0:
176,320,92769,6,0,B|224:272|224:272|256:288|256:288|272:240|272:240|224:208|224:208|256:176|256:176|224:144,1,300
128,176,94615,1,0,0:0:0:0:
144,80,95076,2,0,B|208:112|208:112|240:112,1,100
304,176,96000,5,0,0:0:0:0:
368,96,96461,1,0,0:0:0:0:
400,192,96923,1,0,0:0:0:0:
336,272,97384,1,0,0:0:0:0:
288,272,97615,2,0,P|224:304|192:288,1,100
160,272,98307,2,0,B|192:224|192:224|160:192,1,100
64,176,99230,6,0,B|91:134|91:134|75:86,1,100
176,80,100153,1,0,0:0:0:0:
224,160,100615,2,0,L|256:160,2,25
128,160,101307,2,0,B|128:208|144:224|144:224|176:256|176:256|224:256|224:256|272:256|320:208,1,250
400,272,102923,1,0,0:0:0:0:
416,176,103384,6,0,B|384:128|336:128|336:128|336:192|272:208,1,200
224,288,104769,1,0,0:0:0:0:
128,272,105230,2,0,B|144:208|192:192|192:192|160:160|160:160|208:128|192:128,1,200
288,160,106615,5,0,0:0:0:0:
336,80,107076,2,0,B|384:112|384:160|384:160|448:192|448:192|432:240,1,200
336,240,108461,1,0,0:0:0:0:
272,320,108923,2,0,B|240:272|240:224|240:224|176:208|176:160,1,200
80,144,110307,5,0,0:0:0:0:
144,64,110769,2,0,B|192:112|192:112|224:112,1,100
320,96,111692,2,0,B|368:112|416:144|416:144|416:240,1,200
320,256,113076,2,0,B|320:192|320:192|288:176,1,100
208,240,114000,5,0,0:0:0:0:
112,208,114461,2,0,P|160:160|160:128,1,100
240,80,115384,2,0,L|288:128,3,50
320,112,116307,2,0,B|368:160|368:208|368:208|320:208|320:208|320:272|256:256|256:256,1,250
208,256,117692,6,0,P|176:208|192:160,1,100
224,80,118615,6,0,P|192:128|208:176,1,100
256,256,119538,6,0,P|224:208|240:160,1,100
272,80,120461,6,0,P|240:128|256:176,1,100
288,256,121384,6,0,P|256:208|272:160,1,100
304,80,122307,6,0,P|272:128|288:176,1,100
336,240,123230,1,0,0:0:0:0:
400,160,123692,1,4,0:0:0:0:
320,96,124153,1,4,0:0:0:0:
240,160,124615,1,4,0:0:0:0:
304,240,125076,1,4,0:0:0:0:
