osu file format v14

[General]
AudioFilename: audio.mp3
AudioLeadIn: 0
PreviewTime: 125601
Countdown: 0
SampleSet: Soft
StackLeniency: 0.7
Mode: 0
LetterboxInBreaks: 0
WidescreenStoryboard: 1

[Editor]
Bookmarks: 176,14945,29714,44483,51868,66637,81406,103560,118329,125714,140483,155252,171868,186637,201406,216176
DistanceSpacing: 0.8
BeatDivisor: 4
GridSize: 4
TimelineZoom: 1.9

[Metadata]
Title:drop pop candy
TitleUnicode:drop pop candy
Artist:Reol
ArtistUnicode:れをる
Creator:Nyantiaz
Version:Nyan x Mono's Lovestruck
Source:
Tags:Megurine Luka Kagamine Rin Giga-P key No title Japanese utaite Mononymous J-Pop Pop
BeatmapID:2792767
BeatmapSetID:1348735

[Difficulty]
HPDrainRate:5.5
CircleSize:4.2
OverallDifficulty:8
ApproachRate:9
SliderMultiplier:1.85
SliderTickRate:1

[Events]
//Background and Video events
0,0,"nostalgia2.jpg",0,0
//Break Periods
2,85299,87960
//Storyboard Layer 0 (Background)
//Storyboard Layer 1 (Fail)
//Storyboard Layer 2 (Pass)
//Storyboard Layer 3 (Foreground)
//Storyboard Layer 4 (Overlay)
//Storyboard Sound Samples

[TimingPoints]
176,461.538461538462,4,2,1,50,1,0
176,-125,4,2,1,50,0,0
1560,-125,4,2,1,50,0,0
1676,-125,4,2,1,5,0,0
1791,-125,4,2,1,50,0,0
1906,-125,4,2,1,5,0,0
2022,-125,4,2,1,50,0,0
5252,-125,4,2,1,50,0,0
5368,-125,4,2,1,5,0,0
5483,-125,4,2,1,50,0,0
5599,-125,4,2,1,5,0,0
5714,-125,4,2,1,50,0,0
7099,-90.9090909090909,4,2,1,50,0,0
7560,-100,4,2,1,70,0,0
14945,-125,4,2,1,60,0,0
29714,-117.647058823529,4,2,1,65,0,0
51868,-90.9090909090909,4,2,1,80,0,1
81406,-125,4,2,1,60,0,0
103560,-117.647058823529,4,2,1,65,0,0
125714,-90.9090909090909,4,2,1,80,0,1
155252,-117.647058823529,4,2,1,60,0,0
171868,-90.9090909090909,4,2,1,80,0,1
201406,-100,4,2,1,70,0,0
208791,-117.647058823529,4,2,1,60,0,0

[Colours]
Combo1 : 255,132,132
Combo2 : 255,128,0
Combo3 : 155,255,55
Combo4 : 255,255,85
SliderTrackOverride : 0,26,26

[HitObjects]
109,74,176,5,2,0:0:0:0:
109,74,406,1,2,0:0:0:0:
217,30,637,2,0,P|227:71|210:125,1,74,8|2,0:1|0:3,0:0:0:0:
112,225,1099,5,2,0:0:0:0:
112,225,1329,1,2,0:0:0:0:
224,194,1560,2,0,L|271:193,1,37,2|0,0:1|0:0,0:0:0:0:
335,255,1791,2,0,L|382:254,1,37,2|0,0:1|0:0,0:0:0:0:
476,163,2022,5,2,0:0:0:0:
377,94,2252,2,0,L|382:183,1,74,0|2,0:0|0:1,0:0:0:0:
498,148,2714,2,0,L|492:313,1,148,2|2,0:0|0:0,0:0:0:0:
336,354,3406,1,2,0:0:0:0:
435,359,3637,1,2,0:0:0:0:
300,258,3868,5,2,0:0:0:0:
300,258,4099,1,2,0:0:0:0:
217,346,4329,2,0,P|180:354|136:341,1,74,8|2,0:1|0:3,0:0:0:0:
122,337,4676,1,2,0:0:0:0:
106,325,4791,5,2,0:0:0:0:
15,236,5022,1,2,0:0:0:0:
110,117,5252,2,0,L|105:180,1,37,2|0,0:1|0:0,0:0:0:0:
196,217,5483,2,0,L|193:180,1,37,2|0,0:1|0:0,0:0:0:0:
256,76,5714,5,2,0:0:0:0:
339,157,5945,2,0,P|389:151|433:153,1,74,2|8,0:0|0:0,0:0:0:0:
336,290,6406,1,2,0:0:0:0:
321,278,6522,1,2,0:0:0:0:
304,266,6637,5,2,0:0:0:0:
276,219,6752,1,0,0:0:0:0:
224,206,6867,1,0,0:0:0:0:
178,235,6983,1,0,0:0:0:0:
167,288,7099,2,0,P|127:331|21:306,1,152.625004657746,8|0,0:0|0:0,0:0:0:0:
4,254,7560,6,0,L|0:155,1,92.5,4|0,0:0|0:0,0:0:0:0:
137,78,8022,1,8,0:0:0:0:
13,43,8252,1,0,0:0:0:0:
123,154,8483,2,0,P|169:151|212:95,1,92.5,2|0,0:0|0:0,0:0:0:0:
314,4,8945,1,8,0:0:0:0:
296,130,9176,1,0,0:0:0:0:
472,68,9406,5,2,0:0:0:0:
370,97,9636,1,0,0:0:0:0:
488,148,9868,1,8,0:0:0:0:
289,120,10099,2,0,L|294:245,1,92.5,2|0,0:0|0:0,0:0:0:0:
399,349,10560,1,2,0:0:0:0:
435,212,10791,1,8,0:0:0:0:
298,295,11022,1,8,0:0:0:0:
483,365,11252,6,0,L|486:272,1,92.5,2|0,0:0|0:0,0:0:0:0:
374,158,11714,1,8,0:0:0:0:
393,276,11945,1,0,0:0:0:0:
438,117,12176,2,0,P|400:88|340:89,1,92.5,2|0,0:0|0:0,0:0:0:0:
266,220,12637,1,8,0:0:0:0:
374,158,12868,1,0,0:0:0:0:
176,137,13099,5,2,0:0:0:0:
245,302,13329,1,0,0:0:0:0:
285,104,13560,1,8,0:0:0:0:
155,239,13791,1,8,0:3:0:0:
155,239,13906,1,8,0:3:0:0:
155,239,14022,5,8,0:0:0:0:
343,276,14252,1,0,0:0:0:0:
183,117,14483,1,8,0:0:0:0:
147,336,14714,1,8,0:0:0:0:
377,251,14945,5,4,1:2:0:0:
377,251,15176,2,0,L|373:337,1,74,2|8,0:0|0:0,0:0:0:0:
274,208,15637,1,2,0:0:0:0:
274,208,15868,2,0,P|206:183|146:221,1,148,4|8,0:3|0:0,0:0:0:0:
216,345,16560,6,0,P|224:302|219:271,1,74,2|4,0:0|0:3,0:0:0:0:
57,333,17022,1,2,0:0:0:0:
146,220,17252,1,8,0:0:0:0:
48,353,17483,1,2,0:0:0:0:
1,241,17714,1,4,0:3:0:0:
1,241,17945,2,0,L|5:162,1,74,2|8,0:0|0:0,0:0:0:0:
86,107,18406,6,0,L|81:28,1,74,2|4,0:0|0:3,0:0:0:0:
4,167,18868,1,2,0:0:0:0:
86,107,19099,2,0,P|129:99|158:113,1,74,8|0,0:0|0:0,0:0:0:0:
259,198,19560,2,0,P|313:204|354:169,1,111,4|0,0:3|0:0,0:0:0:0:
372,132,20022,1,8,0:0:0:0:
280,102,20252,1,2,0:0:0:0:
406,237,20483,5,4,0:3:0:0:
406,237,20714,2,0,L|484:228,1,74,2|8,0:0|0:0,0:0:0:0:
346,372,21176,2,0,L|268:363,1,74,2|4,0:0|0:3,0:0:0:0:
412,315,21637,1,2,0:0:0:0:
412,315,21868,2,0,L|490:306,1,74,8|0,0:0|0:0,0:0:0:0:
272,363,22329,5,4,0:3:0:0:
207,296,22560,2,0,P|171:288|137:302,1,74,2|8,0:0|0:0,0:0:0:0:
272,363,23022,1,2,0:0:0:0:
344,258,23252,2,0,L|341:179,1,74,4|0,0:3|0:0,0:0:0:0:
269,124,23714,1,8,0:0:0:0:
269,124,23945,6,0,L|272:45,1,74,2|4,0:0|0:3,0:0:0:0:
341,184,24406,1,2,0:0:0:0:
258,133,24637,1,8,0:0:0:0:
165,194,24868,1,2,0:0:0:0:
65,116,25099,1,4,0:3:0:0:
165,194,25329,2,0,L|160:269,1,74,2|8,0:0|0:0,0:0:0:0:
23,360,25791,1,2,0:0:0:0:
97,309,26022,5,2,0:0:0:0:
97,309,26483,1,10,0:0:0:0:
16,271,26714,1,2,0:0:0:0:
181,347,26945,5,4,0:3:0:0:
181,347,27060,1,2,0:0:0:0:
181,347,27176,1,2,0:0:0:0:
255,306,27406,1,8,0:0:0:0:
161,153,27637,6,0,L|84:142,1,74,2|4,0:0|0:3,0:0:0:0:
173,237,28099,2,0,L|250:226,1,74,2|8,0:0|0:0,0:0:0:0:
447,139,28560,5,2,0:0:0:0:
379,190,28791,2,0,L|302:179,1,74,4|0,0:3|0:0,0:0:0:0:
164,109,29252,1,10,0:0:0:0:
246,226,29483,1,2,0:0:0:0:
218,55,29714,6,0,P|169:33|87:97,1,157.250002999306,4|8,1:2|0:0,0:0:0:0:
124,223,30406,1,2,0:0:0:0:
164,109,30637,1,4,0:3:0:0:
40,176,30868,1,2,0:0:0:0:
98,303,31099,2,0,L|194:304,1,78.6250014996529,8|0,0:0|0:0,0:0:0:0:
339,230,31560,5,4,0:3:0:0:
245,187,31791,2,0,P|236:220|242:267,1,78.6250014996529,2|8,0:0|0:0,0:0:0:0:
310,147,32252,2,0,P|276:117|172:156,1,157.250002999306,2|0,0:0|0:0,0:0:0:0:
117,251,32945,1,8,0:0:0:0:
89,85,33176,1,2,0:0:0:0:
245,187,33406,6,0,L|237:351,1,157.250002999306,4|8,0:3|0:0,0:0:0:0:
117,251,34099,1,2,0:0:0:0:
245,187,34329,1,4,0:3:0:0:
105,242,34560,1,2,0:0:0:0:
260,199,34791,2,0,L|331:263,1,78.6250014996529,8|0,0:0|0:0,0:0:0:0:
481,218,35252,5,4,0:3:0:0:
453,130,35483,2,0,L|394:77,1,78.6250014996529,2|8,0:0|0:0,0:0:0:0:
239,100,35945,2,0,P|274:109|322:98,1,78.6250014996529,2|4,0:0|0:3,0:0:0:0:
161,46,36406,1,2,0:0:0:0:
190,181,36637,1,8,0:0:0:0:
279,33,36868,1,2,0:0:0:0:
106,124,37099,6,0,B|81:200|129:194|107:279,1,157.250002999306,4|8,1:2|0:0,0:0:0:0:
20,198,37791,1,2,0:0:0:0:
190,181,38022,2,0,L|188:277,1,78.6250014996529,4|2,0:3|0:0,0:0:0:0:
184,368,38483,1,8,0:0:0:0:
266,312,38714,1,2,0:0:0:0:
107,278,38944,5,4,0:3:0:0:
266,312,39176,2,0,B|305:300|305:300|340:312,1,78.6250014996529,2|8,0:0|0:0,0:0:0:0:
264,181,39637,2,0,B|225:193|225:193|190:181,1,78.6250014996529,2|4,0:0|0:3,0:0:0:0:
309,82,40099,1,2,0:0:0:0:
342,193,40329,1,8,0:0:0:0:
227,108,40560,1,2,0:0:0:0:
402,123,40791,6,0,L|378:296,2,157.250002999306,4|8|4,1:2|0:0|0:3,0:0:0:0:
311,26,41945,1,2,0:0:0:0:
311,26,42060,2,0,P|274:33|219:19,1,78.6250014996529,2|0,0:0|0:0,0:0:0:0:
197,2,42406,1,2,0:0:0:0:
226,148,42637,5,4,0:3:0:0:
116,94,42868,1,2,0:0:0:0:
134,215,43099,1,8,0:0:0:0:
283,204,43329,2,0,P|302:168|298:114,1,78.6250014996529,2|4,0:0|0:3,0:0:0:0:
211,264,43791,1,2,0:0:0:0:
370,305,44022,1,8,0:0:0:0:
256,358,44252,1,2,0:0:0:0:
383,214,44483,5,4,1:2:0:0:
226,148,44714,1,2,0:0:0:0:
252,82,44945,1,8,0:0:0:0:
318,108,45176,1,2,0:0:0:0:
291,174,45406,1,4,1:2:0:0:
90,227,45637,5,2,0:0:0:0:
247,253,45868,1,8,0:0:0:0:
124,305,46099,1,2,0:0:0:0:
226,148,46329,5,4,1:2:0:0:
90,227,46560,1,2,0:0:0:0:
61,161,46791,1,8,0:0:0:0:
126,133,47022,1,2,0:0:0:0:
154,199,47252,1,4,1:2:0:0:
23,23,47483,5,2,0:0:0:0:
184,73,47714,1,8,0:0:0:0:
61,161,47945,1,2,0:0:0:0:
201,63,48176,1,4,1:2:0:0:
290,176,48406,5,2,0:0:0:0:
262,242,48636,1,8,0:0:0:0:
197,214,48867,1,2,0:0:0:0:
226,148,49098,1,4,1:2:0:0:
350,263,49329,5,2,0:0:0:0:
271,315,49560,1,8,0:0:0:0:
179,292,49791,1,2,0:0:0:0:
114,222,50022,6,0,P|57:215|16:255,1,117.937502249479,4|0,0:3|0:0,0:0:0:0:
7,301,50483,2,0,L|11:385,1,78.6250014996529,4|0,0:3|0:0,0:0:0:0:
167,158,50945,6,0,P|223:151|264:191,1,117.937502249479,4|0,0:3|0:0,0:0:0:0:
274,236,51406,2,0,L|270:320,1,78.6250014996529,8|0,0:0|0:0,0:0:0:0:
458,247,51868,5,6,1:2:0:0:
331,164,52099,1,2,0:0:0:0:
416,318,52329,1,8,0:0:0:0:
480,156,52560,1,2,0:0:0:0:
337,293,52791,1,4,0:3:0:0:
337,293,52906,1,2,0:0:0:0:
337,293,53022,2,0,B|287:312|287:312|233:291,1,101.750003105164,2|8,0:0|0:0,0:0:0:0:
163,193,53483,1,2,0:0:0:0:
337,91,53714,5,4,0:3:0:0:
247,210,53945,1,2,0:0:0:0:
219,22,54176,1,8,0:0:0:0:
410,119,54406,1,2,0:0:0:0:
176,116,54637,1,4,0:3:0:0:
398,30,54868,1,2,0:0:0:0:
324,234,55099,1,8,0:0:0:0:
247,32,55329,1,2,0:0:0:0:
452,129,55560,6,0,P|479:181|456:269,1,152.625004657746,4|0,0:3|0:0,0:0:0:0:
430,286,56022,1,8,0:0:0:0:
310,222,56252,1,2,0:0:0:0:
328,378,56483,1,4,0:3:0:0:
190,269,56714,2,0,P|138:283|85:263,1,101.750003105164,2|8,0:0|0:0,0:0:0:0:
241,164,57176,1,2,0:0:0:0:
241,164,57291,1,2,0:0:0:0:
241,164,57406,6,0,L|230:384,1,203.500006210327,4|8,0:3|0:0,0:0:0:0:
100,253,58099,1,2,0:0:0:0:
100,253,58214,1,2,0:0:0:0:
100,253,58329,1,4,0:3:0:0:
190,269,58560,1,2,0:0:0:0:
92,355,58791,2,0,B|39:360|39:360|2:316,1,101.750003105164,8|0,0:0|0:0,0:0:0:0:
162,164,59252,5,6,1:2:0:0:
13,186,59483,1,2,0:0:0:0:
183,244,59714,1,8,0:0:0:0:
0,184,59945,1,2,0:0:0:0:
162,64,60176,1,4,0:3:0:0:
162,64,60291,1,2,0:0:0:0:
162,64,60406,2,0,P|225:57|296:54,1,101.750003105164,2|8,0:0|0:0,0:0:0:0:
366,156,60868,1,2,0:0:0:0:
183,244,61099,5,4,0:3:0:0:
259,135,61329,1,2,0:0:0:0:
265,318,61560,1,8,0:0:0:0:
97,233,61791,1,2,0:0:0:0:
314,235,62022,1,4,0:3:0:0:
114,324,62253,1,2,0:0:0:0:
299,318,62483,1,8,0:0:0:0:
127,227,62714,1,2,0:0:0:0:
350,243,62945,6,0,P|396:222|385:128,1,152.625004657746,4|0,0:3|0:0,0:0:0:0:
361,113,63406,1,8,0:0:0:0:
459,58,63637,1,2,0:0:0:0:
337,32,63868,1,4,0:3:0:0:
503,129,64099,2,0,P|491:184|499:232,1,101.750003105164,2|8,0:0|0:0,0:0:0:0:
378,360,64560,1,2,0:0:0:0:
378,360,64676,1,2,0:0:0:0:
378,360,64791,6,0,P|390:305|382:257,1,101.750003105164,4|2,0:3|0:0,0:0:0:0:
256,160,65252,1,8,0:0:0:0:
146,284,65483,1,2,0:0:0:0:
146,284,65599,1,2,0:0:0:0:
146,284,65714,2,0,P|184:288|232:263,1,50.8750015525818,4|0,0:3|0:0,0:0:0:0:
98,194,65945,2,0,P|67:216|49:268,1,50.8750015525818,4|0,0:3|0:0,0:0:0:0:
183,136,66176,2,0,P|166:116|145:102,1,50.8750015525818,8|0,0:0|0:0,0:0:0:0:
278,192,66406,2,0,P|288:169|292:143,1,50.8750015525818,8|0,0:0|0:0,0:0:0:0:
324,310,66637,5,4,1:2:0:0:
196,285,66868,1,2,0:0:0:0:
371,181,67099,1,8,0:0:0:0:
389,361,67329,1,2,0:0:0:0:
218,277,67560,2,0,P|199:230|208:180,1,101.750003105164,4|0,0:3|0:0,0:0:0:0:
230,152,67906,1,0,0:0:0:0:
230,152,68022,1,8,0:0:0:0:
134,211,68252,1,2,0:0:0:0:
324,310,68483,6,0,P|344:259|333:207,1,101.750003105164,4|0,1:2|0:0,0:0:0:0:
213,360,68945,1,8,0:0:0:0:
324,310,69176,1,2,0:0:0:0:
93,215,69406,2,0,L|102:321,1,101.750003105164,4|0,0:3|0:0,0:0:0:0:
112,355,69752,1,0,0:0:0:0:
112,355,69868,1,8,0:0:0:0:
235,276,70099,1,2,0:0:0:0:
413,358,70329,5,4,1:2:0:0:
324,310,70560,1,2,0:0:0:0:
468,165,70791,1,8,0:0:0:0:
418,284,71022,1,2,0:0:0:0:
239,135,71252,2,0,L|236:245,1,101.750003105164,4|0,0:3|0:0,0:0:0:0:
235,276,71599,1,0,0:0:0:0:
235,276,71714,1,8,0:0:0:0:
316,194,71945,1,2,0:0:0:0:
407,286,72176,5,4,1:2:0:0:
503,210,72406,1,2,0:0:0:0:
391,161,72637,1,8,0:0:0:0:
459,354,72868,2,0,P|413:375|364:363,1,101.750003105164,2|4,0:0|0:3,0:0:0:0:
189,202,73329,5,2,0:0:0:0:
110,265,73559,1,8,0:0:0:0:
202,305,73790,1,2,0:0:0:0:
50,216,74022,6,0,P|28:261|40:310,1,101.750003105164,4|0,1:2|0:0,0:0:0:0:
258,233,74483,1,8,0:0:0:0:
158,170,74714,1,2,0:0:0:0:
342,89,74945,2,0,L|338:191,1,101.750003105164,4|0,0:3|0:0,0:0:0:0:
336,226,75291,1,0,0:0:0:0:
336,226,75406,1,8,0:0:0:0:
243,125,75637,1,2,0:0:0:0:
427,243,75868,6,0,P|406:289|362:314,1,101.750003105164,4|0,1:2|0:0,0:0:0:0:
179,352,76329,1,8,0:0:0:0:
258,233,76560,1,2,0:0:0:0:
77,307,76791,2,0,L|73:190,1,101.750003105164,4|0,0:3|0:0,0:0:0:0:
70,169,77137,1,0,0:0:0:0:
70,169,77252,1,8,0:0:0:0:
161,269,77483,1,2,0:0:0:0:
306,118,77714,5,4,1:2:0:0:
219,158,77945,1,2,0:0:0:0:
92,30,78176,1,8,0:0:0:0:
179,70,78407,1,2,0:0:0:0:
23,210,78637,2,0,L|20:99,1,101.750003105164,4|0,0:3|0:0,0:0:0:0:
20,72,78983,1,0,0:0:0:0:
20,72,79099,1,8,0:0:0:0:
113,146,79329,1,2,0:0:0:0:
276,26,79560,5,4,0:3:0:0:
179,70,79791,1,2,0:0:0:0:
352,186,80022,2,0,P|365:137|358:87,1,101.750003105164,8|0,0:0|0:0,0:0:0:0:
220,264,80483,5,4,0:3:0:0:
145,212,80714,1,2,0:0:0:0:
220,264,80945,1,8,0:0:0:0:
352,186,81176,2,0,P|404:177|448:204,1,101.750003105164,2|4,0:0|0:0,0:0:0:0:
256,192,81637,12,0,85099,0:0:0:0:
109,102,88560,5,2,0:0:0:0:
225,44,88791,2,0,L|218:128,1,74,4|0,1:2|0:0,0:0:0:0:
199,237,89252,1,8,0:0:0:0:
279,203,89483,1,2,0:0:0:0:
207,316,89714,2,0,P|164:309|127:198,1,148,4|8,0:3|0:0,0:0:0:0:
279,203,90406,6,0,L|299:363,1,148,2|0,0:0|0:0,0:0:0:0:
403,277,91099,2,0,L|481:283,1,74,8|0,0:0|0:0,0:0:0:0:
509,153,91560,1,4,0:3:0:0:
449,89,91791,2,0,P|426:123|424:170,1,74,2|8,0:0|0:0,0:0:0:0:
509,153,92252,1,2,0:0:0:0:
374,54,92483,6,0,B|336:63|336:63|302:55,1,74,4|0,0:3|0:0,0:0:0:0:
208,164,92945,1,8,0:0:0:0:
202,75,93176,1,2,0:0:0:0:
150,220,93406,2,0,P|197:243|283:197,1,148,4|8,0:3|0:0,0:0:0:0:
208,164,94099,1,2,0:0:0:0:
106,295,94329,5,4,0:3:0:0:
20,217,94560,2,0,P|26:181|12:125,1,74,2|8,0:0|0:0,0:0:0:0:
111,25,95022,2,0,P|105:61|111:97,1,74,2|4,0:0|0:3,0:0:0:0:
208,164,95483,1,2,0:0:0:0:
308,45,95714,2,0,L|210:48,1,74,8|0,0:0|0:0,0:0:0:0:
313,210,96176,5,4,0:3:0:0:
380,139,96406,1,2,0:0:0:0:
437,212,96637,1,8,0:0:0:0:
504,141,96867,1,2,0:0:0:0:
476,292,97099,2,0,B|427:285|427:285|382:313|382:313|318:304,1,148,4|8,0:3|0:0,0:0:0:0:
260,226,97791,6,0,P|288:282|213:339,1,148,2|0,0:0|0:0,0:0:0:0:
183,207,98483,2,0,P|203:171|265:151,1,74,8|0,0:0|0:0,0:0:0:0:
101,159,98945,1,4,0:3:0:0:
225,80,99176,2,0,L|231:171,1,74,2|8,0:0|0:0,0:0:0:0:
138,71,99637,1,2,0:0:0:0:
308,15,99868,6,0,L|305:155,1,111,2|0,1:2|0:0,0:0:0:0:
304,158,100329,1,10,0:0:0:0:
298,284,100560,1,2,0:0:0:0:
430,218,100791,1,4,0:3:0:0:
430,218,100906,1,2,0:0:0:0:
430,218,101022,2,0,P|471:226|513:214,1,74,2|8,0:0|0:0,0:0:0:0:
323,144,101483,6,0,L|330:227,1,74,2|4,0:0|0:3,0:0:0:0:
426,60,101945,2,0,L|419:143,1,74,2|8,0:0|0:0,0:0:0:0:
332,58,102406,1,2,0:0:0:0:
214,158,102637,2,0,P|174:165|133:155,1,74,4|0,0:3|0:0,0:0:0:0:
256,64,103099,1,10,0:0:0:0:
266,221,103329,1,2,0:0:0:0:
137,85,103560,6,0,B|162:122|162:122|151:235,1,157.250002999306,4|8,1:2|0:0,0:0:0:0:
85,346,104252,1,2,0:0:0:0:
0,279,104483,1,4,0:3:0:0:
151,224,104714,1,2,0:0:0:0:
225,297,104945,2,0,P|245:266|251:224,1,78.6250014996529,8|0,0:0|0:0,0:0:0:0:
151,224,105406,5,4,0:3:0:0:
314,296,105637,1,2,0:0:0:0:
398,255,105868,1,8,0:0:0:0:
298,305,106099,2,0,L|210:294,1,78.6250014996529,2|4,0:0|0:3,0:0:0:0:
34,365,106560,2,0,L|121:354,1,78.6250014996529,2|8,0:0|0:0,0:0:0:0:
219,295,107022,1,2,0:0:0:0:
117,202,107252,6,0,B|118:140|118:140|109:112|109:112|113:46,1,157.250002999306,4|8,0:3|0:0,0:0:0:0:
216,11,107945,1,2,0:0:0:0:
27,130,108176,1,4,0:3:0:0:
27,130,108406,2,0,L|28:51,1,78.6250014996529,2|8,0:0|0:0,0:0:0:0:
117,202,108868,1,2,0:0:0:0:
207,151,109099,5,4,0:3:0:0:
61,267,109329,2,0,P|91:286|135:281,1,78.6250014996529,2|8,0:0|0:0,0:0:0:0:
345,152,109791,2,0,P|293:121|207:150,1,157.250002999306,2|0,0:0|0:0,0:0:0:0:
274,219,110483,1,8,0:0:0:0:
120,119,110714,1,2,0:0:0:0:
292,45,110945,6,0,P|347:44|390:88,1,117.937502249479,4|0,1:2|0:0,0:0:0:0:
397,112,111406,1,8,0:0:0:0:
502,30,111637,1,2,0:0:0:0:
502,30,111868,2,0,L|492:109,1,78.6250014996529,4|0,0:3|0:0,0:0:0:0:
401,102,112329,2,0,L|411:181,1,78.6250014996529,8|0,0:0|0:0,0:0:0:0:
482,277,112791,5,4,0:3:0:0:
414,321,113022,1,2,0:0:0:0:
327,265,113252,1,8,0:0:0:0:
204,316,113483,2,0,P|189:277|194:239,1,78.6250014996529,2|4,0:0|0:3,0:0:0:0:
327,265,113945,5,2,0:0:0:0:
414,321,114175,1,8,0:0:0:0:
482,277,114406,1,2,0:0:0:0:
408,175,114637,6,0,P|365:140|305:144,1,117.937502249479,4|0,1:2|0:0,0:0:0:0:
283,171,115099,2,0,L|203:159,1,78.6250014996529,8|0,0:0|0:0,0:0:0:0:
12,86,115560,1,4,0:3:0:0:
99,161,115791,1,2,0:0:0:0:
99,161,115906,2,0,P|109:203|97:241,1,78.6250014996529,2|0,0:0|0:0,0:0:0:0:
73,261,116252,1,2,0:0:0:0:
225,354,116483,5,4,0:3:0:0:
175,299,116714,1,2,0:0:0:0:
247,283,116945,1,8,0:0:0:0:
400,353,117176,2,0,L|407:269,1,78.6250014996529,2|4,0:0|0:3,0:0:0:0:
313,126,117637,5,2,0:0:0:0:
318,199,117868,1,8,0:0:0:0:
391,194,118099,1,2,0:0:0:0:
386,120,118329,5,4,1:2:0:0:
226,188,118560,1,2,0:0:0:0:
198,101,118791,1,8,0:0:0:0:
112,150,119022,1,2,0:0:0:0:
3,34,119252,5,4,1:2:0:0:
190,0,119483,1,2,0:0:0:0:
223,112,119714,1,8,0:0:0:0:
168,212,119945,1,2,0:0:0:0:
3,173,120176,5,4,1:2:0:0:
90,338,120406,1,2,0:0:0:0:
104,254,120637,1,8,0:0:0:0:
26,283,120868,1,2,0:0:0:0:
196,357,121099,5,4,1:2:0:0:
309,295,121329,1,2,0:0:0:0:
149,189,121560,1,8,0:0:0:0:
352,121,121791,1,2,0:0:0:0:
141,11,122022,5,4,1:2:0:0:
258,167,122252,1,2,0:0:0:0:
359,138,122483,1,8,0:0:0:0:
448,158,122714,1,2,0:0:0:0:
288,58,122945,5,4,1:2:0:0:
344,245,123176,1,2,0:0:0:0:
283,347,123406,1,8,0:0:0:0:
404,335,123637,1,2,0:0:0:0:
229,257,123868,6,0,P|189:289|171:351,1,117.937502249479,4|0,0:3|0:0,0:0:0:0:
190,380,124329,2,0,L|93:366,1,78.6250014996529,4|0,0:3|0:0,0:0:0:0:
2,252,124791,6,0,P|42:220|60:158,1,117.937502249479,4|0,0:3|0:0,0:0:0:0:
41,129,125252,2,0,L|138:143,1,78.6250014996529,4|0,0:3|0:0,0:0:0:0:
288,64,125714,5,6,1:2:0:0:
205,259,125945,1,2,0:0:0:0:
119,141,126176,1,8,0:0:0:0:
250,193,126406,1,2,0:0:0:0:
412,111,126637,1,4,0:3:0:0:
412,111,126752,1,2,0:0:0:0:
412,111,126868,2,0,B|424:159|424:159|412:210,1,101.750003105164,2|8,0:0|0:0,0:0:0:0:
304,347,127329,1,2,0:0:0:0:
470,274,127560,5,4,0:3:0:0:
250,193,127791,1,2,0:0:0:0:
397,365,128022,1,8,0:0:0:0:
479,260,128252,1,2,0:0:0:0:
304,347,128483,1,4,0:3:0:0:
489,363,128714,1,2,0:0:0:0:
332,196,128945,1,8,0:0:0:0:
399,360,129176,1,2,0:0:0:0:
228,296,129406,6,0,P|156:310|109:255,1,152.625004657746,4|0,0:3|0:0,0:0:0:0:
97,216,129868,1,8,0:0:0:0:
200,108,130099,1,2,0:0:0:0:
74,50,130329,1,4,0:3:0:0:
187,229,130560,2,0,L|194:126,1,101.750003105164,2|8,0:0|0:0,0:0:0:0:
0,29,131022,1,2,0:0:0:0:
0,29,131137,1,2,0:0:0:0:
0,29,131252,6,0,L|10:240,1,203.500006210327,4|8,0:3|0:0,0:0:0:0:
165,336,131945,1,2,0:0:0:0:
165,336,132060,1,2,0:0:0:0:
165,336,132176,1,4,0:3:0:0:
22,360,132406,1,2,0:0:0:0:
164,203,132637,2,0,B|218:191|218:191|257:217,1,101.750003105164,8|0,0:0|0:0,0:0:0:0:
376,346,133099,5,6,1:2:0:0:
308,156,133329,1,2,0:0:0:0:
370,363,133560,1,8,0:0:0:0:
468,221,133791,1,2,0:0:0:0:
265,324,134022,1,4,0:3:0:0:
265,324,134137,1,2,0:0:0:0:
265,324,134252,2,0,L|261:217,1,101.750003105164,2|8,0:0|0:0,0:0:0:0:
170,122,134714,1,2,0:0:0:0:
338,31,134945,5,4,0:3:0:0:
257,126,135176,1,2,0:0:0:0:
89,53,135406,1,8,0:0:0:0:
220,22,135637,1,2,0:0:0:0:
23,121,135868,2,0,P|1:69|8:16,1,101.750003105164,4|2,0:3|0:0,0:0:0:0:
154,178,136329,1,8,0:0:0:0:
23,121,136560,1,2,0:0:0:0:
220,22,136791,6,0,B|253:66|253:66|244:166,1,152.625004657746,4|0,0:3|0:0,0:0:0:0:
235,202,137252,1,8,0:0:0:0:
121,107,137483,1,2,0:0:0:0:
320,43,137714,1,4,0:3:0:0:
154,178,137945,2,0,P|140:233|151:276,1,101.750003105164,2|8,0:0|0:0,0:0:0:0:
333,205,138406,1,2,0:0:0:0:
333,205,138522,1,2,0:0:0:0:
333,205,138637,6,0,P|288:227|239:218,1,101.750003105164,4|2,0:3|0:0,0:0:0:0:
91,149,139099,1,8,0:0:0:0:
243,113,139329,1,2,0:0:0:0:
243,113,139445,1,2,0:0:0:0:
243,113,139560,2,0,P|235:90|220:69,1,50.8750015525818,4|0,0:3|0:0,0:0:0:0:
184,194,139791,2,0,P|206:206|230:211,1,50.8750015525818,4|0,0:3|0:0,0:0:0:0:
91,149,140022,2,0,P|91:174|99:198,1,50.8750015525818,8|0,0:0|0:0,0:0:0:0:
42,57,140252,2,0,P|20:69|3:89,1,50.8750015525818,8|0,0:0|0:3,0:3:0:0:
14,251,140483,5,4,1:2:0:0:
91,149,140714,1,2,0:0:0:0:
141,311,140945,1,8,0:0:0:0:
10,171,141176,1,2,0:0:0:0:
188,62,141406,2,0,P|241:75|290:60,1,101.750003105164,4|0,0:3|0:0,0:0:0:0:
312,34,141752,1,0,0:0:0:0:
312,34,141868,1,8,0:0:0:0:
299,192,142099,1,2,0:0:0:0:
480,128,142329,5,4,1:2:0:0:
354,108,142560,1,2,0:0:0:0:
243,243,142791,1,8,0:0:0:0:
369,223,143022,1,2,0:0:0:0:
201,140,143252,2,0,L|76:129,1,101.750003105164,4|0,0:3|0:0,0:0:0:0:
64,128,143599,1,0,0:0:0:0:
64,128,143714,1,8,0:0:0:0:
120,233,143945,1,2,0:0:0:0:
227,60,144176,6,0,L|352:49,1,101.750003105164,4|0,1:2|0:0,0:0:0:0:
464,166,144637,1,8,0:0:0:0:
451,77,144868,1,2,0:0:0:0:
347,203,145099,2,0,P|334:254|358:315,1,101.750003105164,4|0,0:3|0:0,0:0:0:0:
372,334,145445,1,0,0:0:0:0:
372,334,145560,1,8,0:0:0:0:
482,257,145791,1,2,0:0:0:0:
255,288,146022,5,4,1:2:0:0:
336,192,146252,1,2,0:0:0:0:
296,72,146482,1,8,0:0:0:0:
156,136,146714,2,0,L|151:237,1,101.750003105164,2|4,0:0|0:3,0:0:0:0:
324,176,147176,1,2,0:0:0:0:
200,40,147406,1,8,0:0:0:0:
232,196,147637,1,2,0:0:0:0:
42,94,147868,6,0,L|46:195,1,101.750003105164,4|0,1:2|0:0,0:0:0:0:
113,359,148329,1,8,0:0:0:0:
151,237,148560,1,2,0:0:0:0:
256,336,148791,2,0,B|304:319|304:319|352:336,1,101.750003105164,4|0,0:3|0:0,0:0:0:0:
382,357,149137,1,0,0:0:0:0:
382,357,149252,1,8,0:0:0:0:
327,227,149483,1,2,0:0:0:0:
445,84,149714,5,4,1:2:0:0:
448,216,149945,1,2,0:0:0:0:
299,128,150176,2,0,P|287:77|317:10,1,101.750003105164,8|0,0:0|0:0,0:0:0:0:
161,125,150637,2,0,P|174:173|162:222,1,101.750003105164,4|0,0:3|0:0,0:0:0:0:
131,242,150983,1,0,0:0:0:0:
131,242,151099,1,8,0:0:0:0:
127,332,151329,1,2,0:0:0:0:
312,260,151560,5,4,1:2:0:0:
305,169,151790,1,2,0:0:0:0:
229,336,152022,2,0,L|115:332,1,101.750003105164,8|0,0:0|0:0,0:0:0:0:
0,177,152483,2,0,L|114:173,1,101.750003105164,4|0,0:3|0:0,0:0:0:0:
138,171,152829,1,0,0:0:0:0:
138,171,152945,1,8,0:0:0:0:
192,72,153176,1,2,0:0:0:0:
304,227,153406,5,4,0:3:0:0:
285,134,153637,1,2,0:0:0:0:
309,255,153868,2,0,B|361:264|361:264|409:250,1,101.750003105164,8|0,0:0|0:0,0:0:0:0:
482,132,154329,5,4,0:3:0:0:
501,39,154560,1,2,0:0:0:0:
477,160,154791,1,8,0:0:0:0:
506,16,155022,2,0,B|454:7|454:7|406:21,1,101.750003105164,2|4,0:0|0:0,0:0:0:0:
313,99,155483,5,2,0:0:0:0:
313,99,155714,2,0,L|233:86,1,78.6250014996529,8|0,0:0|0:0,0:0:0:0:
89,22,156176,1,4,0:3:0:0:
84,110,156406,1,2,0:0:0:0:
166,67,156637,2,0,P|175:112|166:149,1,78.6250014996529,8|0,0:0|0:0,0:0:0:0:
89,234,157099,6,0,L|-1:215,2,78.6250014996529,4|0|8,0:3|0:0|0:0,0:0:0:0:
177,281,157791,2,0,L|253:264,1,78.6250014996529,2|4,0:0|0:3,0:0:0:0:
307,195,158252,2,0,P|340:233|344:274,1,78.6250014996529,2|8,0:0|0:0,0:0:0:0:
215,329,158714,1,2,0:0:0:0:
215,329,158945,6,0,P|225:291|253:264,1,78.6250014996529,4|0,0:3|0:0,0:0:0:0:
411,298,159406,1,8,0:0:0:0:
411,298,159868,1,4,0:3:0:0:
480,254,160099,1,2,0:0:0:0:
332,155,160329,1,8,0:0:0:0:
401,199,160560,1,2,0:0:0:0:
484,116,160791,6,0,P|499:73|496:36,2,78.6250014996529,4|0|8,0:3|0:0|0:0,0:0:0:0:
401,199,161483,2,0,L|319:178,1,78.6250014996529,2|4,0:0|0:3,0:0:0:0:
244,109,161945,2,0,L|326:88,1,78.6250014996529,2|8,0:0|0:0,0:0:0:0:
436,38,162406,5,2,0:0:0:0:
436,38,162522,1,2,0:0:0:0:
436,38,162637,2,0,P|373:77|301:36,2,157.250002999306,4|8|4,0:3|0:0|0:3,0:0:0:0:
494,99,163791,1,2,0:0:0:0:
494,99,164022,2,0,L|488:180,1,78.6250014996529,8|0,0:0|0:0,0:0:0:0:
418,278,164483,5,4,0:3:0:0:
418,278,164714,2,0,B|378:254|334:278|358:293|314:317|270:296,1,157.250002999306,2|0,0:0|0:0,0:0:0:0:
183,347,165406,1,4,0:3:0:0:
183,347,165637,2,0,P|167:311|172:272,1,78.6250014996529,2|8,0:0|0:0,0:0:0:0:
251,143,166099,1,2,0:0:0:0:
119,64,166329,5,4,0:3:0:0:
119,64,166560,2,0,P|78:69|50:97,1,78.6250014996529,2|8,0:0|0:0,0:0:0:0:
150,190,167022,1,2,0:0:0:0:
251,143,167252,1,4,0:3:0:0:
136,197,167483,1,2,0:0:0:0:
55,158,167714,1,8,0:0:0:0:
0,216,167945,1,2,0:0:0:0:
196,358,168176,6,0,L|203:234,1,117.937502249479,4|0,0:3|0:0,0:0:0:0:
207,217,168637,2,0,P|166:194|126:201,1,78.6250014996529,8|8,0:0|0:3,0:0:0:0:
112,212,168983,1,8,0:3:0:0:
112,212,169099,1,4,0:3:0:0:
2,127,169329,1,2,0:0:0:0:
47,271,169560,2,0,P|28:219|34:187,1,78.6250014996529,8|0,0:0|0:0,0:0:0:0:
143,52,170022,6,0,L|179:55,2,26.2083338332176,4|0|0,0:3|0:0|0:0,0:0:0:0:
242,102,170483,2,0,L|278:99,2,26.2083338332176,4|0|0,0:3|0:0|0:0,0:0:0:0:
347,33,170945,6,0,L|387:37,6,22.464286142758,4|0|0|0|0|0|0,0:3|0:0|0:0|0:0|0:0|0:0|0:0,0:0:0:0:
411,53,171406,2,0,L|435:49,6,22.464286142758,8|0|0|0|0|0|0,0:0|0:0|0:0|0:0|0:0|0:0|0:0,0:0:0:0:
475,72,171868,6,0,P|458:123|478:176,1,101.750003105164,6|2,1:2|0:0,0:0:0:0:
396,308,172329,1,8,0:0:0:0:
324,192,172560,1,2,0:0:0:0:
211,339,172791,1,4,0:3:0:0:
211,339,172906,1,2,0:0:0:0:
211,339,173022,2,0,P|161:352|103:335,1,101.750003105164,2|8,0:0|0:0,0:0:0:0:
163,209,173483,1,2,0:0:0:0:
306,332,173714,5,4,0:3:0:0:
276,139,173945,1,2,0:0:0:0:
104,266,174176,1,8,0:0:0:0:
320,229,174406,1,2,0:0:0:0:
131,114,174637,5,4,0:3:0:0:
331,238,174868,1,2,0:0:0:0:
86,274,175099,1,8,0:0:0:0:
300,130,175329,1,2,0:0:0:0:
67,191,175560,6,0,P|22:169|49:79,1,152.625004657746,4|0,0:3|0:0,0:0:0:0:
71,69,176022,1,8,0:0:0:0:
146,208,176252,1,2,0:0:0:0:
210,30,176483,1,4,0:3:0:0:
311,153,176714,2,0,L|300:265,1,101.750003105164,2|8,0:0|0:0,0:0:0:0:
495,171,177176,1,2,0:0:0:0:
495,171,177291,1,2,0:0:0:0:
495,171,177406,6,0,P|504:108|422:166,1,203.500006210327,4|8,0:3|0:0,0:0:0:0:
472,294,178099,1,2,0:0:0:0:
472,294,178214,1,2,0:0:0:0:
472,294,178329,1,4,0:3:0:0:
301,254,178560,1,2,0:0:0:0:
410,137,178791,2,0,B|420:189|420:189|396:251,1,101.750003105164,8|0,0:0|0:0,0:0:0:0:
199,290,179252,5,4,1:2:0:0:
259,157,179483,1,2,0:0:0:0:
288,340,179714,1,8,0:0:0:0:
121,256,179945,1,2,0:0:0:0:
199,113,180176,1,4,0:3:0:0:
199,113,180291,1,2,0:0:0:0:
199,113,180406,2,0,P|252:83|312:104,1,101.750003105164,2|8,0:0|0:0,0:0:0:0:
319,230,180868,1,2,0:0:0:0:
119,188,181099,5,4,0:3:0:0:
261,154,181329,1,2,0:0:0:0:
133,284,181560,1,8,0:0:0:0:
105,102,181791,1,2,0:0:0:0:
250,263,182022,5,4,0:3:0:0:
35,234,182252,1,2,0:0:0:0:
265,236,182483,1,8,0:0:0:0:
17,261,182714,1,2,0:0:0:0:
229,341,182945,6,0,B|328:322|282:376|384:371,1,152.625004657746,4|0,0:3|0:0,0:0:0:0:
402,348,183406,1,8,0:0:0:0:
265,236,183637,1,2,0:0:0:0:
468,278,183868,1,4,0:3:0:0:
246,214,184099,2,0,P|180:211|122:195,1,101.750003105164,2|8,0:0|0:0,0:0:0:0:
308,35,184560,1,2,0:0:0:0:
308,35,184676,1,2,0:0:0:0:
308,35,184791,5,4,0:3:0:0:
354,173,185022,1,2,0:0:0:0:
200,117,185252,1,8,0:0:0:0:
430,69,185483,5,2,0:0:0:0:
430,69,185599,1,2,0:0:0:0:
430,69,185714,2,0,L|441:122,1,50.8750015525818,4|0,0:3|0:3,0:3:0:0:
343,222,185945,2,0,L|353:172,1,50.8750015525818,4|0,0:3|0:3,0:3:0:0:
308,43,186176,2,0,L|319:96,1,50.8750015525818,8|0,0:0|0:3,0:3:0:0:
221,196,186407,2,0,L|231:146,1,50.8750015525818,8|0,0:0|0:3,0:3:0:0:
449,175,186637,5,4,1:2:0:0:
339,289,186868,1,2,0:0:0:0:
225,119,187099,1,8,0:0:0:0:
340,304,187329,1,2,0:0:0:0:
349,73,187560,2,0,P|363:122|353:172,1,101.750003105164,4|0,0:3|0:0,0:0:0:0:
326,203,187906,1,0,0:0:0:0:
326,203,188022,2,0,L|224:192,1,101.750003105164,8|0,0:0|0:0,0:0:0:0:
29,42,188483,5,4,1:2:0:0:
103,224,188714,1,2,0:0:0:0:
200,48,188945,1,8,0:0:0:0:
20,149,189176,1,2,0:0:0:0:
200,48,189406,2,0,L|193:163,1,101.750003105164,4|0,0:3|0:0,0:0:0:0:
185,189,189752,1,0,0:0:0:0:
185,189,189868,2,0,L|192:304,1,101.750003105164,8|0,0:0|0:0,0:0:0:0:
68,351,190329,5,4,1:2:0:0:
191,290,190560,1,2,0:0:0:0:
282,343,190791,1,8,0:0:0:0:
376,291,191022,1,2,0:0:0:0:
500,360,191252,2,0,P|502:293|490:255,1,101.750003105164,4|0,0:3|0:0,0:0:0:0:
467,227,191599,1,0,0:0:0:0:
467,227,191714,2,0,L|354:206,1,101.750003105164,8|0,0:0|0:0,0:0:0:0:
202,42,192176,5,4,1:2:0:0:
307,104,192406,1,2,0:0:0:0:
202,165,192637,1,8,0:0:0:0:
361,28,192868,2,0,P|391:69|398:119,1,101.750003105164,2|4,0:0|0:3,0:0:0:0:
287,306,193329,5,2,0:0:0:0:
392,244,193559,1,8,0:0:0:0:
287,183,193790,1,2,0:0:0:0:
194,346,194022,6,0,P|138:350|97:321,1,101.750003105164,4|0,1:2|0:0,0:0:0:0:
9,143,194483,1,8,0:0:0:0:
63,247,194714,1,2,0:0:0:0:
163,124,194945,2,0,P|211:110|258:127,1,101.750003105164,4|0,0:3|0:0,0:0:0:0:
289,153,195291,1,0,0:0:0:0:
289,153,195406,2,0,L|282:47,1,101.750003105164,8|0,0:0|0:0,0:0:0:0:
404,156,195868,5,4,1:2:0:0:
497,12,196099,1,2,0:0:0:0:
282,51,196329,1,8,0:0:0:0:
483,159,196560,1,2,0:0:0:0:
336,225,196791,2,0,L|342:327,1,101.750003105164,4|0,0:3|0:0,0:0:0:0:
332,365,197137,1,0,0:0:0:0:
332,365,197252,2,0,P|290:336|240:332,1,101.750003105164,8|0,0:0|0:0,0:0:0:0:
25,360,197714,5,4,1:2:0:0:
210,192,197945,1,2,0:0:0:0:
129,327,198176,1,8,0:0:0:0:
31,141,198406,1,2,0:0:0:0:
210,192,198637,2,0,P|226:144|217:94,1,101.750003105164,4|0,0:3|0:0,0:0:0:0:
194,60,198983,1,0,0:0:0:0:
194,60,199099,1,8,0:0:0:0:
31,141,199329,1,2,0:0:0:0:
31,141,199445,1,0,0:0:0:0:
31,141,199560,5,4,0:3:0:0:
256,95,199791,1,2,0:0:0:0:
98,264,200022,1,8,0:0:0:0:
126,35,200252,1,2,0:0:0:0:
239,238,200483,1,4,0:3:0:0:
123,18,200714,1,2,0:0:0:0:
98,264,200945,1,8,0:0:0:0:
255,95,201176,2,0,P|305:87|345:115,1,101.750003105164,2|4,0:0|0:0,0:0:0:0:
417,269,201637,5,2,0:0:0:0:
496,155,201868,2,0,L|486:50,1,92.5,8|0,0:0|0:0,0:0:0:0:
383,189,202329,1,4,0:3:0:0:
383,189,202560,1,2,0:0:0:0:
498,265,202791,2,0,L|488:370,1,92.5,8|0,0:0|0:0,0:0:0:0:
315,288,203252,5,4,0:3:0:0:
417,269,203483,1,2,0:0:0:0:
348,378,203714,1,8,0:0:0:0:
246,359,203945,1,2,0:0:0:0:
269,197,204176,1,4,0:3:0:0:
320,302,204406,1,2,0:0:0:0:
188,226,204637,2,0,P|185:178|211:133,1,92.5,8|0,0:0|0:0,0:0:0:0:
365,45,205099,6,0,L|246:52,1,92.5,4|0,0:3|0:0,0:0:0:0:
112,133,205560,2,0,L|231:140,1,92.5,8|0,0:0|0:0,0:0:0:0:
384,148,206022,1,4,0:3:0:0:
272,50,206252,1,2,0:0:0:0:
222,217,206483,2,0,P|212:277|232:330,1,92.5,8|0,0:0|0:0,0:0:0:0:
237,339,206829,1,0,0:0:0:0:
237,339,206945,5,4,0:3:0:0:
315,285,207176,1,2,0:0:0:0:
141,302,207406,2,0,B|95:316|95:316|52:300,1,92.5,8|0,0:0|0:0,0:0:0:0:
114,158,207868,2,0,B|240:135|182:211|321:183,1,185,4|8,0:3|0:0,0:0:0:0:
409,76,208560,1,2,0:0:0:0:
409,76,208676,1,0,0:0:0:0:
409,76,208791,6,0,L|409:170,1,78.6250014996529,4|0,1:2|0:0,0:0:0:0:
446,257,209252,2,0,P|407:265|362:250,1,78.6250014996529,8|0,0:0|0:0,0:0:0:0:
290,187,209714,1,4,0:3:0:0:
255,278,209945,1,2,0:0:0:0:
136,216,210176,2,0,L|136:320,1,78.6250014996529,8|0,0:0|0:0,0:0:0:0:
19,179,210637,6,0,L|19:75,1,78.6250014996529,4|0,0:3|0:0,0:0:0:0:
88,32,211099,1,8,0:0:0:0:
155,100,211329,2,0,P|239:132|304:89,1,157.250002999306,2|0,0:0|0:0,0:0:0:0:
408,9,212022,1,8,0:0:0:0:
387,136,212252,1,2,0:0:0:0:
511,36,212483,6,0,B|488:69|488:69|503:139,1,78.6250014996529,4|0,0:3|0:0,0:0:0:0:
510,201,212945,1,8,0:0:0:0:
387,136,213176,1,2,0:0:0:0:
320,268,213406,2,0,L|421:257,1,78.6250014996529,4|0,0:3|0:0,0:0:0:0:
364,352,213752,1,2,0:0:0:0:
364,352,213868,2,0,L|263:341,1,78.6250014996529,8|0,0:0|0:0,0:0:0:0:
159,234,214329,5,4,0:3:0:0:
87,321,214560,2,0,P|31:322|0:311,1,78.6250014996529,2|8,0:0|0:0,0:0:0:0:
13,220,215022,1,2,0:0:0:0:
159,234,215252,2,0,P|215:235|246:224,1,78.6250014996529,4|0,0:3|0:0,0:0:0:0:
264,213,215599,2,0,P|320:212|351:223,1,78.6250014996529,2|0,0:0|0:0,0:0:0:0:
367,236,215945,1,2,0:0:0:0:
486,179,216176,6,0,L|488:89,1,78.6250014996529,4|0,1:2|0:0,0:0:0:0:
345,31,216637,2,0,B|298:4|252:24|275:38|233:58|194:37,1,157.250002999306,8|4,0:0|0:3,0:0:0:0:
87,25,217329,1,2,0:0:0:0:
87,25,217560,2,0,P|107:59|114:98,1,78.6250014996529,8|0,0:0|0:0,0:0:0:0:
51,191,218022,5,4,0:3:0:0:
208,141,218252,1,2,0:0:0:0:
208,141,218483,2,0,P|188:174|181:213,1,78.6250014996529,8|0,0:0|0:0,0:0:0:0:
240,313,218945,5,4,0:3:0:0:
157,362,219176,2,0,L|76:354,1,78.6250014996529,2|8,0:0|0:0,0:0:0:0:
240,313,219637,1,2,0:0:0:0:
356,360,219868,6,0,P|408:357|434:334,1,78.6250014996529,4|0,0:3|0:0,0:0:0:0:
443,314,220214,1,2,0:0:0:0:
443,314,220329,2,0,L|447:225,1,78.6250014996529,8|0,0:0|0:0,0:0:0:0:
363,109,220791,6,0,P|324:107|291:127,1,78.6250014996529,4|0,0:3|0:0,0:0:0:0:
278,157,221137,1,2,0:0:0:0:
278,157,221252,2,0,L|189:153,1,78.6250014996529,8|0,0:0|0:0,0:0:0:0:
43,74,221714,5,4,0:3:0:0:
138,201,221945,2,0,P|143:155|133:117,1,78.6250014996529,2|8,0:0|0:0,0:0:0:0:
43,74,222406,1,2,0:0:0:0:
0,161,222637,2,0,L|5:243,1,78.6250014996529,4|0,0:3|0:0,0:0:0:0:
7,271,222983,1,0,0:0:0:0:
7,271,223099,1,8,0:0:0:0:
138,201,223329,1,2,0:0:0:0:
