osu file format v14

[General]
AudioFilename: audio.mp3
AudioLeadIn: 0
PreviewTime: 125601
Countdown: 0
SampleSet: Soft
StackLeniency: 0.7
Mode: 0
LetterboxInBreaks: 0
WidescreenStoryboard: 0

[Editor]
Bookmarks: 29716,103562
DistanceSpacing: 1.1
BeatDivisor: 4
GridSize: 32
TimelineZoom: 1

[Metadata]
Title:drop pop candy
TitleUnicode:drop pop candy
Artist:Reol
ArtistUnicode:れをる
Creator:Nyantiaz
Version:Hard
Source:
Tags:Megurine Luka Kagamine Rin Giga-P key No title Japanese utaite Mononymous J-Pop Pop
BeatmapID:2792766
BeatmapSetID:1348735

[Difficulty]
HPDrainRate:4.5
CircleSize:3.7
OverallDifficulty:6
ApproachRate:7.3
SliderMultiplier:1.6
SliderTickRate:1

[Events]
//Background and Video events
0,0,"nostalgia.jpg",0,0
//Break Periods
2,85299,87706
//Storyboard Layer 0 (Background)
//Storyboard Layer 1 (Fail)
//Storyboard Layer 2 (Pass)
//Storyboard Layer 3 (Foreground)
//Storyboard Layer 4 (Overlay)
//Storyboard Sound Samples

[TimingPoints]
176,461.538461538462,4,2,1,50,1,0
176,-117.647058823529,4,2,1,50,0,0
7560,-100,4,2,1,70,0,0
14945,-100,4,2,1,60,0,0
50022,-111.111111111111,4,2,1,60,0,0
51868,-90.9090909090909,4,2,1,80,0,1
81406,-100,4,2,1,60,0,0
88791,-100,4,2,1,60,0,0
123868,-111.111111111111,4,2,1,60,0,0
125714,-90.9090909090909,4,2,1,80,0,1
155252,-100,4,2,1,60,0,0
170022,-111.111111111111,4,2,1,60,0,0
171868,-90.9090909090909,4,2,1,80,0,1
201406,-95.2380952380952,4,2,1,70,0,0
208791,-111.111111111111,4,2,1,60,0,0

[Colours]
Combo1 : 255,132,132
Combo2 : 255,128,0
Combo3 : 155,255,55
Combo4 : 255,255,85
SliderTrackOverride : 0,26,26

[HitObjects]
105,64,176,6,0,P|126:108|126:158,1,68.0000012969971,2|2,0:0|0:0,0:0:0:0:
173,196,637,2,0,L|254:199,1,68.0000012969971,8|2,0:1|0:3,0:0:0:0:
320,168,1099,1,2,0:0:0:0:
387,217,1329,1,2,0:0:0:0:
450,162,1560,2,0,B|457:124|457:124|447:74,1,68.0000012969971,2|2,0:1|0:1,0:0:0:0:
385,40,2022,6,0,P|342:39|289:31,2,68.0000012969971,2|0|2,0:0|0:0|0:1,0:0:0:0:
367,124,2714,2,0,P|297:132|285:206,1,136.000002593994,2|2,0:0|0:0,0:0:0:0:
331,257,3406,2,0,L|319:349,1,68.0000012969971,2|2,0:0|0:0,0:0:0:0:
242,353,3868,6,0,L|232:279,1,68.0000012969971,2|2,0:0|0:0,0:0:0:0:
217,203,4329,1,8,0:1:0:0:
139,227,4560,1,2,0:3:0:0:
139,227,4676,1,2,0:0:0:0:
139,227,4791,2,0,P|85:233|52:224,1,68.0000012969971,2|2,0:0|0:0,0:0:0:0:
24,161,5252,2,0,B|32:123|32:123|14:69,1,68.0000012969971,2|2,0:1|0:1,0:0:0:0:
72,25,5714,5,2,0:0:0:0:
129,92,5945,2,0,L|207:87,1,68.0000012969971,2|8,0:0|0:0,0:0:0:0:
271,37,6406,1,2,0:0:0:0:
271,37,6522,1,2,0:0:0:0:
271,37,6637,1,2,0:0:0:0:
317,106,6868,1,0,0:0:0:0:
399,101,7099,2,0,L|408:227,1,102.000001945496,8|0,0:0|0:0,0:0:0:0:
380,248,7560,6,0,P|315:286|233:273,1,160,4|8,0:0|0:0,0:0:0:0:
155,235,8252,1,0,0:0:0:0:
67,221,8483,2,0,P|82:184|112:158,1,80,2|0,0:0|0:0,0:0:0:0:
200,157,8945,2,0,P|229:130|245:94,1,80,8|0,0:0|0:0,0:0:0:0:
319,46,9406,6,0,L|402:44,1,80,2|0,0:0|0:0,0:0:0:0:
472,93,9868,1,8,0:0:0:0:
439,174,10099,2,0,L|267:165,1,160,2|2,0:0|0:0,0:0:0:0:
206,215,10791,1,8,0:0:0:0:
263,281,11022,1,8,0:0:0:0:
195,337,11252,6,0,B|97:363|132:303|38:327,1,160,2|8,0:0|0:0,0:0:0:0:
13,242,11945,1,0,0:0:0:0:
41,158,12176,2,0,L|123:161,1,80,2|0,0:0|0:0,0:0:0:0:
187,219,12637,2,0,L|269:216,1,80,8|0,0:0|0:0,0:0:0:0:
342,170,13099,6,0,P|354:199|348:247,1,80,2|0,0:0|0:0,0:0:0:0:
301,320,13560,1,8,0:0:0:0:
387,367,13791,1,8,0:3:0:0:
387,367,13906,1,8,0:3:0:0:
387,367,14022,2,0,L|471:356,1,80,8|0,0:0|0:0,0:0:0:0:
505,277,14483,1,8,0:0:0:0:
450,208,14714,1,8,0:0:0:0:
505,139,14945,6,0,L|497:50,1,80,4|2,1:2|0:0,0:0:0:0:
415,26,15406,2,0,P|361:26|329:39,1,80,8|2,0:0|0:0,0:0:0:0:
275,98,15868,2,0,B|225:77|225:77|112:95,1,160,4|8,0:3|0:0,0:0:0:0:
37,65,16560,6,0,L|62:246,1,160,2|2,0:0|0:0,0:0:0:0:
40,309,17252,2,0,P|83:309|119:288,1,80,8|2,0:0|0:0,0:0:0:0:
153,214,17714,1,4,0:3:0:0:
153,214,17945,2,0,P|190:261|174:354,1,160,2|2,0:0|0:0,0:0:0:0:
259,372,18637,6,0,P|299:359|357:359,1,80,4|2,0:3|0:0,0:0:0:0:
411,310,19099,2,0,L|418:221,1,80,8|0,0:0|0:0,0:0:0:0:
477,165,19560,2,0,B|419:158|419:158|382:131|382:131|318:123,1,160,4|8,0:3|0:0,0:0:0:0:
255,176,20252,1,2,0:0:0:0:
202,111,20483,5,4,0:3:0:0:
202,111,20714,2,0,P|175:149|181:211,1,80,2|8,0:0|0:0,0:0:0:0:
223,252,21176,2,0,L|58:231,1,160,2|2,0:0|0:0,0:0:0:0:
18,157,21868,2,0,P|23:117|48:86,1,80,8|0,0:0|0:0,0:0:0:0:
129,51,22329,6,0,P|169:60|240:54,1,80,4|2,0:3|0:0,0:0:0:0:
289,26,22791,2,0,P|329:17|400:23,1,80,8|2,0:0|0:0,0:0:0:0:
449,50,23252,2,0,P|420:118|413:225,1,160,4|8,0:3|0:0,0:0:0:0:
489,244,23945,6,0,P|444:229|391:314,1,160,2|2,0:0|0:0,0:0:0:0:
302,294,24637,2,0,P|309:249|333:203,1,80,8|2,0:0|0:0,0:0:0:0:
356,135,25099,1,4,0:3:0:0:
297,69,25329,2,0,P|235:64|181:152,1,160,2|2,0:0|0:0,0:0:0:0:
97,168,26022,6,0,B|123:215|166:221|166:221|134:280|143:310,1,160,2|10,0:0|0:0,0:0:0:0:
197,353,26714,1,2,0:0:0:0:
279,313,26945,1,4,0:3:0:0:
279,313,27060,1,2,0:0:0:0:
279,313,27176,2,0,L|368:311,1,80,2|8,0:0|0:0,0:0:0:0:
405,236,27637,6,0,L|316:234,1,80,2|4,0:0|0:3,0:0:0:0:
280,157,28099,2,0,L|359:158,1,80,2|8,0:0|0:0,0:0:0:0:
421,95,28560,1,2,0:0:0:0:
367,24,28791,2,0,L|287:22,1,80,4|0,0:3|0:0,0:0:0:0:
233,92,29252,1,10,0:0:0:0:
233,92,29483,1,2,0:0:0:0:
159,42,29714,6,0,P|74:39|41:106,1,160,4|8,1:2|0:0,0:0:0:0:
46,184,30406,1,2,0:0:0:0:
95,256,30637,2,0,P|139:245|185:217,1,80,4|2,0:3|0:0,0:0:0:0:
239,174,31099,2,0,P|283:185|329:213,1,80,8|0,0:0|0:0,0:0:0:0:
359,276,31560,6,0,L|347:368,2,80,4|2|8,0:3|0:0|0:0,0:0:0:0:
437,236,32252,2,0,B|409:191|409:191|420:79,1,160,2|0,0:0|0:0,0:0:0:0:
337,51,32945,2,0,L|326:140,1,80,8|2,0:0|0:0,0:0:0:0:
266,194,33406,6,0,B|180:165|198:238|96:202,1,160,4|8,0:3|0:0,0:0:0:0:
30,173,34099,1,2,0:0:0:0:
78,100,34329,2,0,P|115:94|161:102,1,80,4|2,0:3|0:0,0:0:0:0:
225,44,34791,2,0,P|262:50|308:42,1,80,8|0,0:0|0:0,0:0:0:0:
378,90,35252,6,0,L|372:185,2,80,4|2|8,0:3|0:0|0:0,0:0:0:0:
461,61,35945,2,0,L|451:239,1,160,2|2,0:0|0:0,0:0:0:0:
450,308,36637,1,8,0:0:0:0:
384,256,36868,1,2,0:0:0:0:
384,256,37099,6,0,P|286:241|260:309,1,160,4|8,1:2|0:0,0:0:0:0:
201,347,37791,1,2,0:0:0:0:
146,277,38022,2,0,L|61:265,1,80,4|2,0:3|0:0,0:0:0:0:
31,185,38483,2,0,P|82:185|120:171,1,80,8|2,0:0|0:0,0:0:0:0:
187,134,38945,5,4,0:3:0:0:
278,136,39176,1,2,0:0:0:0:
278,136,39406,1,8,0:0:0:0:
360,104,39637,2,0,L|374:277,1,160,2|2,0:0|0:0,0:0:0:0:
402,346,40329,2,0,L|301:336,1,80,8|2,0:0|0:0,0:0:0:0:
257,277,40791,6,0,L|96:296,2,160,4|8|4,1:2|0:0|0:3,0:0:0:0:
319,215,41945,1,2,0:0:0:0:
319,215,42060,1,2,0:0:0:0:
319,215,42176,2,0,P|321:161|297:106,1,80,8|2,0:0|0:0,0:0:0:0:
260,66,42637,5,4,0:3:0:0:
178,91,42868,1,2,0:0:0:0:
178,91,43099,1,8,0:0:0:0:
102,47,43329,2,0,L|84:227,1,160,2|2,0:0|0:0,0:0:0:0:
116,294,44022,1,8,0:0:0:0:
116,294,44252,1,2,0:0:0:0:
189,342,44483,6,0,P|256:352|282:334,1,80,4|2,1:2|0:0,0:0:0:0:
329,288,44945,1,8,0:0:0:0:
290,211,45176,1,2,0:0:0:0:
306,124,45406,2,0,P|351:119|399:141,1,80,4|2,1:2|0:0,0:0:0:0:
457,178,45868,2,0,L|476:93,1,80,8|2,0:0|0:0,0:0:0:0:
423,27,46329,6,0,B|382:31|382:31|332:19,1,80,4|2,1:2|0:0,0:0:0:0:
256,10,46791,1,8,0:0:0:0:
197,75,47022,1,2,0:0:0:0:
109,101,47252,2,0,L|115:206,1,80,4|2,1:2|0:0,0:0:0:0:
163,253,47714,2,0,P|124:264|85:260,1,80,8|2,0:0|0:0,0:0:0:0:
94,349,48176,6,0,P|133:353|171:342,1,80,4|2,1:2|0:0,0:0:0:0:
241,281,48637,1,8,0:0:0:0:
297,351,48868,1,2,0:0:0:0:
385,327,49099,2,0,P|390:286|409:237,1,80,4|2,1:2|0:0,0:0:0:0:
471,193,49560,1,8,0:0:0:0:
471,193,49791,1,2,0:0:0:0:
428,112,50022,6,0,P|363:120|307:92,1,107.999996704102,4|0,0:3|0:0,0:0:0:0:
287,90,50483,2,0,P|305:139|296:233,2,143.999995605469,4|4|8,0:3|0:3|0:0,0:0:0:0:
98,45,51868,5,6,1:2:0:0:
124,138,52099,1,2,0:0:0:0:
54,205,52329,2,0,L|45:308,1,88.000002685547,8|2,0:0|0:0,0:0:0:0:
115,360,52791,1,4,0:3:0:0:
115,360,52906,1,2,0:0:0:0:
115,360,53022,2,0,P|192:371|270:297,1,176.000005371094,2|2,0:0|0:0,0:0:0:0:
283,217,53714,6,0,P|331:231|360:280,1,88.000002685547,4|2,0:3|0:0,0:0:0:0:
442,220,54176,2,0,P|435:170|468:124,1,88.000002685547,8|2,0:0|0:0,0:0:0:0:
501,54,54637,1,4,0:3:0:0:
410,19,54868,2,0,P|358:27|321:55,1,88.000002685547,2|8,0:0|0:0,0:0:0:0:
268,122,55329,1,2,0:0:0:0:
186,69,55560,6,0,B|132:61|104:117|104:117|62:89|8:119,1,176.000005371094,4|8,0:3|0:0,0:0:0:0:
19,203,56252,1,2,0:0:0:0:
27,299,56483,1,4,0:3:0:0:
83,377,56714,2,0,P|131:369|179:334,1,88.000002685547,2|8,0:0|0:0,0:0:0:0:
235,283,57176,1,2,0:0:0:0:
235,283,57291,1,2,0:0:0:0:
235,283,57406,6,0,L|214:98,1,176.000005371094,4|8,0:3|0:0,0:0:0:0:
282,37,58099,1,2,0:0:0:0:
282,37,58214,1,2,0:0:0:0:
282,37,58329,1,4,0:3:0:0:
358,96,58560,1,2,0:0:0:0:
443,50,58791,2,0,L|456:156,1,88.000002685547,8|0,0:0|0:0,0:0:0:0:
512,247,59252,6,0,L|499:353,1,88.000002685547,6|2,1:2|0:0,0:0:0:0:
408,362,59714,1,8,0:0:0:0:
346,288,59945,1,2,0:0:0:0:
269,347,60176,1,4,0:3:0:0:
269,347,60291,1,2,0:0:0:0:
269,347,60406,2,0,B|199:347|199:347|166:326|166:326|96:326,1,176.000005371094,2|2,0:0|0:0,0:0:0:0:
30,256,61099,6,0,P|22:208|33:158,1,88.000002685547,4|2,0:3|0:0,0:0:0:0:
87,92,61560,1,8,0:0:0:0:
87,92,61791,1,2,0:0:0:0:
156,159,62022,1,4,0:3:0:0:
237,107,62252,1,2,0:0:0:0:
312,167,62483,2,0,B|346:177|346:177|415:163,1,88.000002685547,8|2,0:0|0:0,0:0:0:0:
468,99,62945,6,0,L|442:288,1,176.000005371094,4|8,0:3|0:0,0:0:0:0:
425,368,63637,1,2,0:0:0:0:
353,302,63868,1,4,0:3:0:0:
282,368,64099,2,0,L|182:359,1,88.000002685547,2|8,0:0|0:0,0:0:0:0:
122,294,64560,1,2,0:0:0:0:
122,294,64676,1,2,0:0:0:0:
122,294,64791,6,0,P|105:245|214:240,1,176.000005371094,4|8,0:3|0:0,0:0:0:0:
289,178,65483,1,2,0:0:0:0:
289,178,65599,1,2,0:0:0:0:
289,178,65714,1,4,0:3:0:0:
246,91,65945,1,4,0:3:0:0:
323,32,66176,2,0,P|369:37|424:56,1,88.000002685547,8|8,0:0|0:0,0:0:0:0:
512,121,66637,6,0,L|498:218,1,88.000002685547,4|2,1:2|0:0,0:0:0:0:
445,289,67099,1,8,0:0:0:0:
355,254,67329,1,2,0:0:0:0:
361,348,67560,2,0,P|294:349|246:319,1,88.000002685547,4|0,0:3|0:0,0:0:0:0:
244,303,67906,2,0,L|259:148,1,132.00000402832,2|2,0:0|0:0,0:0:0:0:
306,88,68483,6,0,P|263:76|220:81,1,88.000002685547,4|0,1:2|0:0,0:0:0:0:
137,132,68945,1,8,0:0:0:0:
67,64,69176,1,2,0:0:0:0:
14,145,69406,2,0,L|0:240,1,88.000002685547,4|0,0:3|0:0,0:0:0:0:
45,252,69752,2,0,L|54:401,1,132.00000402832,2|2,0:0|0:0,0:0:0:0:
174,371,70329,6,0,P|226:366|265:342,1,88.000002685547,4|2,1:2|0:0,0:0:0:0:
209,263,70791,1,8,0:0:0:0:
301,235,71022,1,2,0:0:0:0:
334,325,71252,2,0,P|386:330|425:354,1,88.000002685547,4|0,0:3|0:0,0:0:0:0:
466,336,71599,2,0,P|455:280|474:187,1,132.00000402832,2|2,0:0|0:0,0:0:0:0:
481,81,72176,5,4,1:2:0:0:
406,140,72406,2,0,L|315:145,1,88.000002685547,2|8,0:0|0:0,0:0:0:0:
334,48,72868,2,0,L|153:61,1,176.000005371094,2|2,0:0|0:0,0:0:0:0:
85,124,73560,2,0,P|77:181|96:225,1,88.000002685547,8|2,0:0|0:0,0:0:0:0:
196,289,74022,6,0,P|204:232|185:188,1,88.000002685547,4|0,1:2|0:0,0:0:0:0:
253,119,74483,2,0,P|291:139|334:142,1,88.000002685547,8|2,0:0|0:0,0:0:0:0:
416,89,74945,2,0,P|469:84|497:163,2,132.00000402832,4|2|2,0:3|0:0|0:0,0:0:0:0:
436,220,75868,6,0,L|445:345,1,88.000002685547,4|0,1:2|0:0,0:0:0:0:
348,338,76329,2,0,P|292:347|243:330,1,88.000002685547,8|2,0:0|0:0,0:0:0:0:
176,294,76791,2,0,B|125:279|125:279|33:315,2,132.00000402832,4|2|2,0:3|0:0|0:0,0:0:0:0:
261,190,77714,6,0,L|171:162,1,88.000002685547,4|2,1:2|0:0,0:0:0:0:
92,115,78176,2,0,P|106:75|138:39,1,88.000002685547,8|2,0:0|0:0,0:0:0:0:
230,22,78637,2,0,B|272:54|314:29|314:29|337:28|378:44,2,132.00000402832,4|2|2,0:3|0:0|0:0,0:0:0:0:
220,118,79560,6,0,P|270:130|339:117,1,88.000002685547,4|2,0:3|0:0,0:0:0:0:
401,109,80022,2,0,L|395:203,1,88.000002685547,8|0,0:0|0:0,0:0:0:0:
390,293,80483,2,0,P|340:281|271:294,1,88.000002685547,4|2,0:3|0:0,0:0:0:0:
232,349,80945,1,8,0:0:0:0:
160,283,81176,1,2,0:0:0:0:
82,340,81406,5,4,0:0:0:0:
256,192,81637,12,0,85099,0:0:0:0:
120,91,88560,5,2,0:0:0:0:
196,46,88791,2,0,P|208:91|192:143,1,80,4|0,1:2|0:0,0:0:0:0:
128,172,89252,2,0,P|116:217|132:269,1,80,8|2,0:0|0:0,0:0:0:0:
157,330,89714,2,0,B|240:315|217:368|320:367,1,160,4|8,0:3|0:0,0:0:0:0:
397,338,90406,6,0,B|380:286|316:273|316:273|315:227|287:199,1,160,2|0,0:0|0:0,0:0:0:0:
249,155,91099,2,0,P|294:136|342:142,1,80,8|0,0:0|0:0,0:0:0:0:
398,184,91560,1,4,0:3:0:0:
398,184,91791,1,2,0:0:0:0:
414,48,92252,1,2,0:0:0:0:
324,37,92483,6,0,P|284:36|248:18,1,80,4|0,0:3|0:0,0:0:0:0:
162,38,92945,2,0,L|157:135,1,80,8|2,0:0|0:0,0:0:0:0:
92,177,93406,2,0,B|154:161|154:161|265:194,1,160,4|8,0:3|0:0,0:0:0:0:
323,230,94099,1,2,0:0:0:0:
404,197,94329,5,4,0:3:0:0:
404,197,94560,2,0,L|492:183,1,80,2|8,0:0|0:0,0:0:0:0:
454,100,95022,2,0,L|283:126,1,160,2|2,0:0|0:0,0:0:0:0:
243,194,95714,2,0,P|238:242|259:307,1,80,8|0,0:0|0:0,0:0:0:0:
170,322,96176,6,0,P|134:304|94:298,1,80,4|2,0:3|0:0,0:0:0:0:
25,244,96637,2,0,L|28:159,1,80,8|2,0:0|0:0,0:0:0:0:
92,103,97099,2,0,B|150:118|150:118|274:107,1,160,4|8,0:3|0:0,0:0:0:0:
300,37,97791,5,2,0:0:0:0:
305,181,98252,1,0,0:0:0:0:
223,213,98483,2,0,L|138:222,1,80,8|0,0:0|0:0,0:0:0:0:
94,298,98945,1,4,0:3:0:0:
163,351,99176,2,0,L|242:342,1,80,2|8,0:0|0:0,0:0:0:0:
300,276,99637,1,2,0:0:0:0:
354,345,99868,6,0,L|338:177,1,160,2|10,1:2|0:0,0:0:0:0:
274,125,100560,1,2,0:0:0:0:
341,68,100791,1,4,0:3:0:0:
341,68,100906,1,2,0:0:0:0:
341,68,101022,2,0,P|396:73|428:71,1,80,2|8,0:0|0:0,0:0:0:0:
488,127,101483,6,0,P|486:182|491:213,1,80,2|4,0:0|0:3,0:0:0:0:
424,266,101945,2,0,P|384:265|344:269,1,80,2|8,0:0|0:0,0:0:0:0:
266,228,102406,1,2,0:0:0:0:
185,263,102637,2,0,L|180:171,1,80,4|0,0:3|0:0,0:0:0:0:
239,116,103099,1,10,0:0:0:0:
239,116,103329,1,2,0:0:0:0:
314,71,103560,6,0,P|404:90|450:29,1,160,4|8,1:2|0:0,0:0:0:0:
497,117,104252,1,2,0:0:0:0:
442,186,104483,2,0,B|428:227|428:227|425:270,1,80,4|2,0:3|0:0,0:0:0:0:
351,312,104945,2,0,B|348:275|348:275|334:234,1,80,8|0,0:0|0:0,0:0:0:0:
259,187,105406,6,0,L|171:194,2,80,4|2|8,0:3|0:0|0:0,0:0:0:0:
267,98,106099,2,0,L|438:113,1,160,2|2,0:0|0:0,0:0:0:0:
506,72,106791,2,0,P|515:118|503:158,1,80,8|2,0:0|0:0,0:0:0:0:
501,237,107252,6,0,L|341:223,1,160,4|8,0:3|0:0,0:0:0:0:
276,282,107945,1,2,0:0:0:0:
203,231,108176,2,0,P|187:276|194:318,1,80,4|2,0:3|0:0,0:0:0:0:
276,282,108637,2,0,P|292:237|285:195,1,80,8|2,0:0|0:0,0:0:0:0:
217,153,109099,6,0,L|120:164,1,80,4|2,0:3|0:0,0:0:0:0:
72,102,109560,1,8,0:0:0:0:
139,45,109791,2,0,B|234:23|205:73|295:65,1,160,2|0,0:0|0:0,0:0:0:0:
373,102,110483,1,8,0:0:0:0:
317,170,110714,1,2,0:0:0:0:
317,170,110945,6,0,L|338:337,1,160,4|8,1:2|0:0,0:0:0:0:
416,291,111637,1,2,0:0:0:0:
498,321,111868,2,0,L|501:234,1,80,4|0,0:3|0:0,0:0:0:0:
454,165,112329,2,0,L|451:78,1,80,8|0,0:0|0:0,0:0:0:0:
382,29,112791,6,0,P|323:24|285:42,1,80,4|2,0:3|0:0,0:0:0:0:
344,108,113252,1,8,0:0:0:0:
416,157,113483,2,0,P|321:192|271:155,1,160,2|2,0:0|0:0,0:0:0:0:
189,159,114176,2,0,P|157:202|152:232,1,80,8|2,0:0|0:0,0:0:0:0:
228,271,114637,6,0,L|57:253,2,160,4|8|4,1:2|0:0|0:3,0:0:0:0:
309,238,115791,1,2,0:0:0:0:
309,238,115906,2,0,L|435:233,1,120,2|2,0:0|0:0,0:0:0:0:
490,170,116483,5,4,0:3:0:0:
424,119,116714,1,2,0:0:0:0:
424,119,116945,1,8,0:0:0:0:
340,144,117175,2,0,L|160:130,1,160,2|2,0:0|0:0,0:0:0:0:
116,78,117868,1,8,0:0:0:0:
116,78,118098,1,2,0:0:0:0:
49,135,118329,6,0,B|57:240,1,80,4|2,1:2|0:0,0:0:0:0:
51,303,118791,1,8,0:0:0:0:
127,339,119022,1,2,0:0:0:0:
205,300,119252,2,0,P|252:296|300:294,1,80,4|2,1:2|0:0,0:0:0:0:
322,214,119714,2,0,P|275:210|227:208,1,80,8|2,0:0|0:0,0:0:0:0:
196,132,120176,6,0,P|243:128|306:123,1,80,4|2,1:2|0:0,0:0:0:0:
337,62,120637,1,8,0:0:0:0:
337,62,120868,1,2,0:0:0:0:
424,71,121099,2,0,P|440:113|421:150,1,80,4|2,1:2|0:0,0:0:0:0:
369,210,121560,2,0,P|353:252|372:289,1,80,8|2,0:0|0:0,0:0:0:0:
435,344,122022,6,0,L|327:351,1,80,4|2,1:2|0:0,0:0:0:0:
267,359,122483,1,8,0:0:0:0:
256,271,122714,1,2,0:0:0:0:
182,323,122945,2,0,L|94:308,1,80,4|2,1:2|0:0,0:0:0:0:
40,248,123406,1,8,0:0:0:0:
40,248,123637,1,2,0:0:0:0:
95,179,123868,6,0,P|160:171|216:199,1,107.999996704102,4|0,0:3|0:0,0:0:0:0:
236,201,124329,2,0,P|218:152|227:58,2,143.999995605469,4|4|4,0:3|0:3|0:3,0:0:0:0:
396,308,125714,5,6,1:2:0:0:
465,240,125945,1,2,0:0:0:0:
405,163,126176,2,0,P|359:158|306:174,1,88.000002685547,8|2,0:0|0:0,0:0:0:0:
271,252,126637,1,4,0:3:0:0:
271,252,126752,1,2,0:0:0:0:
271,252,126868,2,0,L|76:246,1,176.000005371094,2|2,0:0|0:0,0:0:0:0:
52,159,127560,6,0,L|227:164,1,176.000005371094,4|8,0:3|0:0,0:0:0:0:
309,111,128252,1,2,0:0:0:0:
376,183,128483,1,4,0:3:0:0:
376,183,128714,1,2,0:0:0:0:
447,117,128945,1,8,0:0:0:0:
386,41,129176,1,2,0:0:0:0:
304,91,129406,6,0,L|128:85,1,176.000005371094,4|8,0:3|0:0,0:0:0:0:
63,158,130099,1,2,0:0:0:0:
122,233,130329,2,0,P|127:292|118:329,1,88.000002685547,4|2,0:3|0:0,0:0:0:0:
217,306,130791,1,8,0:0:0:0:
299,356,131022,1,2,0:0:0:0:
299,356,131137,1,2,0:0:0:0:
299,356,131252,6,0,P|376:334|481:328,1,176.000005371094,4|8,0:3|0:0,0:0:0:0:
494,232,131945,1,2,0:0:0:0:
494,232,132060,1,2,0:0:0:0:
494,232,132176,1,4,0:3:0:0:
418,172,132406,1,2,0:0:0:0:
347,238,132637,2,0,L|238:224,1,88.000002685547,8|0,0:0|0:0,0:0:0:0:
214,122,133099,6,0,L|105:136,1,88.000002685547,6|2,1:2|0:0,0:0:0:0:
33,113,133560,1,8,0:0:0:0:
45,209,133791,1,2,0:0:0:0:
120,269,134022,1,4,0:3:0:0:
120,269,134137,1,2,0:0:0:0:
120,269,134252,2,0,L|309:243,1,176.000005371094,2|2,0:0|0:0,0:0:0:0:
383,283,134945,6,0,P|389:238|360:173,1,88.000002685547,4|2,0:3|0:0,0:0:0:0:
372,100,135406,2,0,P|328:114|283:168,1,88.000002685547,8|2,0:0|0:0,0:0:0:0:
209,183,135868,1,4,0:3:0:0:
239,91,136098,1,2,0:0:0:0:
198,2,136329,2,0,P|154:16|109:70,1,88.000002685547,8|2,0:0|0:0,0:0:0:0:
39,93,136791,6,0,P|122:97|101:168,1,176.000005371094,4|8,0:3|0:0,0:0:0:0:
37,234,137483,1,2,0:0:0:0:
44,330,137714,1,4,0:3:0:0:
124,278,137945,2,0,L|221:268,1,88.000002685547,2|8,0:0|0:0,0:0:0:0:
304,323,138406,1,2,0:0:0:0:
304,323,138522,1,2,0:0:0:0:
304,323,138637,6,0,P|285:250|290:137,1,176.000005371094,4|8,0:3|0:0,0:0:0:0:
350,72,139329,1,2,0:0:0:0:
350,72,139445,1,2,0:0:0:0:
350,72,139560,1,4,0:3:0:0:
446,73,139791,1,4,0:3:0:0:
400,158,140022,1,8,0:0:0:0:
496,159,140252,1,8,0:0:0:0:
449,273,140483,6,0,L|449:379,1,88.000002685547,4|2,1:2|0:0,0:0:0:0:
352,376,140945,1,8,0:0:0:0:
269,325,141176,1,2,0:0:0:0:
177,357,141406,2,0,L|177:235,1,88.000002685547,4|0,0:3|0:0,0:0:0:0:
139,238,141752,2,0,P|205:254|282:226,1,132.00000402832,2|2,0:0|0:0,0:0:0:0:
377,175,142329,6,0,P|354:134|310:109,1,88.000002685547,4|2,1:2|0:0,0:0:0:0:
216,113,142791,1,8,0:0:0:0:
252,23,143022,1,2,0:0:0:0:
156,39,143252,2,0,L|49:47,1,88.000002685547,4|0,0:3|0:0,0:0:0:0:
32,79,143599,2,0,P|62:144|55:207,1,132.00000402832,2|2,0:0|0:0,0:0:0:0:
32,329,144176,6,0,L|119:322,1,88.000002685547,4|0,1:2|0:0,0:0:0:0:
191,251,144637,1,8,0:0:0:0:
184,154,144868,1,2,0:0:0:0:
248,81,145099,2,0,P|294:90|335:87,1,88.000002685547,4|0,0:3|0:0,0:0:0:0:
381,101,145445,2,0,B|442:77|442:77|527:83,1,132.00000402832,2|2,0:0|0:0,0:0:0:0:
477,203,146022,5,4,1:2:0:0:
510,293,146252,2,0,L|422:286,1,88.000002685547,2|8,0:0|0:0,0:0:0:0:
354,216,146714,2,0,P|377:288|314:354,1,176.000005371094,2|2,0:0|0:0,0:0:0:0:
223,318,147406,2,0,P|222:258|228:215,1,88.000002685547,8|2,0:0|0:0,0:0:0:0:
290,103,147868,6,0,P|291:43|285:0,1,88.000002685547,4|0,1:2|0:0,0:0:0:0:
194,35,148329,2,0,P|138:50|89:47,1,88.000002685547,8|2,0:0|0:0,0:0:0:0:
28,105,148791,2,0,P|123:123|145:184,2,132.00000402832,4|2|2,0:3|0:0|0:0,0:0:0:0:
0,270,149714,6,0,P|7:321|7:385,1,88.000002685547,4|2,1:2|0:0,0:0:0:0:
105,342,150176,2,0,P|106:298|113:254,1,88.000002685547,8|0,0:0|0:0,0:0:0:0:
200,216,150637,2,0,P|279:212|338:235,2,132.00000402832,4|2|2,0:3|0:0|0:0,0:0:0:0:
152,100,151560,6,0,P|156:43|171:-10,1,88.000002685547,4|2,1:2|0:0,0:0:0:0:
259,45,152022,2,0,P|268:88|270:131,1,88.000002685547,8|0,0:0|0:0,0:0:0:0:
339,199,152483,2,0,P|428:215|488:198,2,132.00000402832,4|2|2,0:3|0:0|0:0,0:0:0:0:
263,259,153406,6,0,P|288:298|289:344,1,88.000002685547,4|2,0:3|0:0,0:0:0:0:
196,365,153868,2,0,P|151:379|107:368,1,88.000002685547,8|0,0:0|0:0,0:0:0:0:
58,290,154329,2,0,P|33:251|32:205,1,88.000002685547,4|2,0:3|0:0,0:0:0:0:
121,173,154791,1,8,0:0:0:0:
217,179,155021,1,2,0:0:0:0:
294,120,155252,6,0,L|390:112,1,80,4|2,0:0|0:0,0:0:0:0:
381,33,155714,2,0,L|212:46,1,160,8|4,0:0|0:3,0:0:0:0:
141,44,156406,1,2,0:0:0:0:
60,44,156637,2,0,L|60:128,1,80,8|0,0:0|0:0,0:0:0:0:
121,173,157099,6,0,L|121:257,1,80,4|0,0:3|0:0,0:0:0:0:
66,311,157560,1,8,0:0:0:0:
129,359,157791,2,0,B|176:363|205:336|205:336|237:308|303:318,1,160,2|2,0:0|0:0,0:0:0:0:
354,343,158483,2,0,P|395:315|411:278,1,80,8|2,0:0|0:0,0:0:0:0:
352,235,158945,6,0,P|356:189|360:145,1,80,4|0,0:3|0:0,0:0:0:0:
419,102,159406,2,0,P|379:108|259:129,1,160,8|4,0:0|0:3,0:0:0:0:
212,192,160099,2,0,P|215:231|219:271,1,80,2|8,0:0|0:0,0:0:0:0:
159,325,160560,1,2,0:0:0:0:
91,282,160791,6,0,P|87:242|83:202,2,80,4|0|8,0:3|0:0|0:0,0:0:0:0:
159,325,161483,1,2,0:0:0:0:
246,242,161945,2,0,P|249:202|253:162,1,80,2|8,0:0|0:0,0:0:0:0:
191,115,162406,1,2,0:0:0:0:
191,115,162522,1,2,0:0:0:0:
191,115,162637,6,0,P|144:134|25:111,2,160,4|8|4,0:3|0:0|0:3,0:0:0:0:
253,162,163791,1,2,0:0:0:0:
308,219,164022,2,0,L|391:215,1,80,8|0,0:0|0:0,0:0:0:0:
410,138,164483,5,4,0:3:0:0:
366,74,164714,2,0,L|286:70,1,80,2|0,0:0|0:0,0:0:0:0:
236,6,165176,2,0,L|252:168,1,160,2|2,0:0|0:0,0:0:0:0:
185,209,165868,2,0,P|115:212|72:200,1,80,8|2,0:0|0:0,0:0:0:0:
75,284,166329,5,4,0:3:0:0:
101,359,166560,2,0,P|140:355|180:360,1,80,2|8,0:0|0:0,0:0:0:0:
251,322,167022,2,0,L|258:228,1,80,2|4,0:0|0:3,0:0:0:0:
235,164,167483,1,2,0:0:0:0:
298,115,167714,2,0,L|291:21,1,80,8|2,0:0|0:0,0:0:0:0:
374,66,168176,6,0,L|474:74,1,80,4|0,0:3|0:0,0:0:0:0:
482,147,168637,1,8,0:0:0:0:
435,211,168868,1,8,0:3:0:0:
435,211,168983,1,8,0:3:0:0:
435,211,169099,1,4,0:3:0:0:
457,287,169329,1,2,0:0:0:0:
381,278,169560,2,0,L|284:267,1,80,8|0,0:0|0:0,0:0:0:0:
239,205,170022,6,0,P|216:254|239:336,1,107.999996704102,4|0,0:3|0:0,0:0:0:0:
245,337,170483,2,0,L|98:323,2,143.999995605469,4|4|8,0:3|0:3|0:0,0:0:0:0:
86,224,171868,5,6,1:2:0:0:
152,153,172099,1,2,0:0:0:0:
87,81,172329,2,0,P|127:58|197:64,1,88.000002685547,8|2,0:0|0:0,0:0:0:0:
239,128,172791,1,4,0:3:0:0:
239,128,172906,1,2,0:0:0:0:
239,128,173022,2,0,L|415:108,1,176.000005371094,2|2,0:0|0:0,0:0:0:0:
492,51,173714,6,0,P|509:100|506:146,1,88.000002685547,4|2,0:3|0:0,0:0:0:0:
434,199,174176,2,0,P|417:248|420:294,1,88.000002685547,8|2,0:0|0:0,0:0:0:0:
492,344,174637,1,4,0:3:0:0:
402,306,174868,2,0,P|345:310|292:334,1,88.000002685547,2|8,0:0|0:0,0:0:0:0:
236,375,175329,1,2,0:0:0:0:
157,318,175560,6,0,L|168:113,1,176.000005371094,4|8,0:3|0:0,0:0:0:0:
174,45,176252,1,2,0:0:0:0:
84,82,176483,1,4,0:3:0:0:
14,149,176714,2,0,P|20:212|41:252,1,88.000002685547,2|8,0:0|0:0,0:0:0:0:
123,286,177176,1,2,0:0:0:0:
123,286,177291,1,2,0:0:0:0:
123,286,177406,6,0,L|304:265,1,176.000005371094,4|8,0:3|0:0,0:0:0:0:
393,247,178099,1,2,0:0:0:0:
393,247,178214,1,2,0:0:0:0:
393,247,178329,1,4,0:3:0:0:
328,174,178560,1,2,0:0:0:0:
392,102,178791,2,0,P|451:112|488:152,1,88.000002685547,8|0,0:0|0:0,0:0:0:0:
509,249,179252,6,0,P|512:308|481:353,1,88.000002685547,4|2,1:2|0:0,0:0:0:0:
406,363,179714,1,8,0:0:0:0:
322,313,179945,1,2,0:0:0:0:
237,360,180176,1,4,0:3:0:0:
237,360,180291,1,2,0:0:0:0:
237,360,180406,2,0,L|47:347,1,176.000005371094,2|2,0:0|0:0,0:0:0:0:
13,263,181099,5,4,0:3:0:0:
82,195,181329,1,2,0:0:0:0:
18,121,181560,1,8,0:0:0:0:
87,53,181791,1,2,0:0:0:0:
155,121,182022,2,0,L|268:117,1,88.000002685547,4|2,0:3|0:0,0:0:0:0:
315,54,182483,2,0,L|428:58,1,88.000002685547,8|2,0:0|0:0,0:0:0:0:
496,83,182945,6,0,P|417:77|409:168,1,176.000005371094,4|8,0:3|0:0,0:0:0:0:
475,219,183637,1,2,0:0:0:0:
435,307,183868,1,4,0:3:0:0:
351,356,184099,2,0,P|286:359|241:344,1,88.000002685547,2|8,0:0|0:0,0:0:0:0:
200,280,184560,1,2,0:0:0:0:
200,280,184676,1,2,0:0:0:0:
200,280,184791,6,0,B|192:213|192:213|239:187|201:106,1,176.000005371094,4|8,0:3|0:0,0:0:0:0:
137,47,185483,1,2,0:0:0:0:
137,47,185599,1,2,0:0:0:0:
137,47,185714,1,4,0:3:0:0:
226,11,185945,1,4,0:3:0:0:
307,63,186176,1,8,0:0:0:0:
397,27,186407,1,8,0:0:0:0:
498,105,186637,6,0,L|482:195,1,88.000002685547,4|2,1:2|0:0,0:0:0:0:
474,291,187099,1,8,0:0:0:0:
381,264,187329,1,2,0:0:0:0:
292,303,187560,2,0,P|286:245|315:193,1,88.000002685547,4|0,0:3|0:0,0:0:0:0:
332,185,187906,2,0,L|186:198,1,132.00000402832,2|0,0:0|0:0,0:0:0:0:
94,131,188483,6,0,B|79:88|79:88|88:43,1,88.000002685547,4|2,1:2|0:0,0:0:0:0:
178,10,188945,1,8,0:0:0:0:
259,63,189176,1,2,0:0:0:0:
347,24,189406,2,0,P|417:32|467:50,1,88.000002685547,4|0,0:3|0:0,0:0:0:0:
480,24,189752,2,0,P|442:56|416:167,1,132.00000402832,2|0,0:0|0:0,0:0:0:0:
293,177,190329,6,0,B|248:166|248:166|177:185,1,88.000002685547,4|2,1:2|0:0,0:0:0:0:
198,274,190791,1,8,0:0:0:0:
107,238,191022,1,2,0:0:0:0:
15,268,191252,2,0,P|2:215|9:174,1,88.000002685547,4|0,0:3|0:0,0:0:0:0:
33,141,191599,2,0,L|195:157,1,132.00000402832,2|0,0:0|0:0,0:0:0:0:
298,127,192176,5,4,1:2:0:0:
237,202,192406,2,0,L|224:303,1,88.000002685547,2|8,0:0|0:0,0:0:0:0:
293,359,192868,2,0,P|377:366|472:327,1,176.000005371094,2|2,0:0|0:0,0:0:0:0:
497,244,193560,1,8,0:0:0:0:
433,170,193790,1,2,0:0:0:0:
300,162,194022,6,0,P|245:192|210:238,1,88.000002685547,4|0,1:2|0:0,0:0:0:0:
189,302,194483,2,0,P|134:272|99:226,1,88.000002685547,8|2,0:0|0:0,0:0:0:0:
34,202,194945,2,0,L|43:354,2,132.00000402832,4|2|0,0:3|0:0|0:0,0:0:0:0:
76,83,195868,6,0,P|122:85|188:71,1,88.000002685547,4|2,1:2|0:0,0:0:0:0:
256,59,196329,2,0,L|351:64,1,88.000002685547,8|2,0:0|0:0,0:0:0:0:
438,39,196791,2,0,P|381:98|381:173,2,132.00000402832,4|2|0,0:3|0:0|0:0,0:0:0:0:
505,166,197714,6,0,L|508:273,1,88.000002685547,4|2,1:2|0:0,0:0:0:0:
409,232,198176,2,0,L|406:339,1,88.000002685547,8|2,0:0|0:0,0:0:0:0:
317,358,198637,2,0,P|216:369|175:343,2,132.00000402832,4|2|2,0:3|0:0|0:0,0:0:0:0:
302,262,199560,6,0,P|305:198|315:164,1,88.000002685547,4|2,0:3|0:0,0:0:0:0:
270,86,200022,2,0,P|206:89|164:79,1,88.000002685547,8|2,0:0|0:0,0:0:0:0:
104,141,200483,2,0,P|113:183|113:227,1,88.000002685547,4|2,0:3|0:0,0:0:0:0:
67,313,200945,1,8,0:0:0:0:
163,300,201176,1,2,0:0:0:0:
242,354,201406,6,0,L|344:345,1,83.9999974365235,4|2,0:0|0:0,0:0:0:0:
400,291,201868,2,0,L|385:94,1,167.999994873047,8|4,0:0|0:3,0:0:0:0:
334,47,202560,1,2,0:0:0:0:
254,94,202791,2,0,P|205:96|140:78,1,83.9999974365235,8|0,0:0|0:0,0:0:0:0:
84,55,203252,5,4,0:3:0:0:
20,122,203483,2,0,L|30:224,1,83.9999974365235,2|8,0:0|0:0,0:0:0:0:
92,272,203945,1,2,0:0:0:0:
177,307,204176,2,0,L|183:222,1,83.9999974365235,4|2,0:3|0:0,0:0:0:0:
262,175,204637,1,8,0:0:0:0:
342,221,204868,1,0,0:0:0:0:
425,181,205099,6,0,P|432:131|417:77,1,83.9999974365235,4|0,0:3|0:0,0:0:0:0:
363,30,205560,2,0,P|283:57|185:38,1,167.999994873047,8|4,0:0|0:3,0:0:0:0:
129,103,206252,1,2,0:0:0:0:
204,156,206483,2,0,P|220:224|218:252,1,83.9999974365235,8|0,0:0|0:0,0:0:0:0:
194,276,206829,1,0,0:0:0:0:
194,276,206945,6,0,L|311:279,2,83.9999974365235,4|2|8,0:3|0:0|0:0,0:0:0:0:
41,174,207868,2,0,L|248:159,1,167.999994873047,4|8,0:3|0:0,0:0:0:0:
364,79,208791,6,0,P|411:59|489:115,1,143.999995605469,4|8,1:2|0:0,0:0:0:0:
485,262,209714,2,0,P|418:280|364:237,1,143.999995605469,4|8,0:3|0:0,0:0:0:0:
308,169,210406,1,0,0:0:0:0:
231,124,210637,2,0,L|245:288,1,143.999995605469,4|8,0:3|0:0,0:0:0:0:
157,240,211329,2,0,L|144:96,1,143.999995605469,2|0,0:0|0:0,0:0:0:0:
199,28,212022,2,0,L|283:28,1,71.9999978027344,8|2,0:0|0:0,0:0:0:0:
341,92,212483,6,0,L|429:92,1,71.9999978027344,4|0,0:3|0:0,0:0:0:0:
491,39,212945,1,8,0:0:0:0:
414,197,213406,2,0,L|335:197,1,71.9999978027344,4|0,0:3|0:0,0:0:0:0:
298,170,213752,2,0,P|315:231|303:301,1,107.999996704102,2|0,0:0|0:0,0:0:0:0:
242,333,214329,6,0,L|164:330,1,71.9999978027344,4|2,0:3|0:0,0:0:0:0:
86,303,214791,1,8,0:0:0:0:
135,230,215022,1,2,0:0:0:0:
76,165,215252,2,0,L|69:78,1,71.9999978027344,4|0,0:3|0:0,0:0:0:0:
99,52,215599,2,0,P|156:75|217:68,1,107.999996704102,2|2,0:0|0:0,0:0:0:0:
285,19,216176,6,0,P|300:57|259:154,1,143.999995605469,4|8,1:2|0:0,0:0:0:0:
123,279,217099,2,0,L|292:274,1,143.999995605469,4|8,0:3|0:0,0:0:0:0:
348,243,217791,1,0,0:0:0:0:
423,282,218022,2,0,B|460:241|460:241|451:138,1,143.999995605469,4|8,0:3|0:0,0:0:0:0:
383,79,218714,2,0,B|346:120|346:120|356:227,1,143.999995605469,0|2,0:0|0:0,0:0:0:0:
292,275,219406,2,0,P|223:264|194:249,1,71.9999978027344,8|2,0:0|0:0,0:0:0:0:
157,194,219868,6,0,P|88:205|59:218,1,71.9999978027344,4|0,0:3|0:0,0:0:0:0:
53,292,220329,1,8,0:0:0:0:
14,120,220791,2,0,P|65:101|109:84,1,71.9999978027344,4|0,0:3|0:0,0:0:0:0:
108,52,221137,2,0,P|159:71|238:73,1,107.999996704102,2|0,0:0|0:0,0:0:0:0:
299,30,221714,6,0,L|299:136,1,71.9999978027344,4|2,0:3|0:0,0:0:0:0:
252,185,222176,1,8,0:0:0:0:
294,261,222406,1,2,0:0:0:0:
254,339,222637,2,0,P|296:349|346:332,1,71.9999978027344,4|0,0:3|0:0,0:0:0:0:
365,312,222983,1,0,0:0:0:0:
365,312,223099,1,8,0:0:0:0:
444,348,223329,1,2,0:0:0:0:
