osu file format v14

[General]
AudioFilename: audio.mp3
AudioLeadIn: 0
PreviewTime: 3136
Countdown: 0
SampleSet: Normal
StackLeniency: 0.7
Mode: 3
LetterboxInBreaks: 0
EpilepsyWarning: 1
SpecialStyle: 0
WidescreenStoryboard: 1

[Editor]
Bookmarks: 36386,61986,87586,113186,138786,164386,189986,215586,221986,241186,266786,292386,298786,349986,401186,410386,415186,419986,424786,427586
DistanceSpacing: 1.2
BeatDivisor: 4
GridSize: 4
TimelineZoom: 0.8

[Metadata]
Title:astronauts
TitleUnicode:アストロノーツ
Artist:Reol
ArtistUnicode:れをる
Creator:dkingo
Version:HS
Source:
Tags:Hatsune Miku ぽわぽわP 初音ミク reworu vocaloid 椎名もた Shiina Mota dudehacker
BeatmapID:2526673
BeatmapSetID:571418

[Difficulty]
HPDrainRate:8
CircleSize:9
OverallDifficulty:8
ApproachRate:5
SliderMultiplier:1.4
SliderTickRate:1

[Events]
//Background and Video events
0,0,"BG.png",0,0
//Break Periods
2,30224,33186
//Storyboard Layer 0 (Background)
//Storyboard Layer 1 (Fail)
//Storyboard Layer 2 (Pass)
//Storyboard Layer 3 (Foreground)
//Storyboard Layer 4 (Overlay)
//Storyboard Sound Samples

[TimingPoints]
4386,800,4,1,1,40,1,0
401186,800,3,1,1,40,1,0

[HitObjects]
182,192,4386,5,0,0:0:0:79:24_C#2_75_480.wav
475,192,4786,1,0,0:0:0:79:24_B2_75_480.wav
36,192,5186,1,0,0:0:0:79:24_E3_75_960.wav
329,192,5986,1,0,0:0:0:70:24_A1_75_480.wav
109,192,6386,1,0,0:0:0:70:24_B2_75_480.wav
402,192,6786,1,0,0:0:0:79:24_E3_75_960.wav
256,192,7586,1,0,0:0:0:70:24_B1_75_480.wav
182,192,7986,1,0,0:0:0:70:24_B2_75_480.wav
475,192,8386,1,0,0:0:0:79:24_E3_75_960.wav
36,192,10786,1,0,0:0:0:70:24_C#2_75_480.wav
329,192,11186,1,0,0:0:0:70:24_B2_75_480.wav
109,192,11586,1,0,0:0:0:79:24_E3_75_960.wav
402,192,12386,1,0,0:0:0:70:24_A1_75_480.wav
256,192,12786,1,0,0:0:0:70:24_B2_75_480.wav
109,192,13186,1,0,0:0:0:79:24_E3_75_960.wav
475,192,13986,1,0,0:0:0:70:24_B1_75_480.wav
36,192,14386,1,0,0:0:0:70:24_B2_75_480.wav
329,192,14786,1,0,0:0:0:79:24_E3_75_960.wav
109,192,17186,1,0,0:0:0:70:24_C#2_75_480.wav
402,192,17586,1,0,0:0:0:70:24_B2_75_480.wav
256,192,17986,1,0,0:0:0:79:24_E3_75_960.wav
182,192,18786,1,0,0:0:0:70:24_A1_75_480.wav
475,192,19186,1,0,0:0:0:70:24_B2_75_480.wav
36,192,19586,1,0,0:0:0:79:24_E3_75_960.wav
329,192,20386,1,0,0:0:0:70:24_B1_75_480.wav
109,192,20786,1,0,0:0:0:70:24_B2_75_480.wav
402,192,21186,1,0,0:0:0:79:24_E3_75_960.wav
256,192,23586,1,0,0:0:0:70:24_C#2_75_480.wav
182,192,23986,1,0,0:0:0:70:24_B2_75_480.wav
475,192,24386,1,0,0:0:0:79:24_E3_75_960.wav
36,192,25186,1,0,0:0:0:70:24_A1_75_480.wav
329,192,25586,1,0,0:0:0:70:24_B2_75_480.wav
36,192,25986,1,0,0:0:0:79:24_E3_75_960.wav
402,192,26786,1,0,0:0:0:70:24_B1_75_480.wav
256,192,27186,1,0,0:0:0:70:24_B2_75_480.wav
36,192,27586,1,0,0:0:0:79:24_E3_75_960.wav
182,192,29986,1,0,0:0:0:70:24_F#3_75_1920.wav
36,192,29986,1,0,0:0:0:70:24_D2_75_1920.wav
142,192,29986,1,0,0:0:0:70:24_E3_75_960.wav
36,192,34386,5,0,0:0:0:70:24_E3_75_480.wav
182,192,35186,1,0,0:0:0:70:24_B2_75_480.wav
256,192,35586,5,0,0:0:0:70:24_E2_75_480.wav
36,192,36386,1,0,0:0:0:70:LR_Drum Finish.wav
182,192,36386,1,0,0:0:0:70:LR_Drum Kick Low.wav
402,192,36386,1,0,0:0:0:70:24_E3_75_480.wav
329,192,36386,1,0,0:0:0:70:24_G#1_75_480.wav
475,192,36386,1,0,0:0:0:70:24_G#2_75_480.wav
402,192,36786,5,0,0:0:0:70:24_E2_75_480.wav
36,192,36786,1,0,0:0:0:70:cymbal light.wav
475,192,36786,1,0,0:0:0:70:24_E3_75_480.wav
109,192,37186,1,0,0:0:0:70:LR_Drum Hit Clap Sn.wav
475,192,37186,1,0,0:0:0:70:24_G#2_75_480.wav
402,192,37186,1,0,0:0:0:70:24_E3_75_480.wav
36,192,37186,1,0,0:0:0:70:cymbal light.wav
329,192,37186,1,0,0:0:0:70:24_B2_75_480.wav
402,192,37586,1,0,0:0:0:70:24_E2_75_480.wav
36,192,37586,1,0,0:0:0:70:cymbal light.wav
475,192,37586,1,0,0:0:0:70:24_E3_75_480.wav
329,192,37986,1,0,0:0:0:70:24_A1_75_480.wav
475,192,37986,1,0,0:0:0:70:24_A2_75_480.wav
402,192,37986,1,0,0:0:0:70:24_E3_75_480.wav
182,192,37986,1,0,0:0:0:70:LR_Drum Kick Low.wav
36,192,37986,1,0,0:0:0:70:cymbal light.wav
402,192,38386,1,0,0:0:0:70:24_E2_75_480.wav
36,192,38386,1,0,0:0:0:70:cymbal light.wav
182,192,38386,1,0,0:0:0:70:LR_Drum Kick Low.wav
475,192,38386,1,0,0:0:0:70:24_E3_75_480.wav
109,192,38786,1,0,0:0:0:70:LR_Drum Hit Clap Sn.wav
329,192,38786,1,0,0:0:0:70:24_C#3_75_480.wav
475,192,38786,1,0,0:0:0:70:24_A2_75_480.wav
402,192,38786,1,0,0:0:0:70:24_E3_75_480.wav
36,192,38786,1,0,0:0:0:70:cymbal light.wav
402,192,39186,1,0,0:0:0:70:24_E2_75_480.wav
36,192,39186,1,0,0:0:0:70:cymbal light.wav
329,192,39186,1,0,0:0:0:70:24_E3_75_480.wav
475,192,39586,1,0,0:0:0:70:24_D#3_75_480.wav
329,192,39586,1,0,0:0:0:70:24_B2_75_480.wav
36,192,39586,1,0,0:0:0:70:cymbal light.wav
182,192,39586,1,0,0:0:0:70:LR_Drum Kick Low.wav
402,192,39586,1,0,0:0:0:70:24_F#2_75_480.wav
402,192,39986,1,0,0:0:0:70:24_B2_75_480.wav
36,192,39986,1,0,0:0:0:70:cymbal light.wav
329,192,39986,1,0,0:0:0:70:24_E2_75_480.wav
475,192,40386,1,0,0:0:0:70:24_B2_75_480.wav
329,192,40386,1,0,0:0:0:70:24_D#3_75_480.wav
36,192,40386,1,0,0:0:0:70:cymbal light.wav
109,192,40386,1,0,0:0:0:70:LR_Drum Hit Clap Sn.wav
402,192,40386,1,0,0:0:0:70:24_F#2_75_480.wav
402,192,40786,1,0,0:0:0:70:24_B2_75_480.wav
36,192,40786,1,0,0:0:0:70:cymbal light.wav
329,192,40786,1,0,0:0:0:70:24_E2_75_480.wav
329,192,41186,1,0,0:0:0:70:24_C#3_75_480.wav
402,192,41186,1,0,0:0:0:70:24_E3_75_480.wav
36,192,41186,1,0,0:0:0:70:cymbal light.wav
182,192,41186,1,0,0:0:0:70:LR_Drum Kick Low.wav
475,192,41186,1,0,0:0:0:70:24_G#2_75_480.wav
256,192,41186,1,0,0:0:0:70:24_C#2_75_480.wav
402,192,41586,1,0,0:0:0:70:24_C#3_75_480.wav
36,192,41586,1,0,0:0:0:70:cymbal light.wav
182,192,41586,1,0,0:0:0:70:LR_Drum Kick Low.wav
329,192,41586,1,0,0:0:0:70:24_E2_75_480.wav
475,192,41986,1,0,0:0:0:70:24_G#2_75_480.wav
402,192,41986,1,0,0:0:0:70:24_E3_75_480.wav
329,192,41986,1,0,0:0:0:70:24_C#3_75_480.wav
36,192,41986,1,0,0:0:0:70:cymbal light.wav
109,192,41986,1,0,0:0:0:70:LR_Drum Hit Clap Sn.wav
256,192,41986,1,0,0:0:0:70:24_C#2_75_480.wav
402,192,42386,1,0,0:0:0:70:24_C#3_75_480.wav
36,192,42386,1,0,0:0:0:70:cymbal light.wav
329,192,42386,1,0,0:0:0:70:24_E2_75_480.wav
36,192,42786,1,0,0:0:0:70:cymbal light.wav
182,192,42786,1,0,0:0:0:70:LR_Drum Kick Low.wav
402,192,42786,1,0,0:0:0:70:24_E3_75_480.wav
329,192,42786,1,0,0:0:0:70:24_G#1_75_480.wav
475,192,42786,1,0,0:0:0:70:24_G#2_75_480.wav
402,192,43186,5,0,0:0:0:70:24_E2_75_480.wav
36,192,43186,1,0,0:0:0:70:cymbal light.wav
475,192,43186,1,0,0:0:0:70:24_E3_75_480.wav
109,192,43586,1,0,0:0:0:70:LR_Drum Hit Clap Sn.wav
36,192,43586,1,0,0:0:0:70:cymbal light.wav
475,192,43586,1,0,0:0:0:70:24_G#2_75_480.wav
402,192,43586,1,0,0:0:0:70:24_E3_75_480.wav
329,192,43586,1,0,0:0:0:70:24_B2_75_480.wav
36,192,43986,1,0,0:0:0:70:cymbal light.wav
402,192,43986,1,0,0:0:0:70:24_E2_75_480.wav
475,192,43986,1,0,0:0:0:70:24_E3_75_480.wav
329,192,43986,1,0,0:0:0:70:24_A1_75_480.wav
182,192,44386,1,0,0:0:0:70:LR_Drum Kick Low.wav
36,192,44386,1,0,0:0:0:70:cymbal light.wav
329,192,44386,1,0,0:0:0:70:24_A1_75_480.wav
475,192,44386,1,0,0:0:0:70:24_A2_75_480.wav
402,192,44386,1,0,0:0:0:70:24_E3_75_480.wav
36,192,44786,1,0,0:0:0:70:cymbal light.wav
182,192,44786,1,0,0:0:0:70:LR_Drum Kick Low.wav
402,192,44786,1,0,0:0:0:70:24_E2_75_480.wav
475,192,44786,1,0,0:0:0:70:24_E3_75_480.wav
109,192,45186,1,0,0:0:0:70:LR_Drum Hit Clap Sn.wav
36,192,45186,1,0,0:0:0:70:cymbal light.wav
329,192,45186,1,0,0:0:0:70:24_C#3_75_480.wav
475,192,45186,1,0,0:0:0:70:24_A2_75_480.wav
402,192,45186,1,0,0:0:0:70:24_E3_75_480.wav
36,192,45586,1,0,0:0:0:70:cymbal light.wav
402,192,45586,1,0,0:0:0:70:24_E2_75_480.wav
329,192,45586,1,0,0:0:0:70:24_E3_75_480.wav
36,192,45986,1,0,0:0:0:70:cymbal light.wav
182,192,45986,1,0,0:0:0:70:LR_Drum Kick Low.wav
475,192,45986,1,0,0:0:0:70:24_D#3_75_480.wav
329,192,45986,1,0,0:0:0:70:24_B2_75_480.wav
402,192,45986,1,0,0:0:0:70:24_F#2_75_480.wav
36,192,46386,1,0,0:0:0:70:cymbal light.wav
402,192,46386,1,0,0:0:0:70:24_B2_75_480.wav
329,192,46386,1,0,0:0:0:70:24_E2_75_480.wav
36,192,46786,1,0,0:0:0:70:cymbal light.wav
109,192,46786,1,0,0:0:0:70:LR_Drum Hit Clap Sn.wav
475,192,46786,1,0,0:0:0:70:24_B2_75_480.wav
329,192,46786,1,0,0:0:0:70:24_D#3_75_480.wav
402,192,46786,1,0,0:0:0:70:24_F#2_75_480.wav
36,192,47186,1,0,0:0:0:70:cymbal light.wav
402,192,47186,1,0,0:0:0:70:24_B2_75_480.wav
329,192,47186,1,0,0:0:0:70:24_E2_75_480.wav
36,192,47586,1,0,0:0:0:70:cymbal light.wav
182,192,47586,1,0,0:0:0:70:LR_Drum Kick Low.wav
329,192,47586,1,0,0:0:0:70:24_C#3_75_480.wav
402,192,47586,1,0,0:0:0:70:24_E3_75_480.wav
475,192,47586,1,0,0:0:0:70:24_G#2_75_480.wav
256,192,47586,1,0,0:0:0:70:24_C#2_75_480.wav
36,192,47986,1,0,0:0:0:70:cymbal light.wav
182,192,47986,1,0,0:0:0:70:LR_Drum Kick Low.wav
402,192,47986,1,0,0:0:0:70:24_C#3_75_480.wav
329,192,47986,1,0,0:0:0:70:24_E2_75_480.wav
36,192,48386,1,0,0:0:0:70:cymbal light.wav
109,192,48386,1,0,0:0:0:70:LR_Drum Hit Clap Sn.wav
475,192,48386,1,0,0:0:0:70:24_G#2_75_480.wav
402,192,48386,1,0,0:0:0:70:24_E3_75_480.wav
329,192,48386,1,0,0:0:0:70:24_C#3_75_480.wav
256,192,48386,1,0,0:0:0:70:24_C#2_75_480.wav
36,192,48786,1,0,0:0:0:70:cymbal light.wav
402,192,48786,1,0,0:0:0:70:24_C#3_75_480.wav
329,192,48786,1,0,0:0:0:70:24_E2_75_480.wav
36,192,49186,1,0,0:0:0:70:cymbal light.wav
182,192,49186,1,0,0:0:0:70:LR_Drum Kick Low.wav
475,192,49186,1,0,0:0:0:70:24_G#2_75_480.wav
329,192,49186,1,0,0:0:0:70:24_G#1_75_480.wav
402,192,49186,1,0,0:0:0:70:24_E3_75_480.wav
402,192,49586,5,0,0:0:0:70:24_E2_75_480.wav
36,192,49586,1,0,0:0:0:70:cymbal light.wav
475,192,49586,1,0,0:0:0:70:24_E3_75_480.wav
109,192,49986,1,0,0:0:0:70:LR_Drum Hit Clap Sn.wav
36,192,49986,1,0,0:0:0:70:cymbal light.wav
329,192,49986,1,0,0:0:0:70:24_B2_75_480.wav
402,192,49986,1,0,0:0:0:70:24_E3_75_480.wav
475,192,49986,1,0,0:0:0:70:24_G#2_75_480.wav
36,192,50386,1,0,0:0:0:70:cymbal light.wav
475,192,50386,1,0,0:0:0:70:24_E3_75_480.wav
402,192,50386,1,0,0:0:0:70:24_E2_75_480.wav
182,192,50786,1,0,0:0:0:70:LR_Drum Kick Low.wav
36,192,50786,1,0,0:0:0:70:cymbal light.wav
402,192,50786,1,0,0:0:0:70:24_E3_75_480.wav
475,192,50786,1,0,0:0:0:70:24_A2_75_480.wav
329,192,50786,1,0,0:0:0:70:24_A1_75_480.wav
36,192,51186,1,0,0:0:0:70:cymbal light.wav
182,192,51186,1,0,0:0:0:70:LR_Drum Kick Low.wav
475,192,51186,1,0,0:0:0:70:24_E3_75_480.wav
402,192,51186,1,0,0:0:0:70:24_E2_75_480.wav
109,192,51586,1,0,0:0:0:70:LR_Drum Hit Clap Sn.wav
36,192,51586,1,0,0:0:0:70:cymbal light.wav
402,192,51586,1,0,0:0:0:70:24_E3_75_480.wav
475,192,51586,1,0,0:0:0:70:24_A2_75_480.wav
329,192,51586,1,0,0:0:0:70:24_C#3_75_480.wav
36,192,51986,1,0,0:0:0:70:cymbal light.wav
329,192,51986,1,0,0:0:0:70:24_E3_75_480.wav
402,192,51986,1,0,0:0:0:70:24_E2_75_480.wav
36,192,52386,1,0,0:0:0:70:cymbal light.wav
182,192,52386,1,0,0:0:0:70:LR_Drum Kick Low.wav
402,192,52386,1,0,0:0:0:70:24_F#2_75_480.wav
329,192,52386,1,0,0:0:0:70:24_B2_75_480.wav
475,192,52386,1,0,0:0:0:70:24_D#3_75_480.wav
36,192,52786,1,0,0:0:0:70:cymbal light.wav
329,192,52786,1,0,0:0:0:70:24_E2_75_480.wav
402,192,52786,1,0,0:0:0:70:24_B2_75_480.wav
36,192,53186,1,0,0:0:0:70:cymbal light.wav
109,192,53186,1,0,0:0:0:70:LR_Drum Hit Clap Sn.wav
402,192,53186,1,0,0:0:0:70:24_F#2_75_480.wav
329,192,53186,1,0,0:0:0:70:24_D#3_75_480.wav
475,192,53186,1,0,0:0:0:70:24_B2_75_480.wav
36,192,53586,1,0,0:0:0:70:cymbal light.wav
329,192,53586,1,0,0:0:0:70:24_E2_75_480.wav
402,192,53586,1,0,0:0:0:70:24_B2_75_480.wav
36,192,53986,1,0,0:0:0:70:cymbal light.wav
182,192,53986,1,0,0:0:0:70:LR_Drum Kick Low.wav
475,192,53986,1,0,0:0:0:70:24_G#2_75_480.wav
256,192,53986,1,0,0:0:0:70:24_C#2_75_480.wav
329,192,53986,1,0,0:0:0:70:24_C#3_75_480.wav
402,192,53986,1,0,0:0:0:70:24_E3_75_480.wav
36,192,54386,1,0,0:0:0:70:cymbal light.wav
182,192,54386,1,0,0:0:0:70:LR_Drum Kick Low.wav
329,192,54386,1,0,0:0:0:70:24_E2_75_480.wav
402,192,54386,1,0,0:0:0:70:24_C#3_75_480.wav
36,192,54786,1,0,0:0:0:70:cymbal light.wav
109,192,54786,1,0,0:0:0:70:LR_Drum Hit Clap Sn.wav
329,192,54786,1,0,0:0:0:70:24_C#3_75_480.wav
256,192,54786,1,0,0:0:0:70:24_C#2_75_480.wav
475,192,54786,1,0,0:0:0:70:24_G#2_75_480.wav
402,192,54786,1,0,0:0:0:70:24_E3_75_480.wav
36,192,55186,1,0,0:0:0:70:cymbal light.wav
329,192,55186,1,0,0:0:0:70:24_E2_75_480.wav
402,192,55186,1,0,0:0:0:70:24_C#3_75_480.wav
36,192,55586,1,0,0:0:0:70:cymbal light.wav
182,192,55586,1,0,0:0:0:70:LR_Drum Kick Low.wav
402,192,55586,1,0,0:0:0:70:24_E3_75_480.wav
329,192,55586,1,0,0:0:0:70:24_G#1_75_480.wav
475,192,55586,1,0,0:0:0:70:24_G#2_75_480.wav
402,192,55986,5,0,0:0:0:70:24_E2_75_480.wav
36,192,55986,1,0,0:0:0:70:cymbal light.wav
475,192,55986,1,0,0:0:0:70:24_E3_75_480.wav
109,192,56386,1,0,0:0:0:70:LR_Drum Hit Clap Sn.wav
36,192,56386,1,0,0:0:0:70:cymbal light.wav
475,192,56386,1,0,0:0:0:70:24_G#2_75_480.wav
402,192,56386,1,0,0:0:0:70:24_E3_75_480.wav
329,192,56386,1,0,0:0:0:70:24_B2_75_480.wav
36,192,56786,1,0,0:0:0:70:cymbal light.wav
402,192,56786,1,0,0:0:0:70:24_E2_75_480.wav
475,192,56786,1,0,0:0:0:70:24_E3_75_480.wav
329,192,56786,1,0,0:0:0:70:24_A1_75_480.wav
182,192,57186,1,0,0:0:0:70:LR_Drum Kick Low.wav
36,192,57186,1,0,0:0:0:70:cymbal light.wav
329,192,57186,1,0,0:0:0:70:24_A1_75_480.wav
475,192,57186,1,0,0:0:0:70:24_A2_75_480.wav
402,192,57186,1,0,0:0:0:70:24_E3_75_480.wav
36,192,57586,1,0,0:0:0:70:cymbal light.wav
182,192,57586,1,0,0:0:0:70:LR_Drum Kick Low.wav
402,192,57586,1,0,0:0:0:70:24_E2_75_480.wav
475,192,57586,1,0,0:0:0:70:24_E3_75_480.wav
109,192,57986,1,0,0:0:0:70:LR_Drum Hit Clap Sn.wav
36,192,57986,1,0,0:0:0:70:cymbal light.wav
329,192,57986,1,0,0:0:0:70:24_C#3_75_480.wav
475,192,57986,1,0,0:0:0:70:24_A2_75_480.wav
402,192,57986,1,0,0:0:0:70:24_E3_75_480.wav
36,192,58386,1,0,0:0:0:70:cymbal light.wav
402,192,58386,1,0,0:0:0:70:24_E2_75_480.wav
329,192,58386,1,0,0:0:0:70:24_E3_75_480.wav
475,192,58586,1,0,0:0:0:70:24_E3_75_960.wav
36,192,58786,1,0,0:0:0:70:cymbal light.wav
182,192,58786,1,0,0:0:0:70:LR_Drum Kick Low.wav
329,192,58786,1,0,0:0:0:70:24_D2_75_1920.wav
402,192,58786,1,0,0:0:0:70:24_D3_75_480.wav
475,192,58786,1,0,0:0:0:70:24_F#2_75_480.wav
402,192,59186,1,0,0:0:0:70:24_D2_75_480.wav
36,192,59186,1,0,0:0:0:70:cymbal light.wav
475,192,59586,1,0,0:0:0:70:24_B2_75_480.wav
36,192,59586,1,0,0:0:0:70:cymbal light.wav
109,192,59586,1,0,0:0:0:70:LR_Drum Hit Clap Sn.wav
402,192,59586,1,0,0:0:0:70:24_A2_75_480.wav
402,192,59986,1,0,0:0:0:70:24_D2_75_480.wav
36,192,59986,1,0,0:0:0:70:cymbal light.wav
475,192,60386,1,0,0:0:0:70:24_B1_75_480.wav
329,192,60386,1,0,0:0:0:70:24_F#1_75_480.wav
36,192,60386,1,0,0:0:0:70:cymbal light.wav
182,192,60386,1,0,0:0:0:70:LR_Drum Kick Low.wav
256,192,60786,1,0,0:0:0:70:LR_Tom Hit.wav
109,192,61186,1,0,0:0:0:70:LR_Drum Hit Clap Sn.wav
109,192,61386,1,0,0:0:0:70:LR_Drum Hit Clap Sn.wav
256,192,61586,1,0,0:0:0:70:LR_Tom Hit.wav
475,192,61986,5,0,0:0:0:70:24_G#1_75_480.wav
182,192,61986,1,0,0:0:0:70:LR_Drum Kick Low.wav
402,192,62386,1,0,0:0:0:79:24_B2_75_480.wav
36,192,62386,1,0,0:0:0:70:LR_Hit Med Click.wav
329,192,62786,1,0,0:0:0:77:24_E3_75_480.wav
109,192,62786,1,0,0:0:0:70:LR_Drum Hit Clap Sn.wav
36,192,63186,1,0,0:0:0:70:LR_Hit Med Click.wav
475,192,63586,1,0,0:0:0:70:24_A1_75_480.wav
182,192,63586,1,0,0:0:0:70:LR_Drum Kick Low.wav
402,192,63986,1,0,0:0:0:70:24_B2_75_480.wav
36,192,63986,1,0,0:0:0:70:LR_Hit Med Click.wav
182,192,63986,1,0,0:0:0:70:LR_Drum Kick Low.wav
329,192,64386,1,0,0:0:0:70:24_E3_75_480.wav
109,192,64386,1,0,0:0:0:70:LR_Drum Hit Clap Sn.wav
36,192,64786,1,0,0:0:0:70:LR_Hit Med Click.wav
475,192,65186,1,0,0:0:0:70:24_B1_75_480.wav
182,192,65186,1,0,0:0:0:70:LR_Drum Kick Low.wav
402,192,65586,1,0,0:0:0:70:24_B2_75_480.wav
36,192,65586,1,0,0:0:0:70:LR_Hit Med Click.wav
329,192,65986,1,0,0:0:0:70:24_E3_75_480.wav
109,192,65986,1,0,0:0:0:70:LR_Drum Hit Clap Sn.wav
36,192,66386,1,0,0:0:0:70:LR_Hit Med Click.wav
475,192,66786,5,0,0:0:0:79:24_C#2_75_480.wav
182,192,66786,1,0,0:0:0:70:LR_Drum Kick Low.wav
402,192,67186,1,0,0:0:0:79:24_B2_75_480.wav
36,192,67186,1,0,0:0:0:70:LR_Hit Med Click.wav
182,192,67186,1,0,0:0:0:70:LR_Drum Kick Low.wav
329,192,67586,1,0,0:0:0:77:24_E3_75_480.wav
109,192,67586,1,0,0:0:0:70:LR_Drum Hit Clap Sn.wav
36,192,67986,1,0,0:0:0:70:LR_Hit Med Click.wav
475,192,68386,5,0,0:0:0:70:24_G#1_75_480.wav
182,192,68386,1,0,0:0:0:70:LR_Drum Kick Low.wav
402,192,68786,1,0,0:0:0:79:24_B2_75_480.wav
36,192,68786,1,0,0:0:0:70:LR_Hit Med Click.wav
329,192,69186,1,0,0:0:0:77:24_E3_75_480.wav
109,192,69186,1,0,0:0:0:70:LR_Drum Hit Clap Sn.wav
36,192,69586,1,0,0:0:0:70:LR_Hit Med Click.wav
475,192,69986,1,0,0:0:0:70:24_A1_75_480.wav
182,192,69986,1,0,0:0:0:70:LR_Drum Kick Low.wav
402,192,70386,1,0,0:0:0:70:24_B2_75_480.wav
182,192,70386,1,0,0:0:0:70:LR_Drum Kick Low.wav
36,192,70386,1,0,0:0:0:70:LR_Hit Med Click.wav
329,192,70786,1,0,0:0:0:70:24_E3_75_480.wav
109,192,70786,1,0,0:0:0:70:LR_Drum Hit Clap Sn.wav
36,192,71186,1,0,0:0:0:70:LR_Hit Med Click.wav
475,192,71586,1,0,0:0:0:70:24_B1_75_480.wav
182,192,71586,1,0,0:0:0:70:LR_Drum Kick Low.wav
402,192,71986,1,0,0:0:0:70:24_B2_75_480.wav
36,192,71986,1,0,0:0:0:70:LR_Hit Med Click.wav
329,192,72386,1,0,0:0:0:70:24_E3_75_480.wav
109,192,72386,1,0,0:0:0:70:LR_Drum Hit Clap Sn.wav
36,192,72786,1,0,0:0:0:70:LR_Hit Med Click.wav
475,192,73186,5,0,0:0:0:79:24_C#2_75_480.wav
182,192,73186,1,0,0:0:0:70:LR_Drum Kick Low.wav
402,192,73586,1,0,0:0:0:79:24_B2_75_480.wav
182,192,73586,1,0,0:0:0:70:LR_Drum Kick Low.wav
36,192,73586,1,0,0:0:0:70:LR_Hit Med Click.wav
329,192,73986,1,0,0:0:0:77:24_E3_75_480.wav
109,192,73986,1,0,0:0:0:70:LR_Drum Hit Clap Sn.wav
36,192,74386,1,0,0:0:0:70:LR_Hit Med Click.wav
475,192,74786,5,0,0:0:0:70:24_G#1_75_480.wav
182,192,74786,1,0,0:0:0:70:LR_Drum Kick Low.wav
402,192,75186,1,0,0:0:0:79:24_B2_75_480.wav
36,192,75186,1,0,0:0:0:70:LR_Hit Med Click.wav
329,192,75586,1,0,0:0:0:77:24_E3_75_480.wav
109,192,75586,1,0,0:0:0:70:LR_Drum Hit Clap Sn.wav
36,192,75986,1,0,0:0:0:70:LR_Hit Med Click.wav
475,192,76386,1,0,0:0:0:70:24_A1_75_480.wav
182,192,76386,1,0,0:0:0:70:LR_Drum Kick Low.wav
402,192,76786,1,0,0:0:0:70:24_B2_75_480.wav
36,192,76786,1,0,0:0:0:70:LR_Hit Med Click.wav
182,192,76786,1,0,0:0:0:70:LR_Drum Kick Low.wav
329,192,77186,1,0,0:0:0:70:24_E3_75_480.wav
109,192,77186,1,0,0:0:0:70:LR_Drum Hit Clap Sn.wav
36,192,77586,1,0,0:0:0:70:LR_Hit Med Click.wav
475,192,77986,1,0,0:0:0:70:24_B1_75_480.wav
182,192,77986,1,0,0:0:0:70:LR_Drum Kick Low.wav
402,192,78386,1,0,0:0:0:70:24_B2_75_480.wav
36,192,78386,1,0,0:0:0:70:LR_Hit Med Click.wav
329,192,78786,1,0,0:0:0:70:24_E3_75_480.wav
109,192,78786,1,0,0:0:0:70:LR_Drum Hit Clap Sn.wav
36,192,79186,1,0,0:0:0:70:LR_Hit Med Click.wav
475,192,79586,5,0,0:0:0:79:24_C#2_75_480.wav
182,192,79586,1,0,0:0:0:70:LR_Drum Kick Low.wav
402,192,79986,1,0,0:0:0:79:24_B2_75_480.wav
182,192,79986,1,0,0:0:0:70:LR_Drum Kick Low.wav
36,192,79986,1,0,0:0:0:70:LR_Hit Med Click.wav
329,192,80386,1,0,0:0:0:77:24_E3_75_480.wav
109,192,80386,1,0,0:0:0:70:LR_Drum Hit Clap Sn.wav
36,192,80786,1,0,0:0:0:70:LR_Hit Med Click.wav
475,192,81186,5,0,0:0:0:70:24_G#1_75_480.wav
182,192,81186,1,0,0:0:0:70:LR_Drum Kick Low.wav
402,192,81586,1,0,0:0:0:79:24_B2_75_480.wav
36,192,81586,1,0,0:0:0:70:LR_Hit Med Click.wav
329,192,81986,1,0,0:0:0:77:24_E3_75_480.wav
109,192,81986,1,0,0:0:0:70:LR_Drum Hit Clap Sn.wav
36,192,82386,1,0,0:0:0:70:LR_Hit Med Click.wav
475,192,82786,1,0,0:0:0:70:24_A1_75_480.wav
182,192,82786,1,0,0:0:0:70:LR_Drum Kick Low.wav
402,192,83186,1,0,0:0:0:70:24_B2_75_480.wav
36,192,83186,1,0,0:0:0:70:LR_Hit Med Click.wav
182,192,83186,1,0,0:0:0:70:LR_Drum Kick Low.wav
329,192,83586,1,0,0:0:0:70:24_E3_75_480.wav
109,192,83586,1,0,0:0:0:70:LR_Drum Hit Clap Sn.wav
36,192,83986,1,0,0:0:0:70:LR_Hit Med Click.wav
475,192,84386,1,0,0:0:0:70:24_B1_75_480.wav
182,192,84386,1,0,0:0:0:70:LR_Drum Kick Low.wav
402,192,84786,1,0,0:0:0:70:24_B2_75_480.wav
36,192,84786,1,0,0:0:0:70:LR_Hit Med Click.wav
329,192,85186,1,0,0:0:0:70:24_E3_75_480.wav
109,192,85186,1,0,0:0:0:70:LR_Drum Hit Clap Sn.wav
36,192,85586,1,0,0:0:0:70:LR_Hit Med Click.wav
475,192,85986,5,0,0:0:0:79:24_C#2_75_480.wav
182,192,85986,1,0,0:0:0:70:LR_Drum Kick Low.wav
402,192,86386,1,0,0:0:0:79:24_B2_75_480.wav
182,192,86386,1,0,0:0:0:70:LR_Drum Kick Low.wav
36,192,86386,1,0,0:0:0:70:LR_Hit Med Click.wav
329,192,86786,1,0,0:0:0:77:24_E3_75_480.wav
109,192,86786,1,0,0:0:0:70:LR_Drum Hit Clap Sn.wav
36,192,87186,1,0,0:0:0:70:LR_Hit Med Click.wav
182,192,87586,1,0,0:0:0:70:LR_Drum Kick Low.wav
475,192,87586,1,0,0:0:0:70:24_B2_75_480.wav
402,192,87586,1,0,0:0:0:60:24_G#1_75_480.wav
36,192,87986,1,0,0:0:0:70:LR_Hit Med Click.wav
475,192,87986,1,0,0:0:0:70:24_E3_75_480.wav
402,192,87986,1,0,0:0:0:60:24_B2_75_480.wav
109,192,88386,1,0,0:0:0:70:LR_Drum Hit Clap Sn.wav
475,192,88386,1,0,0:0:0:70:24_F#3_75_480.wav
402,192,88386,1,0,0:0:0:60:24_E3_75_480.wav
36,192,88786,1,0,0:0:0:70:LR_Hit Med Click.wav
475,192,88786,1,0,0:0:0:70:24_E3_75_480.wav
182,192,89186,1,0,0:0:0:70:LR_Drum Kick Low.wav
475,192,89186,1,0,0:0:0:70:24_B2_75_480.wav
402,192,89186,1,0,0:0:0:60:24_A1_75_480.wav
182,192,89586,1,0,0:0:0:70:LR_Drum Kick Low.wav
36,192,89586,1,0,0:0:0:70:LR_Hit Med Click.wav
475,192,89586,1,0,0:0:0:70:24_E3_75_480.wav
402,192,89586,1,0,0:0:0:60:24_B2_75_480.wav
109,192,89986,1,0,0:0:0:70:LR_Drum Hit Clap Sn.wav
475,192,89986,1,0,0:0:0:70:24_F#3_75_480.wav
402,192,89986,1,0,0:0:0:60:24_E3_75_480.wav
36,192,90386,1,0,0:0:0:70:LR_Hit Med Click.wav
475,192,90386,1,0,0:0:0:70:24_E3_75_480.wav
182,192,90786,1,0,0:0:0:70:LR_Drum Kick Low.wav
475,192,90786,1,0,0:0:0:70:24_B2_75_480.wav
402,192,90786,1,0,0:0:0:60:24_B1_75_480.wav
36,192,91186,1,0,0:0:0:70:LR_Hit Med Click.wav
475,192,91186,1,0,0:0:0:70:24_E3_75_480.wav
402,192,91186,1,0,0:0:0:60:24_B2_75_480.wav
109,192,91586,1,0,0:0:0:70:LR_Drum Hit Clap Sn.wav
475,192,91586,1,0,0:0:0:70:24_F#3_75_480.wav
402,192,91586,1,0,0:0:0:60:24_E3_75_480.wav
36,192,91986,1,0,0:0:0:70:LR_Hit Med Click.wav
475,192,91986,1,0,0:0:0:70:24_E3_75_480.wav
182,192,92386,1,0,0:0:0:70:LR_Drum Kick Low.wav
475,192,92386,1,0,0:0:0:70:24_G#3_75_480.wav
402,192,92386,1,0,0:0:0:60:24_C#2_75_480.wav
36,192,92786,1,0,0:0:0:70:LR_Hit Med Click.wav
182,192,92786,1,0,0:0:0:70:LR_Drum Kick Low.wav
475,192,92786,1,0,0:0:0:70:24_F#3_75_480.wav
402,192,92786,1,0,0:0:0:60:24_B2_75_480.wav
109,192,93186,1,0,0:0:0:70:LR_Drum Hit Clap Sn.wav
475,192,93186,1,0,0:0:0:70:24_G#3_75_480.wav
402,192,93186,1,0,0:0:0:60:24_E3_75_480.wav
36,192,93586,1,0,0:0:0:70:LR_Hit Med Click.wav
475,192,93586,1,0,0:0:0:70:24_F#3_75_480.wav
182,192,93986,1,0,0:0:0:70:LR_Drum Kick Low.wav
475,192,93986,1,0,0:0:0:70:24_B2_75_480.wav
402,192,93986,1,0,0:0:0:60:24_G#1_75_480.wav
36,192,94386,1,0,0:0:0:70:LR_Hit Med Click.wav
475,192,94386,1,0,0:0:0:70:24_E3_75_480.wav
402,192,94386,1,0,0:0:0:60:24_B2_75_480.wav
109,192,94786,1,0,0:0:0:70:LR_Drum Hit Clap Sn.wav
475,192,94786,1,0,0:0:0:70:24_F#3_75_480.wav
402,192,94786,1,0,0:0:0:60:24_E3_75_480.wav
36,192,95186,1,0,0:0:0:70:LR_Hit Med Click.wav
475,192,95186,1,0,0:0:0:70:24_E3_75_480.wav
182,192,95586,1,0,0:0:0:70:LR_Drum Kick Low.wav
475,192,95586,1,0,0:0:0:70:24_B2_75_480.wav
402,192,95586,1,0,0:0:0:60:24_A1_75_480.wav
182,192,95986,1,0,0:0:0:70:LR_Drum Kick Low.wav
36,192,95986,1,0,0:0:0:70:LR_Hit Med Click.wav
475,192,95986,1,0,0:0:0:70:24_E3_75_480.wav
402,192,95986,1,0,0:0:0:60:24_B2_75_480.wav
109,192,96386,1,0,0:0:0:70:LR_Drum Hit Clap Sn.wav
475,192,96386,1,0,0:0:0:70:24_F#3_75_480.wav
402,192,96386,1,0,0:0:0:60:24_E3_75_480.wav
36,192,96786,1,0,0:0:0:70:LR_Hit Med Click.wav
475,192,96786,1,0,0:0:0:70:24_E3_75_480.wav
182,192,97186,1,0,0:0:0:70:LR_Drum Kick Low.wav
475,192,97186,1,0,0:0:0:70:24_B2_75_480.wav
402,192,97186,1,0,0:0:0:60:24_B1_75_480.wav
36,192,97586,1,0,0:0:0:70:LR_Hit Med Click.wav
475,192,97586,1,0,0:0:0:70:24_E3_75_480.wav
402,192,97586,1,0,0:0:0:60:24_B2_75_480.wav
109,192,97986,1,0,0:0:0:70:LR_Drum Hit Clap Sn.wav
475,192,97986,1,0,0:0:0:70:24_F#3_75_480.wav
402,192,97986,1,0,0:0:0:60:24_E3_75_480.wav
36,192,98386,1,0,0:0:0:70:LR_Hit Med Click.wav
475,192,98386,1,0,0:0:0:70:24_E3_75_480.wav
182,192,98786,1,0,0:0:0:70:LR_Drum Kick Low.wav
256,192,98786,1,0,0:0:0:70:24_G#3_75_480.wav
402,192,98786,1,0,0:0:0:60:24_C#2_75_480.wav
36,192,99186,1,0,0:0:0:70:LR_Hit Med Click.wav
182,192,99186,1,0,0:0:0:70:LR_Drum Kick Low.wav
475,192,99186,1,0,0:0:0:70:24_F#3_75_480.wav
402,192,99186,1,0,0:0:0:60:24_B2_75_480.wav
109,192,99586,1,0,0:0:0:70:LR_Drum Hit Clap Sn.wav
475,192,99586,1,0,0:0:0:70:24_E3_75_960.wav
402,192,99586,1,0,0:0:0:60:24_E3_75_480.wav
36,192,99986,1,0,0:0:0:70:LR_Hit Med Click.wav
475,192,99986,1,0,0:0:0:70:24_F#3_75_480.wav
182,192,100386,1,0,0:0:0:70:LR_Drum Kick Low.wav
475,192,100386,1,0,0:0:0:70:24_B2_75_480.wav
402,192,100386,1,0,0:0:0:60:24_G#1_75_480.wav
36,192,100786,1,0,0:0:0:70:LR_Hit Med Click.wav
475,192,100786,1,0,0:0:0:70:24_E3_75_480.wav
402,192,100786,1,0,0:0:0:60:24_B2_75_480.wav
109,192,101186,1,0,0:0:0:70:LR_Drum Hit Clap Sn.wav
475,192,101186,1,0,0:0:0:70:24_F#3_75_480.wav
402,192,101186,1,0,0:0:0:60:24_E3_75_480.wav
36,192,101586,1,0,0:0:0:70:LR_Hit Med Click.wav
475,192,101586,1,0,0:0:0:70:24_E3_75_480.wav
182,192,101986,1,0,0:0:0:70:LR_Drum Kick Low.wav
475,192,101986,1,0,0:0:0:70:24_B2_75_480.wav
402,192,101986,1,0,0:0:0:60:24_A1_75_480.wav
182,192,102386,1,0,0:0:0:70:LR_Drum Kick Low.wav
36,192,102386,1,0,0:0:0:70:LR_Hit Med Click.wav
475,192,102386,1,0,0:0:0:70:24_E3_75_480.wav
402,192,102386,1,0,0:0:0:60:24_B2_75_480.wav
109,192,102786,1,0,0:0:0:70:LR_Drum Hit Clap Sn.wav
475,192,102786,1,0,0:0:0:70:24_F#3_75_480.wav
402,192,102786,1,0,0:0:0:60:24_E3_75_480.wav
36,192,103186,1,0,0:0:0:70:LR_Hit Med Click.wav
475,192,103186,1,0,0:0:0:70:24_E3_75_480.wav
182,192,103586,1,0,0:0:0:70:LR_Drum Kick Low.wav
475,192,103586,1,0,0:0:0:70:24_B2_75_480.wav
402,192,103586,1,0,0:0:0:60:24_B1_75_480.wav
36,192,103986,1,0,0:0:0:70:LR_Hit Med Click.wav
475,192,103986,1,0,0:0:0:70:24_E3_75_480.wav
402,192,103986,1,0,0:0:0:60:24_B2_75_480.wav
109,192,104386,1,0,0:0:0:70:LR_Drum Hit Clap Sn.wav
475,192,104386,1,0,0:0:0:70:24_F#3_75_480.wav
402,192,104386,1,0,0:0:0:60:24_E3_75_480.wav
36,192,104786,1,0,0:0:0:70:LR_Hit Med Click.wav
475,192,104786,1,0,0:0:0:70:24_E3_75_480.wav
182,192,105186,1,0,0:0:0:70:LR_Drum Kick Low.wav
475,192,105186,1,0,0:0:0:70:24_G#3_75_480.wav
402,192,105186,1,0,0:0:0:60:24_C#2_75_480.wav
36,192,105586,1,0,0:0:0:70:LR_Hit Med Click.wav
182,192,105586,1,0,0:0:0:70:LR_Drum Kick Low.wav
475,192,105586,1,0,0:0:0:70:24_E3_75_480.wav
402,192,105586,1,0,0:0:0:60:24_B2_75_480.wav
109,192,105986,1,0,0:0:0:70:LR_Drum Hit Clap Sn.wav
475,192,105986,1,0,0:0:0:70:24_G#3_75_480.wav
402,192,105986,1,0,0:0:0:60:24_E3_75_480.wav
36,192,106386,1,0,0:0:0:70:LR_Hit Med Click.wav
475,192,106386,1,0,0:0:0:70:24_E3_75_480.wav
182,192,106786,1,0,0:0:0:70:LR_Drum Kick Low.wav
475,192,106786,1,0,0:0:0:70:24_B2_75_480.wav
402,192,106786,1,0,0:0:0:60:24_G#1_75_480.wav
36,192,107186,1,0,0:0:0:70:LR_Hit Med Click.wav
475,192,107186,1,0,0:0:0:70:24_E3_75_480.wav
402,192,107186,1,0,0:0:0:60:24_B2_75_480.wav
109,192,107586,1,0,0:0:0:70:LR_Drum Hit Clap Sn.wav
475,192,107586,1,0,0:0:0:70:24_F#3_75_480.wav
402,192,107586,1,0,0:0:0:60:24_E3_75_480.wav
36,192,107986,1,0,0:0:0:70:LR_Hit Med Click.wav
475,192,107986,1,0,0:0:0:70:24_E3_75_480.wav
182,192,108386,1,0,0:0:0:70:LR_Drum Kick Low.wav
475,192,108386,1,0,0:0:0:70:24_B2_75_480.wav
402,192,108386,1,0,0:0:0:60:24_A1_75_480.wav
182,192,108786,1,0,0:0:0:70:LR_Drum Kick Low.wav
36,192,108786,1,0,0:0:0:70:LR_Hit Med Click.wav
475,192,108786,1,0,0:0:0:70:24_E3_75_480.wav
402,192,108786,1,0,0:0:0:60:24_B2_75_480.wav
109,192,109186,1,0,0:0:0:70:LR_Drum Hit Clap Sn.wav
475,192,109186,1,0,0:0:0:70:24_F#3_75_480.wav
402,192,109186,1,0,0:0:0:60:24_E3_75_480.wav
36,192,109586,1,0,0:0:0:70:LR_Hit Med Click.wav
475,192,109586,1,0,0:0:0:70:24_E3_75_480.wav
182,192,109986,1,0,0:0:0:70:LR_Drum Kick Low.wav
475,192,109986,1,0,0:0:0:70:24_B2_75_480.wav
402,192,109986,1,0,0:0:0:60:24_B1_75_480.wav
36,192,110386,1,0,0:0:0:70:LR_Hit Med Click.wav
475,192,110386,1,0,0:0:0:70:24_E3_75_480.wav
402,192,110386,1,0,0:0:0:60:24_B2_75_480.wav
109,192,110786,1,0,0:0:0:70:LR_Drum Hit Clap Sn.wav
475,192,110786,1,0,0:0:0:70:24_F#3_75_480.wav
402,192,110786,1,0,0:0:0:60:24_E3_75_480.wav
36,192,111186,1,0,0:0:0:70:LR_Hit Med Click.wav
475,192,111186,1,0,0:0:0:70:24_E3_75_480.wav
182,192,111586,1,0,0:0:0:70:LR_Drum Kick Low.wav
475,192,111586,1,0,0:0:0:70:24_G#3_75_480.wav
402,192,111586,1,0,0:0:0:60:24_C#2_75_480.wav
36,192,111986,1,0,0:0:0:70:LR_Hit Med Click.wav
182,192,111986,1,0,0:0:0:70:LR_Drum Kick Low.wav
475,192,111986,1,0,0:0:0:70:24_F#3_75_480.wav
402,192,111986,1,0,0:0:0:60:24_B2_75_480.wav
109,192,112386,1,0,0:0:0:70:LR_Drum Hit Clap Sn.wav
475,192,112386,1,0,0:0:0:70:24_E3_75_480.wav
402,192,112386,1,0,0:0:0:60:24_E3_75_480.wav
36,192,112786,1,0,0:0:0:70:LR_Hit Med Click.wav
475,192,112786,1,0,0:0:0:70:24_F#3_75_480.wav
256,192,113186,1,0,0:0:0:70:24_G#1_75_480.wav
182,192,113186,1,0,0:0:0:70:LR_Drum Kick Low.wav
36,192,113586,1,0,0:0:0:70:LR_Hit Med Click.wav
475,192,113586,1,0,0:0:0:70:24_B1_75_480.wav
402,192,113586,1,0,0:0:0:70:24_B2_75_480.wav
109,192,113986,1,0,0:0:0:70:LR_Drum Hit Clap Sn.wav
402,192,113986,1,0,0:0:0:70:24_E2_75_480.wav
475,192,113986,1,0,0:0:0:70:24_E3_75_480.wav
36,192,114386,1,0,0:0:0:70:LR_Hit Med Click.wav
329,192,114386,1,0,0:0:0:70:24_B2_75_480.wav
182,192,114786,1,0,0:0:0:70:LR_Drum Kick Low.wav
256,192,114786,1,0,0:0:0:70:24_A1_75_480.wav
36,192,115186,1,0,0:0:0:70:LR_Hit Med Click.wav
182,192,115186,1,0,0:0:0:70:LR_Drum Kick Low.wav
475,192,115186,1,0,0:0:0:70:24_E2_75_480.wav
402,192,115186,1,0,0:0:0:70:24_B2_75_480.wav
109,192,115586,1,0,0:0:0:70:LR_Drum Hit Clap Sn.wav
402,192,115586,1,0,0:0:0:70:24_B2_75_480.wav
329,192,115586,1,0,0:0:0:70:24_E3_75_480.wav
36,192,115986,1,0,0:0:0:70:LR_Hit Med Click.wav
329,192,115986,1,0,0:0:0:70:24_E3_75_480.wav
182,192,116386,1,0,0:0:0:70:LR_Drum Kick Low.wav
256,192,116386,1,0,0:0:0:70:24_B1_75_480.wav
36,192,116786,1,0,0:0:0:70:LR_Hit Med Click.wav
475,192,116786,1,0,0:0:0:70:24_B2_75_480.wav
329,192,116786,1,0,0:0:0:70:24_B1_75_480.wav
109,192,117186,1,0,0:0:0:70:LR_Drum Hit Clap Sn.wav
402,192,117186,1,0,0:0:0:70:24_E3_75_960.wav
329,192,117186,1,0,0:0:0:70:24_E2_75_480.wav
36,192,117586,1,0,0:0:0:70:LR_Hit Med Click.wav
329,192,117586,1,0,0:0:0:70:24_B2_75_480.wav
182,192,117986,1,0,0:0:0:70:LR_Drum Kick Low.wav
256,192,117986,1,0,0:0:0:70:24_C#2_75_480.wav
182,192,118386,1,0,0:0:0:70:LR_Drum Kick Low.wav
36,192,118386,1,0,0:0:0:70:LR_Hit Med Click.wav
475,192,118386,1,0,0:0:0:70:24_B2_75_480.wav
329,192,118386,1,0,0:0:0:70:24_C#2_75_480.wav
109,192,118786,1,0,0:0:0:70:LR_Drum Hit Clap Sn.wav
402,192,118786,1,0,0:0:0:70:24_E3_75_480.wav
329,192,118786,1,0,0:0:0:70:24_E2_75_480.wav
36,192,119186,1,0,0:0:0:70:LR_Hit Med Click.wav
329,192,119186,1,0,0:0:0:70:24_B2_75_480.wav
182,192,119586,1,0,0:0:0:70:LR_Drum Kick Low.wav
256,192,119586,1,0,0:0:0:70:24_G#1_75_480.wav
36,192,119986,1,0,0:0:0:70:LR_Hit Med Click.wav
475,192,119986,1,0,0:0:0:70:24_B1_75_480.wav
402,192,119986,1,0,0:0:0:70:24_B2_75_480.wav
109,192,120386,1,0,0:0:0:70:LR_Drum Hit Clap Sn.wav
402,192,120386,1,0,0:0:0:70:24_E2_75_480.wav
475,192,120386,1,0,0:0:0:70:24_E3_75_480.wav
36,192,120786,1,0,0:0:0:70:LR_Hit Med Click.wav
329,192,120786,1,0,0:0:0:70:24_B2_75_480.wav
182,192,121186,1,0,0:0:0:70:LR_Drum Kick Low.wav
256,192,121186,1,0,0:0:0:70:24_A1_75_480.wav
36,192,121586,1,0,0:0:0:70:LR_Hit Med Click.wav
182,192,121586,1,0,0:0:0:70:LR_Drum Kick Low.wav
475,192,121586,1,0,0:0:0:70:24_E2_75_480.wav
402,192,121586,1,0,0:0:0:70:24_B2_75_480.wav
109,192,121986,1,0,0:0:0:70:LR_Drum Hit Clap Sn.wav
402,192,121986,1,0,0:0:0:70:24_B2_75_480.wav
329,192,121986,1,0,0:0:0:70:24_E3_75_480.wav
36,192,122386,1,0,0:0:0:70:LR_Hit Med Click.wav
329,192,122386,1,0,0:0:0:70:24_E3_75_480.wav
182,192,122786,1,0,0:0:0:70:LR_Drum Kick Low.wav
256,192,122786,1,0,0:0:0:70:24_B1_75_480.wav
36,192,123186,1,0,0:0:0:70:LR_Hit Med Click.wav
475,192,123186,1,0,0:0:0:70:24_B2_75_480.wav
329,192,123186,1,0,0:0:0:70:24_B1_75_480.wav
109,192,123586,1,0,0:0:0:70:LR_Drum Hit Clap Sn.wav
402,192,123586,1,0,0:0:0:70:24_E3_75_480.wav
329,192,123586,1,0,0:0:0:70:24_E2_75_480.wav
36,192,123986,1,0,0:0:0:70:LR_Hit Med Click.wav
329,192,123986,1,0,0:0:0:70:24_B2_75_480.wav
182,192,124386,1,0,0:0:0:70:LR_Drum Kick Low.wav
256,192,124386,1,0,0:0:0:70:24_C#2_75_480.wav
182,192,124786,1,0,0:0:0:70:LR_Drum Kick Low.wav
36,192,124786,1,0,0:0:0:70:LR_Hit Med Click.wav
475,192,124786,1,0,0:0:0:70:24_B2_75_480.wav
329,192,124786,1,0,0:0:0:70:24_C#2_75_480.wav
109,192,125186,1,0,0:0:0:70:LR_Drum Hit Clap Sn.wav
402,192,125186,1,0,0:0:0:70:24_E3_75_480.wav
329,192,125186,1,0,0:0:0:70:24_E2_75_480.wav
36,192,125586,1,0,0:0:0:70:LR_Hit Med Click.wav
329,192,125586,1,0,0:0:0:70:24_B2_75_480.wav
182,192,125986,1,0,0:0:0:70:LR_Drum Kick Low.wav
256,192,125986,1,0,0:0:0:70:24_G#1_75_480.wav
36,192,126386,1,0,0:0:0:70:LR_Hit Med Click.wav
402,192,126386,1,0,0:0:0:70:24_B2_75_480.wav
475,192,126386,1,0,0:0:0:70:24_B1_75_480.wav
109,192,126786,1,0,0:0:0:70:LR_Drum Hit Clap Sn.wav
475,192,126786,1,0,0:0:0:70:24_E3_75_480.wav
402,192,126786,1,0,0:0:0:70:24_E2_75_480.wav
36,192,127186,1,0,0:0:0:70:LR_Hit Med Click.wav
329,192,127186,1,0,0:0:0:70:24_B2_75_480.wav
182,192,127586,1,0,0:0:0:70:LR_Drum Kick Low.wav
256,192,127586,1,0,0:0:0:70:24_A1_75_480.wav
36,192,127986,1,0,0:0:0:70:LR_Hit Med Click.wav
182,192,127986,1,0,0:0:0:70:LR_Drum Kick Low.wav
402,192,127986,1,0,0:0:0:70:24_B2_75_480.wav
475,192,127986,1,0,0:0:0:70:24_E2_75_480.wav
109,192,128386,1,0,0:0:0:70:LR_Drum Hit Clap Sn.wav
329,192,128386,1,0,0:0:0:70:24_E3_75_480.wav
402,192,128386,1,0,0:0:0:70:24_B2_75_480.wav
36,192,128786,1,0,0:0:0:70:LR_Hit Med Click.wav
329,192,128786,1,0,0:0:0:70:24_E3_75_480.wav
182,192,129186,1,0,0:0:0:70:LR_Drum Kick Low.wav
256,192,129186,1,0,0:0:0:70:24_B1_75_480.wav
36,192,129586,1,0,0:0:0:70:LR_Hit Med Click.wav
329,192,129586,1,0,0:0:0:70:24_B1_75_480.wav
475,192,129586,1,0,0:0:0:70:24_B2_75_480.wav
109,192,129986,1,0,0:0:0:70:LR_Drum Hit Clap Sn.wav
329,192,129986,1,0,0:0:0:70:24_E2_75_480.wav
402,192,129986,1,0,0:0:0:70:24_E3_75_480.wav
36,192,130386,1,0,0:0:0:70:LR_Hit Med Click.wav
329,192,130386,1,0,0:0:0:70:24_B2_75_480.wav
182,192,130786,1,0,0:0:0:70:LR_Drum Kick Low.wav
256,192,130786,1,0,0:0:0:70:24_C#2_75_480.wav
182,192,131186,1,0,0:0:0:70:LR_Drum Kick Low.wav
36,192,131186,1,0,0:0:0:70:LR_Hit Med Click.wav
329,192,131186,1,0,0:0:0:70:24_C#2_75_480.wav
475,192,131186,1,0,0:0:0:70:24_B2_75_480.wav
109,192,131586,1,0,0:0:0:70:LR_Drum Hit Clap Sn.wav
329,192,131586,1,0,0:0:0:70:24_E2_75_480.wav
402,192,131586,1,0,0:0:0:70:24_E3_75_480.wav
36,192,131986,1,0,0:0:0:70:LR_Hit Med Click.wav
329,192,131986,1,0,0:0:0:70:24_B2_75_480.wav
182,192,132386,1,0,0:0:0:70:LR_Drum Kick Low.wav
256,192,132386,1,0,0:0:0:70:24_G#1_75_480.wav
36,192,132786,1,0,0:0:0:70:LR_Hit Med Click.wav
475,192,132786,1,0,0:0:0:70:24_B1_75_480.wav
402,192,132786,1,0,0:0:0:70:24_B2_75_480.wav
109,192,133186,1,0,0:0:0:70:LR_Drum Hit Clap Sn.wav
402,192,133186,1,0,0:0:0:70:24_E2_75_480.wav
475,192,133186,1,0,0:0:0:70:24_E3_75_480.wav
36,192,133586,1,0,0:0:0:70:LR_Hit Med Click.wav
329,192,133586,1,0,0:0:0:70:24_B2_75_480.wav
182,192,133986,1,0,0:0:0:70:LR_Drum Kick Low.wav
256,192,133986,1,0,0:0:0:70:24_A1_75_480.wav
36,192,134386,1,0,0:0:0:70:LR_Hit Med Click.wav
182,192,134386,1,0,0:0:0:70:LR_Drum Kick Low.wav
483,192,134386,1,0,0:0:0:70:24_E2_75_480.wav
402,192,134386,1,0,0:0:0:70:24_B2_75_480.wav
109,192,134786,1,0,0:0:0:70:LR_Drum Hit Clap Sn.wav
402,192,134786,1,0,0:0:0:70:24_B2_75_480.wav
329,192,134786,1,0,0:0:0:70:24_E3_75_480.wav
36,192,135186,1,0,0:0:0:70:LR_Hit Med Click.wav
329,192,135186,1,0,0:0:0:70:24_E3_75_480.wav
182,192,135586,1,0,0:0:0:70:LR_Drum Kick Low.wav
256,192,135586,1,0,0:0:0:70:24_B1_75_480.wav
36,192,135986,1,0,0:0:0:70:LR_Hit Med Click.wav
475,192,135986,1,0,0:0:0:70:24_B2_75_480.wav
329,192,135986,1,0,0:0:0:70:24_B1_75_480.wav
109,192,136386,1,0,0:0:0:70:LR_Drum Hit Clap Sn.wav
402,192,136386,1,0,0:0:0:70:24_E3_75_480.wav
329,192,136386,1,0,0:0:0:70:24_E2_75_480.wav
36,192,136786,1,0,0:0:0:70:LR_Hit Med Click.wav
329,192,136786,1,0,0:0:0:70:24_B2_75_480.wav
182,192,137186,1,0,0:0:0:70:LR_Drum Kick Low.wav
256,192,137186,1,0,0:0:0:70:24_C#2_75_480.wav
182,192,137586,1,0,0:0:0:70:LR_Drum Kick Low.wav
36,192,137586,1,0,0:0:0:70:LR_Hit Med Click.wav
475,192,137586,1,0,0:0:0:70:24_B2_75_480.wav
329,192,137586,1,0,0:0:0:70:24_C#2_75_480.wav
109,192,137986,1,0,0:0:0:70:LR_Drum Hit Clap Sn.wav
402,192,137986,1,0,0:0:0:70:24_E3_75_480.wav
329,192,137986,1,0,0:0:0:70:24_E2_75_480.wav
36,192,138386,1,0,0:0:0:70:LR_Hit Med Click.wav
329,192,138386,1,0,0:0:0:70:24_B2_75_480.wav
109,192,138786,1,0,0:0:0:70:LR_Drum Hit Clap Sn.wav
256,192,138786,1,0,0:0:0:70:24_A2_75_480.wav
199,192,138786,1,0,0:0:0:70:24_F#2_75_480.wav
312,192,138786,1,0,0:0:0:70:24_E3_75_480.wav
142,192,138786,1,0,0:0:0:70:24_D2_75_480.wav
402,192,139386,1,0,0:0:0:70:LR_Drum EDge.wav
402,192,139486,1,0,0:0:0:70:LR_Drum EDge.wav
109,192,139586,1,0,0:0:0:70:LR_Drum Hit Clap Sn.wav
312,192,139586,1,0,0:0:0:70:24_E3_75_480.wav
256,192,139586,1,0,0:0:0:70:24_A2_75_480.wav
199,192,139586,1,0,0:0:0:70:24_F#2_75_480.wav
142,192,139586,1,0,0:0:0:70:24_D2_75_480.wav
402,192,140186,1,0,0:0:0:70:LR_Drum EDge.wav
402,192,140286,1,0,0:0:0:70:LR_Drum EDge.wav
109,192,140386,1,0,0:0:0:70:LR_Drum Hit Clap Sn.wav
256,192,140386,1,0,0:0:0:70:24_A2_75_480.wav
199,192,140386,1,0,0:0:0:70:24_F#2_75_480.wav
312,192,140386,1,0,0:0:0:70:24_E3_75_480.wav
142,192,140386,1,0,0:0:0:70:24_D2_75_480.wav
109,192,140786,1,0,0:0:0:70:LR_Drum Hit Clap Sn.wav
109,192,141186,1,0,0:0:0:70:LR_Drum Hit Clap Sn.wav
312,192,141186,1,0,0:0:0:70:24_E3_75_480.wav
256,192,141186,1,0,0:0:0:70:24_A2_75_480.wav
199,192,141186,1,0,0:0:0:70:24_F#2_75_480.wav
142,192,141186,1,0,0:0:0:70:24_D2_75_480.wav
402,192,141586,1,0,0:0:0:70:LR_Drum EDge.wav
402,192,141686,1,0,0:0:0:70:LR_Drum EDge.wav
402,192,141786,1,0,0:0:0:70:LR_Drum EDge.wav
402,192,141886,1,0,0:0:0:70:LR_Drum EDge.wav
109,192,141986,1,0,0:0:0:70:LR_Drum Hit Clap Sn.wav
182,192,141986,1,0,0:0:0:70:24_A2_75_480.wav
256,192,141986,1,0,0:0:0:70:24_C#3_75_480.wav
329,192,141986,1,0,0:0:0:70:24_E3_75_480.wav
142,192,141986,1,0,0:0:0:70:24_C#2_75_480.wav
402,192,142586,1,0,0:0:0:70:LR_Drum EDge.wav
402,192,142686,1,0,0:0:0:70:LR_Drum EDge.wav
109,192,142786,1,0,0:0:0:70:LR_Drum Hit Clap Sn.wav
182,192,142786,1,0,0:0:0:70:24_A2_75_480.wav
256,192,142786,1,0,0:0:0:70:24_C#3_75_480.wav
329,192,142786,1,0,0:0:0:70:24_E3_75_480.wav
142,192,142786,1,0,0:0:0:70:24_C#2_75_480.wav
402,192,143386,1,0,0:0:0:70:LR_Drum EDge.wav
402,192,143486,1,0,0:0:0:70:LR_Drum EDge.wav
109,192,143586,1,0,0:0:0:70:LR_Drum Hit Clap Sn.wav
329,192,143586,1,0,0:0:0:70:24_E3_75_480.wav
256,192,143586,1,0,0:0:0:70:24_C#3_75_480.wav
182,192,143586,1,0,0:0:0:70:24_A2_75_480.wav
142,192,143586,1,0,0:0:0:70:24_C#2_75_480.wav
109,192,143986,1,0,0:0:0:70:LR_Drum Hit Clap Sn.wav
109,192,144386,1,0,0:0:0:70:LR_Drum Hit Clap Sn.wav
182,192,144386,1,0,0:0:0:70:24_A2_75_480.wav
256,192,144386,1,0,0:0:0:70:24_C#3_75_480.wav
329,192,144386,1,0,0:0:0:70:24_E3_75_480.wav
142,192,144386,1,0,0:0:0:70:24_C#2_75_480.wav
402,192,144786,1,0,0:0:0:70:LR_Drum EDge.wav
402,192,144886,1,0,0:0:0:70:LR_Drum EDge.wav
402,192,144986,1,0,0:0:0:70:LR_Drum EDge.wav
402,192,145086,1,0,0:0:0:70:LR_Drum EDge.wav
109,192,145186,1,0,0:0:0:70:LR_Drum Hit Clap Sn.wav
142,192,145186,1,0,0:0:0:70:24_D2_75_480.wav
199,192,145186,1,0,0:0:0:70:24_F#2_75_480.wav
256,192,145186,1,0,0:0:0:70:24_A2_75_480.wav
312,192,145186,1,0,0:0:0:70:24_E3_75_480.wav
402,192,145786,1,0,0:0:0:70:LR_Drum EDge.wav
402,192,145886,1,0,0:0:0:70:LR_Drum EDge.wav
109,192,145986,1,0,0:0:0:70:LR_Drum Hit Clap Sn.wav
312,192,145986,1,0,0:0:0:70:24_E3_75_480.wav
256,192,145986,1,0,0:0:0:70:24_A2_75_480.wav
199,192,145986,1,0,0:0:0:70:24_F#2_75_480.wav
142,192,145986,1,0,0:0:0:70:24_D2_75_480.wav
402,192,146586,1,0,0:0:0:70:LR_Drum EDge.wav
402,192,146686,1,0,0:0:0:70:LR_Drum EDge.wav
109,192,146786,1,0,0:0:0:70:LR_Drum Hit Clap Sn.wav
199,192,146786,1,0,0:0:0:70:24_F#2_75_480.wav
256,192,146786,1,0,0:0:0:70:24_A2_75_480.wav
312,192,146786,1,0,0:0:0:70:24_E3_75_480.wav
142,192,146786,1,0,0:0:0:70:24_D2_75_480.wav
109,192,147186,1,0,0:0:0:70:LR_Drum Hit Clap Sn.wav
109,192,147586,1,0,0:0:0:70:LR_Drum Hit Clap Sn.wav
312,192,147586,1,0,0:0:0:70:24_E3_75_480.wav
256,192,147586,1,0,0:0:0:70:24_A2_75_480.wav
199,192,147586,1,0,0:0:0:70:24_F#2_75_480.wav
142,192,147586,1,0,0:0:0:70:24_D2_75_480.wav
402,192,147986,1,0,0:0:0:70:LR_Drum EDge.wav
402,192,148086,1,0,0:0:0:70:LR_Drum EDge.wav
402,192,148186,1,0,0:0:0:70:LR_Drum EDge.wav
402,192,148286,1,0,0:0:0:70:LR_Drum EDge.wav
109,192,148386,1,0,0:0:0:70:LR_Drum Hit Clap Sn.wav
329,192,148386,1,0,0:0:0:70:24_E3_75_480.wav
182,192,148386,1,0,0:0:0:70:24_A2_75_480.wav
256,192,148386,1,0,0:0:0:70:24_C#3_75_480.wav
142,192,148386,1,0,0:0:0:70:24_C#2_75_480.wav
402,192,148986,1,0,0:0:0:70:LR_Drum EDge.wav
402,192,149086,1,0,0:0:0:70:LR_Drum EDge.wav
109,192,149186,1,0,0:0:0:70:LR_Drum Hit Clap Sn.wav
182,192,149186,1,0,0:0:0:70:24_A2_75_480.wav
329,192,149186,1,0,0:0:0:70:24_E3_75_480.wav
256,192,149186,1,0,0:0:0:70:24_C#3_75_480.wav
142,192,149186,1,0,0:0:0:70:24_C#2_75_480.wav
402,192,149786,1,0,0:0:0:70:LR_Drum EDge.wav
402,192,149886,1,0,0:0:0:70:LR_Drum EDge.wav
109,192,149986,1,0,0:0:0:70:LR_Drum Hit Clap Sn.wav
329,192,149986,1,0,0:0:0:70:24_E3_75_480.wav
182,192,149986,1,0,0:0:0:70:24_A2_75_480.wav
256,192,149986,1,0,0:0:0:70:24_C#3_75_480.wav
142,192,149986,1,0,0:0:0:70:24_C#2_75_480.wav
109,192,150386,1,0,0:0:0:70:LR_Drum Hit Clap Sn.wav
109,192,150786,1,0,0:0:0:70:LR_Drum Hit Clap Sn.wav
182,192,150786,1,0,0:0:0:70:24_A2_75_480.wav
256,192,150786,1,0,0:0:0:70:24_C#3_75_480.wav
329,192,150786,1,0,0:0:0:70:24_E3_75_480.wav
142,192,150786,1,0,0:0:0:70:24_C#2_75_480.wav
402,192,151186,1,0,0:0:0:70:LR_Drum EDge.wav
402,192,151286,1,0,0:0:0:70:LR_Drum EDge.wav
402,192,151386,1,0,0:0:0:70:LR_Drum EDge.wav
402,192,151486,1,0,0:0:0:70:LR_Drum EDge.wav
109,192,151586,1,0,0:0:0:70:LR_Drum Hit Clap Sn.wav
312,192,151586,1,0,0:0:0:70:24_E3_75_480.wav
256,192,151586,1,0,0:0:0:70:24_A2_75_480.wav
199,192,151586,1,0,0:0:0:70:24_F#2_75_480.wav
142,192,151586,1,0,0:0:0:70:24_D2_75_480.wav
402,192,152186,1,0,0:0:0:70:LR_Drum EDge.wav
402,192,152286,1,0,0:0:0:70:LR_Drum EDge.wav
109,192,152386,1,0,0:0:0:70:LR_Drum Hit Clap Sn.wav
199,192,152386,1,0,0:0:0:70:24_F#2_75_480.wav
256,192,152386,1,0,0:0:0:70:24_A2_75_480.wav
312,192,152386,1,0,0:0:0:70:24_E3_75_480.wav
142,192,152386,1,0,0:0:0:70:24_D2_75_480.wav
402,192,152986,1,0,0:0:0:70:LR_Drum EDge.wav
402,192,153086,1,0,0:0:0:70:LR_Drum EDge.wav
109,192,153186,1,0,0:0:0:70:LR_Drum Hit Clap Sn.wav
182,192,153186,1,0,0:0:0:70:24_B2_75_480.wav
256,192,153186,1,0,0:0:0:70:24_E3_75_480.wav
329,192,153186,1,0,0:0:0:70:24_F#3_75_480.wav
142,192,153186,1,0,0:0:0:70:24_E2_75_480.wav
109,192,153586,1,0,0:0:0:70:LR_Drum Hit Clap Sn.wav
109,192,153986,1,0,0:0:0:70:LR_Drum Hit Clap Sn.wav
182,192,153986,1,0,0:0:0:70:24_B2_75_480.wav
256,192,153986,1,0,0:0:0:70:24_E3_75_480.wav
329,192,153986,1,0,0:0:0:70:24_F#3_75_480.wav
142,192,153986,1,0,0:0:0:70:24_E2_75_480.wav
402,192,154386,1,0,0:0:0:70:LR_Drum EDge.wav
256,192,154386,1,0,0:0:0:50:24_F2_75_480.wav
402,192,154486,1,0,0:0:0:70:LR_Drum EDge.wav
402,192,154586,1,0,0:0:0:70:LR_Drum EDge.wav
402,192,154686,1,0,0:0:0:70:LR_Drum EDge.wav
109,192,154786,1,0,0:0:0:70:LR_Drum Hit Clap Sn.wav
182,192,154786,1,0,0:0:0:50:24_C#3_75_480.wav
256,192,154786,1,0,0:0:0:50:24_E3_75_480.wav
329,192,154786,1,0,0:0:0:50:24_F#3_75_480.wav
142,192,154786,1,0,0:0:0:70:24_F#2_75_480.wav
402,192,155386,1,0,0:0:0:70:LR_Drum EDge.wav
402,192,155486,1,0,0:0:0:70:LR_Drum EDge.wav
109,192,155586,1,0,0:0:0:70:LR_Drum Hit Clap Sn.wav
182,192,155586,1,0,0:0:0:50:24_C#3_75_480.wav
256,192,155586,1,0,0:0:0:50:24_E3_75_480.wav
329,192,155586,1,0,0:0:0:50:24_F#3_75_480.wav
142,192,155586,1,0,0:0:0:70:24_F#2_75_480.wav
402,192,156186,1,0,0:0:0:70:LR_Drum EDge.wav
402,192,156286,1,0,0:0:0:70:LR_Drum EDge.wav
109,192,156386,1,0,0:0:0:70:LR_Drum Hit Clap Sn.wav
329,192,156386,1,0,0:0:0:50:24_F#3_75_480.wav
256,192,156386,1,0,0:0:0:50:24_E3_75_480.wav
182,192,156386,1,0,0:0:0:50:24_C#3_75_480.wav
142,192,156386,1,0,0:0:0:70:24_F#2_75_480.wav
109,192,156786,1,0,0:0:0:70:LR_Drum Hit Clap Sn.wav
109,192,157186,1,0,0:0:0:70:LR_Drum Hit Clap Sn.wav
182,192,157186,1,0,0:0:0:50:24_C#3_75_480.wav
256,192,157186,1,0,0:0:0:50:24_E3_75_480.wav
329,192,157186,1,0,0:0:0:50:24_F#3_75_480.wav
142,192,157186,1,0,0:0:0:70:24_F#2_75_480.wav
402,192,157586,1,0,0:0:0:70:LR_Drum EDge.wav
402,192,157686,1,0,0:0:0:70:LR_Drum EDge.wav
402,192,157786,1,0,0:0:0:70:LR_Drum EDge.wav
402,192,157886,1,0,0:0:0:70:LR_Drum EDge.wav
109,192,157986,1,0,0:0:0:70:LR_Drum Hit Clap Sn.wav
312,192,157986,1,0,0:0:0:70:24_E3_75_480.wav
256,192,157986,1,0,0:0:0:70:24_A2_75_480.wav
199,192,157986,1,0,0:0:0:70:24_F#2_75_480.wav
142,192,157986,1,0,0:0:0:70:24_D2_75_480.wav
402,192,158586,1,0,0:0:0:70:LR_Drum EDge.wav
402,192,158686,1,0,0:0:0:70:LR_Drum EDge.wav
109,192,158786,1,0,0:0:0:70:LR_Drum Hit Clap Sn.wav
199,192,158786,1,0,0:0:0:70:24_F#2_75_480.wav
256,192,158786,1,0,0:0:0:70:24_A2_75_480.wav
312,192,158786,1,0,0:0:0:70:24_E3_75_480.wav
142,192,158786,1,0,0:0:0:70:24_D2_75_480.wav
402,192,159386,1,0,0:0:0:70:LR_Drum EDge.wav
402,192,159486,1,0,0:0:0:70:LR_Drum EDge.wav
109,192,159586,1,0,0:0:0:70:LR_Drum Hit Clap Sn.wav
182,192,159586,1,0,0:0:0:70:24_E2_75_480.wav
256,192,159586,1,0,0:0:0:70:24_E3_75_480.wav
329,192,159586,1,0,0:0:0:70:24_F#3_75_480.wav
109,192,159986,1,0,0:0:0:70:LR_Drum Hit Clap Sn.wav
109,192,160386,1,0,0:0:0:70:LR_Drum Hit Clap Sn.wav
329,192,160386,1,0,0:0:0:70:24_F#3_75_480.wav
256,192,160386,1,0,0:0:0:70:24_E3_75_480.wav
182,192,160386,1,0,0:0:0:70:24_E2_75_480.wav
402,192,160786,1,0,0:0:0:70:LR_Drum EDge.wav
402,192,160886,1,0,0:0:0:70:LR_Drum EDge.wav
402,192,160986,1,0,0:0:0:70:LR_Drum EDge.wav
402,192,161086,1,0,0:0:0:70:LR_Drum EDge.wav
109,192,161186,1,0,0:0:0:70:LR_Drum Hit Clap Sn.wav
329,192,161186,1,0,0:0:0:50:24_F#3_75_480.wav
256,192,161186,1,0,0:0:0:50:24_E3_75_480.wav
182,192,161186,1,0,0:0:0:50:24_C#3_75_480.wav
142,192,161186,1,0,0:0:0:70:24_F#2_75_480.wav
402,192,161786,1,0,0:0:0:70:LR_Drum EDge.wav
402,192,161886,1,0,0:0:0:70:LR_Drum EDge.wav
109,192,161986,1,0,0:0:0:70:LR_Drum Hit Clap Sn.wav
182,192,161986,1,0,0:0:0:50:24_C#3_75_480.wav
256,192,161986,1,0,0:0:0:50:24_E3_75_480.wav
329,192,161986,1,0,0:0:0:50:24_F#3_75_480.wav
142,192,161986,1,0,0:0:0:70:24_F#2_75_480.wav
402,192,162586,1,0,0:0:0:70:LR_Drum EDge.wav
402,192,162686,1,0,0:0:0:70:LR_Drum EDge.wav
109,192,162786,1,0,0:0:0:70:LR_Drum Hit Clap Sn.wav
329,192,162786,1,0,0:0:0:50:24_F#3_75_480.wav
256,192,162786,1,0,0:0:0:50:24_E3_75_480.wav
182,192,162786,1,0,0:0:0:50:24_D3_75_480.wav
142,192,162786,1,0,0:0:0:70:24_G2_75_480.wav
109,192,163186,1,0,0:0:0:70:LR_Drum Hit Clap Sn.wav
256,192,163586,1,0,0:0:0:70:LR_Drum Kick Low.wav
36,192,164386,1,0,0:0:0:70:LR_Drum Finish.wav
182,192,164386,1,0,0:0:0:70:LR_Drum Kick Low.wav
475,192,164386,1,0,0:0:0:70:24_G#2_75_480.wav
329,192,164386,1,0,0:0:0:70:24_G#1_75_480.wav
402,192,164786,5,0,0:0:0:70:24_E2_75_480.wav
36,192,164786,1,0,0:0:0:70:cymbal light.wav
36,192,165186,1,0,0:0:0:70:cymbal light.wav
109,192,165186,1,0,0:0:0:70:LR_Drum Hit Clap Sn.wav
475,192,165186,1,0,0:0:0:70:24_G#2_75_480.wav
329,192,165186,1,0,0:0:0:70:24_B2_75_480.wav
402,192,165186,1,0,0:0:0:70:24_E3_75_480.wav
36,192,165586,1,0,0:0:0:70:cymbal light.wav
402,192,165586,1,0,0:0:0:70:24_E2_75_480.wav
256,192,165786,1,0,0:0:0:40:24_A1_75_480.wav
36,192,165986,1,0,0:0:0:70:cymbal light.wav
182,192,165986,1,0,0:0:0:70:LR_Drum Kick Low.wav
475,192,165986,1,0,0:0:0:70:24_A2_75_480.wav
329,192,165986,1,0,0:0:0:70:24_A1_75_480.wav
36,192,166386,1,0,0:0:0:70:cymbal light.wav
182,192,166386,1,0,0:0:0:70:LR_Drum Kick Low.wav
402,192,166386,1,0,0:0:0:70:24_E2_75_480.wav
36,192,166786,1,0,0:0:0:70:cymbal light.wav
109,192,166786,1,0,0:0:0:70:LR_Drum Hit Clap Sn.wav
475,192,166786,1,0,0:0:0:70:24_A2_75_480.wav
329,192,166786,1,0,0:0:0:70:24_C#3_75_480.wav
402,192,166786,1,0,0:0:0:70:24_E3_75_480.wav
36,192,167186,1,0,0:0:0:70:cymbal light.wav
402,192,167186,1,0,0:0:0:70:24_E2_75_480.wav
36,192,167586,1,0,0:0:0:70:cymbal light.wav
182,192,167586,1,0,0:0:0:70:LR_Drum Kick Low.wav
329,192,167586,1,0,0:0:0:70:24_B1_75_480.wav
475,192,167586,1,0,0:0:0:70:24_B2_75_480.wav
36,192,167986,1,0,0:0:0:70:cymbal light.wav
402,192,167986,1,0,0:0:0:70:24_F#2_75_480.wav
36,192,168386,1,0,0:0:0:70:cymbal light.wav
109,192,168386,1,0,0:0:0:70:LR_Drum Hit Clap Sn.wav
475,192,168386,1,0,0:0:0:70:24_B2_75_480.wav
329,192,168386,1,0,0:0:0:70:24_D#3_75_480.wav
36,192,168786,1,0,0:0:0:70:cymbal light.wav
402,192,168786,1,0,0:0:0:70:24_F#2_75_480.wav
36,192,169186,1,0,0:0:0:70:cymbal light.wav
182,192,169186,1,0,0:0:0:70:LR_Drum Kick Low.wav
329,192,169186,1,0,0:0:0:70:24_C#3_75_480.wav
475,192,169186,1,0,0:0:0:70:24_C#2_75_480.wav
36,192,169586,1,0,0:0:0:70:cymbal light.wav
182,192,169586,1,0,0:0:0:70:LR_Drum Kick Low.wav
402,192,169586,1,0,0:0:0:70:24_E2_75_480.wav
36,192,169986,1,0,0:0:0:70:cymbal light.wav
109,192,169986,1,0,0:0:0:70:LR_Drum Hit Clap Sn.wav
475,192,169986,1,0,0:0:0:70:24_G#2_75_480.wav
402,192,169986,1,0,0:0:0:70:24_E3_75_480.wav
329,192,169986,1,0,0:0:0:70:24_C#3_75_480.wav
36,192,170386,1,0,0:0:0:70:cymbal light.wav
402,192,170386,1,0,0:0:0:70:24_E2_75_480.wav
36,192,170786,1,0,0:0:0:70:cymbal light.wav
182,192,170786,1,0,0:0:0:70:LR_Drum Kick Low.wav
475,192,170786,1,0,0:0:0:70:24_G#2_75_480.wav
329,192,170786,1,0,0:0:0:70:24_G#1_75_480.wav
402,192,171186,5,0,0:0:0:70:24_E2_75_480.wav
36,192,171186,1,0,0:0:0:70:cymbal light.wav
36,192,171586,1,0,0:0:0:70:cymbal light.wav
109,192,171586,1,0,0:0:0:70:LR_Drum Hit Clap Sn.wav
475,192,171586,1,0,0:0:0:70:24_G#2_75_480.wav
329,192,171586,1,0,0:0:0:70:24_B2_75_480.wav
402,192,171586,1,0,0:0:0:70:24_E3_75_480.wav
36,192,171986,1,0,0:0:0:70:cymbal light.wav
402,192,171986,1,0,0:0:0:70:24_E2_75_480.wav
256,192,172186,1,0,0:0:0:40:24_A1_75_480.wav
36,192,172386,1,0,0:0:0:70:cymbal light.wav
182,192,172386,1,0,0:0:0:70:LR_Drum Kick Low.wav
475,192,172386,1,0,0:0:0:70:24_A2_75_480.wav
329,192,172386,1,0,0:0:0:70:24_A1_75_480.wav
36,192,172786,1,0,0:0:0:70:cymbal light.wav
182,192,172786,1,0,0:0:0:70:LR_Drum Kick Low.wav
402,192,172786,1,0,0:0:0:70:24_E2_75_480.wav
36,192,173186,1,0,0:0:0:70:cymbal light.wav
109,192,173186,1,0,0:0:0:70:LR_Drum Hit Clap Sn.wav
475,192,173186,1,0,0:0:0:70:24_A2_75_480.wav
329,192,173186,1,0,0:0:0:70:24_C#3_75_480.wav
402,192,173186,1,0,0:0:0:70:24_E3_75_480.wav
36,192,173586,1,0,0:0:0:70:cymbal light.wav
402,192,173586,1,0,0:0:0:70:24_E2_75_480.wav
36,192,173986,1,0,0:0:0:70:cymbal light.wav
182,192,173986,1,0,0:0:0:70:LR_Drum Kick Low.wav
329,192,173986,1,0,0:0:0:70:24_B1_75_480.wav
475,192,173986,1,0,0:0:0:70:24_B2_75_480.wav
36,192,174386,1,0,0:0:0:70:cymbal light.wav
402,192,174386,1,0,0:0:0:70:24_F#2_75_480.wav
36,192,174786,1,0,0:0:0:70:cymbal light.wav
109,192,174786,1,0,0:0:0:70:LR_Drum Hit Clap Sn.wav
475,192,174786,1,0,0:0:0:70:24_B2_75_480.wav
329,192,174786,1,0,0:0:0:70:24_D#3_75_480.wav
36,192,175186,1,0,0:0:0:70:cymbal light.wav
402,192,175186,1,0,0:0:0:70:24_F#2_75_480.wav
36,192,175586,1,0,0:0:0:70:cymbal light.wav
182,192,175586,1,0,0:0:0:70:LR_Drum Kick Low.wav
329,192,175586,1,0,0:0:0:70:24_C#3_75_480.wav
475,192,175586,1,0,0:0:0:70:24_C#2_75_480.wav
36,192,175986,1,0,0:0:0:70:cymbal light.wav
182,192,175986,1,0,0:0:0:70:LR_Drum Kick Low.wav
402,192,175986,1,0,0:0:0:70:24_E2_75_480.wav
36,192,176386,1,0,0:0:0:70:cymbal light.wav
109,192,176386,1,0,0:0:0:70:LR_Drum Hit Clap Sn.wav
475,192,176386,1,0,0:0:0:70:24_G#2_75_480.wav
402,192,176386,1,0,0:0:0:70:24_E3_75_480.wav
329,192,176386,1,0,0:0:0:70:24_C#3_75_480.wav
36,192,176786,1,0,0:0:0:70:cymbal light.wav
402,192,176786,1,0,0:0:0:70:24_E2_75_480.wav
36,192,177186,1,0,0:0:0:70:LR_Drum Finish.wav
182,192,177186,1,0,0:0:0:70:LR_Drum Kick Low.wav
329,192,177186,1,0,0:0:0:70:24_G#1_75_480.wav
475,192,177186,1,0,0:0:0:70:24_G#2_75_480.wav
402,192,177586,5,0,0:0:0:70:24_E2_75_480.wav
36,192,177586,1,0,0:0:0:70:cymbal light.wav
36,192,177986,1,0,0:0:0:70:cymbal light.wav
109,192,177986,1,0,0:0:0:70:LR_Drum Hit Clap Sn.wav
402,192,177986,1,0,0:0:0:70:24_E3_75_480.wav
329,192,177986,1,0,0:0:0:70:24_B2_75_480.wav
475,192,177986,1,0,0:0:0:70:24_G#2_75_480.wav
36,192,178386,1,0,0:0:0:70:cymbal light.wav
402,192,178386,1,0,0:0:0:70:24_E2_75_480.wav
256,192,178586,1,0,0:0:0:40:24_A1_75_480.wav
36,192,178786,1,0,0:0:0:70:cymbal light.wav
182,192,178786,1,0,0:0:0:70:LR_Drum Kick Low.wav
329,192,178786,1,0,0:0:0:70:24_A1_75_480.wav
475,192,178786,1,0,0:0:0:70:24_A2_75_480.wav
36,192,179186,1,0,0:0:0:70:cymbal light.wav
182,192,179186,1,0,0:0:0:70:LR_Drum Kick Low.wav
402,192,179186,1,0,0:0:0:70:24_E2_75_480.wav
36,192,179586,1,0,0:0:0:70:cymbal light.wav
109,192,179586,1,0,0:0:0:70:LR_Drum Hit Clap Sn.wav
402,192,179586,1,0,0:0:0:70:24_E3_75_480.wav
329,192,179586,1,0,0:0:0:70:24_C#3_75_480.wav
475,192,179586,1,0,0:0:0:70:24_A2_75_480.wav
36,192,179986,1,0,0:0:0:70:cymbal light.wav
402,192,179986,1,0,0:0:0:70:24_E2_75_480.wav
36,192,180386,1,0,0:0:0:70:cymbal light.wav
182,192,180386,1,0,0:0:0:70:LR_Drum Kick Low.wav
475,192,180386,1,0,0:0:0:70:24_B2_75_480.wav
329,192,180386,1,0,0:0:0:70:24_B1_75_480.wav
36,192,180786,1,0,0:0:0:70:cymbal light.wav
402,192,180786,1,0,0:0:0:70:24_F#2_75_480.wav
36,192,181186,1,0,0:0:0:70:cymbal light.wav
109,192,181186,1,0,0:0:0:70:LR_Drum Hit Clap Sn.wav
329,192,181186,1,0,0:0:0:70:24_D#3_75_480.wav
475,192,181186,1,0,0:0:0:70:24_B2_75_480.wav
36,192,181586,1,0,0:0:0:70:cymbal light.wav
402,192,181586,1,0,0:0:0:70:24_F#2_75_480.wav
36,192,181986,1,0,0:0:0:70:cymbal light.wav
182,192,181986,1,0,0:0:0:70:LR_Drum Kick Low.wav
475,192,181986,1,0,0:0:0:70:24_C#2_75_480.wav
329,192,181986,1,0,0:0:0:70:24_C#3_75_480.wav
36,192,182386,1,0,0:0:0:70:cymbal light.wav
182,192,182386,1,0,0:0:0:70:LR_Drum Kick Low.wav
402,192,182386,1,0,0:0:0:70:24_E2_75_480.wav
36,192,182786,1,0,0:0:0:70:cymbal light.wav
109,192,182786,1,0,0:0:0:70:LR_Drum Hit Clap Sn.wav
329,192,182786,1,0,0:0:0:70:24_C#3_75_480.wav
402,192,182786,1,0,0:0:0:70:24_E3_75_480.wav
475,192,182786,1,0,0:0:0:70:24_G#2_75_480.wav
36,192,183186,1,0,0:0:0:70:cymbal light.wav
402,192,183186,1,0,0:0:0:70:24_E2_75_480.wav
36,192,183586,1,0,0:0:0:70:cymbal light.wav
182,192,183586,1,0,0:0:0:70:LR_Drum Kick Low.wav
475,192,183586,1,0,0:0:0:70:24_G#2_75_480.wav
329,192,183586,1,0,0:0:0:70:24_G#1_75_480.wav
402,192,183986,5,0,0:0:0:70:24_E2_75_480.wav
36,192,183986,1,0,0:0:0:70:cymbal light.wav
36,192,184386,1,0,0:0:0:70:cymbal light.wav
109,192,184386,1,0,0:0:0:70:LR_Drum Hit Clap Sn.wav
475,192,184386,1,0,0:0:0:70:24_G#2_75_480.wav
329,192,184386,1,0,0:0:0:70:24_B2_75_480.wav
402,192,184386,1,0,0:0:0:70:24_E3_75_480.wav
36,192,184786,1,0,0:0:0:70:cymbal light.wav
402,192,184786,1,0,0:0:0:70:24_E2_75_480.wav
256,192,184986,1,0,0:0:0:40:24_A1_75_480.wav
36,192,185186,1,0,0:0:0:70:cymbal light.wav
182,192,185186,1,0,0:0:0:70:LR_Drum Kick Low.wav
475,192,185186,1,0,0:0:0:70:24_A2_75_480.wav
329,192,185186,1,0,0:0:0:70:24_A1_75_480.wav
36,192,185586,1,0,0:0:0:70:cymbal light.wav
182,192,185586,1,0,0:0:0:70:LR_Drum Kick Low.wav
402,192,185586,1,0,0:0:0:70:24_E2_75_480.wav
36,192,185986,1,0,0:0:0:70:cymbal light.wav
109,192,185986,1,0,0:0:0:70:LR_Drum Hit Clap Sn.wav
475,192,185986,1,0,0:0:0:70:24_A2_75_480.wav
329,192,185986,1,0,0:0:0:70:24_C#3_75_480.wav
402,192,185986,1,0,0:0:0:70:24_E3_75_480.wav
36,192,186386,1,0,0:0:0:70:cymbal light.wav
402,192,186386,1,0,0:0:0:70:24_E2_75_480.wav
36,192,186786,1,0,0:0:0:70:cymbal light.wav
182,192,186786,1,0,0:0:0:70:LR_Drum Kick Low.wav
329,192,186786,1,0,0:0:0:70:24_B1_75_480.wav
475,192,186786,1,0,0:0:0:70:24_B2_75_480.wav
36,192,187186,1,0,0:0:0:70:cymbal light.wav
402,192,187186,1,0,0:0:0:70:24_F#2_75_480.wav
36,192,187586,1,0,0:0:0:70:cymbal light.wav
109,192,187586,1,0,0:0:0:70:LR_Drum Hit Clap Sn.wav
475,192,187586,1,0,0:0:0:70:24_B2_75_480.wav
329,192,187586,1,0,0:0:0:70:24_D#3_75_480.wav
36,192,187986,1,0,0:0:0:70:cymbal light.wav
402,192,187986,1,0,0:0:0:70:24_F#2_75_480.wav
36,192,188386,1,0,0:0:0:70:cymbal light.wav
182,192,188386,1,0,0:0:0:70:LR_Drum Kick Low.wav
329,192,188386,1,0,0:0:0:70:24_C#3_75_480.wav
475,192,188386,1,0,0:0:0:70:24_C#2_75_480.wav
36,192,188786,1,0,0:0:0:70:cymbal light.wav
182,192,188786,1,0,0:0:0:70:LR_Drum Kick Low.wav
402,192,188786,1,0,0:0:0:70:24_E2_75_480.wav
36,192,189186,1,0,0:0:0:70:cymbal light.wav
109,192,189186,1,0,0:0:0:70:LR_Drum Hit Clap Sn.wav
475,192,189186,1,0,0:0:0:70:24_G#2_75_480.wav
402,192,189186,1,0,0:0:0:70:24_E3_75_480.wav
329,192,189186,1,0,0:0:0:70:24_C#3_75_480.wav
36,192,189586,1,0,0:0:0:70:cymbal light.wav
402,192,189586,1,0,0:0:0:70:24_E2_75_480.wav
36,192,189986,1,0,0:0:0:70:LR_Drum Finish.wav
182,192,189986,1,0,0:0:0:70:LR_Drum Kick Low.wav
475,192,189986,1,0,0:0:0:70:24_D2_75_1920.wav
329,192,189986,1,0,0:0:0:50:24_D1_75_480.wav
36,192,190386,1,0,0:0:0:70:cymbal light.wav
329,192,190386,1,0,0:0:0:70:24_F#2_75_480.wav
36,192,190786,1,0,0:0:0:70:cymbal light.wav
109,192,190786,1,0,0:0:0:70:LR_Drum Hit Clap Sn.wav
475,192,190786,1,0,0:0:0:70:24_D3_75_480.wav
329,192,190786,1,0,0:0:0:70:24_A2_75_480.wav
36,192,191186,1,0,0:0:0:70:cymbal light.wav
329,192,191186,1,0,0:0:0:70:24_F#2_75_480.wav
36,192,191586,1,0,0:0:0:70:cymbal light.wav
475,192,191586,1,0,0:0:0:70:24_D2_75_480.wav
109,192,191586,1,0,0:0:0:70:24_F#2_75_480.wav
329,192,191586,1,0,0:0:0:50:24_D1_75_480.wav
182,192,191586,1,0,0:0:0:70:LR_Drum Kick Low.wav
182,192,191986,1,0,0:0:0:70:LR_Drum Kick Low.wav
36,192,191986,1,0,0:0:0:70:cymbal light.wav
329,192,191986,1,0,0:0:0:70:24_F#2_75_480.wav
36,192,192386,1,0,0:0:0:70:cymbal light.wav
109,192,192386,1,0,0:0:0:70:LR_Drum Hit Clap Sn.wav
475,192,192386,1,0,0:0:0:70:24_D2_75_1920.wav
329,192,192386,1,0,0:0:0:70:24_A2_75_480.wav
36,192,192786,1,0,0:0:0:70:cymbal light.wav
329,192,192786,1,0,0:0:0:70:24_F#2_75_480.wav
182,192,193186,1,0,0:0:0:70:LR_Drum Kick Low.wav
36,192,193186,1,0,0:0:0:70:cymbal light.wav
329,192,193186,1,0,0:0:0:70:24_C#1_75_480.wav
475,192,193186,1,0,0:0:0:70:24_C#2_75_480.wav
36,192,193586,1,0,0:0:0:70:cymbal light.wav
329,192,193586,1,0,0:0:0:70:24_E2_75_480.wav
36,192,193986,1,0,0:0:0:70:cymbal light.wav
109,192,193986,1,0,0:0:0:70:LR_Drum Hit Clap Sn.wav
402,192,193986,1,0,0:0:0:70:24_C#2_75_480.wav
329,192,193986,1,0,0:0:0:70:24_A2_75_480.wav
475,192,193986,1,0,0:0:0:50:24_B2_75_480.wav
36,192,194386,1,0,0:0:0:70:cymbal light.wav
329,192,194386,1,0,0:0:0:70:24_E2_75_480.wav
182,192,194786,1,0,0:0:0:70:LR_Drum Kick Low.wav
36,192,194786,1,0,0:0:0:70:cymbal light.wav
329,192,194786,1,0,0:0:0:70:24_C#1_75_480.wav
475,192,194786,1,0,0:0:0:70:24_C#2_75_480.wav
182,192,195186,1,0,0:0:0:70:LR_Drum Kick Low.wav
36,192,195186,1,0,0:0:0:70:cymbal light.wav
329,192,195186,1,0,0:0:0:70:24_E2_75_480.wav
36,192,195586,1,0,0:0:0:70:cymbal light.wav
109,192,195586,1,0,0:0:0:70:LR_Drum Hit Clap Sn.wav
402,192,195586,1,0,0:0:0:70:24_C#2_75_480.wav
329,192,195586,1,0,0:0:0:70:24_A2_75_480.wav
475,192,195586,1,0,0:0:0:50:24_B2_75_480.wav
36,192,195986,1,0,0:0:0:70:cymbal light.wav
329,192,195986,1,0,0:0:0:70:24_E2_75_480.wav
182,192,196386,1,0,0:0:0:70:LR_Drum Kick Low.wav
36,192,196386,1,0,0:0:0:70:cymbal light.wav
475,192,196386,1,0,0:0:0:70:24_D2_75_1920.wav
329,192,196386,1,0,0:0:0:50:24_D1_75_480.wav
36,192,196786,1,0,0:0:0:70:cymbal light.wav
329,192,196786,1,0,0:0:0:70:24_F#2_75_480.wav
36,192,197186,1,0,0:0:0:70:cymbal light.wav
109,192,197186,1,0,0:0:0:70:LR_Drum Hit Clap Sn.wav
475,192,197186,1,0,0:0:0:70:24_D3_75_480.wav
329,192,197186,1,0,0:0:0:70:24_A2_75_480.wav
36,192,197586,1,0,0:0:0:70:cymbal light.wav
329,192,197586,1,0,0:0:0:70:24_F#2_75_480.wav
182,192,197986,1,0,0:0:0:70:LR_Drum Kick Low.wav
36,192,197986,1,0,0:0:0:70:cymbal light.wav
475,192,197986,1,0,0:0:0:70:24_D2_75_1920.wav
329,192,197986,1,0,0:0:0:50:24_D1_75_480.wav
182,192,198386,1,0,0:0:0:70:LR_Drum Kick Low.wav
36,192,198386,1,0,0:0:0:70:cymbal light.wav
329,192,198386,1,0,0:0:0:70:24_F#2_75_480.wav
36,192,198786,1,0,0:0:0:70:cymbal light.wav
109,192,198786,1,0,0:0:0:70:LR_Drum Hit Clap Sn.wav
475,192,198786,1,0,0:0:0:70:24_D2_75_1920.wav
329,192,198786,1,0,0:0:0:70:24_A2_75_480.wav
36,192,199186,1,0,0:0:0:70:cymbal light.wav
329,192,199186,1,0,0:0:0:70:24_F#2_75_480.wav
182,192,199586,1,0,0:0:0:70:LR_Drum Kick Low.wav
36,192,199586,1,0,0:0:0:70:cymbal light.wav
329,192,199586,1,0,0:0:0:70:24_C#1_75_480.wav
475,192,199586,1,0,0:0:0:70:24_C#2_75_480.wav
36,192,199986,1,0,0:0:0:70:cymbal light.wav
329,192,199986,1,0,0:0:0:70:24_E2_75_480.wav
36,192,200386,1,0,0:0:0:70:cymbal light.wav
109,192,200386,1,0,0:0:0:70:LR_Drum Hit Clap Sn.wav
402,192,200386,1,0,0:0:0:70:24_C#2_75_480.wav
329,192,200386,1,0,0:0:0:70:24_A2_75_480.wav
475,192,200386,1,0,0:0:0:50:24_B2_75_480.wav
36,192,200786,1,0,0:0:0:70:cymbal light.wav
329,192,200786,1,0,0:0:0:70:24_E2_75_480.wav
182,192,201186,1,0,0:0:0:70:LR_Drum Kick Low.wav
36,192,201186,1,0,0:0:0:70:cymbal light.wav
329,192,201186,1,0,0:0:0:70:24_C#1_75_480.wav
475,192,201186,1,0,0:0:0:70:24_C#2_75_480.wav
182,192,201586,1,0,0:0:0:70:LR_Drum Kick Low.wav
36,192,201586,1,0,0:0:0:70:cymbal light.wav
329,192,201586,1,0,0:0:0:70:24_E2_75_480.wav
36,192,201986,1,0,0:0:0:70:cymbal light.wav
109,192,201986,1,0,0:0:0:70:LR_Drum Hit Clap Sn.wav
402,192,201986,1,0,0:0:0:70:24_C#2_75_480.wav
329,192,201986,1,0,0:0:0:70:24_A2_75_480.wav
475,192,201986,1,0,0:0:0:50:24_B2_75_480.wav
36,192,202386,1,0,0:0:0:70:cymbal light.wav
329,192,202386,1,0,0:0:0:70:24_E2_75_480.wav
182,192,202786,1,0,0:0:0:70:LR_Drum Kick Low.wav
36,192,202786,1,0,0:0:0:70:LR_Drum Finish.wav
329,192,202786,1,0,0:0:0:50:24_D1_75_480.wav
475,192,202786,1,0,0:0:0:70:24_D2_75_1920.wav
36,192,203186,1,0,0:0:0:70:cymbal light.wav
329,192,203186,1,0,0:0:0:70:24_F#2_75_480.wav
109,192,203586,1,0,0:0:0:70:LR_Drum Hit Clap Sn.wav
36,192,203586,1,0,0:0:0:70:cymbal light.wav
329,192,203586,1,0,0:0:0:70:24_A2_75_480.wav
475,192,203586,1,0,0:0:0:70:24_D3_75_480.wav
36,192,203986,1,0,0:0:0:70:cymbal light.wav
329,192,203986,1,0,0:0:0:70:24_F#2_75_480.wav
36,192,204386,1,0,0:0:0:70:cymbal light.wav
182,192,204386,1,0,0:0:0:70:LR_Drum Kick Low.wav
475,192,204386,1,0,0:0:0:70:24_E2_75_480.wav
329,192,204386,1,0,0:0:0:70:24_E1_75_480.wav
36,192,204786,1,0,0:0:0:70:cymbal light.wav
182,192,204786,1,0,0:0:0:70:LR_Drum Kick Low.wav
329,192,204786,1,0,0:0:0:70:24_G#2_75_480.wav
109,192,205186,1,0,0:0:0:70:LR_Drum Hit Clap Sn.wav
36,192,205186,1,0,0:0:0:70:cymbal light.wav
329,192,205186,1,0,0:0:0:70:24_A2_75_480.wav
475,192,205186,1,0,0:0:0:70:24_E3_75_480.wav
36,192,205586,1,0,0:0:0:70:cymbal light.wav
329,192,205586,1,0,0:0:0:70:24_F2_75_480.wav
182,192,205986,1,0,0:0:0:70:LR_Drum Kick Low.wav
36,192,205986,1,0,0:0:0:70:cymbal light.wav
329,192,205986,1,0,0:0:0:70:24_F#1_75_480.wav
475,192,205986,1,0,0:0:0:70:24_F#2_75_480.wav
36,192,206386,1,0,0:0:0:70:cymbal light.wav
329,192,206386,1,0,0:0:0:70:24_A2_75_480.wav
36,192,206786,1,0,0:0:0:70:cymbal light.wav
109,192,206786,1,0,0:0:0:70:LR_Drum Hit Clap Sn.wav
475,192,206786,1,0,0:0:0:70:24_F#3_75_480.wav
329,192,206786,1,0,0:0:0:70:24_E3_75_480.wav
36,192,207186,1,0,0:0:0:70:cymbal light.wav
329,192,207186,1,0,0:0:0:70:24_A2_75_480.wav
182,192,207586,1,0,0:0:0:70:LR_Drum Kick Low.wav
36,192,207586,1,0,0:0:0:70:cymbal light.wav
329,192,207586,1,0,0:0:0:70:24_F#1_75_480.wav
475,192,207586,1,0,0:0:0:70:24_F#2_75_480.wav
182,192,207986,1,0,0:0:0:70:LR_Drum Kick Low.wav
36,192,207986,1,0,0:0:0:70:cymbal light.wav
329,192,207986,1,0,0:0:0:70:24_A2_75_480.wav
36,192,208386,1,0,0:0:0:70:cymbal light.wav
109,192,208386,1,0,0:0:0:70:LR_Drum Hit Clap Sn.wav
475,192,208386,1,0,0:0:0:70:24_F#3_75_480.wav
329,192,208386,1,0,0:0:0:70:24_E3_75_480.wav
36,192,208786,1,0,0:0:0:70:cymbal light.wav
329,192,208786,1,0,0:0:0:70:24_A2_75_480.wav
36,192,209186,1,0,0:0:0:70:cymbal light.wav
182,192,209186,1,0,0:0:0:70:LR_Drum Kick Low.wav
475,192,209186,1,0,0:0:0:70:24_D2_75_1920.wav
329,192,209186,1,0,0:0:0:50:24_D1_75_480.wav
36,192,209586,1,0,0:0:0:70:cymbal light.wav
329,192,209586,1,0,0:0:0:70:24_F#2_75_480.wav
109,192,209986,1,0,0:0:0:70:LR_Drum Hit Clap Sn.wav
36,192,209986,1,0,0:0:0:70:cymbal light.wav
475,192,209986,1,0,0:0:0:70:24_D3_75_480.wav
329,192,209986,1,0,0:0:0:70:24_A2_75_480.wav
36,192,210386,1,0,0:0:0:70:cymbal light.wav
329,192,210386,1,0,0:0:0:70:24_F#2_75_480.wav
36,192,210786,1,0,0:0:0:70:cymbal light.wav
182,192,210786,1,0,0:0:0:70:LR_Drum Kick Low.wav
475,192,210786,1,0,0:0:0:50:24_E2_75_480.wav
329,192,210786,1,0,0:0:0:50:24_E1_75_480.wav
36,192,211186,1,0,0:0:0:70:cymbal light.wav
182,192,211186,1,0,0:0:0:70:LR_Drum Kick Low.wav
329,192,211186,1,0,0:0:0:70:24_G#2_75_480.wav
109,192,211586,1,0,0:0:0:70:LR_Drum Hit Clap Sn.wav
36,192,211586,1,0,0:0:0:70:cymbal light.wav
475,192,211586,1,0,0:0:0:50:24_E3_75_480.wav
329,192,211586,1,0,0:0:0:70:24_A2_75_480.wav
36,192,211986,1,0,0:0:0:70:cymbal light.wav
329,192,211986,1,0,0:0:0:70:24_F2_75_480.wav
182,192,212386,1,0,0:0:0:70:LR_Drum Kick Low.wav
36,192,212386,1,0,0:0:0:70:cymbal light.wav
329,192,212386,1,0,0:0:0:50:24_F#1_75_480.wav
475,192,212386,1,0,0:0:0:70:24_F#2_75_480.wav
36,192,212786,1,0,0:0:0:70:cymbal light.wav
329,192,212786,1,0,0:0:0:50:24_A2_75_480.wav
36,192,213186,1,0,0:0:0:70:cymbal light.wav
109,192,213186,1,0,0:0:0:70:LR_Drum Hit Clap Sn.wav
329,192,213186,1,0,0:0:0:70:24_E3_75_480.wav
475,192,213186,1,0,0:0:0:70:24_F#3_75_480.wav
36,192,213586,1,0,0:0:0:70:cymbal light.wav
329,192,213586,1,0,0:0:0:50:24_A2_75_480.wav
182,192,213986,1,0,0:0:0:70:LR_Drum Kick Low.wav
36,192,213986,1,0,0:0:0:70:cymbal light.wav
475,192,213986,1,0,0:0:0:50:24_G2_75_480.wav
329,192,213986,1,0,0:0:0:50:24_G1_75_480.wav
182,192,214386,1,0,0:0:0:70:LR_Drum Kick Low.wav
36,192,214386,1,0,0:0:0:70:cymbal light.wav
329,192,214386,1,0,0:0:0:70:24_A2_75_480.wav
36,192,214786,5,0,0:0:0:70:cymbal light.wav
109,192,214786,1,0,0:0:0:70:LR_Drum Hit Clap Sn.wav
329,192,214786,1,0,0:0:0:70:24_D3_75_480.wav
475,192,214786,1,0,0:0:0:70:24_G3_75_480.wav
36,192,215186,1,0,0:0:0:70:cymbal light.wav
329,192,215186,1,0,0:0:0:70:24_E2_75_480.wav
182,192,215586,5,0,0:0:0:70:24_G#1_75_480.wav
475,192,215986,1,0,0:0:0:79:24_B2_75_480.wav
36,192,216386,1,0,0:0:0:77:24_E3_75_480.wav
329,192,217186,1,0,0:0:0:70:24_A1_75_480.wav
109,192,217586,1,0,0:0:0:70:24_B2_75_480.wav
402,192,217986,1,0,0:0:0:70:24_E3_75_480.wav
256,192,218786,1,0,0:0:0:70:24_B1_75_480.wav
182,192,219186,1,0,0:0:0:70:24_B2_75_480.wav
475,192,219586,1,0,0:0:0:70:24_E3_75_480.wav
182,192,220386,5,0,0:0:0:79:24_C#2_75_480.wav
475,192,220786,1,0,0:0:0:79:24_B2_75_480.wav
36,192,221186,1,0,0:0:0:77:24_E3_75_480.wav
475,192,221986,5,0,0:0:0:70:24_G#1_75_480.wav
256,192,221986,1,0,0:0:0:70:LR_CymbalSSD.wav
182,192,221986,1,0,0:0:0:70:LR_Drum Kick Low.wav
402,192,222386,1,0,0:0:0:79:24_B2_75_480.wav
36,192,222386,1,0,0:0:0:70:LR_Hit Med Click.wav
329,192,222786,1,0,0:0:0:77:24_E3_75_480.wav
109,192,222786,1,0,0:0:0:70:LR_Drum Hit Clap Sn.wav
36,192,223186,1,0,0:0:0:70:LR_Hit Med Click.wav
475,192,223586,1,0,0:0:0:70:24_A1_75_480.wav
182,192,223586,1,0,0:0:0:70:LR_Drum Kick Low.wav
402,192,223986,1,0,0:0:0:70:24_B2_75_480.wav
182,192,223986,1,0,0:0:0:70:LR_Drum Kick Low.wav
36,192,223986,1,0,0:0:0:70:LR_Hit Med Click.wav
329,192,224386,1,0,0:0:0:70:24_E3_75_480.wav
109,192,224386,1,0,0:0:0:70:LR_Drum Hit Clap Sn.wav
36,192,224786,1,0,0:0:0:70:LR_Hit Med Click.wav
475,192,225186,1,0,0:0:0:70:24_B1_75_480.wav
182,192,225186,1,0,0:0:0:70:LR_Drum Kick Low.wav
402,192,225586,1,0,0:0:0:70:24_B2_75_480.wav
36,192,225586,1,0,0:0:0:70:LR_Hit Med Click.wav
329,192,225986,1,0,0:0:0:70:24_E3_75_480.wav
109,192,225986,1,0,0:0:0:70:LR_Drum Hit Clap Sn.wav
36,192,226386,1,0,0:0:0:70:LR_Hit Med Click.wav
475,192,226786,5,0,0:0:0:79:24_C#2_75_480.wav
182,192,226786,1,0,0:0:0:70:LR_Drum Kick Low.wav
402,192,227186,1,0,0:0:0:79:24_B2_75_480.wav
182,192,227186,1,0,0:0:0:70:LR_Drum Kick Low.wav
36,192,227186,1,0,0:0:0:70:LR_Hit Med Click.wav
329,192,227586,1,0,0:0:0:77:24_E3_75_480.wav
109,192,227586,1,0,0:0:0:70:LR_Drum Hit Clap Sn.wav
36,192,227986,1,0,0:0:0:70:LR_Hit Med Click.wav
475,192,228386,5,0,0:0:0:70:24_G#1_75_480.wav
182,192,228386,1,0,0:0:0:70:LR_Drum Kick Low.wav
36,192,228786,1,0,0:0:0:70:LR_Hit Med Click.wav
402,192,228786,1,0,0:0:0:79:24_B2_75_480.wav
109,192,229186,1,0,0:0:0:70:LR_Drum Hit Clap Sn.wav
329,192,229186,1,0,0:0:0:77:24_E3_75_480.wav
36,192,229586,1,0,0:0:0:70:LR_Hit Med Click.wav
182,192,229986,1,0,0:0:0:70:LR_Drum Kick Low.wav
475,192,229986,1,0,0:0:0:70:24_A1_75_480.wav
36,192,230386,1,0,0:0:0:70:LR_Hit Med Click.wav
182,192,230386,1,0,0:0:0:70:LR_Drum Kick Low.wav
402,192,230386,1,0,0:0:0:70:24_B2_75_480.wav
109,192,230786,1,0,0:0:0:70:LR_Drum Hit Clap Sn.wav
329,192,230786,1,0,0:0:0:70:24_E3_75_480.wav
36,192,231186,1,0,0:0:0:70:LR_Hit Med Click.wav
182,192,231586,1,0,0:0:0:70:LR_Drum Kick Low.wav
475,192,231586,1,0,0:0:0:70:24_B1_75_480.wav
36,192,231986,1,0,0:0:0:70:LR_Hit Med Click.wav
402,192,231986,1,0,0:0:0:70:24_B2_75_480.wav
109,192,232386,1,0,0:0:0:70:LR_Drum Hit Clap Sn.wav
329,192,232386,1,0,0:0:0:70:24_E3_75_480.wav
36,192,232786,1,0,0:0:0:70:LR_Hit Med Click.wav
475,192,233186,5,0,0:0:0:79:24_C#2_75_480.wav
182,192,233186,1,0,0:0:0:70:LR_Drum Kick Low.wav
36,192,233586,1,0,0:0:0:70:LR_Hit Med Click.wav
182,192,233586,1,0,0:0:0:70:LR_Drum Kick Low.wav
402,192,233586,1,0,0:0:0:79:24_B2_75_480.wav
109,192,233986,1,0,0:0:0:70:LR_Drum Hit Clap Sn.wav
329,192,233986,1,0,0:0:0:77:24_E3_75_480.wav
36,192,234386,1,0,0:0:0:70:LR_Hit Med Click.wav
475,192,234786,5,0,0:0:0:70:24_G#1_75_480.wav
182,192,234786,1,0,0:0:0:70:LR_Drum Kick Low.wav
402,192,235186,1,0,0:0:0:79:24_B2_75_480.wav
36,192,235186,1,0,0:0:0:70:LR_Hit Med Click.wav
329,192,235586,1,0,0:0:0:77:24_E3_75_480.wav
109,192,235586,1,0,0:0:0:70:LR_Drum Hit Clap Sn.wav
36,192,235986,1,0,0:0:0:70:LR_Hit Med Click.wav
475,192,236386,1,0,0:0:0:70:24_A1_75_480.wav
182,192,236386,1,0,0:0:0:70:LR_Drum Kick Low.wav
402,192,236786,1,0,0:0:0:70:24_B2_75_480.wav
182,192,236786,1,0,0:0:0:70:LR_Drum Kick Low.wav
36,192,236786,1,0,0:0:0:70:LR_Hit Med Click.wav
329,192,237186,1,0,0:0:0:70:24_E3_75_480.wav
109,192,237186,1,0,0:0:0:70:LR_Drum Hit Clap Sn.wav
36,192,237586,1,0,0:0:0:70:LR_Hit Med Click.wav
475,192,237986,1,0,0:0:0:70:24_B1_75_480.wav
182,192,237986,1,0,0:0:0:70:LR_Drum Kick Low.wav
402,192,238386,1,0,0:0:0:70:24_B2_75_480.wav
36,192,238386,1,0,0:0:0:70:LR_Hit Med Click.wav
329,192,238786,1,0,0:0:0:70:24_E3_75_480.wav
109,192,238786,1,0,0:0:0:70:LR_Drum Hit Clap Sn.wav
36,192,239186,1,0,0:0:0:70:LR_Hit Med Click.wav
475,192,239586,5,0,0:0:0:79:24_C#2_75_480.wav
182,192,239586,1,0,0:0:0:70:LR_Drum Kick Low.wav
402,192,239986,1,0,0:0:0:79:24_B2_75_480.wav
182,192,239986,1,0,0:0:0:70:LR_Drum Kick Low.wav
36,192,239986,1,0,0:0:0:70:LR_Hit Med Click.wav
329,192,240386,1,0,0:0:0:77:24_E3_75_480.wav
109,192,240386,1,0,0:0:0:70:LR_Drum Hit Clap Sn.wav
36,192,240786,1,0,0:0:0:70:LR_Hit Med Click.wav
475,192,241186,5,0,0:0:0:70:24_G#1_75_480.wav
182,192,241186,1,0,0:0:0:70:LR_Drum Kick Low.wav
36,192,241586,1,0,0:0:0:70:LR_Hit Med Click.wav
402,192,241586,1,0,0:0:0:79:24_B2_75_480.wav
109,192,241986,1,0,0:0:0:70:LR_Drum Hit Clap Sn.wav
329,192,241986,1,0,0:0:0:77:24_E3_75_480.wav
36,192,242386,1,0,0:0:0:70:LR_Hit Med Click.wav
182,192,242786,1,0,0:0:0:70:LR_Drum Kick Low.wav
475,192,242786,1,0,0:0:0:70:24_A1_75_480.wav
36,192,243186,1,0,0:0:0:70:LR_Hit Med Click.wav
182,192,243186,1,0,0:0:0:70:LR_Drum Kick Low.wav
402,192,243186,1,0,0:0:0:70:24_B2_75_480.wav
109,192,243586,1,0,0:0:0:70:LR_Drum Hit Clap Sn.wav
329,192,243586,1,0,0:0:0:70:24_E3_75_480.wav
36,192,243986,1,0,0:0:0:70:LR_Hit Med Click.wav
182,192,244386,1,0,0:0:0:70:LR_Drum Kick Low.wav
475,192,244386,1,0,0:0:0:70:24_B1_75_480.wav
36,192,244786,1,0,0:0:0:70:LR_Hit Med Click.wav
402,192,244786,1,0,0:0:0:70:24_B2_75_480.wav
109,192,245186,1,0,0:0:0:70:LR_Drum Hit Clap Sn.wav
329,192,245186,1,0,0:0:0:70:24_E3_75_480.wav
36,192,245586,1,0,0:0:0:70:LR_Hit Med Click.wav
475,192,245986,5,0,0:0:0:79:24_C#2_75_480.wav
182,192,245986,1,0,0:0:0:70:LR_Drum Kick Low.wav
36,192,246386,1,0,0:0:0:70:LR_Hit Med Click.wav
182,192,246386,1,0,0:0:0:70:LR_Drum Kick Low.wav
402,192,246386,1,0,0:0:0:79:24_B2_75_480.wav
109,192,246786,1,0,0:0:0:70:LR_Drum Hit Clap Sn.wav
329,192,246786,1,0,0:0:0:77:24_E3_75_480.wav
36,192,247186,1,0,0:0:0:70:LR_Hit Med Click.wav
475,192,247586,5,0,0:0:0:70:24_G#1_75_480.wav
182,192,247586,1,0,0:0:0:70:LR_Drum Kick Low.wav
402,192,247986,1,0,0:0:0:79:24_B2_75_480.wav
36,192,247986,1,0,0:0:0:70:LR_Hit Med Click.wav
329,192,248386,1,0,0:0:0:77:24_E3_75_480.wav
109,192,248386,1,0,0:0:0:70:LR_Drum Hit Clap Sn.wav
36,192,248786,1,0,0:0:0:70:LR_Hit Med Click.wav
475,192,249186,1,0,0:0:0:70:24_A1_75_480.wav
182,192,249186,1,0,0:0:0:70:LR_Drum Kick Low.wav
402,192,249586,1,0,0:0:0:70:24_B2_75_480.wav
182,192,249586,1,0,0:0:0:70:LR_Drum Kick Low.wav
36,192,249586,1,0,0:0:0:70:LR_Hit Med Click.wav
329,192,249986,1,0,0:0:0:70:24_E3_75_480.wav
109,192,249986,1,0,0:0:0:70:LR_Drum Hit Clap Sn.wav
36,192,250386,1,0,0:0:0:70:LR_Hit Med Click.wav
475,192,250786,1,0,0:0:0:70:24_B1_75_480.wav
182,192,250786,1,0,0:0:0:70:LR_Drum Kick Low.wav
402,192,251186,1,0,0:0:0:70:24_B2_75_480.wav
36,192,251186,1,0,0:0:0:70:LR_Hit Med Click.wav
329,192,251586,1,0,0:0:0:70:24_E3_75_480.wav
109,192,251586,1,0,0:0:0:70:LR_Drum Hit Clap Sn.wav
36,192,251986,1,0,0:0:0:70:LR_Hit Med Click.wav
475,192,252386,5,0,0:0:0:79:24_C#2_75_480.wav
182,192,252386,1,0,0:0:0:70:LR_Drum Kick Low.wav
402,192,252786,1,0,0:0:0:79:24_B2_75_480.wav
182,192,252786,1,0,0:0:0:70:LR_Drum Kick Low.wav
36,192,252786,1,0,0:0:0:70:LR_Hit Med Click.wav
329,192,253186,1,0,0:0:0:77:24_E3_75_480.wav
109,192,253186,1,0,0:0:0:70:LR_Drum Hit Clap Sn.wav
36,192,253586,1,0,0:0:0:70:LR_Hit Med Click.wav
475,192,253986,5,0,0:0:0:70:24_G#1_75_480.wav
182,192,253986,1,0,0:0:0:70:LR_Drum Kick Low.wav
36,192,254386,1,0,0:0:0:70:LR_Hit Med Click.wav
402,192,254386,1,0,0:0:0:79:24_B2_75_480.wav
109,192,254786,1,0,0:0:0:70:LR_Drum Hit Clap Sn.wav
329,192,254786,1,0,0:0:0:77:24_E3_75_480.wav
36,192,255186,1,0,0:0:0:70:LR_Hit Med Click.wav
182,192,255586,1,0,0:0:0:70:LR_Drum Kick Low.wav
475,192,255586,1,0,0:0:0:70:24_A1_75_480.wav
36,192,255986,1,0,0:0:0:70:LR_Hit Med Click.wav
182,192,255986,1,0,0:0:0:70:LR_Drum Kick Low.wav
402,192,255986,1,0,0:0:0:70:24_B2_75_480.wav
109,192,256386,1,0,0:0:0:70:LR_Drum Hit Clap Sn.wav
329,192,256386,1,0,0:0:0:70:24_E3_75_480.wav
36,192,256786,1,0,0:0:0:70:LR_Hit Med Click.wav
182,192,257186,1,0,0:0:0:70:LR_Drum Kick Low.wav
475,192,257186,1,0,0:0:0:70:24_B1_75_480.wav
36,192,257586,1,0,0:0:0:70:LR_Hit Med Click.wav
402,192,257586,1,0,0:0:0:70:24_B2_75_480.wav
109,192,257986,1,0,0:0:0:70:LR_Drum Hit Clap Sn.wav
329,192,257986,1,0,0:0:0:70:24_E3_75_480.wav
36,192,258386,1,0,0:0:0:70:LR_Hit Med Click.wav
475,192,258786,5,0,0:0:0:79:24_C#2_75_480.wav
182,192,258786,1,0,0:0:0:70:LR_Drum Kick Low.wav
36,192,259186,1,0,0:0:0:70:LR_Hit Med Click.wav
182,192,259186,1,0,0:0:0:70:LR_Drum Kick Low.wav
402,192,259186,1,0,0:0:0:79:24_B2_75_480.wav
109,192,259586,1,0,0:0:0:70:LR_Drum Hit Clap Sn.wav
329,192,259586,1,0,0:0:0:77:24_E3_75_480.wav
36,192,259986,1,0,0:0:0:70:LR_Hit Med Click.wav
475,192,260386,5,0,0:0:0:70:24_G#1_75_480.wav
182,192,260386,1,0,0:0:0:70:LR_Drum Kick Low.wav
402,192,260786,1,0,0:0:0:79:24_B2_75_480.wav
36,192,260786,1,0,0:0:0:70:LR_Hit Med Click.wav
329,192,261186,1,0,0:0:0:77:24_E3_75_480.wav
109,192,261186,1,0,0:0:0:70:LR_Drum Hit Clap Sn.wav
36,192,261586,1,0,0:0:0:70:LR_Hit Med Click.wav
475,192,261986,1,0,0:0:0:70:24_A1_75_480.wav
182,192,261986,1,0,0:0:0:70:LR_Drum Kick Low.wav
402,192,262386,1,0,0:0:0:70:24_B2_75_480.wav
182,192,262386,1,0,0:0:0:70:LR_Drum Kick Low.wav
36,192,262386,1,0,0:0:0:70:LR_Hit Med Click.wav
329,192,262786,1,0,0:0:0:70:24_E3_75_480.wav
109,192,262786,1,0,0:0:0:70:LR_Drum Hit Clap Sn.wav
36,192,263186,1,0,0:0:0:70:LR_Hit Med Click.wav
475,192,263586,1,0,0:0:0:70:24_B1_75_480.wav
182,192,263586,1,0,0:0:0:70:LR_Drum Kick Low.wav
402,192,263986,1,0,0:0:0:70:24_B2_75_480.wav
36,192,263986,1,0,0:0:0:70:LR_Hit Med Click.wav
329,192,264386,1,0,0:0:0:70:24_E3_75_480.wav
109,192,264386,1,0,0:0:0:70:LR_Drum Hit Clap Sn.wav
36,192,264786,1,0,0:0:0:70:LR_Hit Med Click.wav
475,192,265186,5,0,0:0:0:79:24_C#2_75_480.wav
182,192,265186,1,0,0:0:0:70:LR_Drum Kick Low.wav
402,192,265586,1,0,0:0:0:79:24_B2_75_480.wav
182,192,265586,1,0,0:0:0:70:LR_Drum Kick Low.wav
36,192,265586,1,0,0:0:0:70:LR_Hit Med Click.wav
329,192,265986,1,0,0:0:0:77:24_E3_75_480.wav
109,192,265986,1,0,0:0:0:70:LR_Drum Hit Clap Sn.wav
36,192,266386,1,0,0:0:0:70:LR_Hit Med Click.wav
109,192,266786,1,0,0:0:0:70:LR_Drum Hit Clap Sn.wav
182,192,266786,1,0,0:0:0:70:24_B2_75_480.wav
256,192,266786,1,0,0:0:0:70:24_E3_75_480.wav
329,192,266786,1,0,0:0:0:70:24_G3_75_480.wav
402,192,267386,1,0,0:0:0:70:LR_Drum EDge.wav
402,192,267486,1,0,0:0:0:70:LR_Drum EDge.wav
109,192,267586,1,0,0:0:0:70:LR_Drum Hit Clap Sn.wav
182,192,267586,1,0,0:0:0:70:24_B2_75_480.wav
256,192,267586,1,0,0:0:0:70:24_E3_75_480.wav
329,192,267586,1,0,0:0:0:70:24_G3_75_480.wav
402,192,268186,1,0,0:0:0:70:LR_Drum EDge.wav
402,192,268286,1,0,0:0:0:70:LR_Drum EDge.wav
109,192,268386,1,0,0:0:0:70:LR_Drum Hit Clap Sn.wav
182,192,268386,1,0,0:0:0:70:24_B2_75_480.wav
256,192,268386,1,0,0:0:0:70:24_D3_75_480.wav
329,192,268386,1,0,0:0:0:70:24_F#3_75_480.wav
109,192,268786,1,0,0:0:0:70:LR_Drum Hit Clap Sn.wav
109,192,269186,1,0,0:0:0:70:LR_Drum Hit Clap Sn.wav
182,192,269186,1,0,0:0:0:70:24_B2_75_480.wav
256,192,269186,1,0,0:0:0:70:24_D3_75_480.wav
329,192,269186,1,0,0:0:0:70:24_F#3_75_480.wav
402,192,269586,1,0,0:0:0:70:LR_Drum EDge.wav
402,192,269686,1,0,0:0:0:70:LR_Drum EDge.wav
402,192,269786,1,0,0:0:0:70:LR_Drum EDge.wav
402,192,269886,1,0,0:0:0:70:LR_Drum EDge.wav
109,192,269986,1,0,0:0:0:70:LR_Drum Hit Clap Sn.wav
182,192,269986,1,0,0:0:0:70:24_G3_75_480.wav
256,192,269986,1,0,0:0:0:70:24_C3_75_480.wav
329,192,269986,1,0,0:0:0:70:24_D#3_75_480.wav
402,192,270586,1,0,0:0:0:70:LR_Drum EDge.wav
402,192,270686,1,0,0:0:0:70:LR_Drum EDge.wav
109,192,270786,1,0,0:0:0:70:LR_Drum Hit Clap Sn.wav
182,192,270786,1,0,0:0:0:70:24_C3_75_480.wav
256,192,270786,1,0,0:0:0:70:24_D#3_75_480.wav
329,192,270786,1,0,0:0:0:70:24_G3_75_480.wav
402,192,271386,1,0,0:0:0:70:LR_Drum EDge.wav
402,192,271486,1,0,0:0:0:70:LR_Drum EDge.wav
109,192,271586,1,0,0:0:0:70:LR_Drum Hit Clap Sn.wav
182,192,271586,1,0,0:0:0:70:24_B2_75_480.wav
256,192,271586,1,0,0:0:0:70:24_D3_75_480.wav
329,192,271586,1,0,0:0:0:70:24_G3_75_480.wav
109,192,271986,1,0,0:0:0:70:LR_Drum Hit Clap Sn.wav
109,192,272386,1,0,0:0:0:70:LR_Drum Hit Clap Sn.wav
182,192,272386,1,0,0:0:0:70:24_B2_75_480.wav
256,192,272386,1,0,0:0:0:70:24_D3_75_480.wav
329,192,272386,1,0,0:0:0:70:24_G3_75_480.wav
402,192,272786,1,0,0:0:0:70:LR_Drum EDge.wav
402,192,272886,1,0,0:0:0:70:LR_Drum EDge.wav
402,192,272986,1,0,0:0:0:70:LR_Drum EDge.wav
402,192,273086,1,0,0:0:0:70:LR_Drum EDge.wav
109,192,273186,1,0,0:0:0:70:LR_Drum Hit Clap Sn.wav
182,192,273186,1,0,0:0:0:70:24_B2_75_480.wav
256,192,273186,1,0,0:0:0:70:24_E3_75_480.wav
329,192,273186,1,0,0:0:0:70:24_G3_75_480.wav
402,192,273786,1,0,0:0:0:70:LR_Drum EDge.wav
402,192,273886,1,0,0:0:0:70:LR_Drum EDge.wav
109,192,273986,1,0,0:0:0:70:LR_Drum Hit Clap Sn.wav
182,192,273986,1,0,0:0:0:70:24_B2_75_480.wav
256,192,273986,1,0,0:0:0:70:24_E3_75_480.wav
329,192,273986,1,0,0:0:0:70:24_G3_75_480.wav
402,192,274586,1,0,0:0:0:70:LR_Drum EDge.wav
402,192,274686,1,0,0:0:0:70:LR_Drum EDge.wav
109,192,274786,1,0,0:0:0:70:LR_Drum Hit Clap Sn.wav
182,192,274786,1,0,0:0:0:70:24_B2_75_480.wav
256,192,274786,1,0,0:0:0:70:24_D3_75_480.wav
329,192,274786,1,0,0:0:0:70:24_F#3_75_480.wav
109,192,275186,1,0,0:0:0:70:LR_Drum Hit Clap Sn.wav
109,192,275586,1,0,0:0:0:70:LR_Drum Hit Clap Sn.wav
182,192,275586,1,0,0:0:0:70:24_B2_75_480.wav
256,192,275586,1,0,0:0:0:70:24_D3_75_480.wav
329,192,275586,1,0,0:0:0:70:24_F#3_75_480.wav
402,192,275986,1,0,0:0:0:70:LR_Drum EDge.wav
402,192,276086,1,0,0:0:0:70:LR_Drum EDge.wav
402,192,276186,1,0,0:0:0:70:LR_Drum EDge.wav
402,192,276286,1,0,0:0:0:70:LR_Drum EDge.wav
109,192,276386,1,0,0:0:0:70:LR_Drum Hit Clap Sn.wav
182,192,276386,1,0,0:0:0:70:24_G3_75_480.wav
256,192,276386,1,0,0:0:0:70:24_C3_75_480.wav
329,192,276386,1,0,0:0:0:70:24_D#3_75_480.wav
402,192,276986,1,0,0:0:0:70:LR_Drum EDge.wav
402,192,277086,1,0,0:0:0:70:LR_Drum EDge.wav
109,192,277186,1,0,0:0:0:70:LR_Drum Hit Clap Sn.wav
182,192,277186,1,0,0:0:0:70:24_C3_75_480.wav
256,192,277186,1,0,0:0:0:70:24_D#3_75_480.wav
329,192,277186,1,0,0:0:0:70:24_G3_75_480.wav
402,192,277786,1,0,0:0:0:70:LR_Drum EDge.wav
402,192,277886,1,0,0:0:0:70:LR_Drum EDge.wav
109,192,277986,1,0,0:0:0:70:LR_Drum Hit Clap Sn.wav
182,192,277986,1,0,0:0:0:70:24_B2_75_480.wav
256,192,277986,1,0,0:0:0:70:24_D3_75_480.wav
329,192,277986,1,0,0:0:0:70:24_G3_75_480.wav
109,192,278386,1,0,0:0:0:70:LR_Drum Hit Clap Sn.wav
109,192,278786,1,0,0:0:0:70:LR_Drum Hit Clap Sn.wav
182,192,278786,1,0,0:0:0:70:24_B2_75_480.wav
256,192,278786,1,0,0:0:0:70:24_D3_75_480.wav
329,192,278786,1,0,0:0:0:70:24_G3_75_480.wav
402,192,279186,1,0,0:0:0:70:LR_Drum EDge.wav
402,192,279286,1,0,0:0:0:70:LR_Drum EDge.wav
402,192,279386,1,0,0:0:0:70:LR_Drum EDge.wav
402,192,279486,1,0,0:0:0:70:LR_Drum EDge.wav
109,192,279586,1,0,0:0:0:70:LR_Drum Hit Clap Sn.wav
329,192,279586,1,0,0:0:0:70:24_G3_75_480.wav
256,192,279586,1,0,0:0:0:70:24_E3_75_480.wav
182,192,279586,1,0,0:0:0:70:24_B2_75_480.wav
402,192,280186,1,0,0:0:0:70:LR_Drum EDge.wav
402,192,280286,1,0,0:0:0:70:LR_Drum EDge.wav
109,192,280386,1,0,0:0:0:70:LR_Drum Hit Clap Sn.wav
329,192,280386,1,0,0:0:0:70:24_G3_75_480.wav
256,192,280386,1,0,0:0:0:70:24_E3_75_480.wav
182,192,280386,1,0,0:0:0:70:24_B2_75_480.wav
402,192,280986,1,0,0:0:0:70:LR_Drum EDge.wav
402,192,281086,1,0,0:0:0:70:LR_Drum EDge.wav
109,192,281186,1,0,0:0:0:70:LR_Drum Hit Clap Sn.wav
329,192,281186,1,0,0:0:0:70:24_F#3_75_480.wav
256,192,281186,1,0,0:0:0:70:24_D3_75_480.wav
182,192,281186,1,0,0:0:0:70:24_B2_75_480.wav
109,192,281586,1,0,0:0:0:70:LR_Drum Hit Clap Sn.wav
109,192,281986,1,0,0:0:0:70:LR_Drum Hit Clap Sn.wav
329,192,281986,1,0,0:0:0:70:24_F#3_75_480.wav
256,192,281986,1,0,0:0:0:70:24_D3_75_480.wav
182,192,281986,1,0,0:0:0:70:24_B2_75_480.wav
402,192,282386,1,0,0:0:0:70:LR_Drum EDge.wav
402,192,282486,1,0,0:0:0:70:LR_Drum EDge.wav
402,192,282586,1,0,0:0:0:70:LR_Drum EDge.wav
402,192,282686,1,0,0:0:0:70:LR_Drum EDge.wav
109,192,282786,1,0,0:0:0:70:LR_Drum Hit Clap Sn.wav
329,192,282786,1,0,0:0:0:70:24_D#3_75_480.wav
256,192,282786,1,0,0:0:0:70:24_C3_75_480.wav
182,192,282786,1,0,0:0:0:70:24_G3_75_480.wav
402,192,283386,1,0,0:0:0:70:LR_Drum EDge.wav
402,192,283486,1,0,0:0:0:70:LR_Drum EDge.wav
109,192,283586,1,0,0:0:0:70:LR_Drum Hit Clap Sn.wav
329,192,283586,1,0,0:0:0:70:24_G3_75_480.wav
256,192,283586,1,0,0:0:0:70:24_D#3_75_480.wav
182,192,283586,1,0,0:0:0:70:24_C3_75_480.wav
402,192,284186,1,0,0:0:0:70:LR_Drum EDge.wav
402,192,284286,1,0,0:0:0:70:LR_Drum EDge.wav
109,192,284386,1,0,0:0:0:70:LR_Drum Hit Clap Sn.wav
329,192,284386,1,0,0:0:0:70:24_G3_75_480.wav
256,192,284386,1,0,0:0:0:70:24_D3_75_480.wav
182,192,284386,1,0,0:0:0:70:24_B2_75_480.wav
109,192,284786,1,0,0:0:0:70:LR_Drum Hit Clap Sn.wav
109,192,285186,1,0,0:0:0:70:LR_Drum Hit Clap Sn.wav
329,192,285186,1,0,0:0:0:70:24_G3_75_480.wav
256,192,285186,1,0,0:0:0:70:24_D3_75_480.wav
182,192,285186,1,0,0:0:0:70:24_B2_75_480.wav
402,192,285586,1,0,0:0:0:70:LR_Drum EDge.wav
402,192,285686,1,0,0:0:0:70:LR_Drum EDge.wav
402,192,285786,1,0,0:0:0:70:LR_Drum EDge.wav
402,192,285886,1,0,0:0:0:70:LR_Drum EDge.wav
109,192,285986,1,0,0:0:0:70:LR_Drum Hit Clap Sn.wav
182,192,285986,1,0,0:0:0:70:24_B2_75_480.wav
256,192,285986,1,0,0:0:0:70:24_E3_75_480.wav
329,192,285986,1,0,0:0:0:70:24_G3_75_480.wav
402,192,286586,1,0,0:0:0:70:LR_Drum EDge.wav
402,192,286686,1,0,0:0:0:70:LR_Drum EDge.wav
109,192,286786,1,0,0:0:0:70:LR_Drum Hit Clap Sn.wav
182,192,286786,1,0,0:0:0:70:24_B2_75_480.wav
256,192,286786,1,0,0:0:0:70:24_E3_75_480.wav
329,192,286786,1,0,0:0:0:70:24_G3_75_480.wav
402,192,287386,1,0,0:0:0:70:LR_Drum EDge.wav
402,192,287486,1,0,0:0:0:70:LR_Drum EDge.wav
109,192,287586,1,0,0:0:0:70:LR_Drum Hit Clap Sn.wav
182,192,287586,1,0,0:0:0:70:24_B2_75_480.wav
256,192,287586,1,0,0:0:0:70:24_D3_75_480.wav
329,192,287586,1,0,0:0:0:70:24_F#3_75_480.wav
109,192,287986,1,0,0:0:0:70:LR_Drum Hit Clap Sn.wav
109,192,288386,1,0,0:0:0:70:LR_Drum Hit Clap Sn.wav
182,192,288386,1,0,0:0:0:70:24_B2_75_480.wav
256,192,288386,1,0,0:0:0:70:24_D3_75_480.wav
329,192,288386,1,0,0:0:0:70:24_F#3_75_480.wav
402,192,288786,1,0,0:0:0:70:LR_Drum EDge.wav
402,192,288886,1,0,0:0:0:70:LR_Drum EDge.wav
402,192,288986,1,0,0:0:0:70:LR_Drum EDge.wav
402,192,289086,1,0,0:0:0:70:LR_Drum EDge.wav
109,192,289186,1,0,0:0:0:70:LR_Drum Hit Clap Sn.wav
182,192,289186,1,0,0:0:0:70:24_G3_75_480.wav
256,192,289186,1,0,0:0:0:70:24_C3_75_480.wav
329,192,289186,1,0,0:0:0:70:24_D#3_75_480.wav
402,192,289786,1,0,0:0:0:70:LR_Drum EDge.wav
402,192,289886,1,0,0:0:0:70:LR_Drum EDge.wav
109,192,289986,1,0,0:0:0:70:LR_Drum Hit Clap Sn.wav
182,192,289986,1,0,0:0:0:70:24_C3_75_480.wav
256,192,289986,1,0,0:0:0:70:24_D#3_75_480.wav
329,192,289986,1,0,0:0:0:70:24_G3_75_480.wav
402,192,290586,1,0,0:0:0:70:LR_Drum EDge.wav
402,192,290686,1,0,0:0:0:70:LR_Drum EDge.wav
109,192,290786,1,0,0:0:0:70:LR_Drum Hit Clap Sn.wav
182,192,290786,1,0,0:0:0:70:24_B2_75_480.wav
256,192,290786,1,0,0:0:0:70:24_D3_75_480.wav
329,192,290786,1,0,0:0:0:70:24_G3_75_480.wav
109,192,291186,1,0,0:0:0:70:LR_Drum Hit Clap Sn.wav
109,192,291586,1,0,0:0:0:70:LR_Drum Hit Clap Sn.wav
182,192,291586,1,0,0:0:0:70:24_B2_75_480.wav
256,192,291586,1,0,0:0:0:70:24_D3_75_480.wav
329,192,291586,1,0,0:0:0:70:24_G3_75_480.wav
402,192,291986,1,0,0:0:0:70:LR_Drum EDge.wav
402,192,292086,1,0,0:0:0:70:LR_Drum EDge.wav
402,192,292186,1,0,0:0:0:70:LR_Drum EDge.wav
402,192,292286,1,0,0:0:0:70:LR_Drum EDge.wav
182,192,292386,1,0,0:0:0:30:24_G2_75_480.wav
36,192,292386,1,0,0:0:0:30:24_E2_75_480.wav
312,192,292386,1,0,0:0:0:30:24_B1_75_480.wav
36,192,293186,1,0,0:0:0:30:24_E2_75_480.wav
182,192,293186,1,0,0:0:0:30:24_G2_75_480.wav
312,192,293186,1,0,0:0:0:30:24_B1_75_480.wav
36,192,293986,1,0,0:0:0:30:24_A1_75_480.wav
182,192,293986,1,0,0:0:0:30:24_D2_75_480.wav
312,192,293986,1,0,0:0:0:30:24_F#2_75_480.wav
36,192,294786,1,0,0:0:0:30:24_A1_75_480.wav
182,192,294786,1,0,0:0:0:30:24_D2_75_480.wav
312,192,294786,1,0,0:0:0:30:24_F#2_75_480.wav
36,192,295586,1,0,0:0:0:30:24_C2_75_480.wav
182,192,295586,1,0,0:0:0:30:24_E2_75_480.wav
312,192,295586,1,0,0:0:0:30:24_G2_75_480.wav
36,192,296386,1,0,0:0:0:30:24_C2_75_480.wav
182,192,296386,1,0,0:0:0:30:24_G2_75_480.wav
312,192,296386,1,0,0:0:0:30:24_E2_75_480.wav
36,192,297186,1,0,0:0:0:30:24_B1_75_480.wav
182,192,297186,1,0,0:0:0:30:24_G2_75_480.wav
312,192,297186,1,0,0:0:0:30:24_D2_75_480.wav
475,192,298786,5,0,0:0:0:70:24_F2_75_480.wav
36,192,298786,1,0,0:0:0:70:LR_Drum Finish.wav
142,192,298786,1,0,0:0:0:70:LR_Drum Kick Low.wav
329,192,298786,1,0,0:0:0:70:24_F1_75_480.wav
426,192,298786,1,0,0:0:0:70:24_C2_75_480.wav
256,192,298786,1,0,0:0:0:70:24_C3_75_480.wav
402,192,299186,5,0,0:0:0:70:24_D#2_75_480.wav
36,192,299186,1,0,0:0:0:70:cymbal light.wav
256,192,299186,1,0,0:0:0:70:24_D#3_75_480.wav
475,192,299586,5,0,0:0:0:70:24_C3_75_480.wav
109,192,299586,1,0,0:0:0:70:LR_Drum Hit Clap Sn.wav
36,192,299586,1,0,0:0:0:70:cymbal light.wav
402,192,299586,1,0,0:0:0:70:24_G#2_75_480.wav
329,192,299586,1,0,0:0:0:70:24_F2_75_480.wav
256,192,299586,1,0,0:0:0:70:24_G#3_75_480.wav
402,192,299986,5,0,0:0:0:70:24_D#2_75_480.wav
36,192,299986,1,0,0:0:0:70:cymbal light.wav
256,192,299986,1,0,0:0:0:70:24_D#3_75_480.wav
142,192,300386,1,0,0:0:0:70:LR_Drum Kick Low.wav
36,192,300386,1,0,0:0:0:70:cymbal light.wav
426,192,300386,1,0,0:0:0:70:24_D#2_75_480.wav
256,192,300386,1,0,0:0:0:70:24_G2_75_480.wav
312,192,300386,1,0,0:0:0:70:24_C1_75_480.wav
483,192,300386,1,0,0:0:0:70:24_C2_75_480.wav
402,192,300786,1,0,0:0:0:70:24_D#2_75_480.wav
36,192,300786,1,0,0:0:0:70:cymbal light.wav
142,192,300786,1,0,0:0:0:70:LR_Drum Kick Low.wav
256,192,300786,1,0,0:0:0:70:24_A#2_75_480.wav
109,192,301186,1,0,0:0:0:70:LR_Drum Hit Clap Sn.wav
36,192,301186,1,0,0:0:0:70:cymbal light.wav
329,192,301186,1,0,0:0:0:70:24_D#2_75_480.wav
402,192,301186,1,0,0:0:0:70:24_G#2_75_480.wav
475,192,301186,1,0,0:0:0:50:24_C3_75_480.wav
256,192,301186,1,0,0:0:0:70:24_G#3_75_480.wav
36,192,301586,1,0,0:0:0:70:cymbal light.wav
402,192,301586,1,0,0:0:0:70:24_D#2_75_480.wav
256,192,301586,1,0,0:0:0:70:24_D#3_75_480.wav
475,192,301986,1,0,0:0:0:70:24_C#2_75_480.wav
36,192,301986,1,0,0:0:0:70:cymbal light.wav
142,192,301986,1,0,0:0:0:70:LR_Drum Kick Low.wav
329,192,301986,1,0,0:0:0:70:24_C#1_75_480.wav
426,192,301986,1,0,0:0:0:70:24_G#1_75_480.wav
256,192,301986,1,0,0:0:0:70:24_C#3_75_480.wav
402,192,302386,1,0,0:0:0:70:24_D#2_75_480.wav
36,192,302386,1,0,0:0:0:70:cymbal light.wav
256,192,302386,1,0,0:0:0:70:24_D#3_75_480.wav
36,192,302786,1,0,0:0:0:70:cymbal light.wav
109,192,302786,1,0,0:0:0:70:LR_Drum Hit Clap Sn.wav
475,192,302786,1,0,0:0:0:70:24_C#3_75_480.wav
402,192,302786,1,0,0:0:0:70:24_G#2_75_480.wav
312,192,302786,1,0,0:0:0:70:24_F2_75_480.wav
256,192,302786,1,0,0:0:0:70:24_G#3_75_480.wav
36,192,303186,1,0,0:0:0:70:cymbal light.wav
402,192,303186,1,0,0:0:0:70:24_D#2_75_480.wav
256,192,303186,1,0,0:0:0:70:24_D#3_75_480.wav
36,192,303586,1,0,0:0:0:70:cymbal light.wav
142,192,303586,1,0,0:0:0:70:LR_Drum Kick Low.wav
475,192,303586,1,0,0:0:0:70:24_G#2_75_480.wav
312,192,303586,1,0,0:0:0:70:24_G#1_75_480.wav
426,192,303586,1,0,0:0:0:70:24_D#2_75_480.wav
256,192,303586,1,0,0:0:0:70:24_A#2_75_480.wav
402,192,303986,1,0,0:0:0:70:24_D#2_75_480.wav
36,192,303986,1,0,0:0:0:70:cymbal light.wav
142,192,303986,1,0,0:0:0:70:LR_Drum Kick Low.wav
256,192,303986,1,0,0:0:0:70:24_D#3_75_480.wav
36,192,304386,1,0,0:0:0:70:cymbal light.wav
109,192,304386,1,0,0:0:0:70:LR_Drum Hit Clap Sn.wav
329,192,304386,1,0,0:0:0:70:24_D#2_75_480.wav
475,192,304386,1,0,0:0:0:50:24_C3_75_480.wav
402,192,304386,1,0,0:0:0:70:24_G#2_75_480.wav
256,192,304386,1,0,0:0:0:70:24_G#3_75_480.wav
36,192,304786,1,0,0:0:0:70:cymbal light.wav
402,192,304786,1,0,0:0:0:70:24_D#2_75_480.wav
256,192,304786,1,0,0:0:0:70:24_D#3_75_480.wav
475,192,305186,5,0,0:0:0:70:24_F2_75_480.wav
142,192,305186,1,0,0:0:0:70:LR_Drum Kick Low.wav
36,192,305186,1,0,0:0:0:70:cymbal light.wav
329,192,305186,1,0,0:0:0:70:24_F1_75_480.wav
256,192,305186,1,0,0:0:0:70:24_C3_75_480.wav
402,192,305586,5,0,0:0:0:70:24_C2_75_480.wav
36,192,305586,1,0,0:0:0:70:cymbal light.wav
256,192,305586,1,0,0:0:0:70:24_D#3_75_480.wav
475,192,305986,5,0,0:0:0:70:24_C3_75_480.wav
36,192,305986,1,0,0:0:0:70:cymbal light.wav
109,192,305986,1,0,0:0:0:70:LR_Drum Hit Clap Sn.wav
402,192,305986,1,0,0:0:0:70:24_G#2_75_480.wav
329,192,305986,1,0,0:0:0:70:24_F2_75_480.wav
256,192,305986,1,0,0:0:0:70:24_G#3_75_480.wav
402,192,306386,5,0,0:0:0:70:24_C2_75_480.wav
36,192,306386,1,0,0:0:0:70:cymbal light.wav
256,192,306386,1,0,0:0:0:70:24_D#3_75_480.wav
142,192,306786,1,0,0:0:0:70:LR_Drum Kick Low.wav
36,192,306786,1,0,0:0:0:70:cymbal light.wav
329,192,306786,1,0,0:0:0:50:24_C1_75_480.wav
475,192,306786,1,0,0:0:0:70:24_C2_75_480.wav
256,192,306786,1,0,0:0:0:70:24_G2_75_480.wav
142,192,307186,1,0,0:0:0:70:LR_Drum Kick Low.wav
36,192,307186,1,0,0:0:0:70:cymbal light.wav
402,192,307186,1,0,0:0:0:70:24_C2_75_480.wav
256,192,307186,1,0,0:0:0:70:24_D#3_75_480.wav
36,192,307586,1,0,0:0:0:70:cymbal light.wav
109,192,307586,1,0,0:0:0:70:LR_Drum Hit Clap Sn.wav
329,192,307586,1,0,0:0:0:70:24_D#2_75_480.wav
402,192,307586,1,0,0:0:0:70:24_G#2_75_480.wav
475,192,307586,1,0,0:0:0:50:24_C3_75_480.wav
256,192,307586,1,0,0:0:0:70:24_G#3_75_480.wav
36,192,307986,1,0,0:0:0:70:cymbal light.wav
402,192,307986,1,0,0:0:0:70:24_C2_75_480.wav
256,192,307986,1,0,0:0:0:70:24_D#3_75_480.wav
36,192,308386,1,0,0:0:0:70:cymbal light.wav
142,192,308386,1,0,0:0:0:70:LR_Drum Kick Low.wav
475,192,308386,1,0,0:0:0:70:24_C#2_75_480.wav
329,192,308386,1,0,0:0:0:70:24_C#1_75_480.wav
256,192,308386,1,0,0:0:0:70:24_G#2_75_480.wav
36,192,308786,1,0,0:0:0:70:cymbal light.wav
402,192,308786,1,0,0:0:0:70:24_C#2_75_480.wav
256,192,308786,1,0,0:0:0:70:24_D#3_75_480.wav
36,192,309186,1,0,0:0:0:70:cymbal light.wav
109,192,309186,1,0,0:0:0:70:LR_Drum Hit Clap Sn.wav
475,192,309186,1,0,0:0:0:70:24_C#3_75_480.wav
402,192,309186,1,0,0:0:0:70:24_G#2_75_480.wav
329,192,309186,1,0,0:0:0:70:24_F2_75_480.wav
256,192,309186,1,0,0:0:0:70:24_G#3_75_480.wav
36,192,309586,1,0,0:0:0:70:cymbal light.wav
402,192,309586,1,0,0:0:0:70:24_C#2_75_480.wav
256,192,309586,1,0,0:0:0:70:24_D#3_75_480.wav
36,192,309986,1,0,0:0:0:70:cymbal light.wav
182,192,309986,1,0,0:0:0:70:LR_Drum Kick Low.wav
475,192,309986,1,0,0:0:0:70:24_G#2_75_480.wav
329,192,309986,1,0,0:0:0:70:24_G#1_75_480.wav
256,192,309986,1,0,0:0:0:70:24_A#2_75_480.wav
182,192,310386,1,0,0:0:0:70:LR_Drum Kick Low.wav
36,192,310386,1,0,0:0:0:70:cymbal light.wav
402,192,310386,1,0,0:0:0:50:24_C2_75_480.wav
256,192,310386,1,0,0:0:0:70:24_D#3_75_480.wav
36,192,310786,1,0,0:0:0:70:cymbal light.wav
109,192,310786,1,0,0:0:0:70:LR_Drum Hit Clap Sn.wav
329,192,310786,1,0,0:0:0:70:24_D#2_75_480.wav
475,192,310786,1,0,0:0:0:50:24_C3_75_480.wav
402,192,310786,1,0,0:0:0:70:24_G#2_75_480.wav
256,192,310786,1,0,0:0:0:70:24_G#3_75_480.wav
36,192,311186,1,0,0:0:0:70:cymbal light.wav
402,192,311186,1,0,0:0:0:50:24_C2_75_480.wav
256,192,311186,1,0,0:0:0:70:24_D#3_75_480.wav
475,192,311586,5,0,0:0:0:70:24_F2_75_480.wav
182,192,311586,1,0,0:0:0:70:LR_Drum Kick Low.wav
36,192,311586,1,0,0:0:0:70:cymbal light.wav
329,192,311586,1,0,0:0:0:70:24_F1_75_480.wav
256,192,311586,1,0,0:0:0:70:24_C3_75_480.wav
402,192,311986,5,0,0:0:0:70:24_C2_75_480.wav
36,192,311986,1,0,0:0:0:70:cymbal light.wav
256,192,311986,1,0,0:0:0:70:24_D#3_75_480.wav
475,192,312386,5,0,0:0:0:70:24_C3_75_480.wav
36,192,312386,1,0,0:0:0:70:cymbal light.wav
109,192,312386,1,0,0:0:0:70:LR_Drum Hit Clap Sn.wav
329,192,312386,1,0,0:0:0:70:24_F2_75_480.wav
402,192,312386,1,0,0:0:0:70:24_G#2_75_480.wav
256,192,312386,1,0,0:0:0:70:24_G#3_75_480.wav
402,192,312786,5,0,0:0:0:70:24_C2_75_480.wav
36,192,312786,1,0,0:0:0:70:cymbal light.wav
256,192,312786,1,0,0:0:0:70:24_D#3_75_480.wav
182,192,313186,1,0,0:0:0:70:LR_Drum Kick Low.wav
36,192,313186,1,0,0:0:0:70:cymbal light.wav
475,192,313186,1,0,0:0:0:70:24_C2_75_480.wav
329,192,313186,1,0,0:0:0:50:24_C1_75_480.wav
256,192,313186,1,0,0:0:0:70:24_G2_75_480.wav
182,192,313586,1,0,0:0:0:70:LR_Drum Kick Low.wav
36,192,313586,1,0,0:0:0:70:cymbal light.wav
402,192,313586,1,0,0:0:0:70:24_C2_75_480.wav
256,192,313586,1,0,0:0:0:70:24_D#3_75_480.wav
36,192,313986,1,0,0:0:0:70:cymbal light.wav
109,192,313986,1,0,0:0:0:70:LR_Drum Hit Clap Sn.wav
475,192,313986,1,0,0:0:0:50:24_C3_75_480.wav
402,192,313986,1,0,0:0:0:70:24_G#2_75_480.wav
329,192,313986,1,0,0:0:0:70:24_D#2_75_480.wav
256,192,313986,1,0,0:0:0:70:24_G#3_75_480.wav
36,192,314386,1,0,0:0:0:70:cymbal light.wav
402,192,314386,1,0,0:0:0:70:24_C2_75_480.wav
256,192,314386,1,0,0:0:0:70:24_D#3_75_480.wav
36,192,314786,1,0,0:0:0:70:cymbal light.wav
182,192,314786,1,0,0:0:0:70:LR_Drum Kick Low.wav
329,192,314786,1,0,0:0:0:70:24_C#1_75_480.wav
475,192,314786,1,0,0:0:0:70:24_C#2_75_480.wav
256,192,314786,1,0,0:0:0:70:24_G#2_75_480.wav
36,192,315186,1,0,0:0:0:70:cymbal light.wav
402,192,315186,1,0,0:0:0:70:24_C#2_75_480.wav
256,192,315186,1,0,0:0:0:70:24_D#3_75_480.wav
36,192,315586,1,0,0:0:0:70:cymbal light.wav
109,192,315586,1,0,0:0:0:70:LR_Drum Hit Clap Sn.wav
329,192,315586,1,0,0:0:0:70:24_F2_75_480.wav
402,192,315586,1,0,0:0:0:70:24_G#2_75_480.wav
475,192,315586,1,0,0:0:0:70:24_C#3_75_480.wav
256,192,315586,1,0,0:0:0:70:24_G#3_75_480.wav
36,192,315986,1,0,0:0:0:70:cymbal light.wav
402,192,315986,1,0,0:0:0:70:24_C#2_75_480.wav
256,192,315986,1,0,0:0:0:70:24_D#3_75_480.wav
36,192,316386,1,0,0:0:0:70:cymbal light.wav
182,192,316386,1,0,0:0:0:70:LR_Drum Kick Low.wav
329,192,316386,1,0,0:0:0:70:24_G#1_75_480.wav
475,192,316386,1,0,0:0:0:70:24_G#2_75_480.wav
256,192,316386,1,0,0:0:0:70:24_A#2_75_480.wav
182,192,316786,1,0,0:0:0:70:LR_Drum Kick Low.wav
36,192,316786,1,0,0:0:0:70:cymbal light.wav
402,192,316786,1,0,0:0:0:50:24_C2_75_480.wav
256,192,316786,1,0,0:0:0:70:24_D#3_75_480.wav
36,192,317186,1,0,0:0:0:70:cymbal light.wav
109,192,317186,1,0,0:0:0:70:LR_Drum Hit Clap Sn.wav
402,192,317186,1,0,0:0:0:70:24_G#2_75_480.wav
475,192,317186,1,0,0:0:0:50:24_C3_75_480.wav
329,192,317186,1,0,0:0:0:70:24_D#2_75_1440.wav
256,192,317186,1,0,0:0:0:70:24_G#3_75_480.wav
36,192,317586,1,0,0:0:0:70:cymbal light.wav
402,192,317586,1,0,0:0:0:50:24_C2_75_480.wav
256,192,317586,1,0,0:0:0:70:24_D#3_75_480.wav
475,192,317986,5,0,0:0:0:70:24_F2_75_480.wav
36,192,317986,1,0,0:0:0:70:cymbal light.wav
182,192,317986,1,0,0:0:0:70:LR_Drum Kick Low.wav
329,192,317986,1,0,0:0:0:70:24_F1_75_480.wav
256,192,317986,1,0,0:0:0:70:24_C3_75_480.wav
402,192,318386,5,0,0:0:0:70:24_C2_75_480.wav
36,192,318386,1,0,0:0:0:70:cymbal light.wav
256,192,318386,1,0,0:0:0:70:24_D#3_75_480.wav
475,192,318786,5,0,0:0:0:70:24_C3_75_480.wav
109,192,318786,1,0,0:0:0:70:LR_Drum Hit Clap Sn.wav
36,192,318786,1,0,0:0:0:70:cymbal light.wav
402,192,318786,1,0,0:0:0:70:24_G#2_75_480.wav
329,192,318786,1,0,0:0:0:70:24_F2_75_480.wav
256,192,318786,1,0,0:0:0:70:24_G#3_75_480.wav
402,192,319186,5,0,0:0:0:70:24_C2_75_480.wav
36,192,319186,1,0,0:0:0:70:cymbal light.wav
256,192,319186,1,0,0:0:0:70:24_D#3_75_480.wav
182,192,319586,1,0,0:0:0:70:LR_Drum Kick Low.wav
36,192,319586,1,0,0:0:0:70:cymbal light.wav
329,192,319586,1,0,0:0:0:50:24_C1_75_480.wav
475,192,319586,1,0,0:0:0:70:24_C2_75_480.wav
256,192,319586,1,0,0:0:0:70:24_G2_75_480.wav
36,192,319986,1,0,0:0:0:70:cymbal light.wav
182,192,319986,1,0,0:0:0:70:LR_Drum Kick Low.wav
402,192,319986,1,0,0:0:0:70:24_C2_75_480.wav
256,192,319986,1,0,0:0:0:70:24_D#3_75_480.wav
109,192,320386,1,0,0:0:0:70:LR_Drum Hit Clap Sn.wav
36,192,320386,1,0,0:0:0:70:cymbal light.wav
329,192,320386,1,0,0:0:0:70:24_D#2_75_1440.wav
402,192,320386,1,0,0:0:0:70:24_G#2_75_480.wav
475,192,320386,1,0,0:0:0:50:24_C3_75_480.wav
256,192,320386,1,0,0:0:0:70:24_G#3_75_480.wav
36,192,320786,1,0,0:0:0:70:cymbal light.wav
402,192,320786,1,0,0:0:0:70:24_C2_75_480.wav
256,192,320786,1,0,0:0:0:70:24_D#3_75_480.wav
36,192,321186,1,0,0:0:0:70:cymbal light.wav
199,192,321186,1,0,0:0:0:70:LR_Drum Kick Low.wav
475,192,321186,1,0,0:0:0:70:24_C#2_75_480.wav
329,192,321186,1,0,0:0:0:70:24_C#1_75_480.wav
256,192,321186,1,0,0:0:0:70:24_C#3_75_480.wav
36,192,321586,1,0,0:0:0:70:cymbal light.wav
402,192,321586,1,0,0:0:0:70:24_C#2_75_480.wav
256,192,321586,1,0,0:0:0:70:24_D#3_75_480.wav
36,192,321986,1,0,0:0:0:70:cymbal light.wav
109,192,321986,1,0,0:0:0:70:LR_Drum Hit Clap Sn.wav
475,192,321986,1,0,0:0:0:70:24_C#3_75_480.wav
402,192,321986,1,0,0:0:0:70:24_G#2_75_480.wav
329,192,321986,1,0,0:0:0:70:24_F2_75_480.wav
256,192,321986,1,0,0:0:0:70:24_G#3_75_480.wav
36,192,322386,1,0,0:0:0:70:cymbal light.wav
402,192,322386,1,0,0:0:0:70:24_C#2_75_480.wav
256,192,322386,1,0,0:0:0:70:24_D#3_75_480.wav
36,192,322786,1,0,0:0:0:70:cymbal light.wav
182,192,322786,1,0,0:0:0:70:LR_Drum Kick Low.wav
475,192,322786,1,0,0:0:0:70:24_G#2_75_480.wav
329,192,322786,1,0,0:0:0:70:24_G#1_75_480.wav
256,192,322786,1,0,0:0:0:70:24_C3_75_480.wav
36,192,323186,1,0,0:0:0:70:cymbal light.wav
182,192,323186,1,0,0:0:0:70:LR_Drum Kick Low.wav
402,192,323186,1,0,0:0:0:50:24_C2_75_480.wav
256,192,323186,1,0,0:0:0:70:24_D#3_75_480.wav
36,192,323586,1,0,0:0:0:70:cymbal light.wav
109,192,323586,1,0,0:0:0:70:LR_Drum Hit Clap Sn.wav
329,192,323586,1,0,0:0:0:70:24_D#2_75_480.wav
475,192,323586,1,0,0:0:0:50:24_C3_75_480.wav
402,192,323586,1,0,0:0:0:70:24_G#2_75_480.wav
256,192,323586,1,0,0:0:0:70:24_G#3_75_480.wav
36,192,323986,1,0,0:0:0:70:cymbal light.wav
402,192,323986,1,0,0:0:0:50:24_C2_75_480.wav
256,192,323986,1,0,0:0:0:70:24_D#3_75_480.wav
475,192,324386,5,0,0:0:0:70:24_F2_75_480.wav
182,192,324386,1,0,0:0:0:70:LR_Drum Kick Low.wav
36,192,324386,1,0,0:0:0:70:LR_Drum Finish.wav
426,192,324386,1,0,0:0:0:70:24_C2_75_480.wav
329,192,324386,1,0,0:0:0:70:24_F1_75_480.wav
256,192,324386,1,0,0:0:0:70:24_C3_75_480.wav
402,192,324786,5,0,0:0:0:70:24_D#2_75_480.wav
36,192,324786,1,0,0:0:0:70:cymbal light.wav
256,192,324786,1,0,0:0:0:70:24_D#3_75_480.wav
475,192,325186,5,0,0:0:0:70:24_C3_75_480.wav
36,192,325186,1,0,0:0:0:70:cymbal light.wav
109,192,325186,1,0,0:0:0:70:LR_Drum Hit Clap Sn.wav
329,192,325186,1,0,0:0:0:70:24_F2_75_480.wav
402,192,325186,1,0,0:0:0:70:24_G#2_75_480.wav
256,192,325186,1,0,0:0:0:70:24_G#3_75_480.wav
402,192,325586,5,0,0:0:0:70:24_D#2_75_480.wav
36,192,325586,1,0,0:0:0:70:cymbal light.wav
256,192,325586,1,0,0:0:0:70:24_D#3_75_480.wav
182,192,325986,1,0,0:0:0:70:LR_Drum Kick Low.wav
36,192,325986,1,0,0:0:0:70:cymbal light.wav
426,192,325986,1,0,0:0:0:70:24_D#2_75_480.wav
256,192,325986,1,0,0:0:0:70:24_G2_75_480.wav
312,192,325986,1,0,0:0:0:70:24_C1_75_480.wav
483,192,325986,1,0,0:0:0:70:24_C2_75_480.wav
182,192,326386,1,0,0:0:0:70:LR_Drum Kick Low.wav
36,192,326386,1,0,0:0:0:70:cymbal light.wav
402,192,326386,1,0,0:0:0:70:24_D#2_75_480.wav
256,192,326386,1,0,0:0:0:70:24_A#2_75_480.wav
36,192,326786,1,0,0:0:0:70:cymbal light.wav
109,192,326786,1,0,0:0:0:70:LR_Drum Hit Clap Sn.wav
329,192,326786,1,0,0:0:0:70:24_D#2_75_480.wav
402,192,326786,1,0,0:0:0:70:24_G#2_75_480.wav
475,192,326786,1,0,0:0:0:50:24_C3_75_480.wav
256,192,326786,1,0,0:0:0:70:24_G#3_75_480.wav
36,192,327186,1,0,0:0:0:70:cymbal light.wav
402,192,327186,1,0,0:0:0:70:24_D#2_75_480.wav
256,192,327186,1,0,0:0:0:70:24_D#3_75_480.wav
36,192,327586,1,0,0:0:0:70:cymbal light.wav
182,192,327586,1,0,0:0:0:70:LR_Drum Kick Low.wav
475,192,327586,1,0,0:0:0:70:24_C#2_75_480.wav
329,192,327586,1,0,0:0:0:70:24_C#1_75_480.wav
426,192,327586,1,0,0:0:0:70:24_G#1_75_480.wav
256,192,327586,1,0,0:0:0:70:24_C#3_75_480.wav
36,192,327986,1,0,0:0:0:70:cymbal light.wav
402,192,327986,1,0,0:0:0:70:24_D#2_75_480.wav
256,192,327986,1,0,0:0:0:70:24_D#3_75_480.wav
36,192,328386,1,0,0:0:0:70:cymbal light.wav
109,192,328386,1,0,0:0:0:70:LR_Drum Hit Clap Sn.wav
475,192,328386,1,0,0:0:0:70:24_C#3_75_480.wav
402,192,328386,1,0,0:0:0:70:24_G#2_75_480.wav
312,192,328386,1,0,0:0:0:70:24_F2_75_480.wav
256,192,328386,1,0,0:0:0:70:24_G#3_75_480.wav
36,192,328786,1,0,0:0:0:70:cymbal light.wav
402,192,328786,1,0,0:0:0:70:24_D#2_75_480.wav
256,192,328786,1,0,0:0:0:70:24_D#3_75_480.wav
36,192,329186,1,0,0:0:0:70:cymbal light.wav
182,192,329186,1,0,0:0:0:70:LR_Drum Kick Low.wav
475,192,329186,1,0,0:0:0:70:24_G#2_75_480.wav
312,192,329186,1,0,0:0:0:70:24_G#1_75_480.wav
426,192,329186,1,0,0:0:0:70:24_D#2_75_480.wav
256,192,329186,1,0,0:0:0:70:24_A#2_75_480.wav
182,192,329586,1,0,0:0:0:70:LR_Drum Kick Low.wav
36,192,329586,1,0,0:0:0:70:cymbal light.wav
402,192,329586,1,0,0:0:0:70:24_D#2_75_480.wav
256,192,329586,1,0,0:0:0:70:24_D#3_75_480.wav
36,192,329986,1,0,0:0:0:70:cymbal light.wav
109,192,329986,1,0,0:0:0:70:LR_Drum Hit Clap Sn.wav
329,192,329986,1,0,0:0:0:70:24_D#2_75_480.wav
475,192,329986,1,0,0:0:0:50:24_C3_75_480.wav
402,192,329986,1,0,0:0:0:70:24_G#2_75_480.wav
256,192,329986,1,0,0:0:0:70:24_G#3_75_480.wav
36,192,330386,1,0,0:0:0:70:cymbal light.wav
402,192,330386,1,0,0:0:0:70:24_D#2_75_480.wav
256,192,330386,1,0,0:0:0:70:24_D#3_75_480.wav
475,192,330786,5,0,0:0:0:70:24_F2_75_480.wav
36,192,330786,1,0,0:0:0:70:cymbal light.wav
182,192,330786,1,0,0:0:0:70:LR_Drum Kick Low.wav
329,192,330786,1,0,0:0:0:70:24_F1_75_480.wav
256,192,330786,1,0,0:0:0:70:24_C3_75_480.wav
402,192,331186,5,0,0:0:0:70:24_C2_75_480.wav
36,192,331186,1,0,0:0:0:70:cymbal light.wav
256,192,331186,1,0,0:0:0:70:24_D#3_75_480.wav
475,192,331586,5,0,0:0:0:70:24_C3_75_480.wav
109,192,331586,1,0,0:0:0:70:LR_Drum Hit Clap Sn.wav
36,192,331586,1,0,0:0:0:70:cymbal light.wav
329,192,331586,1,0,0:0:0:70:24_F2_75_480.wav
402,192,331586,1,0,0:0:0:70:24_G#2_75_480.wav
256,192,331586,1,0,0:0:0:70:24_G#3_75_480.wav
402,192,331986,5,0,0:0:0:70:24_C2_75_480.wav
36,192,331986,1,0,0:0:0:70:cymbal light.wav
256,192,331986,1,0,0:0:0:70:24_D#3_75_480.wav
182,192,332386,1,0,0:0:0:70:LR_Drum Kick Low.wav
36,192,332386,1,0,0:0:0:70:cymbal light.wav
329,192,332386,1,0,0:0:0:50:24_C1_75_480.wav
475,192,332386,1,0,0:0:0:70:24_C2_75_480.wav
256,192,332386,1,0,0:0:0:70:24_G2_75_480.wav
36,192,332786,1,0,0:0:0:70:cymbal light.wav
182,192,332786,1,0,0:0:0:70:LR_Drum Kick Low.wav
402,192,332786,1,0,0:0:0:70:24_C2_75_480.wav
256,192,332786,1,0,0:0:0:70:24_D#3_75_480.wav
109,192,333186,1,0,0:0:0:70:LR_Drum Hit Clap Sn.wav
36,192,333186,1,0,0:0:0:70:cymbal light.wav
329,192,333186,1,0,0:0:0:70:24_D#2_75_480.wav
402,192,333186,1,0,0:0:0:70:24_G#2_75_480.wav
475,192,333186,1,0,0:0:0:50:24_C3_75_480.wav
256,192,333186,1,0,0:0:0:70:24_G#3_75_480.wav
36,192,333586,1,0,0:0:0:70:cymbal light.wav
402,192,333586,1,0,0:0:0:70:24_C2_75_480.wav
256,192,333586,1,0,0:0:0:70:24_D#3_75_480.wav
36,192,333986,1,0,0:0:0:70:cymbal light.wav
182,192,333986,1,0,0:0:0:70:LR_Drum Kick Low.wav
475,192,333986,1,0,0:0:0:70:24_C#2_75_480.wav
329,192,333986,1,0,0:0:0:70:24_C#1_75_480.wav
256,192,333986,1,0,0:0:0:70:24_G#2_75_480.wav
36,192,334386,1,0,0:0:0:70:cymbal light.wav
402,192,334386,1,0,0:0:0:70:24_C#2_75_480.wav
256,192,334386,1,0,0:0:0:70:24_D#3_75_480.wav
36,192,334786,1,0,0:0:0:70:cymbal light.wav
109,192,334786,1,0,0:0:0:70:LR_Drum Hit Clap Sn.wav
475,192,334786,1,0,0:0:0:70:24_C#3_75_480.wav
402,192,334786,1,0,0:0:0:70:24_G#2_75_480.wav
329,192,334786,1,0,0:0:0:70:24_F2_75_480.wav
256,192,334786,1,0,0:0:0:70:24_G#3_75_480.wav
36,192,335186,1,0,0:0:0:70:cymbal light.wav
402,192,335186,1,0,0:0:0:70:24_C#2_75_480.wav
256,192,335186,1,0,0:0:0:70:24_D#3_75_480.wav
36,192,335586,1,0,0:0:0:70:cymbal light.wav
182,192,335586,1,0,0:0:0:70:LR_Drum Kick Low.wav
475,192,335586,1,0,0:0:0:70:24_G#2_75_480.wav
329,192,335586,1,0,0:0:0:70:24_G#1_75_480.wav
256,192,335586,1,0,0:0:0:70:24_A#2_75_480.wav
36,192,335986,1,0,0:0:0:70:cymbal light.wav
182,192,335986,1,0,0:0:0:70:LR_Drum Kick Low.wav
402,192,335986,1,0,0:0:0:50:24_C2_75_480.wav
256,192,335986,1,0,0:0:0:70:24_D#3_75_480.wav
36,192,336386,1,0,0:0:0:70:cymbal light.wav
109,192,336386,1,0,0:0:0:70:LR_Drum Hit Clap Sn.wav
329,192,336386,1,0,0:0:0:70:24_D#2_75_480.wav
475,192,336386,1,0,0:0:0:50:24_C3_75_480.wav
402,192,336386,1,0,0:0:0:70:24_G#2_75_480.wav
256,192,336386,1,0,0:0:0:70:24_G#3_75_480.wav
36,192,336786,1,0,0:0:0:70:cymbal light.wav
402,192,336786,1,0,0:0:0:50:24_C2_75_480.wav
256,192,336786,1,0,0:0:0:70:24_D#3_75_480.wav
475,192,337186,5,0,0:0:0:70:24_F2_75_480.wav
182,192,337186,1,0,0:0:0:70:LR_Drum Kick Low.wav
36,192,337186,1,0,0:0:0:70:cymbal light.wav
329,192,337186,1,0,0:0:0:70:24_F1_75_480.wav
256,192,337186,1,0,0:0:0:70:24_C3_75_480.wav
402,192,337586,5,0,0:0:0:70:24_C2_75_480.wav
36,192,337586,1,0,0:0:0:70:cymbal light.wav
256,192,337586,1,0,0:0:0:70:24_D#3_75_480.wav
475,192,337986,5,0,0:0:0:70:24_C3_75_480.wav
36,192,337986,1,0,0:0:0:70:cymbal light.wav
109,192,337986,1,0,0:0:0:70:LR_Drum Hit Clap Sn.wav
402,192,337986,1,0,0:0:0:70:24_G#2_75_480.wav
329,192,337986,1,0,0:0:0:70:24_F2_75_480.wav
256,192,337986,1,0,0:0:0:70:24_G#3_75_480.wav
402,192,338386,5,0,0:0:0:70:24_C2_75_480.wav
36,192,338386,1,0,0:0:0:70:cymbal light.wav
256,192,338386,1,0,0:0:0:70:24_D#3_75_480.wav
182,192,338786,1,0,0:0:0:70:LR_Drum Kick Low.wav
36,192,338786,1,0,0:0:0:70:cymbal light.wav
475,192,338786,1,0,0:0:0:70:24_C2_75_480.wav
329,192,338786,1,0,0:0:0:50:24_C1_75_480.wav
256,192,338786,1,0,0:0:0:70:24_G2_75_480.wav
182,192,339186,1,0,0:0:0:70:LR_Drum Kick Low.wav
36,192,339186,1,0,0:0:0:70:cymbal light.wav
402,192,339186,1,0,0:0:0:70:24_C2_75_480.wav
256,192,339186,1,0,0:0:0:70:24_D#3_75_480.wav
36,192,339586,1,0,0:0:0:70:cymbal light.wav
109,192,339586,1,0,0:0:0:70:LR_Drum Hit Clap Sn.wav
475,192,339586,1,0,0:0:0:50:24_C3_75_480.wav
402,192,339586,1,0,0:0:0:70:24_G#2_75_480.wav
329,192,339586,1,0,0:0:0:70:24_D#2_75_480.wav
256,192,339586,1,0,0:0:0:70:24_G#3_75_480.wav
36,192,339986,1,0,0:0:0:70:cymbal light.wav
402,192,339986,1,0,0:0:0:70:24_C2_75_480.wav
256,192,339986,1,0,0:0:0:70:24_D#3_75_480.wav
36,192,340386,1,0,0:0:0:70:cymbal light.wav
182,192,340386,1,0,0:0:0:70:LR_Drum Kick Low.wav
329,192,340386,1,0,0:0:0:70:24_C#1_75_480.wav
475,192,340386,1,0,0:0:0:70:24_C#2_75_480.wav
256,192,340386,1,0,0:0:0:70:24_G#2_75_480.wav
36,192,340786,1,0,0:0:0:70:cymbal light.wav
402,192,340786,1,0,0:0:0:70:24_C#2_75_480.wav
256,192,340786,1,0,0:0:0:70:24_D#3_75_480.wav
36,192,341186,1,0,0:0:0:70:cymbal light.wav
109,192,341186,1,0,0:0:0:70:LR_Drum Hit Clap Sn.wav
329,192,341186,1,0,0:0:0:70:24_F2_75_480.wav
402,192,341186,1,0,0:0:0:70:24_G#2_75_480.wav
475,192,341186,1,0,0:0:0:70:24_C#3_75_480.wav
256,192,341186,1,0,0:0:0:70:24_G#3_75_480.wav
36,192,341586,1,0,0:0:0:70:cymbal light.wav
402,192,341586,1,0,0:0:0:70:24_C#2_75_480.wav
256,192,341586,1,0,0:0:0:70:24_D#3_75_480.wav
36,192,341986,1,0,0:0:0:70:cymbal light.wav
182,192,341986,1,0,0:0:0:70:LR_Drum Kick Low.wav
329,192,341986,1,0,0:0:0:70:24_G#1_75_480.wav
475,192,341986,1,0,0:0:0:70:24_G#2_75_480.wav
256,192,341986,1,0,0:0:0:70:24_A#2_75_480.wav
182,192,342386,1,0,0:0:0:70:LR_Drum Kick Low.wav
36,192,342386,1,0,0:0:0:70:cymbal light.wav
402,192,342386,1,0,0:0:0:50:24_C2_75_480.wav
256,192,342386,1,0,0:0:0:70:24_D#3_75_480.wav
36,192,342786,1,0,0:0:0:70:cymbal light.wav
109,192,342786,1,0,0:0:0:70:LR_Drum Hit Clap Sn.wav
402,192,342786,1,0,0:0:0:70:24_G#2_75_480.wav
475,192,342786,1,0,0:0:0:50:24_C3_75_480.wav
329,192,342786,1,0,0:0:0:70:24_D#2_75_1440.wav
256,192,342786,1,0,0:0:0:70:24_G#3_75_480.wav
36,192,343186,1,0,0:0:0:70:cymbal light.wav
402,192,343186,1,0,0:0:0:50:24_C2_75_480.wav
256,192,343186,1,0,0:0:0:70:24_D#3_75_480.wav
475,192,343586,5,0,0:0:0:70:24_F2_75_480.wav
36,192,343586,1,0,0:0:0:70:cymbal light.wav
182,192,343586,1,0,0:0:0:70:LR_Drum Kick Low.wav
329,192,343586,1,0,0:0:0:70:24_F1_75_480.wav
256,192,343586,1,0,0:0:0:70:24_C3_75_480.wav
402,192,343986,5,0,0:0:0:70:24_C2_75_480.wav
36,192,343986,1,0,0:0:0:70:cymbal light.wav
256,192,343986,1,0,0:0:0:70:24_D#3_75_480.wav
475,192,344386,5,0,0:0:0:70:24_C3_75_480.wav
109,192,344386,1,0,0:0:0:70:LR_Drum Hit Clap Sn.wav
36,192,344386,1,0,0:0:0:70:cymbal light.wav
329,192,344386,1,0,0:0:0:70:24_F2_75_480.wav
402,192,344386,1,0,0:0:0:70:24_G#2_75_480.wav
256,192,344386,1,0,0:0:0:70:24_G#3_75_480.wav
402,192,344786,5,0,0:0:0:70:24_C2_75_480.wav
36,192,344786,1,0,0:0:0:70:cymbal light.wav
256,192,344786,1,0,0:0:0:70:24_D#3_75_480.wav
182,192,345186,1,0,0:0:0:70:LR_Drum Kick Low.wav
36,192,345186,1,0,0:0:0:70:cymbal light.wav
329,192,345186,1,0,0:0:0:50:24_C1_75_480.wav
475,192,345186,1,0,0:0:0:70:24_C2_75_480.wav
256,192,345186,1,0,0:0:0:70:24_G2_75_480.wav
36,192,345586,1,0,0:0:0:70:cymbal light.wav
182,192,345586,1,0,0:0:0:70:LR_Drum Kick Low.wav
402,192,345586,1,0,0:0:0:70:24_C2_75_480.wav
256,192,345586,1,0,0:0:0:70:24_D#3_75_480.wav
109,192,345986,1,0,0:0:0:70:LR_Drum Hit Clap Sn.wav
36,192,345986,1,0,0:0:0:70:cymbal light.wav
329,192,345986,1,0,0:0:0:70:24_D#2_75_1440.wav
402,192,345986,1,0,0:0:0:70:24_G#2_75_480.wav
475,192,345986,1,0,0:0:0:50:24_C3_75_480.wav
256,192,345986,1,0,0:0:0:70:24_G#3_75_480.wav
36,192,346386,1,0,0:0:0:70:cymbal light.wav
402,192,346386,1,0,0:0:0:70:24_C2_75_480.wav
256,192,346386,1,0,0:0:0:70:24_D#3_75_480.wav
36,192,346786,1,0,0:0:0:70:cymbal light.wav
182,192,346786,1,0,0:0:0:70:LR_Drum Kick Low.wav
475,192,346786,1,0,0:0:0:70:24_C#2_75_480.wav
329,192,346786,1,0,0:0:0:70:24_C#1_75_480.wav
256,192,346786,1,0,0:0:0:70:24_C#3_75_480.wav
36,192,347186,1,0,0:0:0:70:cymbal light.wav
402,192,347186,1,0,0:0:0:70:24_C#2_75_480.wav
256,192,347186,1,0,0:0:0:70:24_D#3_75_480.wav
36,192,347586,1,0,0:0:0:70:cymbal light.wav
109,192,347586,1,0,0:0:0:70:LR_Drum Hit Clap Sn.wav
475,192,347586,1,0,0:0:0:70:24_C#3_75_480.wav
402,192,347586,1,0,0:0:0:70:24_G#2_75_480.wav
329,192,347586,1,0,0:0:0:70:24_F2_75_480.wav
256,192,347586,1,0,0:0:0:70:24_G#3_75_480.wav
36,192,347986,1,0,0:0:0:70:cymbal light.wav
402,192,347986,1,0,0:0:0:70:24_C#2_75_480.wav
256,192,347986,1,0,0:0:0:70:24_D#3_75_480.wav
36,192,348386,1,0,0:0:0:70:cymbal light.wav
182,192,348386,1,0,0:0:0:70:LR_Drum Kick Low.wav
475,192,348386,1,0,0:0:0:70:24_G#2_75_480.wav
329,192,348386,1,0,0:0:0:70:24_G#1_75_480.wav
256,192,348386,1,0,0:0:0:70:24_C3_75_480.wav
36,192,348786,1,0,0:0:0:70:cymbal light.wav
182,192,348786,1,0,0:0:0:70:LR_Drum Kick Low.wav
402,192,348786,1,0,0:0:0:50:24_C2_75_480.wav
256,192,348786,1,0,0:0:0:70:24_D#3_75_480.wav
36,192,349186,1,0,0:0:0:70:cymbal light.wav
109,192,349186,1,0,0:0:0:70:LR_Drum Hit Clap Sn.wav
329,192,349186,1,0,0:0:0:70:24_D#2_75_480.wav
475,192,349186,1,0,0:0:0:50:24_C3_75_480.wav
402,192,349186,1,0,0:0:0:70:24_G#2_75_480.wav
256,192,349186,1,0,0:0:0:70:24_G#3_75_480.wav
36,192,349586,1,0,0:0:0:70:cymbal light.wav
402,192,349586,1,0,0:0:0:50:24_C2_75_480.wav
256,192,349586,1,0,0:0:0:70:24_D#3_75_480.wav
36,192,349986,1,0,0:0:0:70:LR_Drum Finish.wav
109,192,349986,1,0,0:0:0:50:24_F1_75_480.wav
182,192,349986,1,0,0:0:0:50:24_C2_75_480.wav
329,192,349986,1,0,0:0:0:50:24_C3_75_480.wav
256,192,349986,1,0,0:0:0:50:24_F2_75_480.wav
426,192,349986,1,0,0:0:0:50:24_F3_75_480.wav
483,192,349986,1,0,0:0:0:50:24_G#3_75_480.wav
402,192,350586,1,0,0:0:0:70:LR_Drum EDge.wav
402,192,350686,1,0,0:0:0:70:LR_Drum EDge.wav
36,192,350786,1,0,0:0:0:70:LR_Drum Hit Clap Sn.wav
109,192,350786,1,0,0:0:0:50:24_F1_75_480.wav
182,192,350786,1,0,0:0:0:50:24_C2_75_480.wav
329,192,350786,1,0,0:0:0:50:24_C3_75_480.wav
256,192,350786,1,0,0:0:0:50:24_F2_75_480.wav
426,192,350786,1,0,0:0:0:50:24_F3_75_480.wav
483,192,350786,1,0,0:0:0:50:24_G#3_75_480.wav
402,192,351386,1,0,0:0:0:70:LR_Drum EDge.wav
402,192,351486,1,0,0:0:0:70:LR_Drum EDge.wav
36,192,351586,1,0,0:0:0:70:LR_Drum Hit Clap Sn.wav
329,192,351586,1,0,0:0:0:50:24_C3_75_480.wav
426,192,351586,1,0,0:0:0:50:24_D#3_75_480.wav
109,192,351586,1,0,0:0:0:50:24_C1_75_480.wav
182,192,351586,1,0,0:0:0:50:24_G1_75_480.wav
256,192,351586,1,0,0:0:0:50:24_C2_75_480.wav
483,192,351586,1,0,0:0:0:50:24_G3_75_480.wav
36,192,351986,1,0,0:0:0:70:LR_Drum Hit Clap Sn.wav
36,192,352386,1,0,0:0:0:70:LR_Drum Hit Clap Sn.wav
329,192,352386,1,0,0:0:0:50:24_C3_75_480.wav
426,192,352386,1,0,0:0:0:50:24_D#3_75_480.wav
109,192,352386,1,0,0:0:0:50:24_C1_75_480.wav
182,192,352386,1,0,0:0:0:50:24_G1_75_480.wav
256,192,352386,1,0,0:0:0:50:24_C2_75_480.wav
483,192,352386,1,0,0:0:0:50:24_G3_75_480.wav
402,192,352786,1,0,0:0:0:70:LR_Drum EDge.wav
402,192,352886,1,0,0:0:0:70:LR_Drum EDge.wav
402,192,352986,1,0,0:0:0:70:LR_Drum EDge.wav
402,192,353086,1,0,0:0:0:70:LR_Drum EDge.wav
36,192,353186,1,0,0:0:0:70:LR_Drum Hit Clap Sn.wav
109,192,353186,1,0,0:0:0:50:24_C#1_75_480.wav
182,192,353186,1,0,0:0:0:50:24_G#1_75_480.wav
256,192,353186,1,0,0:0:0:50:24_C#2_75_480.wav
369,192,353186,1,0,0:0:0:50:24_C#3_75_480.wav
402,192,353186,1,0,0:0:0:50:24_F3_75_480.wav
312,192,353186,1,0,0:0:0:50:24_G#2_75_480.wav
483,192,353186,1,0,0:0:0:50:24_G#3_75_480.wav
402,192,353786,1,0,0:0:0:70:LR_Drum EDge.wav
402,192,353886,1,0,0:0:0:70:LR_Drum EDge.wav
36,192,353986,1,0,0:0:0:70:LR_Drum Hit Clap Sn.wav
109,192,353986,1,0,0:0:0:50:24_C#1_75_480.wav
182,192,353986,1,0,0:0:0:50:24_G#1_75_480.wav
256,192,353986,1,0,0:0:0:50:24_C#2_75_480.wav
369,192,353986,1,0,0:0:0:50:24_C#3_75_480.wav
402,192,353986,1,0,0:0:0:50:24_F3_75_480.wav
312,192,353986,1,0,0:0:0:50:24_G#2_75_480.wav
483,192,353986,1,0,0:0:0:50:24_G#3_75_480.wav
402,192,354586,1,0,0:0:0:70:LR_Drum EDge.wav
402,192,354686,1,0,0:0:0:70:LR_Drum EDge.wav
36,192,354786,1,0,0:0:0:70:LR_Drum Hit Clap Sn.wav
256,192,354786,1,0,0:0:0:50:24_G#2_75_480.wav
199,192,354786,1,0,0:0:0:50:24_G#1_75_480.wav
85,192,354786,1,0,0:0:0:70:24_G#0_75_480.wav
312,192,354786,1,0,0:0:0:70:24_C3_75_480.wav
142,192,354786,1,0,0:0:0:50:24_D#1_75_480.wav
369,192,354786,1,0,0:0:0:50:24_D#3_75_480.wav
483,192,354786,1,0,0:0:0:50:24_G#3_75_480.wav
36,192,355186,1,0,0:0:0:70:LR_Drum Hit Clap Sn.wav
199,192,355586,1,0,0:0:0:50:24_G#1_75_480.wav
85,192,355586,1,0,0:0:0:70:24_G#0_75_480.wav
256,192,355586,1,0,0:0:0:50:24_G#2_75_480.wav
312,192,355586,1,0,0:0:0:70:24_C3_75_480.wav
36,192,355586,1,0,0:0:0:70:LR_Drum Hit Clap Sn.wav
142,192,355586,1,0,0:0:0:50:24_D#1_75_480.wav
369,192,355586,1,0,0:0:0:50:24_D#3_75_480.wav
483,192,355586,1,0,0:0:0:50:24_G#3_75_480.wav
402,192,355986,1,0,0:0:0:70:LR_Drum EDge.wav
402,192,356086,1,0,0:0:0:70:LR_Drum EDge.wav
402,192,356186,1,0,0:0:0:70:LR_Drum EDge.wav
402,192,356286,1,0,0:0:0:70:LR_Drum EDge.wav
256,192,356386,1,0,0:0:0:50:24_F2_75_480.wav
426,192,356386,1,0,0:0:0:50:24_F3_75_480.wav
483,192,356386,1,0,0:0:0:50:24_G#3_75_480.wav
329,192,356386,1,0,0:0:0:50:24_C3_75_480.wav
36,192,356386,1,0,0:0:0:70:LR_Drum Hit Clap Sn.wav
109,192,356386,1,0,0:0:0:50:24_F1_75_480.wav
182,192,356386,1,0,0:0:0:50:24_C2_75_480.wav
402,192,356986,1,0,0:0:0:70:LR_Drum EDge.wav
402,192,357086,1,0,0:0:0:70:LR_Drum EDge.wav
256,192,357186,1,0,0:0:0:50:24_F2_75_480.wav
426,192,357186,1,0,0:0:0:50:24_F3_75_480.wav
483,192,357186,1,0,0:0:0:50:24_G#3_75_480.wav
329,192,357186,1,0,0:0:0:50:24_C3_75_480.wav
36,192,357186,1,0,0:0:0:70:LR_Drum Hit Clap Sn.wav
109,192,357186,1,0,0:0:0:50:24_F1_75_480.wav
182,192,357186,1,0,0:0:0:50:24_C2_75_480.wav
402,192,357786,1,0,0:0:0:70:LR_Drum EDge.wav
402,192,357886,1,0,0:0:0:70:LR_Drum EDge.wav
182,192,357986,1,0,0:0:0:50:24_G1_75_480.wav
256,192,357986,1,0,0:0:0:50:24_C2_75_480.wav
483,192,357986,1,0,0:0:0:50:24_G3_75_480.wav
109,192,357986,1,0,0:0:0:50:24_C1_75_480.wav
36,192,357986,1,0,0:0:0:70:LR_Drum Hit Clap Sn.wav
329,192,357986,1,0,0:0:0:50:24_C3_75_480.wav
426,192,357986,1,0,0:0:0:50:24_D#3_75_480.wav
36,192,358386,1,0,0:0:0:70:LR_Drum Hit Clap Sn.wav
182,192,358786,1,0,0:0:0:50:24_G1_75_480.wav
256,192,358786,1,0,0:0:0:50:24_C2_75_480.wav
483,192,358786,1,0,0:0:0:50:24_G3_75_480.wav
109,192,358786,1,0,0:0:0:50:24_C1_75_480.wav
36,192,358786,1,0,0:0:0:70:LR_Drum Hit Clap Sn.wav
329,192,358786,1,0,0:0:0:50:24_C3_75_480.wav
426,192,358786,1,0,0:0:0:50:24_D#3_75_480.wav
402,192,359186,1,0,0:0:0:70:LR_Drum EDge.wav
402,192,359286,1,0,0:0:0:70:LR_Drum EDge.wav
402,192,359386,1,0,0:0:0:70:LR_Drum EDge.wav
402,192,359486,1,0,0:0:0:70:LR_Drum EDge.wav
369,192,359586,1,0,0:0:0:50:24_C#3_75_480.wav
402,192,359586,1,0,0:0:0:50:24_F3_75_480.wav
483,192,359586,1,0,0:0:0:50:24_G#3_75_480.wav
312,192,359586,1,0,0:0:0:50:24_G#2_75_480.wav
109,192,359586,1,0,0:0:0:50:24_C#1_75_480.wav
36,192,359586,1,0,0:0:0:70:LR_Drum Hit Clap Sn.wav
256,192,359586,1,0,0:0:0:50:24_C#2_75_480.wav
182,192,359586,1,0,0:0:0:50:24_G#1_75_480.wav
402,192,360186,1,0,0:0:0:70:LR_Drum EDge.wav
402,192,360286,1,0,0:0:0:70:LR_Drum EDge.wav
369,192,360386,1,0,0:0:0:50:24_C#3_75_480.wav
402,192,360386,1,0,0:0:0:50:24_F3_75_480.wav
483,192,360386,1,0,0:0:0:50:24_G#3_75_480.wav
312,192,360386,1,0,0:0:0:50:24_G#2_75_480.wav
109,192,360386,1,0,0:0:0:50:24_C#1_75_480.wav
36,192,360386,1,0,0:0:0:70:LR_Drum Hit Clap Sn.wav
256,192,360386,1,0,0:0:0:50:24_C#2_75_480.wav
182,192,360386,1,0,0:0:0:50:24_G#1_75_480.wav
402,192,360986,1,0,0:0:0:70:LR_Drum EDge.wav
402,192,361086,1,0,0:0:0:70:LR_Drum EDge.wav
312,192,361186,1,0,0:0:0:70:24_C3_75_480.wav
142,192,361186,1,0,0:0:0:50:24_D#1_75_480.wav
483,192,361186,1,0,0:0:0:50:24_G#3_75_480.wav
369,192,361186,1,0,0:0:0:50:24_D#3_75_480.wav
256,192,361186,1,0,0:0:0:50:24_G#2_75_480.wav
36,192,361186,1,0,0:0:0:70:LR_Drum Hit Clap Sn.wav
85,192,361186,1,0,0:0:0:70:24_G#0_75_480.wav
199,192,361186,1,0,0:0:0:50:24_G#1_75_480.wav
36,192,361586,1,0,0:0:0:70:LR_Drum Hit Clap Sn.wav
312,192,361986,1,0,0:0:0:70:24_C3_75_480.wav
142,192,361986,1,0,0:0:0:50:24_D#1_75_480.wav
36,192,361986,1,0,0:0:0:70:LR_Drum Hit Clap Sn.wav
483,192,361986,1,0,0:0:0:50:24_G#3_75_480.wav
369,192,361986,1,0,0:0:0:50:24_D#3_75_480.wav
85,192,361986,1,0,0:0:0:70:24_G#0_75_480.wav
199,192,361986,1,0,0:0:0:50:24_G#1_75_480.wav
256,192,361986,1,0,0:0:0:50:24_G#2_75_480.wav
402,192,362386,1,0,0:0:0:70:LR_Drum EDge.wav
402,192,362486,1,0,0:0:0:70:LR_Drum EDge.wav
402,192,362586,1,0,0:0:0:70:LR_Drum EDge.wav
402,192,362686,1,0,0:0:0:70:LR_Drum EDge.wav
36,192,362786,1,0,0:0:0:70:LR_Drum Hit Clap Sn.wav
109,192,362786,1,0,0:0:0:50:24_F1_75_480.wav
182,192,362786,1,0,0:0:0:50:24_C2_75_480.wav
329,192,362786,1,0,0:0:0:50:24_C3_75_480.wav
256,192,362786,1,0,0:0:0:50:24_F2_75_480.wav
426,192,362786,1,0,0:0:0:50:24_F3_75_480.wav
483,192,362786,1,0,0:0:0:50:24_G#3_75_480.wav
402,192,363386,1,0,0:0:0:70:LR_Drum EDge.wav
402,192,363486,1,0,0:0:0:70:LR_Drum EDge.wav
36,192,363586,1,0,0:0:0:70:LR_Drum Hit Clap Sn.wav
109,192,363586,1,0,0:0:0:50:24_F1_75_480.wav
182,192,363586,1,0,0:0:0:50:24_C2_75_480.wav
329,192,363586,1,0,0:0:0:50:24_C3_75_480.wav
256,192,363586,1,0,0:0:0:50:24_F2_75_480.wav
426,192,363586,1,0,0:0:0:50:24_F3_75_480.wav
483,192,363586,1,0,0:0:0:50:24_G#3_75_480.wav
402,192,364186,1,0,0:0:0:70:LR_Drum EDge.wav
402,192,364286,1,0,0:0:0:70:LR_Drum EDge.wav
36,192,364386,1,0,0:0:0:70:LR_Drum Hit Clap Sn.wav
329,192,364386,1,0,0:0:0:50:24_C3_75_480.wav
426,192,364386,1,0,0:0:0:50:24_D#3_75_480.wav
109,192,364386,1,0,0:0:0:50:24_C1_75_480.wav
182,192,364386,1,0,0:0:0:50:24_G1_75_480.wav
256,192,364386,1,0,0:0:0:50:24_C2_75_480.wav
483,192,364386,1,0,0:0:0:50:24_G3_75_480.wav
36,192,364786,1,0,0:0:0:70:LR_Drum Hit Clap Sn.wav
36,192,365186,1,0,0:0:0:70:LR_Drum Hit Clap Sn.wav
329,192,365186,1,0,0:0:0:50:24_C3_75_480.wav
426,192,365186,1,0,0:0:0:50:24_D#3_75_480.wav
109,192,365186,1,0,0:0:0:50:24_C1_75_480.wav
182,192,365186,1,0,0:0:0:50:24_G1_75_480.wav
256,192,365186,1,0,0:0:0:50:24_C2_75_480.wav
483,192,365186,1,0,0:0:0:50:24_G3_75_480.wav
402,192,365586,1,0,0:0:0:70:LR_Drum EDge.wav
402,192,365686,1,0,0:0:0:70:LR_Drum EDge.wav
402,192,365786,1,0,0:0:0:70:LR_Drum EDge.wav
402,192,365886,1,0,0:0:0:70:LR_Drum EDge.wav
36,192,365986,1,0,0:0:0:70:LR_Drum Hit Clap Sn.wav
109,192,365986,1,0,0:0:0:50:24_C#1_75_480.wav
182,192,365986,1,0,0:0:0:50:24_G#1_75_480.wav
256,192,365986,1,0,0:0:0:50:24_C#2_75_480.wav
369,192,365986,1,0,0:0:0:50:24_C#3_75_480.wav
402,192,365986,1,0,0:0:0:50:24_F3_75_480.wav
312,192,365986,1,0,0:0:0:50:24_G#2_75_480.wav
483,192,365986,1,0,0:0:0:50:24_G#3_75_480.wav
402,192,366586,1,0,0:0:0:70:LR_Drum EDge.wav
402,192,366686,1,0,0:0:0:70:LR_Drum EDge.wav
36,192,366786,1,0,0:0:0:70:LR_Drum Hit Clap Sn.wav
109,192,366786,1,0,0:0:0:50:24_C#1_75_480.wav
182,192,366786,1,0,0:0:0:50:24_G#1_75_480.wav
256,192,366786,1,0,0:0:0:50:24_C#2_75_480.wav
369,192,366786,1,0,0:0:0:50:24_C#3_75_480.wav
402,192,366786,1,0,0:0:0:50:24_F3_75_480.wav
312,192,366786,1,0,0:0:0:50:24_G#2_75_480.wav
483,192,366786,1,0,0:0:0:50:24_G#3_75_480.wav
402,192,367386,1,0,0:0:0:70:LR_Drum EDge.wav
402,192,367486,1,0,0:0:0:70:LR_Drum EDge.wav
36,192,367586,1,0,0:0:0:70:LR_Drum Hit Clap Sn.wav
256,192,367586,1,0,0:0:0:50:24_G#2_75_480.wav
199,192,367586,1,0,0:0:0:50:24_G#1_75_480.wav
85,192,367586,1,0,0:0:0:70:24_G#0_75_480.wav
312,192,367586,1,0,0:0:0:70:24_C3_75_480.wav
142,192,367586,1,0,0:0:0:50:24_D#1_75_480.wav
369,192,367586,1,0,0:0:0:50:24_D#3_75_480.wav
483,192,367586,1,0,0:0:0:50:24_G#3_75_480.wav
36,192,367986,1,0,0:0:0:70:LR_Drum Hit Clap Sn.wav
199,192,368386,1,0,0:0:0:50:24_G#1_75_480.wav
85,192,368386,1,0,0:0:0:70:24_G#0_75_480.wav
256,192,368386,1,0,0:0:0:50:24_G#2_75_480.wav
312,192,368386,1,0,0:0:0:70:24_C3_75_480.wav
36,192,368386,1,0,0:0:0:70:LR_Drum Hit Clap Sn.wav
142,192,368386,1,0,0:0:0:50:24_D#1_75_480.wav
369,192,368386,1,0,0:0:0:50:24_D#3_75_480.wav
483,192,368386,1,0,0:0:0:50:24_G#3_75_480.wav
402,192,368786,1,0,0:0:0:70:LR_Drum EDge.wav
402,192,368886,1,0,0:0:0:70:LR_Drum EDge.wav
402,192,368986,1,0,0:0:0:70:LR_Drum EDge.wav
402,192,369086,1,0,0:0:0:70:LR_Drum EDge.wav
256,192,369186,1,0,0:0:0:50:24_F2_75_480.wav
426,192,369186,1,0,0:0:0:50:24_F3_75_480.wav
483,192,369186,1,0,0:0:0:50:24_G#3_75_480.wav
329,192,369186,1,0,0:0:0:50:24_C3_75_480.wav
36,192,369186,1,0,0:0:0:70:LR_Drum Hit Clap Sn.wav
109,192,369186,1,0,0:0:0:50:24_F1_75_480.wav
182,192,369186,1,0,0:0:0:50:24_C2_75_480.wav
402,192,369786,1,0,0:0:0:70:LR_Drum EDge.wav
402,192,369886,1,0,0:0:0:70:LR_Drum EDge.wav
256,192,369986,1,0,0:0:0:50:24_F2_75_480.wav
426,192,369986,1,0,0:0:0:50:24_F3_75_480.wav
483,192,369986,1,0,0:0:0:50:24_G#3_75_480.wav
329,192,369986,1,0,0:0:0:50:24_C3_75_480.wav
36,192,369986,1,0,0:0:0:70:LR_Drum Hit Clap Sn.wav
109,192,369986,1,0,0:0:0:50:24_F1_75_480.wav
182,192,369986,1,0,0:0:0:50:24_C2_75_480.wav
402,192,370586,1,0,0:0:0:70:LR_Drum EDge.wav
402,192,370686,1,0,0:0:0:70:LR_Drum EDge.wav
182,192,370786,1,0,0:0:0:50:24_G1_75_480.wav
256,192,370786,1,0,0:0:0:50:24_C2_75_480.wav
483,192,370786,1,0,0:0:0:50:24_G3_75_480.wav
109,192,370786,1,0,0:0:0:50:24_C1_75_480.wav
36,192,370786,1,0,0:0:0:70:LR_Drum Hit Clap Sn.wav
329,192,370786,1,0,0:0:0:50:24_C3_75_480.wav
426,192,370786,1,0,0:0:0:50:24_D#3_75_480.wav
36,192,371186,1,0,0:0:0:70:LR_Drum Hit Clap Sn.wav
182,192,371586,1,0,0:0:0:50:24_G1_75_480.wav
256,192,371586,1,0,0:0:0:50:24_C2_75_480.wav
483,192,371586,1,0,0:0:0:50:24_G3_75_480.wav
109,192,371586,1,0,0:0:0:50:24_C1_75_480.wav
36,192,371586,1,0,0:0:0:70:LR_Drum Hit Clap Sn.wav
329,192,371586,1,0,0:0:0:50:24_C3_75_480.wav
426,192,371586,1,0,0:0:0:50:24_D#3_75_480.wav
402,192,371986,1,0,0:0:0:70:LR_Drum EDge.wav
402,192,372086,1,0,0:0:0:70:LR_Drum EDge.wav
402,192,372186,1,0,0:0:0:70:LR_Drum EDge.wav
402,192,372286,1,0,0:0:0:70:LR_Drum EDge.wav
402,192,372386,1,0,0:0:0:50:24_F3_75_480.wav
369,192,372386,1,0,0:0:0:50:24_C#3_75_480.wav
483,192,372386,1,0,0:0:0:50:24_G#3_75_480.wav
312,192,372386,1,0,0:0:0:50:24_G#2_75_480.wav
109,192,372386,1,0,0:0:0:50:24_C#1_75_480.wav
36,192,372386,1,0,0:0:0:70:LR_Drum Hit Clap Sn.wav
256,192,372386,1,0,0:0:0:50:24_C#2_75_480.wav
182,192,372386,1,0,0:0:0:50:24_G#1_75_480.wav
402,192,372986,1,0,0:0:0:70:LR_Drum EDge.wav
402,192,373086,1,0,0:0:0:70:LR_Drum EDge.wav
402,192,373186,1,0,0:0:0:50:24_F3_75_480.wav
369,192,373186,1,0,0:0:0:50:24_C#3_75_480.wav
483,192,373186,1,0,0:0:0:50:24_G#3_75_480.wav
312,192,373186,1,0,0:0:0:50:24_G#2_75_480.wav
109,192,373186,1,0,0:0:0:50:24_C#1_75_480.wav
36,192,373186,1,0,0:0:0:70:LR_Drum Hit Clap Sn.wav
256,192,373186,1,0,0:0:0:50:24_C#2_75_480.wav
182,192,373186,1,0,0:0:0:50:24_G#1_75_480.wav
402,192,373786,1,0,0:0:0:70:LR_Drum EDge.wav
402,192,373886,1,0,0:0:0:70:LR_Drum EDge.wav
142,192,373986,1,0,0:0:0:50:24_D#1_75_480.wav
312,192,373986,1,0,0:0:0:70:24_C3_75_480.wav
483,192,373986,1,0,0:0:0:50:24_G#3_75_480.wav
369,192,373986,1,0,0:0:0:50:24_D#3_75_480.wav
256,192,373986,1,0,0:0:0:50:24_G#2_75_480.wav
36,192,373986,1,0,0:0:0:70:LR_Drum Hit Clap Sn.wav
85,192,373986,1,0,0:0:0:70:24_G#0_75_480.wav
199,192,373986,1,0,0:0:0:50:24_G#1_75_480.wav
36,192,374386,1,0,0:0:0:70:LR_Drum Hit Clap Sn.wav
142,192,374786,1,0,0:0:0:50:24_D#1_75_480.wav
36,192,374786,1,0,0:0:0:70:LR_Drum Hit Clap Sn.wav
483,192,374786,1,0,0:0:0:50:24_G#3_75_480.wav
369,192,374786,1,0,0:0:0:50:24_D#3_75_480.wav
85,192,374786,1,0,0:0:0:70:24_G#0_75_480.wav
199,192,374786,1,0,0:0:0:50:24_G#1_75_480.wav
312,192,374786,1,0,0:0:0:70:24_C3_75_480.wav
256,192,374786,1,0,0:0:0:50:24_G#2_75_480.wav
402,192,375186,1,0,0:0:0:70:LR_Drum EDge.wav
402,192,375286,1,0,0:0:0:70:LR_Drum EDge.wav
402,192,375386,1,0,0:0:0:70:LR_Drum EDge.wav
402,192,375486,1,0,0:0:0:70:LR_Drum EDge.wav
36,192,375586,1,0,0:0:0:70:LR_Drum Hit Clap Sn.wav
109,192,375586,1,0,0:0:0:50:24_F1_75_480.wav
182,192,375586,1,0,0:0:0:50:24_C2_75_480.wav
329,192,375586,1,0,0:0:0:50:24_C3_75_480.wav
256,192,375586,1,0,0:0:0:50:24_F2_75_480.wav
426,192,375586,1,0,0:0:0:50:24_F3_75_480.wav
483,192,375586,1,0,0:0:0:50:24_G#3_75_480.wav
402,192,376186,1,0,0:0:0:70:LR_Drum EDge.wav
402,192,376286,1,0,0:0:0:70:LR_Drum EDge.wav
36,192,376386,1,0,0:0:0:70:LR_Drum Hit Clap Sn.wav
109,192,376386,1,0,0:0:0:50:24_F1_75_480.wav
182,192,376386,1,0,0:0:0:50:24_C2_75_480.wav
329,192,376386,1,0,0:0:0:50:24_C3_75_480.wav
256,192,376386,1,0,0:0:0:50:24_F2_75_480.wav
426,192,376386,1,0,0:0:0:50:24_F3_75_480.wav
483,192,376386,1,0,0:0:0:50:24_G#3_75_480.wav
402,192,376986,1,0,0:0:0:70:LR_Drum EDge.wav
402,192,377086,1,0,0:0:0:70:LR_Drum EDge.wav
36,192,377186,1,0,0:0:0:70:LR_Drum Hit Clap Sn.wav
329,192,377186,1,0,0:0:0:50:24_C3_75_480.wav
426,192,377186,1,0,0:0:0:50:24_D#3_75_480.wav
109,192,377186,1,0,0:0:0:50:24_C1_75_480.wav
182,192,377186,1,0,0:0:0:50:24_G1_75_480.wav
256,192,377186,1,0,0:0:0:50:24_C2_75_480.wav
483,192,377186,1,0,0:0:0:50:24_G3_75_480.wav
36,192,377586,1,0,0:0:0:70:LR_Drum Hit Clap Sn.wav
36,192,377986,1,0,0:0:0:70:LR_Drum Hit Clap Sn.wav
329,192,377986,1,0,0:0:0:50:24_C3_75_480.wav
426,192,377986,1,0,0:0:0:50:24_D#3_75_480.wav
109,192,377986,1,0,0:0:0:50:24_C1_75_480.wav
182,192,377986,1,0,0:0:0:50:24_G1_75_480.wav
256,192,377986,1,0,0:0:0:50:24_C2_75_480.wav
483,192,377986,1,0,0:0:0:50:24_G3_75_480.wav
402,192,378386,1,0,0:0:0:70:LR_Drum EDge.wav
402,192,378486,1,0,0:0:0:70:LR_Drum EDge.wav
402,192,378586,1,0,0:0:0:70:LR_Drum EDge.wav
402,192,378686,1,0,0:0:0:70:LR_Drum EDge.wav
36,192,378786,1,0,0:0:0:70:LR_Drum Hit Clap Sn.wav
109,192,378786,1,0,0:0:0:50:24_C#1_75_480.wav
182,192,378786,1,0,0:0:0:50:24_G#1_75_480.wav
256,192,378786,1,0,0:0:0:50:24_C#2_75_480.wav
369,192,378786,1,0,0:0:0:50:24_C#3_75_480.wav
402,192,378786,1,0,0:0:0:50:24_F3_75_480.wav
312,192,378786,1,0,0:0:0:50:24_G#2_75_480.wav
483,192,378786,1,0,0:0:0:50:24_G#3_75_480.wav
402,192,379386,1,0,0:0:0:70:LR_Drum EDge.wav
402,192,379486,1,0,0:0:0:70:LR_Drum EDge.wav
36,192,379586,1,0,0:0:0:70:LR_Drum Hit Clap Sn.wav
109,192,379586,1,0,0:0:0:50:24_C#1_75_480.wav
182,192,379586,1,0,0:0:0:50:24_G#1_75_480.wav
256,192,379586,1,0,0:0:0:50:24_C#2_75_480.wav
369,192,379586,1,0,0:0:0:50:24_C#3_75_480.wav
402,192,379586,1,0,0:0:0:50:24_F3_75_480.wav
312,192,379586,1,0,0:0:0:50:24_G#2_75_480.wav
483,192,379586,1,0,0:0:0:50:24_G#3_75_480.wav
402,192,380186,1,0,0:0:0:70:LR_Drum EDge.wav
402,192,380286,1,0,0:0:0:70:LR_Drum EDge.wav
36,192,380386,1,0,0:0:0:70:LR_Drum Hit Clap Sn.wav
256,192,380386,1,0,0:0:0:50:24_G#2_75_480.wav
199,192,380386,1,0,0:0:0:50:24_G#1_75_480.wav
85,192,380386,1,0,0:0:0:70:24_G#0_75_480.wav
312,192,380386,1,0,0:0:0:70:24_C3_75_480.wav
142,192,380386,1,0,0:0:0:50:24_D#1_75_480.wav
369,192,380386,1,0,0:0:0:50:24_D#3_75_480.wav
483,192,380386,1,0,0:0:0:50:24_G#3_75_480.wav
36,192,380786,1,0,0:0:0:70:LR_Drum Hit Clap Sn.wav
199,192,381186,1,0,0:0:0:50:24_G#1_75_480.wav
85,192,381186,1,0,0:0:0:70:24_G#0_75_480.wav
256,192,381186,1,0,0:0:0:50:24_G#2_75_480.wav
312,192,381186,1,0,0:0:0:70:24_C3_75_480.wav
36,192,381186,1,0,0:0:0:70:LR_Drum Hit Clap Sn.wav
142,192,381186,1,0,0:0:0:50:24_D#1_75_480.wav
369,192,381186,1,0,0:0:0:50:24_D#3_75_480.wav
483,192,381186,1,0,0:0:0:50:24_G#3_75_480.wav
402,192,381586,1,0,0:0:0:70:LR_Drum EDge.wav
402,192,381686,1,0,0:0:0:70:LR_Drum EDge.wav
402,192,381786,1,0,0:0:0:70:LR_Drum EDge.wav
402,192,381886,1,0,0:0:0:70:LR_Drum EDge.wav
256,192,381986,1,0,0:0:0:50:24_F2_75_480.wav
426,192,381986,1,0,0:0:0:50:24_F3_75_480.wav
483,192,381986,1,0,0:0:0:50:24_G#3_75_480.wav
329,192,381986,1,0,0:0:0:50:24_C3_75_480.wav
36,192,381986,1,0,0:0:0:70:LR_Drum Hit Clap Sn.wav
109,192,381986,1,0,0:0:0:50:24_F1_75_480.wav
182,192,381986,1,0,0:0:0:50:24_C2_75_480.wav
402,192,382586,1,0,0:0:0:70:LR_Drum EDge.wav
402,192,382686,1,0,0:0:0:70:LR_Drum EDge.wav
256,192,382786,1,0,0:0:0:50:24_F2_75_480.wav
426,192,382786,1,0,0:0:0:50:24_F3_75_480.wav
483,192,382786,1,0,0:0:0:50:24_G#3_75_480.wav
329,192,382786,1,0,0:0:0:50:24_C3_75_480.wav
36,192,382786,1,0,0:0:0:70:LR_Drum Hit Clap Sn.wav
109,192,382786,1,0,0:0:0:50:24_F1_75_480.wav
182,192,382786,1,0,0:0:0:50:24_C2_75_480.wav
402,192,383386,1,0,0:0:0:70:LR_Drum EDge.wav
402,192,383486,1,0,0:0:0:70:LR_Drum EDge.wav
182,192,383586,1,0,0:0:0:50:24_G1_75_480.wav
256,192,383586,1,0,0:0:0:50:24_C2_75_480.wav
483,192,383586,1,0,0:0:0:50:24_G3_75_480.wav
109,192,383586,1,0,0:0:0:50:24_C1_75_480.wav
36,192,383586,1,0,0:0:0:70:LR_Drum Hit Clap Sn.wav
329,192,383586,1,0,0:0:0:50:24_C3_75_480.wav
426,192,383586,1,0,0:0:0:50:24_D#3_75_480.wav
36,192,383986,1,0,0:0:0:70:LR_Drum Hit Clap Sn.wav
182,192,384386,1,0,0:0:0:50:24_G1_75_480.wav
256,192,384386,1,0,0:0:0:50:24_C2_75_480.wav
483,192,384386,1,0,0:0:0:50:24_G3_75_480.wav
109,192,384386,1,0,0:0:0:50:24_C1_75_480.wav
36,192,384386,1,0,0:0:0:70:LR_Drum Hit Clap Sn.wav
329,192,384386,1,0,0:0:0:50:24_C3_75_480.wav
426,192,384386,1,0,0:0:0:50:24_D#3_75_480.wav
402,192,384786,1,0,0:0:0:70:LR_Drum EDge.wav
402,192,384886,1,0,0:0:0:70:LR_Drum EDge.wav
402,192,384986,1,0,0:0:0:70:LR_Drum EDge.wav
402,192,385086,1,0,0:0:0:70:LR_Drum EDge.wav
369,192,385186,1,0,0:0:0:50:24_C#3_75_480.wav
402,192,385186,1,0,0:0:0:50:24_F3_75_480.wav
483,192,385186,1,0,0:0:0:50:24_G#3_75_480.wav
312,192,385186,1,0,0:0:0:50:24_G#2_75_480.wav
109,192,385186,1,0,0:0:0:50:24_C#1_75_480.wav
36,192,385186,1,0,0:0:0:70:LR_Drum Hit Clap Sn.wav
256,192,385186,1,0,0:0:0:50:24_C#2_75_480.wav
182,192,385186,1,0,0:0:0:50:24_G#1_75_480.wav
402,192,385786,1,0,0:0:0:70:LR_Drum EDge.wav
402,192,385886,1,0,0:0:0:70:LR_Drum EDge.wav
369,192,385986,1,0,0:0:0:50:24_C#3_75_480.wav
402,192,385986,1,0,0:0:0:50:24_F3_75_480.wav
483,192,385986,1,0,0:0:0:50:24_G#3_75_480.wav
312,192,385986,1,0,0:0:0:50:24_G#2_75_480.wav
109,192,385986,1,0,0:0:0:50:24_C#1_75_480.wav
36,192,385986,1,0,0:0:0:70:LR_Drum Hit Clap Sn.wav
256,192,385986,1,0,0:0:0:50:24_C#2_75_480.wav
182,192,385986,1,0,0:0:0:50:24_G#1_75_480.wav
402,192,386586,1,0,0:0:0:70:LR_Drum EDge.wav
402,192,386686,1,0,0:0:0:70:LR_Drum EDge.wav
312,192,386786,1,0,0:0:0:70:24_C3_75_480.wav
142,192,386786,1,0,0:0:0:50:24_D#1_75_480.wav
483,192,386786,1,0,0:0:0:50:24_G#3_75_480.wav
369,192,386786,1,0,0:0:0:50:24_D#3_75_480.wav
256,192,386786,1,0,0:0:0:50:24_G#2_75_480.wav
36,192,386786,1,0,0:0:0:70:LR_Drum Hit Clap Sn.wav
85,192,386786,1,0,0:0:0:70:24_G#0_75_480.wav
199,192,386786,1,0,0:0:0:50:24_G#1_75_480.wav
36,192,387186,1,0,0:0:0:70:LR_Drum Hit Clap Sn.wav
312,192,387586,1,0,0:0:0:70:24_C3_75_480.wav
142,192,387586,1,0,0:0:0:50:24_D#1_75_480.wav
36,192,387586,1,0,0:0:0:70:LR_Drum Hit Clap Sn.wav
483,192,387586,1,0,0:0:0:50:24_G#3_75_480.wav
369,192,387586,1,0,0:0:0:50:24_D#3_75_480.wav
85,192,387586,1,0,0:0:0:70:24_G#0_75_480.wav
199,192,387586,1,0,0:0:0:50:24_G#1_75_480.wav
256,192,387586,1,0,0:0:0:50:24_G#2_75_480.wav
402,192,387986,1,0,0:0:0:70:LR_Drum EDge.wav
402,192,388086,1,0,0:0:0:70:LR_Drum EDge.wav
402,192,388186,1,0,0:0:0:70:LR_Drum EDge.wav
402,192,388286,1,0,0:0:0:70:LR_Drum EDge.wav
36,192,388386,1,0,0:0:0:70:LR_Drum Hit Clap Sn.wav
109,192,388386,1,0,0:0:0:50:24_F1_75_480.wav
182,192,388386,1,0,0:0:0:50:24_C2_75_480.wav
329,192,388386,1,0,0:0:0:50:24_C3_75_480.wav
256,192,388386,1,0,0:0:0:50:24_F2_75_480.wav
426,192,388386,1,0,0:0:0:50:24_F3_75_480.wav
483,192,388386,1,0,0:0:0:50:24_G#3_75_480.wav
402,192,388986,1,0,0:0:0:70:LR_Drum EDge.wav
402,192,389086,1,0,0:0:0:70:LR_Drum EDge.wav
36,192,389186,1,0,0:0:0:70:LR_Drum Hit Clap Sn.wav
109,192,389186,1,0,0:0:0:50:24_F1_75_480.wav
182,192,389186,1,0,0:0:0:50:24_C2_75_480.wav
329,192,389186,1,0,0:0:0:50:24_C3_75_480.wav
256,192,389186,1,0,0:0:0:50:24_F2_75_480.wav
426,192,389186,1,0,0:0:0:50:24_F3_75_480.wav
483,192,389186,1,0,0:0:0:50:24_G#3_75_480.wav
402,192,389786,1,0,0:0:0:70:LR_Drum EDge.wav
402,192,389886,1,0,0:0:0:70:LR_Drum EDge.wav
36,192,389986,1,0,0:0:0:70:LR_Drum Hit Clap Sn.wav
329,192,389986,1,0,0:0:0:50:24_C3_75_480.wav
426,192,389986,1,0,0:0:0:50:24_D#3_75_480.wav
109,192,389986,1,0,0:0:0:50:24_C1_75_480.wav
182,192,389986,1,0,0:0:0:50:24_G1_75_480.wav
256,192,389986,1,0,0:0:0:50:24_C2_75_480.wav
483,192,389986,1,0,0:0:0:50:24_G3_75_480.wav
36,192,390386,1,0,0:0:0:70:LR_Drum Hit Clap Sn.wav
36,192,390786,1,0,0:0:0:70:LR_Drum Hit Clap Sn.wav
329,192,390786,1,0,0:0:0:50:24_C3_75_480.wav
426,192,390786,1,0,0:0:0:50:24_D#3_75_480.wav
109,192,390786,1,0,0:0:0:50:24_C1_75_480.wav
182,192,390786,1,0,0:0:0:50:24_G1_75_480.wav
256,192,390786,1,0,0:0:0:50:24_C2_75_480.wav
483,192,390786,1,0,0:0:0:50:24_G3_75_480.wav
402,192,391186,1,0,0:0:0:70:LR_Drum EDge.wav
402,192,391286,1,0,0:0:0:70:LR_Drum EDge.wav
402,192,391386,1,0,0:0:0:70:LR_Drum EDge.wav
402,192,391486,1,0,0:0:0:70:LR_Drum EDge.wav
36,192,391586,1,0,0:0:0:70:LR_Drum Hit Clap Sn.wav
109,192,391586,1,0,0:0:0:50:24_C#1_75_480.wav
182,192,391586,1,0,0:0:0:50:24_G#1_75_480.wav
256,192,391586,1,0,0:0:0:50:24_C#2_75_480.wav
369,192,391586,1,0,0:0:0:50:24_C#3_75_480.wav
402,192,391586,1,0,0:0:0:50:24_F3_75_480.wav
312,192,391586,1,0,0:0:0:50:24_G#2_75_480.wav
483,192,391586,1,0,0:0:0:50:24_G#3_75_480.wav
402,192,392186,1,0,0:0:0:70:LR_Drum EDge.wav
402,192,392286,1,0,0:0:0:70:LR_Drum EDge.wav
36,192,392386,1,0,0:0:0:70:LR_Drum Hit Clap Sn.wav
109,192,392386,1,0,0:0:0:50:24_C#1_75_480.wav
182,192,392386,1,0,0:0:0:50:24_G#1_75_480.wav
256,192,392386,1,0,0:0:0:50:24_C#2_75_480.wav
369,192,392386,1,0,0:0:0:50:24_C#3_75_480.wav
402,192,392386,1,0,0:0:0:50:24_F3_75_480.wav
312,192,392386,1,0,0:0:0:50:24_G#2_75_480.wav
483,192,392386,1,0,0:0:0:50:24_G#3_75_480.wav
402,192,392986,1,0,0:0:0:70:LR_Drum EDge.wav
402,192,393086,1,0,0:0:0:70:LR_Drum EDge.wav
36,192,393186,1,0,0:0:0:70:LR_Drum Hit Clap Sn.wav
256,192,393186,1,0,0:0:0:50:24_G#2_75_480.wav
199,192,393186,1,0,0:0:0:50:24_G#1_75_480.wav
85,192,393186,1,0,0:0:0:70:24_G#0_75_480.wav
312,192,393186,1,0,0:0:0:70:24_C3_75_480.wav
142,192,393186,1,0,0:0:0:50:24_D#1_75_480.wav
369,192,393186,1,0,0:0:0:50:24_D#3_75_480.wav
483,192,393186,1,0,0:0:0:50:24_G#3_75_480.wav
36,192,393586,1,0,0:0:0:70:LR_Drum Hit Clap Sn.wav
199,192,393986,1,0,0:0:0:50:24_G#1_75_480.wav
85,192,393986,1,0,0:0:0:70:24_G#0_75_480.wav
256,192,393986,1,0,0:0:0:50:24_G#2_75_480.wav
312,192,393986,1,0,0:0:0:70:24_C3_75_480.wav
36,192,393986,1,0,0:0:0:70:LR_Drum Hit Clap Sn.wav
142,192,393986,1,0,0:0:0:50:24_D#1_75_480.wav
369,192,393986,1,0,0:0:0:50:24_D#3_75_480.wav
483,192,393986,1,0,0:0:0:50:24_G#3_75_480.wav
402,192,394386,1,0,0:0:0:70:LR_Drum EDge.wav
402,192,394486,1,0,0:0:0:70:LR_Drum EDge.wav
402,192,394586,1,0,0:0:0:70:LR_Drum EDge.wav
402,192,394686,1,0,0:0:0:70:LR_Drum EDge.wav
256,192,394786,1,0,0:0:0:50:24_F2_75_480.wav
426,192,394786,1,0,0:0:0:50:24_F3_75_480.wav
483,192,394786,1,0,0:0:0:50:24_G#3_75_480.wav
329,192,394786,1,0,0:0:0:50:24_C3_75_480.wav
36,192,394786,1,0,0:0:0:70:LR_Drum Hit Clap Sn.wav
109,192,394786,1,0,0:0:0:50:24_F1_75_480.wav
182,192,394786,1,0,0:0:0:50:24_C2_75_480.wav
402,192,395386,1,0,0:0:0:70:LR_Drum EDge.wav
402,192,395486,1,0,0:0:0:70:LR_Drum EDge.wav
256,192,395586,1,0,0:0:0:50:24_F2_75_480.wav
426,192,395586,1,0,0:0:0:50:24_F3_75_480.wav
483,192,395586,1,0,0:0:0:50:24_G#3_75_480.wav
329,192,395586,1,0,0:0:0:50:24_C3_75_480.wav
36,192,395586,1,0,0:0:0:70:LR_Drum Hit Clap Sn.wav
109,192,395586,1,0,0:0:0:50:24_F1_75_480.wav
182,192,395586,1,0,0:0:0:50:24_C2_75_480.wav
402,192,396186,1,0,0:0:0:70:LR_Drum EDge.wav
402,192,396286,1,0,0:0:0:70:LR_Drum EDge.wav
182,192,396386,1,0,0:0:0:50:24_G1_75_480.wav
256,192,396386,1,0,0:0:0:50:24_C2_75_480.wav
483,192,396386,1,0,0:0:0:50:24_G3_75_480.wav
109,192,396386,1,0,0:0:0:50:24_C1_75_480.wav
36,192,396386,1,0,0:0:0:70:LR_Drum Hit Clap Sn.wav
329,192,396386,1,0,0:0:0:50:24_C3_75_480.wav
426,192,396386,1,0,0:0:0:50:24_D#3_75_480.wav
36,192,396786,1,0,0:0:0:70:LR_Drum Hit Clap Sn.wav
182,192,397186,1,0,0:0:0:50:24_G1_75_480.wav
256,192,397186,1,0,0:0:0:50:24_C2_75_480.wav
483,192,397186,1,0,0:0:0:50:24_G3_75_480.wav
109,192,397186,1,0,0:0:0:50:24_C1_75_480.wav
36,192,397186,1,0,0:0:0:70:LR_Drum Hit Clap Sn.wav
329,192,397186,1,0,0:0:0:50:24_C3_75_480.wav
426,192,397186,1,0,0:0:0:50:24_D#3_75_480.wav
402,192,397586,1,0,0:0:0:70:LR_Drum EDge.wav
402,192,397686,1,0,0:0:0:70:LR_Drum EDge.wav
402,192,397786,1,0,0:0:0:70:LR_Drum EDge.wav
402,192,397886,1,0,0:0:0:70:LR_Drum EDge.wav
402,192,397986,1,0,0:0:0:50:24_F3_75_480.wav
369,192,397986,1,0,0:0:0:50:24_C#3_75_480.wav
483,192,397986,1,0,0:0:0:50:24_G#3_75_480.wav
312,192,397986,1,0,0:0:0:50:24_G#2_75_480.wav
109,192,397986,1,0,0:0:0:50:24_C#1_75_480.wav
36,192,397986,1,0,0:0:0:70:LR_Drum Hit Clap Sn.wav
256,192,397986,1,0,0:0:0:50:24_C#2_75_480.wav
182,192,397986,1,0,0:0:0:50:24_G#1_75_480.wav
402,192,398586,1,0,0:0:0:70:LR_Drum EDge.wav
402,192,398686,1,0,0:0:0:70:LR_Drum EDge.wav
402,192,398786,1,0,0:0:0:50:24_F3_75_480.wav
369,192,398786,1,0,0:0:0:50:24_C#3_75_480.wav
483,192,398786,1,0,0:0:0:50:24_G#3_75_480.wav
312,192,398786,1,0,0:0:0:50:24_G#2_75_480.wav
109,192,398786,1,0,0:0:0:50:24_C#1_75_480.wav
36,192,398786,1,0,0:0:0:70:LR_Drum Hit Clap Sn.wav
256,192,398786,1,0,0:0:0:50:24_C#2_75_480.wav
182,192,398786,1,0,0:0:0:50:24_G#1_75_480.wav
402,192,399386,1,0,0:0:0:70:LR_Drum EDge.wav
402,192,399486,1,0,0:0:0:70:LR_Drum EDge.wav
142,192,399586,1,0,0:0:0:50:24_D#1_75_480.wav
312,192,399586,1,0,0:0:0:70:24_C3_75_480.wav
483,192,399586,1,0,0:0:0:50:24_G#3_75_480.wav
369,192,399586,1,0,0:0:0:50:24_D#3_75_480.wav
256,192,399586,1,0,0:0:0:50:24_G#2_75_480.wav
36,192,399586,1,0,0:0:0:70:LR_Drum Hit Clap Sn.wav
85,192,399586,1,0,0:0:0:70:24_G#0_75_480.wav
199,192,399586,1,0,0:0:0:50:24_G#1_75_480.wav
36,192,399986,1,0,0:0:0:70:LR_Drum Hit Clap Sn.wav
142,192,400386,1,0,0:0:0:50:24_D#1_75_480.wav
36,192,400386,1,0,0:0:0:70:LR_Drum Hit Clap Sn.wav
483,192,400386,1,0,0:0:0:50:24_G#3_75_480.wav
369,192,400386,1,0,0:0:0:50:24_D#3_75_480.wav
85,192,400386,1,0,0:0:0:70:24_G#0_75_480.wav
199,192,400386,1,0,0:0:0:50:24_G#1_75_480.wav
312,192,400386,1,0,0:0:0:70:24_C3_75_480.wav
256,192,400386,1,0,0:0:0:50:24_G#2_75_480.wav
402,192,400786,1,0,0:0:0:70:LR_Drum EDge.wav
402,192,400886,1,0,0:0:0:70:LR_Drum EDge.wav
402,192,400986,1,0,0:0:0:70:LR_Drum EDge.wav
402,192,401086,1,0,0:0:0:70:LR_Drum EDge.wav
109,192,401186,1,0,0:0:0:50:LR_CymbalSSD.wav
36,192,401186,1,0,0:0:0:50:LR_Drum Hit Clap Sn.wav
182,192,401186,1,0,0:0:0:70:24_F1_75_480.wav
256,192,401186,1,0,0:0:0:70:24_C2_75_480.wav
329,192,401186,1,0,0:0:0:70:24_F2_75_480.wav
426,192,401186,1,0,0:0:0:70:24_F3_75_480.wav
475,192,401186,1,0,0:0:0:70:24_G#3_75_480.wav
369,192,401186,1,0,0:0:0:70:24_C3_75_480.wav
402,192,401586,1,0,0:0:0:50:LR_Drum EDge.wav
402,192,401786,1,0,0:0:0:50:LR_Drum EDge.wav
36,192,401986,1,0,0:0:0:50:LR_Drum Hit Clap Sn.wav
369,192,401986,1,0,0:0:0:70:24_C3_75_480.wav
182,192,401986,1,0,0:0:0:70:24_F1_75_480.wav
256,192,401986,1,0,0:0:0:70:24_C2_75_480.wav
329,192,401986,1,0,0:0:0:70:24_F2_75_480.wav
402,192,401986,1,0,0:0:0:70:24_F3_75_480.wav
475,192,401986,1,0,0:0:0:70:24_G#3_75_480.wav
36,192,402386,1,0,0:0:0:45:LR_Drum Kick Low.wav
109,192,402386,1,0,0:0:0:70:24_C1_75_480.wav
182,192,402386,1,0,0:0:0:70:24_G1_75_480.wav
256,192,402386,1,0,0:0:0:70:24_C2_75_480.wav
329,192,402386,1,0,0:0:0:70:24_C3_75_480.wav
402,192,402386,1,0,0:0:0:70:24_D#3_75_480.wav
475,192,402386,1,0,0:0:0:70:24_G3_75_480.wav
402,192,402786,1,0,0:0:0:45:LR_Drum EDge.wav
36,192,403186,1,0,0:0:0:45:LR_Drum Kick Low.wav
109,192,403186,1,0,0:0:0:70:24_C1_75_480.wav
182,192,403186,1,0,0:0:0:70:24_G1_75_480.wav
256,192,403186,1,0,0:0:0:70:24_C2_75_480.wav
329,192,403186,1,0,0:0:0:70:24_C3_75_480.wav
402,192,403186,1,0,0:0:0:70:24_D#3_75_480.wav
475,192,403186,1,0,0:0:0:70:24_G3_75_480.wav
402,192,403286,1,0,0:0:0:45:LR_Drum EDge.wav
402,192,403386,1,0,0:0:0:45:LR_Drum EDge.wav
402,192,403486,1,0,0:0:0:45:LR_Drum EDge.wav
36,192,403586,1,0,0:0:0:45:LR_Drum Hit Clap Sn.wav
109,192,403586,1,0,0:0:0:70:24_C#1_75_480.wav
182,192,403586,1,0,0:0:0:70:24_G#1_75_480.wav
256,192,403586,1,0,0:0:0:70:24_C#2_75_480.wav
369,192,403586,1,0,0:0:0:70:24_C#3_75_480.wav
402,192,403586,1,0,0:0:0:70:24_F3_75_480.wav
475,192,403586,1,0,0:0:0:70:24_G#3_75_480.wav
312,192,403586,1,0,0:0:0:70:24_G#2_75_480.wav
402,192,403986,1,0,0:0:0:45:LR_Drum EDge.wav
402,192,404186,1,0,0:0:0:45:LR_Drum EDge.wav
36,192,404386,1,0,0:0:0:45:LR_Drum Hit Clap Sn.wav
109,192,404386,1,0,0:0:0:70:24_C#1_75_480.wav
182,192,404386,1,0,0:0:0:70:24_G#1_75_480.wav
256,192,404386,1,0,0:0:0:70:24_C#2_75_480.wav
329,192,404386,1,0,0:0:0:70:24_G#2_75_480.wav
402,192,404386,1,0,0:0:0:70:24_F3_75_480.wav
475,192,404386,1,0,0:0:0:70:24_G#3_75_480.wav
369,192,404386,1,0,0:0:0:70:24_C#3_75_480.wav
36,192,404786,1,0,0:0:0:70:LR_Drum Kick Low.wav
369,192,404786,1,0,0:0:0:70:24_C3_75_480.wav
256,192,404786,1,0,0:0:0:70:24_G#1_75_480.wav
199,192,404786,1,0,0:0:0:70:24_D#1_75_480.wav
109,192,404786,1,0,0:0:0:70:24_G#0_75_480.wav
312,192,404786,1,0,0:0:0:70:24_G#2_75_480.wav
483,192,404786,1,0,0:0:0:70:24_G#3_75_480.wav
426,192,404786,1,0,0:0:0:70:24_D#3_75_480.wav
402,192,405186,1,0,0:0:0:70:LR_Drum EDge.wav
369,192,405586,1,0,0:0:0:70:24_C3_75_480.wav
36,192,405586,1,0,0:0:0:70:LR_Drum Kick Low.wav
256,192,405586,1,0,0:0:0:70:24_G#1_75_480.wav
199,192,405586,1,0,0:0:0:70:24_D#1_75_480.wav
109,192,405586,1,0,0:0:0:70:24_G#0_75_480.wav
312,192,405586,1,0,0:0:0:70:24_G#2_75_480.wav
483,192,405586,1,0,0:0:0:70:24_G#3_75_480.wav
426,192,405586,1,0,0:0:0:70:24_D#3_75_480.wav
426,192,405986,1,0,0:0:0:70:24_F3_75_480.wav
329,192,405986,1,0,0:0:0:70:24_F2_75_480.wav
369,192,405986,1,0,0:0:0:70:24_C3_75_480.wav
475,192,405986,1,0,0:0:0:70:24_G#3_75_480.wav
36,192,405986,1,0,0:0:0:50:LR_Drum Hit Clap Sn.wav
256,192,405986,1,0,0:0:0:70:24_C2_75_480.wav
182,192,405986,1,0,0:0:0:70:24_F1_75_480.wav
402,192,406386,1,0,0:0:0:50:LR_Drum EDge.wav
402,192,406586,1,0,0:0:0:50:LR_Drum EDge.wav
329,192,406786,1,0,0:0:0:70:24_F2_75_480.wav
402,192,406786,1,0,0:0:0:70:24_F3_75_480.wav
475,192,406786,1,0,0:0:0:70:24_G#3_75_480.wav
256,192,406786,1,0,0:0:0:70:24_C2_75_480.wav
36,192,406786,1,0,0:0:0:50:LR_Drum Hit Clap Sn.wav
369,192,406786,1,0,0:0:0:70:24_C3_75_480.wav
182,192,406786,1,0,0:0:0:70:24_F1_75_480.wav
329,192,407186,1,0,0:0:0:70:24_C3_75_480.wav
402,192,407186,1,0,0:0:0:70:24_D#3_75_480.wav
475,192,407186,1,0,0:0:0:70:24_G3_75_480.wav
256,192,407186,1,0,0:0:0:70:24_C2_75_480.wav
36,192,407186,1,0,0:0:0:45:LR_Drum Kick Low.wav
109,192,407186,1,0,0:0:0:70:24_C1_75_480.wav
182,192,407186,1,0,0:0:0:70:24_G1_75_480.wav
402,192,407586,1,0,0:0:0:45:LR_Drum EDge.wav
329,192,407986,1,0,0:0:0:70:24_C3_75_480.wav
402,192,407986,1,0,0:0:0:70:24_D#3_75_480.wav
475,192,407986,1,0,0:0:0:70:24_G3_75_480.wav
256,192,407986,1,0,0:0:0:70:24_C2_75_480.wav
36,192,407986,1,0,0:0:0:45:LR_Drum Kick Low.wav
109,192,407986,1,0,0:0:0:70:24_C1_75_480.wav
182,192,407986,1,0,0:0:0:70:24_G1_75_480.wav
402,192,408086,1,0,0:0:0:45:LR_Drum EDge.wav
402,192,408186,1,0,0:0:0:45:LR_Drum EDge.wav
402,192,408286,1,0,0:0:0:45:LR_Drum EDge.wav
402,192,408386,1,0,0:0:0:70:24_F3_75_480.wav
369,192,408386,1,0,0:0:0:70:24_C#3_75_480.wav
312,192,408386,1,0,0:0:0:70:24_G#2_75_480.wav
475,192,408386,1,0,0:0:0:70:24_G#3_75_480.wav
109,192,408386,1,0,0:0:0:70:24_C#1_75_480.wav
36,192,408386,1,0,0:0:0:45:LR_Drum Hit Clap Sn.wav
256,192,408386,1,0,0:0:0:70:24_C#2_75_480.wav
182,192,408386,1,0,0:0:0:70:24_G#1_75_480.wav
402,192,408786,1,0,0:0:0:45:LR_Drum EDge.wav
402,192,408986,1,0,0:0:0:45:LR_Drum EDge.wav
402,192,409186,1,0,0:0:0:70:24_F3_75_480.wav
329,192,409186,1,0,0:0:0:70:24_G#2_75_480.wav
369,192,409186,1,0,0:0:0:70:24_C#3_75_480.wav
475,192,409186,1,0,0:0:0:70:24_G#3_75_480.wav
109,192,409186,1,0,0:0:0:70:24_C#1_75_480.wav
36,192,409186,1,0,0:0:0:45:LR_Drum Hit Clap Sn.wav
256,192,409186,1,0,0:0:0:70:24_C#2_75_480.wav
182,192,409186,1,0,0:0:0:70:24_G#1_75_480.wav
312,192,409586,1,0,0:0:0:70:24_G#2_75_480.wav
109,192,409586,1,0,0:0:0:70:24_G#0_75_480.wav
426,192,409586,1,0,0:0:0:70:24_D#3_75_480.wav
483,192,409586,1,0,0:0:0:70:24_G#3_75_480.wav
369,192,409586,1,0,0:0:0:70:24_C3_75_480.wav
36,192,409586,1,0,0:0:0:70:LR_Drum Kick Low.wav
199,192,409586,1,0,0:0:0:70:24_D#1_75_480.wav
256,192,409586,1,0,0:0:0:70:24_G#1_75_480.wav
402,192,409986,1,0,0:0:0:70:LR_Drum EDge.wav
369,192,410386,1,0,0:0:0:55:24_C3_75_480.wav
28,192,410386,1,0,0:0:0:55:LR_Drum Kick Low.wav
256,192,410386,1,0,0:0:0:55:24_G#1_75_480.wav
199,192,410386,1,0,0:0:0:55:24_D#1_75_1440.wav
109,192,410386,1,0,0:0:0:55:24_G#0_75_480.wav
312,192,410386,1,0,0:0:0:55:24_G#2_75_480.wav
483,192,410386,1,0,0:0:0:55:24_G#3_75_480.wav
426,192,410386,1,0,0:0:0:55:24_D#3_75_480.wav
426,192,410786,1,0,0:0:0:55:24_F3_75_480.wav
329,192,410786,1,0,0:0:0:55:24_F2_75_480.wav
369,192,410786,1,0,0:0:0:55:24_C3_75_480.wav
475,192,410786,1,0,0:0:0:55:24_G#3_75_480.wav
36,192,410786,1,0,0:0:0:55:LR_Drum Hit Clap Sn.wav
256,192,410786,1,0,0:0:0:55:24_C2_75_480.wav
182,192,410786,1,0,0:0:0:55:24_F1_75_480.wav
402,192,411186,1,0,0:0:0:55:LR_Drum EDge.wav
402,192,411386,1,0,0:0:0:55:LR_Drum EDge.wav
329,192,411586,1,0,0:0:0:55:24_F2_75_480.wav
402,192,411586,1,0,0:0:0:55:24_F3_75_480.wav
475,192,411586,1,0,0:0:0:55:24_G#3_75_480.wav
256,192,411586,1,0,0:0:0:55:24_C2_75_480.wav
36,192,411586,1,0,0:0:0:55:LR_Drum Hit Clap Sn.wav
369,192,411586,1,0,0:0:0:55:24_C3_75_480.wav
182,192,411586,1,0,0:0:0:55:24_F1_75_480.wav
329,192,411986,1,0,0:0:0:55:24_C3_75_480.wav
402,192,411986,1,0,0:0:0:55:24_D#3_75_480.wav
475,192,411986,1,0,0:0:0:55:24_G3_75_480.wav
256,192,411986,1,0,0:0:0:55:24_C2_75_480.wav
36,192,411986,1,0,0:0:0:55:LR_Drum Kick Low.wav
109,192,411986,1,0,0:0:0:55:24_C1_75_480.wav
182,192,411986,1,0,0:0:0:55:24_G1_75_480.wav
402,192,412386,1,0,0:0:0:55:LR_Drum EDge.wav
426,192,412786,1,0,0:0:0:55:24_D#3_75_480.wav
329,192,412786,1,0,0:0:0:55:24_C3_75_480.wav
475,192,412786,1,0,0:0:0:55:24_G3_75_480.wav
256,192,412786,1,0,0:0:0:55:24_C2_75_480.wav
36,192,412786,1,0,0:0:0:55:LR_Drum Kick Low.wav
109,192,412786,1,0,0:0:0:55:24_C1_75_480.wav
182,192,412786,1,0,0:0:0:55:24_G1_75_480.wav
402,192,412886,1,0,0:0:0:55:LR_Drum EDge.wav
426,192,412986,1,0,0:0:0:55:LR_Drum EDge.wav
402,192,413086,1,0,0:0:0:55:LR_Drum EDge.wav
402,192,413186,1,0,0:0:0:55:24_F3_75_480.wav
369,192,413186,1,0,0:0:0:55:24_C#3_75_480.wav
312,192,413186,1,0,0:0:0:55:24_G#2_75_480.wav
475,192,413186,1,0,0:0:0:55:24_G#3_75_480.wav
109,192,413186,1,0,0:0:0:55:24_C#1_75_480.wav
36,192,413186,1,0,0:0:0:55:LR_Drum Hit Clap Sn.wav
256,192,413186,1,0,0:0:0:55:24_C#2_75_480.wav
182,192,413186,1,0,0:0:0:55:24_G#1_75_480.wav
402,192,413586,1,0,0:0:0:55:LR_Drum EDge.wav
402,192,413786,1,0,0:0:0:55:LR_Drum EDge.wav
402,192,413986,1,0,0:0:0:55:24_F3_75_480.wav
329,192,413986,1,0,0:0:0:55:24_G#2_75_480.wav
369,192,413986,1,0,0:0:0:55:24_C#3_75_480.wav
475,192,413986,1,0,0:0:0:55:24_G#3_75_480.wav
109,192,413986,1,0,0:0:0:55:24_C#1_75_480.wav
36,192,413986,1,0,0:0:0:55:LR_Drum Hit Clap Sn.wav
256,192,413986,1,0,0:0:0:55:24_C#2_75_480.wav
182,192,413986,1,0,0:0:0:55:24_G#1_75_480.wav
369,192,414386,1,0,0:0:0:55:24_C3_75_480.wav
28,192,414386,1,0,0:0:0:55:LR_Drum Kick Low.wav
256,192,414386,1,0,0:0:0:55:24_G#1_75_480.wav
199,192,414386,1,0,0:0:0:55:24_D#1_75_1440.wav
109,192,414386,1,0,0:0:0:55:24_G#0_75_480.wav
312,192,414386,1,0,0:0:0:55:24_G#2_75_480.wav
483,192,414386,1,0,0:0:0:55:24_G#3_75_480.wav
426,192,414386,1,0,0:0:0:55:24_D#3_75_480.wav
402,192,414786,1,0,0:0:0:55:LR_Drum EDge.wav
312,192,415186,1,0,0:0:0:45:24_G#2_75_480.wav
109,192,415186,1,0,0:0:0:45:24_G#0_75_480.wav
426,192,415186,1,0,0:0:0:45:24_D#3_75_480.wav
483,192,415186,1,0,0:0:0:45:24_G#3_75_480.wav
36,192,415186,1,0,0:0:0:45:LR_Drum Kick Low.wav
369,192,415186,1,0,0:0:0:45:24_C3_75_480.wav
199,192,415186,1,0,0:0:0:45:24_D#1_75_480.wav
256,192,415186,1,0,0:0:0:45:24_G#1_75_480.wav
36,192,415586,1,0,0:0:0:45:LR_Drum Hit Clap Sn.wav
256,192,415586,1,0,0:0:0:45:24_C2_75_480.wav
182,192,415586,1,0,0:0:0:45:24_F1_75_480.wav
475,192,415586,1,0,0:0:0:45:24_G#3_75_480.wav
426,192,415586,1,0,0:0:0:45:24_F3_75_480.wav
329,192,415586,1,0,0:0:0:45:24_F2_75_480.wav
369,192,415586,1,0,0:0:0:45:24_C3_75_480.wav
402,192,415986,1,0,0:0:0:45:LR_Drum EDge.wav
402,192,416186,1,0,0:0:0:45:LR_Drum EDge.wav
36,192,416386,1,0,0:0:0:45:LR_Drum Hit Clap Sn.wav
369,192,416386,1,0,0:0:0:45:24_C3_75_480.wav
182,192,416386,1,0,0:0:0:45:24_F1_75_480.wav
256,192,416386,1,0,0:0:0:45:24_C2_75_480.wav
329,192,416386,1,0,0:0:0:45:24_F2_75_480.wav
402,192,416386,1,0,0:0:0:45:24_F3_75_480.wav
475,192,416386,1,0,0:0:0:45:24_G#3_75_480.wav
36,192,416786,1,0,0:0:0:45:LR_Drum Kick Low.wav
109,192,416786,1,0,0:0:0:45:24_C1_75_480.wav
182,192,416786,1,0,0:0:0:45:24_G1_75_480.wav
256,192,416786,1,0,0:0:0:45:24_C2_75_480.wav
329,192,416786,1,0,0:0:0:45:24_C3_75_480.wav
402,192,416786,1,0,0:0:0:45:24_D#3_75_480.wav
475,192,416786,1,0,0:0:0:45:24_G3_75_480.wav
402,192,417186,1,0,0:0:0:45:LR_Drum EDge.wav
36,192,417586,1,0,0:0:0:45:LR_Drum Kick Low.wav
109,192,417586,1,0,0:0:0:45:24_C1_75_480.wav
182,192,417586,1,0,0:0:0:45:24_G1_75_480.wav
256,192,417586,1,0,0:0:0:45:24_C2_75_480.wav
329,192,417586,1,0,0:0:0:45:24_C3_75_480.wav
402,192,417586,1,0,0:0:0:45:24_D#3_75_480.wav
475,192,417586,1,0,0:0:0:45:24_G3_75_480.wav
402,192,417686,1,0,0:0:0:45:LR_Drum EDge.wav
402,192,417786,1,0,0:0:0:45:LR_Drum EDge.wav
402,192,417886,1,0,0:0:0:45:LR_Drum EDge.wav
36,192,417986,1,0,0:0:0:45:LR_Drum Hit Clap Sn.wav
109,192,417986,1,0,0:0:0:45:24_C#1_75_480.wav
182,192,417986,1,0,0:0:0:45:24_G#1_75_480.wav
256,192,417986,1,0,0:0:0:45:24_C#2_75_480.wav
369,192,417986,1,0,0:0:0:45:24_C#3_75_480.wav
402,192,417986,1,0,0:0:0:45:24_F3_75_480.wav
475,192,417986,1,0,0:0:0:45:24_G#3_75_480.wav
312,192,417986,1,0,0:0:0:45:24_G#2_75_480.wav
402,192,418386,1,0,0:0:0:45:LR_Drum EDge.wav
402,192,418586,1,0,0:0:0:45:LR_Drum EDge.wav
36,192,418786,1,0,0:0:0:45:LR_Drum Hit Clap Sn.wav
109,192,418786,1,0,0:0:0:45:24_C#1_75_480.wav
182,192,418786,1,0,0:0:0:45:24_G#1_75_480.wav
256,192,418786,1,0,0:0:0:45:24_C#2_75_480.wav
329,192,418786,1,0,0:0:0:45:24_G#2_75_480.wav
402,192,418786,1,0,0:0:0:45:24_F3_75_480.wav
475,192,418786,1,0,0:0:0:45:24_G#3_75_480.wav
369,192,418786,1,0,0:0:0:45:24_C#3_75_480.wav
36,192,419186,1,0,0:0:0:45:LR_Drum Kick Low.wav
369,192,419186,1,0,0:0:0:45:24_C3_75_480.wav
256,192,419186,1,0,0:0:0:45:24_G#1_75_480.wav
199,192,419186,1,0,0:0:0:45:24_D#1_75_480.wav
109,192,419186,1,0,0:0:0:45:24_G#0_75_480.wav
312,192,419186,1,0,0:0:0:45:24_G#2_75_480.wav
483,192,419186,1,0,0:0:0:45:24_G#3_75_480.wav
426,192,419186,1,0,0:0:0:45:24_D#3_75_480.wav
402,192,419586,1,0,0:0:0:45:LR_Drum EDge.wav
369,192,419986,1,0,0:0:0:25:24_C3_75_480.wav
36,192,419986,1,0,0:0:0:25:LR_Drum Kick Low.wav
256,192,419986,1,0,0:0:0:25:24_G#1_75_480.wav
199,192,419986,1,0,0:0:0:25:24_D#1_75_480.wav
109,192,419986,1,0,0:0:0:25:24_G#0_75_480.wav
312,192,419986,1,0,0:0:0:25:24_G#2_75_480.wav
483,192,419986,1,0,0:0:0:25:24_G#3_75_480.wav
426,192,419986,1,0,0:0:0:25:24_D#3_75_480.wav
426,192,420386,1,0,0:0:0:25:24_F3_75_480.wav
329,192,420386,1,0,0:0:0:25:24_F2_75_480.wav
369,192,420386,1,0,0:0:0:25:24_C3_75_480.wav
475,192,420386,1,0,0:0:0:25:24_G#3_75_480.wav
36,192,420386,1,0,0:0:0:25:LR_Drum Hit Clap Sn.wav
256,192,420386,1,0,0:0:0:25:24_C2_75_480.wav
182,192,420386,1,0,0:0:0:25:24_F1_75_480.wav
402,192,420786,1,0,0:0:0:25:LR_Drum EDge.wav
402,192,420986,1,0,0:0:0:25:LR_Drum EDge.wav
329,192,421186,1,0,0:0:0:25:24_F2_75_480.wav
402,192,421186,1,0,0:0:0:25:24_F3_75_480.wav
475,192,421186,1,0,0:0:0:25:24_G#3_75_480.wav
256,192,421186,1,0,0:0:0:25:24_C2_75_480.wav
36,192,421186,1,0,0:0:0:25:LR_Drum Hit Clap Sn.wav
369,192,421186,1,0,0:0:0:25:24_C3_75_480.wav
182,192,421186,1,0,0:0:0:25:24_F1_75_480.wav
329,192,421586,1,0,0:0:0:25:24_C3_75_480.wav
402,192,421586,1,0,0:0:0:25:24_D#3_75_480.wav
475,192,421586,1,0,0:0:0:25:24_G3_75_480.wav
256,192,421586,1,0,0:0:0:25:24_C2_75_480.wav
36,192,421586,1,0,0:0:0:25:LR_Drum Kick Low.wav
109,192,421586,1,0,0:0:0:25:24_C1_75_480.wav
182,192,421586,1,0,0:0:0:25:24_G1_75_480.wav
402,192,421986,1,0,0:0:0:25:LR_Drum EDge.wav
329,192,422386,1,0,0:0:0:25:24_C3_75_480.wav
402,192,422386,1,0,0:0:0:25:24_D#3_75_480.wav
475,192,422386,1,0,0:0:0:25:24_G3_75_480.wav
256,192,422386,1,0,0:0:0:25:24_C2_75_480.wav
36,192,422386,1,0,0:0:0:25:LR_Drum Kick Low.wav
109,192,422386,1,0,0:0:0:25:24_C1_75_480.wav
182,192,422386,1,0,0:0:0:25:24_G1_75_480.wav
402,192,422486,1,0,0:0:0:25:LR_Drum EDge.wav
402,192,422586,1,0,0:0:0:25:LR_Drum EDge.wav
402,192,422686,1,0,0:0:0:25:LR_Drum EDge.wav
402,192,422786,1,0,0:0:0:25:24_F3_75_480.wav
369,192,422786,1,0,0:0:0:25:24_C#3_75_480.wav
312,192,422786,1,0,0:0:0:25:24_G#2_75_480.wav
475,192,422786,1,0,0:0:0:25:24_G#3_75_480.wav
109,192,422786,1,0,0:0:0:25:24_C#1_75_480.wav
36,192,422786,1,0,0:0:0:25:LR_Drum Hit Clap Sn.wav
256,192,422786,1,0,0:0:0:25:24_C#2_75_480.wav
182,192,422786,1,0,0:0:0:25:24_G#1_75_480.wav
402,192,423186,1,0,0:0:0:25:LR_Drum EDge.wav
402,192,423386,1,0,0:0:0:25:LR_Drum EDge.wav
402,192,423586,1,0,0:0:0:25:24_F3_75_480.wav
329,192,423586,1,0,0:0:0:25:24_G#2_75_480.wav
369,192,423586,1,0,0:0:0:25:24_C#3_75_480.wav
475,192,423586,1,0,0:0:0:25:24_G#3_75_480.wav
109,192,423586,1,0,0:0:0:25:24_C#1_75_480.wav
36,192,423586,1,0,0:0:0:25:LR_Drum Hit Clap Sn.wav
256,192,423586,1,0,0:0:0:25:24_C#2_75_480.wav
182,192,423586,1,0,0:0:0:25:24_G#1_75_480.wav
312,192,423986,1,0,0:0:0:25:24_G#2_75_480.wav
109,192,423986,1,0,0:0:0:25:24_G#0_75_480.wav
426,192,423986,1,0,0:0:0:25:24_D#3_75_480.wav
483,192,423986,1,0,0:0:0:25:24_G#3_75_480.wav
369,192,423986,1,0,0:0:0:25:24_C3_75_480.wav
36,192,423986,1,0,0:0:0:25:LR_Drum Kick Low.wav
199,192,423986,1,0,0:0:0:25:24_D#1_75_480.wav
256,192,423986,1,0,0:0:0:25:24_G#1_75_480.wav
402,192,424386,1,0,0:0:0:25:LR_Drum EDge.wav
