osu file format v14

[General]
AudioFilename: audio.mp3
AudioLeadIn: 0
PreviewTime: -1
Countdown: 0
SampleSet: Normal
StackLeniency: 0.7
Mode: 0
LetterboxInBreaks: 0
WidescreenStoryboard: 0

[Editor]
DistanceSpacing: 1.5
BeatDivisor: 4
GridSize: 16
TimelineZoom: 1

[Metadata]
Title:YoiYoi Kokon
TitleUnicode:宵々古今
Artist:Reol
ArtistUnicode:Reol
Creator:Synk1337
Version:Extra
Source:
Tags:
BeatmapID:1082589
BeatmapSetID:509049

[Difficulty]
HPDrainRate:7
CircleSize:4.5
OverallDifficulty:7.5
ApproachRate:10
SliderMultiplier:1.4
SliderTickRate:1

[Events]
//Background and Video events
0,0,"CsYvaMKVMAAmQ5n.jpg",0,0
//Break Periods
//Storyboard Layer 0 (Background)
//Storyboard Layer 1 (Fail)
//Storyboard Layer 2 (Pass)
//Storyboard Layer 3 (Foreground)
//Storyboard Sound Samples

[TimingPoints]
11254,400,4,1,0,100,1,0

[HitObjects]
224,176,6854,5,0,0:0:0:0:
224,176,6954,1,0,0:0:0:0:
256,176,8054,1,0,0:0:0:0:
400,256,8254,1,0,0:0:0:0:
400,256,8354,1,0,0:0:0:0:
400,256,8454,1,0,0:0:0:0:
304,272,8654,1,0,0:0:0:0:
304,160,8854,1,0,0:0:0:0:
208,192,9054,1,0,0:0:0:0:
320,192,9254,1,0,0:0:0:0:
240,128,9454,1,0,0:0:0:0:
272,192,9654,1,0,0:0:0:0:
176,160,9854,1,0,0:0:0:0:
208,64,10054,1,0,0:0:0:0:
304,32,10254,1,0,0:0:0:0:
320,48,10354,1,0,0:0:0:0:
336,64,10454,1,0,0:0:0:0:
336,176,10654,1,0,0:0:0:0:
416,112,10854,1,0,0:0:0:0:
416,224,11054,1,0,0:0:0:0:
416,48,11254,1,0,0:0:0:0:
352,128,11454,1,0,0:0:0:0:
336,144,11554,1,0,0:0:0:0:
320,160,11654,1,0,0:0:0:0:
256,80,11854,1,0,0:0:0:0:
256,192,12054,1,0,0:0:0:0:
208,128,12254,1,0,0:0:0:0:
320,192,12454,1,0,0:0:0:0:
160,128,12654,1,0,0:0:0:0:
160,240,12854,1,0,0:0:0:0:
224,144,13054,1,0,0:0:0:0:
224,240,13254,1,0,0:0:0:0:
288,176,13454,1,0,0:0:0:0:
304,160,13554,1,0,0:0:0:0:
320,144,13654,1,0,0:0:0:0:
256,208,13854,1,0,0:0:0:0:
256,96,14054,1,0,0:0:0:0:
144,96,14254,1,0,0:0:0:0:
352,192,14454,1,0,0:0:0:0:
240,192,14654,1,0,0:0:0:0:
224,192,14754,1,0,0:0:0:0:
208,192,14854,1,0,0:0:0:0:
192,192,14954,1,0,0:0:0:0:
176,192,15054,1,0,0:0:0:0:
368,96,15254,1,0,0:0:0:0:
272,64,15454,1,0,0:0:0:0:
272,176,15654,1,0,0:0:0:0:
320,80,15854,1,0,0:0:0:0:
320,272,16054,1,0,0:0:0:0:
320,80,16254,1,0,0:0:0:0:
272,176,16454,1,0,0:0:0:0:
384,176,16654,1,0,0:0:0:0:
112,176,16854,1,0,0:0:0:0:
192,112,17054,1,0,0:0:0:0:
192,224,17254,1,0,0:0:0:0:
112,144,17454,1,0,0:0:0:0:
336,208,17654,1,0,0:0:0:0:
272,128,17854,1,0,0:0:0:0:
464,208,18054,1,0,0:0:0:0:
400,128,18254,1,0,0:0:0:0:
352,320,18454,1,0,0:0:0:0:
272,240,18654,1,0,0:0:0:0:
448,192,18854,1,0,0:0:0:0:
448,304,19054,1,0,0:0:0:0:
272,128,19254,1,0,0:0:0:0:
272,288,19454,2,0,L|272:368,1,70
144,160,19854,1,0,0:0:0:0:
368,112,20054,1,0,0:0:0:0:
384,128,20154,1,0,0:0:0:0:
400,144,20254,1,0,0:0:0:0:
416,160,20354,1,0,0:0:0:0:
416,160,20454,2,0,P|432:192|352:240,1,140
272,192,21054,1,0,0:0:0:0:
256,96,21254,2,0,P|208:64|128:96,1,140
