osu file format v14

[General]
AudioFilename: audio.mp3
AudioLeadIn: 0
PreviewTime: 104654
Countdown: 1
SampleSet: Normal
StackLeniency: 0.7
Mode: 1
LetterboxInBreaks: 0
WidescreenStoryboard: 0

[Editor]
Bookmarks: 650,13450,39050,104654
DistanceSpacing: 2
BeatDivisor: 4
GridSize: 8
TimelineZoom: 1

[Metadata]
Title:YoiYoi Kokon
TitleUnicode:宵々古今
Artist:Reol
ArtistUnicode:れをる
Creator:Kama
Version:Insert A Taiko Diff Name Here
Source:
Tags:
BeatmapID:2121006
BeatmapSetID:1013336

[Difficulty]
HPDrainRate:6
CircleSize:2
OverallDifficulty:8
ApproachRate:9
SliderMultiplier:1.6
SliderTickRate:1

[Events]
//Background and Video events
0,0,"2fd495f4e5a3d9aa3ea86e0786396d533d80f64e.jpg",0,0
//Break Periods
//Storyboard Layer 0 (Background)
//Storyboard Layer 1 (Fail)
//Storyboard Layer 2 (Pass)
//Storyboard Layer 3 (Foreground)
//Storyboard Sound Samples

[TimingPoints]
654,400,4,1,0,100,1,0
51854,-100,4,1,0,100,0,1
77454,-100,4,1,0,100,0,0
78654,-100,4,1,0,100,0,1
79054,-100,4,1,0,100,0,0
91454,-100,4,1,0,100,0,1
91854,-100,4,1,0,100,0,0
130254,-100,4,1,0,100,0,1
155854,-100,4,1,0,100,0,0
171854,-111.111111111111,4,1,0,100,0,1
173454,-105.263157894737,4,1,0,100,0,1
175054,-100,4,1,0,100,0,1
176654,-95.2380952380952,4,1,0,100,0,1
177054,-90.9090909090909,4,1,0,100,0,1
177454,-86.9565217391304,4,1,0,100,0,1
177854,-83.3333333333333,4,1,0,100,0,1
178254,-100,4,1,0,100,0,1
179854,-105.263157894737,4,1,0,100,0,1
181454,-100,4,1,0,100,0,1
183054,-95.2380952380952,4,1,0,100,0,1
183454,-90.9090909090909,4,1,0,100,0,1
183854,-86.9565217391304,4,1,0,100,0,1
184254,-83.3333333333333,4,1,0,100,0,1
184654,-100,4,1,0,100,0,0
199054,-100,4,1,0,100,0,1
224654,-100,4,1,0,100,0,0
227454,-100,4,1,0,100,0,1
227854,-100,4,1,0,100,0,0
240254,-100,4,1,0,100,0,1
240654,-100,4,1,0,100,0,0

[HitObjects]
256,192,654,5,8,0:0:0:0:
256,192,854,1,0,0:0:0:0:
256,192,954,1,0,0:0:0:0:
256,192,1054,1,8,0:0:0:0:
256,192,1254,1,0,0:0:0:0:
256,192,1454,1,8,0:0:0:0:
256,192,1654,1,0,0:0:0:0:
256,192,1854,1,0,0:0:0:0:
256,192,2054,1,0,0:0:0:0:
256,192,2254,1,8,0:0:0:0:
256,192,2454,1,0,0:0:0:0:
256,192,2654,1,0,0:0:0:0:
256,192,2854,1,8,0:0:0:0:
256,192,2954,1,8,0:0:0:0:
256,192,3054,1,0,0:0:0:0:
256,192,3254,1,0,0:0:0:0:
256,192,3454,1,8,0:0:0:0:
256,192,3654,1,0,0:0:0:0:
256,192,3854,1,0,0:0:0:0:
256,192,4054,1,8,0:0:0:0:
256,192,4154,1,0,0:0:0:0:
256,192,4254,1,8,0:0:0:0:
256,192,4454,1,0,0:0:0:0:
256,192,4654,1,8,0:0:0:0:
256,192,4854,1,0,0:0:0:0:
256,192,5054,1,0,0:0:0:0:
256,192,5254,1,0,0:0:0:0:
256,192,5454,1,8,0:0:0:0:
256,192,5654,1,0,0:0:0:0:
256,192,5754,1,0,0:0:0:0:
256,192,5854,1,0,0:0:0:0:
256,192,6054,1,8,0:0:0:0:
256,192,6154,1,8,0:0:0:0:
256,192,6254,1,0,0:0:0:0:
256,192,6454,1,8,0:0:0:0:
256,192,6654,1,0,0:0:0:0:
256,192,6854,1,8,0:0:0:0:
256,192,6954,1,8,0:0:0:0:
256,192,7054,1,4,0:0:0:0:
256,192,7854,1,4,0:0:0:0:
256,192,8654,1,4,0:0:0:0:
256,192,8854,1,12,0:0:0:0:
256,192,9454,1,4,0:0:0:0:
256,192,10054,1,8,0:0:0:0:
256,192,10254,1,4,0:0:0:0:
256,192,10654,1,0,0:0:0:0:
256,192,11054,1,4,0:0:0:0:
256,192,11454,1,0,0:0:0:0:
256,192,11854,1,4,0:0:0:0:
256,192,12054,1,12,0:0:0:0:
256,192,12454,1,8,0:0:0:0:
256,192,12654,1,0,0:0:0:0:
256,192,12854,1,0,0:0:0:0:
256,192,12954,1,0,0:0:0:0:
256,192,13054,1,8,0:0:0:0:
256,192,13254,1,8,0:0:0:0:
256,192,13354,1,8,0:0:0:0:
256,192,13454,1,0,0:0:0:0:
256,192,13754,1,0,0:0:0:0:
256,192,13854,1,8,0:0:0:0:
256,192,14054,1,0,0:0:0:0:
256,192,14254,1,0,0:0:0:0:
256,192,14454,1,0,0:0:0:0:
256,192,14654,1,8,0:0:0:0:
256,192,14854,1,0,0:0:0:0:
256,192,15054,1,0,0:0:0:0:
256,192,15254,1,0,0:0:0:0:
256,192,15454,1,8,0:0:0:0:
256,192,15654,1,0,0:0:0:0:
256,192,15754,1,0,0:0:0:0:
256,192,15854,1,8,0:0:0:0:
256,192,16054,1,0,0:0:0:0:
256,192,16254,1,8,0:0:0:0:
256,192,16454,1,0,0:0:0:0:
256,192,16654,1,0,0:0:0:0:
256,192,16854,1,0,0:0:0:0:
256,192,17054,1,8,0:0:0:0:
256,192,17254,1,0,0:0:0:0:
256,192,17354,1,8,0:0:0:0:
256,192,17454,1,0,0:0:0:0:
256,192,17654,1,0,0:0:0:0:
256,192,17854,1,0,0:0:0:0:
256,192,18054,1,0,0:0:0:0:
256,192,18254,1,8,0:0:0:0:
256,192,18454,1,0,0:0:0:0:
256,192,18654,1,8,0:0:0:0:
256,192,18854,1,0,0:0:0:0:
256,192,19054,1,8,0:0:0:0:
256,192,19254,1,8,0:0:0:0:
256,192,19354,1,0,0:0:0:0:
256,192,19454,1,8,0:0:0:0:
256,192,19654,1,0,0:0:0:0:
256,192,19854,1,8,0:0:0:0:
256,192,20054,1,0,0:0:0:0:
256,192,20254,1,8,0:0:0:0:
256,192,20454,1,0,0:0:0:0:
256,192,20654,1,0,0:0:0:0:
256,192,20854,1,0,0:0:0:0:
256,192,21054,1,8,0:0:0:0:
256,192,21254,1,8,0:0:0:0:
256,192,21454,1,8,0:0:0:0:
256,192,21654,1,0,0:0:0:0:
256,192,21854,1,0,0:0:0:0:
256,192,22054,1,8,0:0:0:0:
256,192,22154,1,8,0:0:0:0:
256,192,22254,1,0,0:0:0:0:
256,192,22454,1,0,0:0:0:0:
256,192,22654,1,8,0:0:0:0:
256,192,22854,1,0,0:0:0:0:
256,192,23054,1,8,0:0:0:0:
256,192,23254,1,8,0:0:0:0:
256,192,23454,1,0,0:0:0:0:
256,192,23654,1,8,0:0:0:0:
256,192,23754,1,8,0:0:0:0:
256,192,23854,1,8,0:0:0:0:
256,192,24054,1,0,0:0:0:0:
256,192,24254,1,0,0:0:0:0:
256,192,24454,1,2,0:0:0:0:
256,192,24554,1,0,0:0:0:0:
256,192,24654,1,8,0:0:0:0:
256,192,25054,1,8,0:0:0:0:
256,192,25454,1,8,0:0:0:0:
256,192,25754,1,0,0:0:0:0:
256,192,25854,1,12,0:0:0:0:
256,192,26254,1,0,0:0:0:0:
256,192,26454,1,0,0:0:0:0:
256,192,26554,1,0,0:0:0:0:
256,192,26654,1,8,0:0:0:0:
256,192,26854,1,0,0:0:0:0:
256,192,27054,1,0,0:0:0:0:
256,192,27254,1,0,0:0:0:0:
256,192,27454,1,8,0:0:0:0:
256,192,27654,1,0,0:0:0:0:
256,192,27854,1,8,0:0:0:0:
256,192,28054,1,8,0:0:0:0:
256,192,28154,1,8,0:0:0:0:
256,192,28254,1,0,0:0:0:0:
256,192,28454,1,8,0:0:0:0:
256,192,28554,1,8,0:0:0:0:
256,192,28654,1,0,0:0:0:0:
256,192,28854,1,0,0:0:0:0:
256,192,28954,1,0,0:0:0:0:
256,192,29054,1,8,0:0:0:0:
256,192,29254,1,0,0:0:0:0:
256,192,29454,1,8,0:0:0:0:
256,192,29654,1,0,0:0:0:0:
256,192,29754,1,0,0:0:0:0:
256,192,29854,1,8,0:0:0:0:
256,192,30054,1,0,0:0:0:0:
256,192,30254,1,8,0:0:0:0:
256,192,30454,1,0,0:0:0:0:
256,192,30654,1,8,0:0:0:0:
256,192,30854,1,8,0:0:0:0:
256,192,31054,1,0,0:0:0:0:
256,192,31254,1,0,0:0:0:0:
256,192,31354,1,0,0:0:0:0:
256,192,31454,1,8,0:0:0:0:
256,192,31654,1,8,0:0:0:0:
256,192,32054,1,8,0:0:0:0:
256,192,32154,1,8,0:0:0:0:
256,192,32454,1,0,0:0:0:0:
256,192,32654,1,8,0:0:0:0:
256,192,32854,1,0,0:0:0:0:
256,192,32954,1,0,0:0:0:0:
256,192,33054,1,8,0:0:0:0:
256,192,33254,1,0,0:0:0:0:
256,192,33454,1,0,0:0:0:0:
256,192,33654,1,0,0:0:0:0:
256,192,33854,1,8,0:0:0:0:
256,192,34054,1,8,0:0:0:0:
256,192,34254,1,2,0:0:0:0:
256,192,34454,1,0,0:0:0:0:
256,192,34854,1,0,0:0:0:0:
256,192,35054,1,0,0:0:0:0:
256,192,35254,1,0,0:0:0:0:
256,192,35354,1,0,0:0:0:0:
256,192,35454,1,8,0:0:0:0:
256,192,35654,1,0,0:0:0:0:
256,192,35854,1,8,0:0:0:0:
256,192,36054,1,0,0:0:0:0:
256,192,36254,1,0,0:0:0:0:
256,192,36454,1,0,0:0:0:0:
256,192,36654,1,8,0:0:0:0:
256,192,36754,1,0,0:0:0:0:
256,192,36854,1,8,0:0:0:0:
256,192,37054,1,0,0:0:0:0:
256,192,37254,1,8,0:0:0:0:
256,192,37654,1,0,0:0:0:0:
256,192,37854,1,8,0:0:0:0:
256,192,38054,1,0,0:0:0:0:
256,192,38254,1,8,0:0:0:0:
256,192,38654,1,8,0:0:0:0:
256,192,39054,1,4,0:0:0:0:
256,192,39854,1,4,0:0:0:0:
256,192,40654,1,4,0:0:0:0:
256,192,40854,1,12,0:0:0:0:
256,192,41454,1,4,0:0:0:0:
256,192,42054,1,12,0:0:0:0:
256,192,42254,1,4,0:0:0:0:
256,192,43054,1,4,0:0:0:0:
256,192,43854,1,4,0:0:0:0:
256,192,44054,1,12,0:0:0:0:
256,192,44454,1,12,0:0:0:0:
256,192,44654,1,4,0:0:0:0:
256,192,44854,1,0,0:0:0:0:
256,192,44954,1,0,0:0:0:0:
256,192,45054,1,12,0:0:0:0:
256,192,45254,1,8,0:0:0:0:
256,192,45454,1,4,0:0:0:0:
256,192,46254,1,4,0:0:0:0:
256,192,47054,1,4,0:0:0:0:
256,192,47254,1,12,0:0:0:0:
256,192,47854,1,4,0:0:0:0:
256,192,48654,1,12,0:0:0:0:
256,192,49054,1,0,0:0:0:0:
256,192,49454,1,12,0:0:0:0:
256,192,49854,1,0,0:0:0:0:
256,192,50254,1,8,0:0:0:0:
256,192,50354,1,8,0:0:0:0:
256,192,50454,1,0,0:0:0:0:
256,192,50554,1,0,0:0:0:0:
256,192,50654,1,8,0:0:0:0:
256,192,50754,1,8,0:0:0:0:
256,192,50854,1,8,0:0:0:0:
256,192,50954,1,0,0:0:0:0:
256,192,51054,1,0,0:0:0:0:
256,192,51254,1,8,0:0:0:0:
256,192,51654,1,8,0:0:0:0:
256,192,51854,1,12,0:0:0:0:
256,192,52054,1,0,0:0:0:0:
256,192,52254,1,0,0:0:0:0:
256,192,52454,1,8,0:0:0:0:
256,192,52654,1,0,0:0:0:0:
256,192,52854,1,8,0:0:0:0:
256,192,52954,1,8,0:0:0:0:
256,192,53054,1,0,0:0:0:0:
256,192,53254,1,0,0:0:0:0:
256,192,53454,1,8,0:0:0:0:
256,192,53654,1,8,0:0:0:0:
256,192,53854,1,0,0:0:0:0:
256,192,54054,1,8,0:0:0:0:
256,192,54254,1,0,0:0:0:0:
256,192,54454,1,8,0:0:0:0:
256,192,54554,1,8,0:0:0:0:
256,192,54654,1,0,0:0:0:0:
256,192,54854,1,0,0:0:0:0:
256,192,55054,1,8,0:0:0:0:
256,192,55254,1,8,0:0:0:0:
256,192,55454,1,0,0:0:0:0:
256,192,55654,1,0,0:0:0:0:
256,192,55854,1,8,0:0:0:0:
256,192,56054,1,8,0:0:0:0:
256,192,56254,1,0,0:0:0:0:
256,192,56454,1,0,0:0:0:0:
256,192,56654,1,8,0:0:0:0:
256,192,56854,1,0,0:0:0:0:
256,192,56954,1,0,0:0:0:0:
256,192,57054,1,8,0:0:0:0:
256,192,57254,1,8,0:0:0:0:
256,192,57654,1,0,0:0:0:0:
256,192,57754,1,0,0:0:0:0:
256,192,57854,1,8,0:0:0:0:
256,192,58054,1,8,0:0:0:0:
256,192,58254,1,0,0:0:0:0:
256,192,58454,1,8,0:0:0:0:
256,192,58654,1,8,0:0:0:0:
256,192,58854,1,0,0:0:0:0:
256,192,59054,1,0,0:0:0:0:
256,192,59254,1,8,0:0:0:0:
256,192,59354,1,0,0:0:0:0:
256,192,59454,1,8,0:0:0:0:
256,192,59654,1,0,0:0:0:0:
256,192,59854,1,8,0:0:0:0:
256,192,59954,1,8,0:0:0:0:
256,192,60054,1,0,0:0:0:0:
256,192,60254,1,8,0:0:0:0:
256,192,60354,1,0,0:0:0:0:
256,192,60454,1,8,0:0:0:0:
256,192,60654,1,0,0:0:0:0:
256,192,60954,1,0,0:0:0:0:
256,192,61054,1,8,0:0:0:0:
256,192,61254,1,0,0:0:0:0:
256,192,61454,1,8,0:0:0:0:
256,192,61554,1,0,0:0:0:0:
256,192,61754,1,0,0:0:0:0:
256,192,61854,1,8,0:0:0:0:
256,192,62054,1,0,0:0:0:0:
256,192,62154,1,0,0:0:0:0:
256,192,62254,1,8,0:0:0:0:
256,192,62454,1,8,0:0:0:0:
256,192,62654,1,0,0:0:0:0:
256,192,62854,1,8,0:0:0:0:
256,192,63054,1,4,0:0:0:0:
256,192,63254,1,12,0:0:0:0:
256,192,63454,1,4,0:0:0:0:
256,192,63654,1,12,0:0:0:0:
256,192,63854,1,4,0:0:0:0:
256,192,64054,1,12,0:0:0:0:
256,192,64254,1,4,0:0:0:0:
256,192,64454,1,12,0:0:0:0:
256,192,64854,1,8,0:0:0:0:
256,192,64954,1,0,0:0:0:0:
256,192,65054,1,0,0:0:0:0:
256,192,65254,1,0,0:0:0:0:
256,192,65454,1,8,0:0:0:0:
256,192,65654,1,0,0:0:0:0:
256,192,65854,1,8,0:0:0:0:
256,192,66054,1,0,0:0:0:0:
256,192,66254,1,8,0:0:0:0:
256,192,66454,1,0,0:0:0:0:
256,192,66654,1,0,0:0:0:0:
256,192,66854,1,8,0:0:0:0:
256,192,66954,1,8,0:0:0:0:
256,192,67054,1,0,0:0:0:0:
256,192,67254,1,0,0:0:0:0:
256,192,67354,1,0,0:0:0:0:
256,192,67454,1,8,0:0:0:0:
256,192,67654,1,0,0:0:0:0:
256,192,67854,1,8,0:0:0:0:
256,192,68054,1,8,0:0:0:0:
256,192,68254,1,0,0:0:0:0:
256,192,68454,1,8,0:0:0:0:
256,192,68554,1,0,0:0:0:0:
256,192,68654,1,8,0:0:0:0:
256,192,68854,1,0,0:0:0:0:
256,192,68954,1,8,0:0:0:0:
256,192,69054,1,8,0:0:0:0:
256,192,69254,1,0,0:0:0:0:
256,192,69454,1,8,0:0:0:0:
256,192,69654,1,8,0:0:0:0:
256,192,69754,1,0,0:0:0:0:
256,192,69854,1,0,0:0:0:0:
256,192,70054,1,8,0:0:0:0:
256,192,70254,1,8,0:0:0:0:
256,192,70454,1,0,0:0:0:0:
256,192,70654,1,8,0:0:0:0:
256,192,70854,1,0,0:0:0:0:
256,192,71054,1,12,0:0:0:0:
256,192,71254,1,0,0:0:0:0:
256,192,71354,1,0,0:0:0:0:
256,192,71454,1,8,0:0:0:0:
256,192,71654,1,8,0:0:0:0:
256,192,71854,1,8,0:0:0:0:
256,192,72054,1,0,0:0:0:0:
256,192,72254,1,8,0:0:0:0:
256,192,72454,1,0,0:0:0:0:
256,192,72654,1,8,0:0:0:0:
256,192,72854,1,0,0:0:0:0:
256,192,72954,1,0,0:0:0:0:
256,192,73054,1,8,0:0:0:0:
256,192,73254,1,0,0:0:0:0:
256,192,73454,1,0,0:0:0:0:
256,192,73654,1,8,0:0:0:0:
256,192,73854,1,8,0:0:0:0:
256,192,74054,1,0,0:0:0:0:
256,192,74254,1,8,0:0:0:0:
256,192,74454,1,0,0:0:0:0:
256,192,74654,1,8,0:0:0:0:
256,192,74854,1,0,0:0:0:0:
256,192,74954,1,0,0:0:0:0:
256,192,75054,1,8,0:0:0:0:
256,192,75254,1,0,0:0:0:0:
256,192,75454,1,8,0:0:0:0:
256,192,75654,1,0,0:0:0:0:
256,192,75854,1,0,0:0:0:0:
256,192,76154,1,8,0:0:0:0:
256,192,76254,1,0,0:0:0:0:
256,192,76454,1,0,0:0:0:0:
256,192,76654,1,8,0:0:0:0:
256,192,76954,1,0,0:0:0:0:
256,192,77054,1,8,0:0:0:0:
256,192,77254,1,8,0:0:0:0:
256,192,77454,1,0,0:0:0:0:
256,192,77854,1,8,0:0:0:0:
256,192,78054,1,8,0:0:0:0:
256,192,78154,1,0,0:0:0:0:
256,192,78254,1,8,0:0:0:0:
256,192,78454,1,0,0:0:0:0:
256,192,78654,1,12,0:0:0:0:
256,192,79054,1,4,0:0:0:0:
256,192,79254,1,0,0:0:0:0:
256,192,79454,1,8,0:0:0:0:
256,192,79754,1,8,0:0:0:0:
256,192,79854,1,0,0:0:0:0:
256,192,80054,1,0,0:0:0:0:
256,192,80254,1,8,0:0:0:0:
256,192,80454,1,0,0:0:0:0:
256,192,80654,1,0,0:0:0:0:
256,192,81054,1,8,0:0:0:0:
256,192,81254,1,0,0:0:0:0:
256,192,81454,1,0,0:0:0:0:
256,192,81654,1,0,0:0:0:0:
256,192,81854,1,8,0:0:0:0:
256,192,82054,1,0,0:0:0:0:
256,192,82254,1,0,0:0:0:0:
256,192,82454,1,0,0:0:0:0:
256,192,82654,1,8,0:0:0:0:
256,192,82854,1,0,0:0:0:0:
256,192,82954,1,8,0:0:0:0:
256,192,83054,1,0,0:0:0:0:
256,192,83254,1,0,0:0:0:0:
256,192,83454,1,0,0:0:0:0:
256,192,83854,1,8,0:0:0:0:
256,192,84254,1,0,0:0:0:0:
256,192,84454,1,0,0:0:0:0:
256,192,84654,1,8,0:0:0:0:
256,192,84954,1,0,0:0:0:0:
256,192,85054,1,8,0:0:0:0:
256,192,85254,1,8,0:0:0:0:
256,192,85454,1,0,0:0:0:0:
256,192,85554,1,0,0:0:0:0:
256,192,85654,1,0,0:0:0:0:
256,192,85854,1,8,0:0:0:0:
256,192,86154,1,8,0:0:0:0:
256,192,86254,1,0,0:0:0:0:
256,192,86454,1,0,0:0:0:0:
256,192,86654,1,8,0:0:0:0:
256,192,86854,1,8,0:0:0:0:
256,192,87054,1,0,0:0:0:0:
256,192,87254,1,0,0:0:0:0:
256,192,87454,1,8,0:0:0:0:
256,192,87754,1,8,0:0:0:0:
256,192,87854,1,0,0:0:0:0:
256,192,88054,1,0,0:0:0:0:
256,192,88254,1,8,0:0:0:0:
256,192,88454,1,8,0:0:0:0:
256,192,88654,1,0,0:0:0:0:
256,192,88854,1,0,0:0:0:0:
256,192,88954,1,8,0:0:0:0:
256,192,89054,1,8,0:0:0:0:
256,192,89254,1,8,0:0:0:0:
256,192,89354,1,8,0:0:0:0:
256,192,89454,1,0,0:0:0:0:
256,192,89654,1,0,0:0:0:0:
256,192,89854,1,0,0:0:0:0:
256,192,90054,1,0,0:0:0:0:
256,192,90254,1,8,0:0:0:0:
256,192,90454,1,0,0:0:0:0:
256,192,90554,1,8,0:0:0:0:
256,192,90654,1,0,0:0:0:0:
256,192,90854,1,0,0:0:0:0:
256,192,91054,1,8,0:0:0:0:
256,192,91154,1,0,0:0:0:0:
256,192,91254,1,8,0:0:0:0:
256,192,91354,1,0,0:0:0:0:
256,192,91454,1,8,0:0:0:0:
256,192,91654,1,0,0:0:0:0:
256,192,91854,1,12,0:0:0:0:
256,192,92054,1,0,0:0:0:0:
256,192,92254,1,0,0:0:0:0:
256,192,92454,1,0,0:0:0:0:
256,192,92654,1,8,0:0:0:0:
256,192,92854,1,8,0:0:0:0:
256,192,93054,1,0,0:0:0:0:
256,192,93254,1,0,0:0:0:0:
256,192,93454,1,8,0:0:0:0:
256,192,93654,1,0,0:0:0:0:
256,192,93754,1,0,0:0:0:0:
256,192,93854,1,8,0:0:0:0:
256,192,94054,1,0,0:0:0:0:
256,192,94254,1,8,0:0:0:0:
256,192,94454,1,8,0:0:0:0:
256,192,94654,1,0,0:0:0:0:
256,192,94854,1,0,0:0:0:0:
256,192,95054,1,8,0:0:0:0:
256,192,95354,1,0,0:0:0:0:
256,192,95454,1,8,0:0:0:0:
256,192,95654,1,0,0:0:0:0:
256,192,95854,1,8,0:0:0:0:
256,192,96054,1,8,0:0:0:0:
256,192,96154,1,0,0:0:0:0:
256,192,96254,1,8,0:0:0:0:
256,192,96454,1,0,0:0:0:0:
256,192,96654,1,0,0:0:0:0:
256,192,97054,1,0,0:0:0:0:
256,192,97354,1,0,0:0:0:0:
256,192,97454,1,8,0:0:0:0:
256,192,97654,1,0,0:0:0:0:
256,192,97854,1,8,0:0:0:0:
256,192,97954,1,0,0:0:0:0:
256,192,98054,1,0,0:0:0:0:
256,192,98154,1,8,0:0:0:0:
256,192,98254,1,8,0:0:0:0:
256,192,98454,1,0,0:0:0:0:
256,192,98654,1,8,0:0:0:0:
256,192,98854,1,0,0:0:0:0:
256,192,98954,1,0,0:0:0:0:
256,192,99054,1,0,0:0:0:0:
256,192,99254,1,0,0:0:0:0:
256,192,99454,1,8,0:0:0:0:
256,192,99854,1,0,0:0:0:0:
256,192,100054,1,8,0:0:0:0:
256,192,100254,1,8,0:0:0:0:
256,192,100454,1,0,0:0:0:0:
256,192,100554,1,0,0:0:0:0:
256,192,100654,1,8,0:0:0:0:
256,192,100854,1,0,0:0:0:0:
256,192,101054,1,8,0:0:0:0:
256,192,101454,1,0,0:0:0:0:
256,192,101654,1,0,0:0:0:0:
256,192,101754,1,0,0:0:0:0:
256,192,101854,1,8,0:0:0:0:
256,192,102054,1,0,0:0:0:0:
256,192,102254,1,8,0:0:0:0:
256,192,102454,1,8,0:0:0:0:
256,192,102654,1,0,0:0:0:0:
256,192,102854,1,0,0:0:0:0:
256,192,103054,1,8,0:0:0:0:
256,192,103354,1,0,0:0:0:0:
256,192,103454,1,8,0:0:0:0:
256,192,103654,1,0,0:0:0:0:
256,192,103854,1,8,0:0:0:0:
256,192,104154,1,0,0:0:0:0:
256,192,104254,1,8,0:0:0:0:
256,192,104454,1,8,0:0:0:0:
256,192,104554,1,0,0:0:0:0:
256,192,104654,1,4,0:0:0:0:
256,192,104854,1,0,0:0:0:0:
256,192,105054,1,8,0:0:0:0:
256,192,105254,1,0,0:0:0:0:
256,192,105454,1,0,0:0:0:0:
256,192,105654,1,0,0:0:0:0:
256,192,105854,1,8,0:0:0:0:
256,192,106054,1,0,0:0:0:0:
256,192,106154,1,8,0:0:0:0:
256,192,106254,1,0,0:0:0:0:
256,192,106454,1,0,0:0:0:0:
256,192,106654,1,8,0:0:0:0:
256,192,106854,1,0,0:0:0:0:
256,192,107054,1,8,0:0:0:0:
256,192,107254,1,0,0:0:0:0:
256,192,107454,1,0,0:0:0:0:
256,192,107654,1,0,0:0:0:0:
256,192,107854,1,8,0:0:0:0:
256,192,108054,1,8,0:0:0:0:
256,192,108454,1,8,0:0:0:0:
256,192,108554,1,8,0:0:0:0:
256,192,108654,1,0,0:0:0:0:
256,192,108854,1,0,0:0:0:0:
256,192,109054,1,8,0:0:0:0:
256,192,109254,1,8,0:0:0:0:
256,192,109454,1,0,0:0:0:0:
256,192,109654,1,0,0:0:0:0:
256,192,110054,1,8,0:0:0:0:
256,192,110154,1,8,0:0:0:0:
256,192,110254,1,0,0:0:0:0:
256,192,110454,1,8,0:0:0:0:
256,192,110554,1,8,0:0:0:0:
256,192,110654,1,0,0:0:0:0:
256,192,110854,1,8,0:0:0:0:
256,192,110954,1,8,0:0:0:0:
256,192,111054,1,8,0:0:0:0:
256,192,111454,1,0,0:0:0:0:
256,192,111654,1,0,0:0:0:0:
256,192,111854,1,8,0:0:0:0:
256,192,112054,1,8,0:0:0:0:
256,192,112254,1,0,0:0:0:0:
256,192,112454,1,0,0:0:0:0:
256,192,112654,1,8,0:0:0:0:
256,192,112854,1,8,0:0:0:0:
256,192,113054,1,0,0:0:0:0:
256,192,113254,1,8,0:0:0:0:
256,192,113354,1,8,0:0:0:0:
256,192,113454,1,0,0:0:0:0:
256,192,113654,1,8,0:0:0:0:
256,192,113754,1,8,0:0:0:0:
256,192,113854,1,0,0:0:0:0:
256,192,114054,1,0,0:0:0:0:
256,192,114254,1,8,0:0:0:0:
256,192,114454,1,0,0:0:0:0:
256,192,114854,1,0,0:0:0:0:
256,192,114954,1,0,0:0:0:0:
256,192,115054,1,8,0:0:0:0:
256,192,115454,1,0,0:0:0:0:
256,192,115654,1,8,0:0:0:0:
256,192,116054,1,0,0:0:0:0:
256,192,116254,1,8,0:0:0:0:
256,192,116454,1,8,0:0:0:0:
256,192,116654,1,0,0:0:0:0:
256,192,116854,1,8,0:0:0:0:
256,192,116954,1,8,0:0:0:0:
256,192,117054,1,0,0:0:0:0:
256,192,117254,1,8,0:0:0:0:
256,192,117354,1,8,0:0:0:0:
256,192,117454,1,4,0:0:0:0:
256,192,118254,1,4,0:0:0:0:
256,192,119054,1,4,0:0:0:0:
256,192,119254,1,12,0:0:0:0:
256,192,119854,1,4,0:0:0:0:
256,192,120454,1,12,0:0:0:0:
256,192,120654,1,4,0:0:0:0:
256,192,121454,1,4,0:0:0:0:
256,192,122054,1,12,0:0:0:0:
256,192,122254,1,4,0:0:0:0:
256,192,122454,1,12,0:0:0:0:
256,192,122854,1,0,0:0:0:0:
256,192,122954,1,0,0:0:0:0:
256,192,123054,1,8,0:0:0:0:
256,192,123254,1,0,0:0:0:0:
256,192,123454,1,8,0:0:0:0:
256,192,123854,1,4,0:0:0:0:
256,192,124654,1,4,0:0:0:0:
256,192,125454,1,4,0:0:0:0:
256,192,125654,1,12,0:0:0:0:
256,192,126254,1,4,0:0:0:0:
256,192,126854,1,12,0:0:0:0:
256,192,127054,1,4,0:0:0:0:
256,192,127454,1,8,0:0:0:0:
256,192,127854,1,4,0:0:0:0:
256,192,128254,1,8,0:0:0:0:
256,192,128654,1,8,0:0:0:0:
256,192,128754,1,8,0:0:0:0:
256,192,128854,1,0,0:0:0:0:
256,192,128954,1,0,0:0:0:0:
256,192,129054,1,8,0:0:0:0:
256,192,129154,1,8,0:0:0:0:
256,192,129254,1,8,0:0:0:0:
256,192,129354,1,0,0:0:0:0:
256,192,129454,1,0,0:0:0:0:
256,192,129654,1,8,0:0:0:0:
256,192,130054,1,0,0:0:0:0:
256,192,130254,1,12,0:0:0:0:
256,192,130454,1,0,0:0:0:0:
256,192,130654,1,0,0:0:0:0:
256,192,130854,1,8,0:0:0:0:
256,192,131054,1,0,0:0:0:0:
256,192,131254,1,8,0:0:0:0:
256,192,131354,1,8,0:0:0:0:
256,192,131454,1,0,0:0:0:0:
256,192,131654,1,0,0:0:0:0:
256,192,131854,1,0,0:0:0:0:
256,192,132054,1,8,0:0:0:0:
256,192,132254,1,8,0:0:0:0:
256,192,132454,1,8,0:0:0:0:
256,192,132654,1,0,0:0:0:0:
256,192,132854,1,0,0:0:0:0:
256,192,132954,1,0,0:0:0:0:
256,192,133054,1,8,0:0:0:0:
256,192,133254,1,8,0:0:0:0:
256,192,133454,1,0,0:0:0:0:
256,192,133654,1,0,0:0:0:0:
256,192,133854,1,8,0:0:0:0:
256,192,134054,1,8,0:0:0:0:
256,192,134254,1,0,0:0:0:0:
256,192,134454,1,0,0:0:0:0:
256,192,134654,1,8,0:0:0:0:
256,192,134854,1,8,0:0:0:0:
256,192,135054,1,0,0:0:0:0:
256,192,135154,1,0,0:0:0:0:
256,192,135254,1,8,0:0:0:0:
256,192,135454,1,8,0:0:0:0:
256,192,135654,1,0,0:0:0:0:
256,192,135854,1,0,0:0:0:0:
256,192,136054,1,8,0:0:0:0:
256,192,136154,1,0,0:0:0:0:
256,192,136254,1,8,0:0:0:0:
256,192,136454,1,8,0:0:0:0:
256,192,136654,1,0,0:0:0:0:
256,192,136854,1,8,0:0:0:0:
256,192,137054,1,8,0:0:0:0:
256,192,137254,1,8,0:0:0:0:
256,192,137454,1,0,0:0:0:0:
256,192,137754,1,0,0:0:0:0:
256,192,137854,1,8,0:0:0:0:
256,192,138054,1,0,0:0:0:0:
256,192,138254,1,8,0:0:0:0:
256,192,138354,1,0,0:0:0:0:
256,192,138454,1,8,0:0:0:0:
256,192,138654,1,8,0:0:0:0:
256,192,138854,1,8,0:0:0:0:
256,192,139054,1,0,0:0:0:0:
256,192,139354,1,0,0:0:0:0:
256,192,139454,1,8,0:0:0:0:
256,192,139654,1,0,0:0:0:0:
256,192,139854,1,0,0:0:0:0:
256,192,139954,1,8,0:0:0:0:
256,192,140154,1,0,0:0:0:0:
256,192,140254,1,8,0:0:0:0:
256,192,140454,1,8,0:0:0:0:
256,192,140554,1,0,0:0:0:0:
256,192,140654,1,8,0:0:0:0:
256,192,140854,1,0,0:0:0:0:
256,192,141054,1,8,0:0:0:0:
256,192,141254,1,8,0:0:0:0:
256,192,141454,1,4,0:0:0:0:
256,192,141654,1,12,0:0:0:0:
256,192,141854,1,4,0:0:0:0:
256,192,142054,1,12,0:0:0:0:
256,192,142254,1,4,0:0:0:0:
256,192,142454,1,12,0:0:0:0:
256,192,142654,1,4,0:0:0:0:
256,192,142854,1,12,0:0:0:0:
256,192,143054,1,0,0:0:0:0:
256,192,143354,1,0,0:0:0:0:
256,192,143454,1,8,0:0:0:0:
256,192,143654,1,0,0:0:0:0:
256,192,143854,1,8,0:0:0:0:
256,192,144054,1,8,0:0:0:0:
256,192,144254,1,0,0:0:0:0:
256,192,144454,1,8,0:0:0:0:
256,192,144654,1,0,0:0:0:0:
256,192,144954,1,0,0:0:0:0:
256,192,145054,1,8,0:0:0:0:
256,192,145254,1,0,0:0:0:0:
256,192,145454,1,8,0:0:0:0:
256,192,145654,1,8,0:0:0:0:
256,192,145854,1,8,0:0:0:0:
256,192,146054,1,0,0:0:0:0:
256,192,146254,1,8,0:0:0:0:
256,192,146354,1,0,0:0:0:0:
256,192,146454,1,8,0:0:0:0:
256,192,146654,1,0,0:0:0:0:
256,192,146854,1,8,0:0:0:0:
256,192,146954,1,8,0:0:0:0:
256,192,147054,1,8,0:0:0:0:
256,192,147254,1,0,0:0:0:0:
256,192,147454,1,8,0:0:0:0:
256,192,147654,1,0,0:0:0:0:
256,192,147854,1,8,0:0:0:0:
256,192,148054,1,8,0:0:0:0:
256,192,148454,1,8,0:0:0:0:
256,192,148654,1,8,0:0:0:0:
256,192,148854,1,0,0:0:0:0:
256,192,149054,1,8,0:0:0:0:
256,192,149254,1,0,0:0:0:0:
256,192,149454,1,8,0:0:0:0:
256,192,149654,1,0,0:0:0:0:
256,192,149754,1,0,0:0:0:0:
256,192,149854,1,8,0:0:0:0:
256,192,150054,1,0,0:0:0:0:
256,192,150254,1,8,0:0:0:0:
256,192,150454,1,8,0:0:0:0:
256,192,150654,1,0,0:0:0:0:
256,192,150854,1,0,0:0:0:0:
256,192,151054,1,8,0:0:0:0:
256,192,151254,1,8,0:0:0:0:
256,192,151354,1,0,0:0:0:0:
256,192,151454,1,8,0:0:0:0:
256,192,151654,1,0,0:0:0:0:
256,192,151854,1,0,0:0:0:0:
256,192,152054,1,8,0:0:0:0:
256,192,152254,1,8,0:0:0:0:
256,192,152454,1,8,0:0:0:0:
256,192,152654,1,0,0:0:0:0:
256,192,152754,1,0,0:0:0:0:
256,192,152854,1,8,0:0:0:0:
256,192,153054,1,0,0:0:0:0:
256,192,153154,1,8,0:0:0:0:
256,192,153254,1,0,0:0:0:0:
256,192,153454,1,8,0:0:0:0:
256,192,153654,1,8,0:0:0:0:
256,192,153854,1,0,0:0:0:0:
256,192,154054,1,0,0:0:0:0:
256,192,154254,1,8,0:0:0:0:
256,192,154654,1,0,0:0:0:0:
256,192,155054,1,8,0:0:0:0:
256,192,155454,1,8,0:0:0:0:
256,192,155854,1,0,0:0:0:0:
256,192,156254,1,0,0:0:0:0:
256,192,156654,1,0,0:0:0:0:
256,192,157054,1,0,0:0:0:0:
256,192,157454,1,8,0:0:0:0:
256,192,157720,1,8,0:0:0:0:
256,192,157854,1,0,0:0:0:0:
256,192,157987,1,0,0:0:0:0:
256,192,158120,1,0,0:0:0:0:
256,192,158254,1,8,0:0:0:0:
256,192,158520,1,8,0:0:0:0:
256,192,158654,1,0,0:0:0:0:
256,192,158920,1,0,0:0:0:0:
256,192,159054,1,8,0:0:0:0:
256,192,159320,1,0,0:0:0:0:
256,192,159454,1,8,0:0:0:0:
256,192,159720,1,8,0:0:0:0:
256,192,159854,1,0,0:0:0:0:
256,192,160120,1,0,0:0:0:0:
256,192,160254,1,8,0:0:0:0:
256,192,160387,1,0,0:0:0:0:
256,192,160520,1,8,0:0:0:0:
256,192,160654,1,0,0:0:0:0:
256,192,160920,1,8,0:0:0:0:
256,192,161054,1,0,0:0:0:0:
256,192,161320,1,8,0:0:0:0:
256,192,161454,1,0,0:0:0:0:
256,192,161720,1,0,0:0:0:0:
256,192,161854,1,8,0:0:0:0:
256,192,162120,1,8,0:0:0:0:
256,192,162254,1,0,0:0:0:0:
256,192,162387,1,0,0:0:0:0:
256,192,162520,1,8,0:0:0:0:
256,192,162654,1,0,0:0:0:0:
256,192,162920,1,8,0:0:0:0:
256,192,163054,1,0,0:0:0:0:
256,192,163187,1,0,0:0:0:0:
256,192,163320,1,8,0:0:0:0:
256,192,163453,1,0,0:0:0:0:
256,192,163720,1,0,0:0:0:0:
256,192,163854,1,8,0:0:0:0:
256,192,164120,1,8,0:0:0:0:
256,192,164254,1,0,0:0:0:0:
256,192,164520,1,0,0:0:0:0:
256,192,164654,1,8,0:0:0:0:
256,192,164787,1,0,0:0:0:0:
256,192,164920,1,8,0:0:0:0:
256,192,165054,1,0,0:0:0:0:
256,192,165187,1,8,0:0:0:0:
256,192,165321,1,0,0:0:0:0:
256,192,165454,1,12,0:0:0:0:
256,192,165720,1,8,0:0:0:0:
256,192,165854,1,0,0:0:0:0:
256,192,166120,1,8,0:0:0:0:
256,192,166254,1,0,0:0:0:0:
256,192,166520,1,8,0:0:0:0:
256,192,166654,1,0,0:0:0:0:
256,192,166921,1,0,0:0:0:0:
256,192,167054,1,8,0:0:0:0:
256,192,167320,1,0,0:0:0:0:
256,192,167454,1,8,0:0:0:0:
256,192,167720,1,0,0:0:0:0:
256,192,167854,1,8,0:0:0:0:
256,192,168120,1,8,0:0:0:0:
256,192,168254,1,8,0:0:0:0:
256,192,168520,1,0,0:0:0:0:
256,192,168654,1,8,0:0:0:0:
256,192,168787,1,8,0:0:0:0:
256,192,168920,1,8,0:0:0:0:
256,192,169054,1,4,0:0:0:0:
256,192,169320,1,0,0:0:0:0:
256,192,169454,1,8,0:0:0:0:
256,192,169587,1,8,0:0:0:0:
256,192,169720,1,8,0:0:0:0:
256,192,169854,1,4,0:0:0:0:
256,192,170120,1,8,0:0:0:0:
256,192,170254,1,0,0:0:0:0:
256,192,170520,1,0,0:0:0:0:
256,192,170654,1,8,0:0:0:0:
256,192,170920,1,8,0:0:0:0:
256,192,171054,1,0,0:0:0:0:
256,192,171320,1,8,0:0:0:0:
256,192,171454,1,0,0:0:0:0:
256,192,171720,1,8,0:0:0:0:
256,192,171854,1,12,0:0:0:0:
256,192,172654,1,8,0:0:0:0:
256,192,172954,1,8,0:0:0:0:
256,192,173054,1,0,0:0:0:0:
256,192,173354,1,0,0:0:0:0:
256,192,173454,1,8,0:0:0:0:
256,192,174254,1,8,0:0:0:0:
256,192,174554,1,8,0:0:0:0:
256,192,174654,1,0,0:0:0:0:
256,192,174954,1,0,0:0:0:0:
256,192,175054,1,8,0:0:0:0:
256,192,175854,1,8,0:0:0:0:
256,192,176154,1,8,0:0:0:0:
256,192,176254,1,0,0:0:0:0:
256,192,176554,1,0,0:0:0:0:
256,192,176654,1,8,0:0:0:0:
256,192,176954,1,8,0:0:0:0:
256,192,177054,1,0,0:0:0:0:
256,192,177354,1,8,0:0:0:0:
256,192,177454,1,0,0:0:0:0:
256,192,177754,1,8,0:0:0:0:
256,192,177854,1,8,0:0:0:0:
256,192,178154,1,8,0:0:0:0:
256,192,178254,1,12,0:0:0:0:
256,192,179054,1,8,0:0:0:0:
256,192,179354,1,8,0:0:0:0:
256,192,179454,1,0,0:0:0:0:
256,192,179754,1,0,0:0:0:0:
256,192,179854,1,8,0:0:0:0:
256,192,180654,1,8,0:0:0:0:
256,192,180954,1,8,0:0:0:0:
256,192,181054,1,0,0:0:0:0:
256,192,181354,1,0,0:0:0:0:
256,192,181454,1,8,0:0:0:0:
256,192,182254,1,8,0:0:0:0:
256,192,182554,1,8,0:0:0:0:
256,192,182654,1,0,0:0:0:0:
256,192,182954,1,8,0:0:0:0:
256,192,183054,1,0,0:0:0:0:
256,192,183354,1,0,0:0:0:0:
256,192,183454,1,8,0:0:0:0:
256,192,183754,1,8,0:0:0:0:
256,192,183854,1,0,0:0:0:0:
256,192,184154,1,8,0:0:0:0:
256,192,184254,1,8,0:0:0:0:
256,192,184554,1,8,0:0:0:0:
256,192,184654,1,12,0:0:0:0:
256,192,185454,1,4,0:0:0:0:
256,192,186254,1,4,0:0:0:0:
256,192,186454,1,12,0:0:0:0:
256,192,187054,1,4,0:0:0:0:
256,192,187654,1,12,0:0:0:0:
256,192,187854,1,4,0:0:0:0:
256,192,188654,1,4,0:0:0:0:
256,192,189254,1,12,0:0:0:0:
256,192,189454,1,4,0:0:0:0:
256,192,189654,1,12,0:0:0:0:
256,192,190054,1,8,0:0:0:0:
256,192,190254,1,0,0:0:0:0:
256,192,190654,1,8,0:0:0:0:
256,192,191054,1,4,0:0:0:0:
256,192,191854,1,4,0:0:0:0:
256,192,192654,1,4,0:0:0:0:
256,192,192854,1,12,0:0:0:0:
256,192,193454,1,4,0:0:0:0:
256,192,194054,1,12,0:0:0:0:
256,192,194254,1,4,0:0:0:0:
256,192,194654,1,8,0:0:0:0:
256,192,195054,1,4,0:0:0:0:
256,192,195454,1,8,0:0:0:0:
256,192,195854,1,4,0:0:0:0:
256,192,196154,1,0,0:0:0:0:
256,192,196254,1,8,0:0:0:0:
256,192,196554,1,0,0:0:0:0:
256,192,196654,1,8,0:0:0:0:
256,192,196954,1,0,0:0:0:0:
256,192,197054,1,8,0:0:0:0:
256,192,197354,1,0,0:0:0:0:
256,192,197454,1,8,0:0:0:0:
256,192,197554,1,8,0:0:0:0:
256,192,197654,1,0,0:0:0:0:
256,192,197754,1,0,0:0:0:0:
256,192,197854,1,8,0:0:0:0:
256,192,197954,1,8,0:0:0:0:
256,192,198054,1,8,0:0:0:0:
256,192,198154,1,0,0:0:0:0:
256,192,198254,1,0,0:0:0:0:
256,192,199054,1,8,0:0:0:0:
256,192,199254,1,0,0:0:0:0:
256,192,199454,1,0,0:0:0:0:
256,192,199654,1,8,0:0:0:0:
256,192,199854,1,0,0:0:0:0:
256,192,200054,1,8,0:0:0:0:
256,192,200154,1,8,0:0:0:0:
256,192,200254,1,0,0:0:0:0:
256,192,200454,1,0,0:0:0:0:
256,192,200654,1,0,0:0:0:0:
256,192,200854,1,8,0:0:0:0:
256,192,201054,1,8,0:0:0:0:
256,192,201254,1,8,0:0:0:0:
256,192,201454,1,0,0:0:0:0:
256,192,201654,1,0,0:0:0:0:
256,192,201754,1,0,0:0:0:0:
256,192,201854,1,8,0:0:0:0:
256,192,202054,1,8,0:0:0:0:
256,192,202254,1,0,0:0:0:0:
256,192,202454,1,0,0:0:0:0:
256,192,202654,1,8,0:0:0:0:
256,192,202854,1,8,0:0:0:0:
256,192,203054,1,8,0:0:0:0:
256,192,203154,1,0,0:0:0:0:
256,192,203254,1,8,0:0:0:0:
256,192,203454,1,0,0:0:0:0:
256,192,203654,1,8,0:0:0:0:
256,192,203854,1,8,0:0:0:0:
256,192,203954,1,0,0:0:0:0:
256,192,204054,1,8,0:0:0:0:
256,192,204254,1,0,0:0:0:0:
256,192,204454,1,8,0:0:0:0:
256,192,204954,1,0,0:0:0:0:
256,192,205054,1,8,0:0:0:0:
256,192,205254,1,8,0:0:0:0:
256,192,205454,1,0,0:0:0:0:
256,192,205554,1,0,0:0:0:0:
256,192,205654,1,8,0:0:0:0:
256,192,205854,1,8,0:0:0:0:
256,192,206054,1,0,0:0:0:0:
256,192,206454,1,0,0:0:0:0:
256,192,206554,1,0,0:0:0:0:
256,192,206654,1,8,0:0:0:0:
256,192,206854,1,0,0:0:0:0:
256,192,207054,1,8,0:0:0:0:
256,192,207154,1,0,0:0:0:0:
256,192,207254,1,8,0:0:0:0:
256,192,207454,1,8,0:0:0:0:
256,192,207554,1,8,0:0:0:0:
256,192,207654,1,8,0:0:0:0:
256,192,207854,1,0,0:0:0:0:
256,192,208154,1,0,0:0:0:0:
256,192,208254,1,8,0:0:0:0:
256,192,208454,1,8,0:0:0:0:
256,192,208654,1,0,0:0:0:0:
256,192,208754,1,8,0:0:0:0:
256,192,208954,1,8,0:0:0:0:
256,192,209054,1,8,0:0:0:0:
256,192,209254,1,8,0:0:0:0:
256,192,209354,1,0,0:0:0:0:
256,192,209454,1,8,0:0:0:0:
256,192,209654,1,0,0:0:0:0:
256,192,209854,1,8,0:0:0:0:
256,192,210054,1,0,0:0:0:0:
256,192,210254,1,12,0:0:0:0:
256,192,210454,1,4,0:0:0:0:
256,192,210654,1,12,0:0:0:0:
256,192,210854,1,4,0:0:0:0:
256,192,211054,1,12,0:0:0:0:
256,192,211254,1,4,0:0:0:0:
256,192,211454,1,12,0:0:0:0:
256,192,211654,1,4,0:0:0:0:
256,192,211854,1,0,0:0:0:0:
256,192,212054,1,0,0:0:0:0:
256,192,212154,1,0,0:0:0:0:
256,192,212254,1,8,0:0:0:0:
256,192,212454,1,0,0:0:0:0:
256,192,212654,1,8,0:0:0:0:
256,192,212854,1,8,0:0:0:0:
256,192,213054,1,0,0:0:0:0:
256,192,213254,1,0,0:0:0:0:
256,192,213454,1,8,0:0:0:0:
256,192,213654,1,0,0:0:0:0:
256,192,213754,1,0,0:0:0:0:
256,192,213854,1,8,0:0:0:0:
256,192,214054,1,8,0:0:0:0:
256,192,214254,1,0,0:0:0:0:
256,192,214454,1,0,0:0:0:0:
256,192,214654,1,8,0:0:0:0:
256,192,214854,1,8,0:0:0:0:
256,192,215054,1,0,0:0:0:0:
256,192,215254,1,0,0:0:0:0:
256,192,215454,1,8,0:0:0:0:
256,192,215654,1,8,0:0:0:0:
256,192,215754,1,8,0:0:0:0:
256,192,215854,1,8,0:0:0:0:
256,192,216054,1,0,0:0:0:0:
256,192,216154,1,0,0:0:0:0:
256,192,216254,1,8,0:0:0:0:
256,192,216454,1,8,0:0:0:0:
256,192,216554,1,8,0:0:0:0:
256,192,216654,1,0,0:0:0:0:
256,192,216854,1,0,0:0:0:0:
256,192,217254,1,0,0:0:0:0:
256,192,217454,1,8,0:0:0:0:
256,192,217654,1,0,0:0:0:0:
256,192,217754,1,0,0:0:0:0:
256,192,217854,1,8,0:0:0:0:
256,192,218054,1,0,0:0:0:0:
256,192,218254,1,8,0:0:0:0:
256,192,218454,1,0,0:0:0:0:
256,192,218554,1,0,0:0:0:0:
256,192,218654,1,8,0:0:0:0:
256,192,218854,1,0,0:0:0:0:
256,192,219054,1,0,0:0:0:0:
256,192,219254,1,8,0:0:0:0:
256,192,219454,1,8,0:0:0:0:
256,192,219654,1,8,0:0:0:0:
256,192,219854,1,0,0:0:0:0:
256,192,220054,1,0,0:0:0:0:
256,192,220154,1,0,0:0:0:0:
256,192,220254,1,8,0:0:0:0:
256,192,220454,1,0,0:0:0:0:
256,192,220654,1,8,0:0:0:0:
256,192,220854,1,8,0:0:0:0:
256,192,221054,1,8,0:0:0:0:
256,192,221254,1,8,0:0:0:0:
256,192,221454,1,0,0:0:0:0:
256,192,221654,1,0,0:0:0:0:
256,192,221854,1,8,0:0:0:0:
256,192,221954,1,0,0:0:0:0:
256,192,222054,1,0,0:0:0:0:
256,192,222254,1,8,0:0:0:0:
256,192,222354,1,0,0:0:0:0:
256,192,222454,1,0,0:0:0:0:
256,192,222654,1,8,0:0:0:0:
256,192,222854,1,0,0:0:0:0:
256,192,223054,1,8,0:0:0:0:
256,192,223454,1,0,0:0:0:0:
256,192,223854,1,8,0:0:0:0:
256,192,224254,1,0,0:0:0:0:
256,192,224654,1,8,0:0:0:0:
256,192,225054,1,0,0:0:0:0:
256,192,225454,1,8,0:0:0:0:
256,192,225854,1,8,0:0:0:0:
256,192,226254,1,0,0:0:0:0:
256,192,226654,1,0,0:0:0:0:
256,192,226854,1,0,0:0:0:0:
256,192,226954,1,8,0:0:0:0:
256,192,227054,1,8,0:0:0:0:
256,192,227254,1,0,0:0:0:0:
256,192,227454,1,8,0:0:0:0:
256,192,227654,1,8,0:0:0:0:
256,192,227854,1,4,0:0:0:0:
