osu file format v14

[General]
AudioFilename: audio.mp3
AudioLeadIn: 0
PreviewTime: 129665
Countdown: 1
SampleSet: Soft
StackLeniency: 0.7
Mode: 0
LetterboxInBreaks: 0
WidescreenStoryboard: 1

[Editor]
Bookmarks: 14065,26865,39665,92465,105265,118065,172465
DistanceSpacing: 1.3
BeatDivisor: 4
GridSize: 4
TimelineZoom: 1.5

[Metadata]
Title:YoiYoi Kokon
TitleUnicode:YoiYoi Kokon
Artist:Reol
ArtistUnicode:Reol
Creator:Kaivu
Version:Hard (INC)
Source:
Tags:
BeatmapID:1110336
BeatmapSetID:510556

[Difficulty]
HPDrainRate:6
CircleSize:4
OverallDifficulty:6
ApproachRate:8
SliderMultiplier:1.5
SliderTickRate:1

[Events]
//Background and Video events
0,0,"Black.png",0,0
//Break Periods
//Storyboard Layer 0 (Background)
//Storyboard Layer 1 (Fail)
//Storyboard Layer 2 (Pass)
//Storyboard Layer 3 (Foreground)
//Storyboard Sound Samples

[TimingPoints]
1265,400,4,2,3,75,1,0
12465,-100,4,2,3,85,0,0
12865,-100,4,2,3,95,0,0
13265,-100,4,2,3,100,0,0
14065,-100,4,2,1,75,0,0
26865,-100,4,2,2,100,0,0
39665,-100,4,2,3,75,0,0
49665,-100,4,2,3,80,0,0
50065,-100,4,2,3,85,0,0
50465,-100,4,2,3,90,0,0
50865,-133.333333333333,4,2,3,95,0,0
51865,-200,4,2,3,100,0,0
52465,-86.9565217391304,4,2,4,100,0,1
55665,-86.9565217391304,4,2,6,100,0,1
57265,-86.9565217391304,4,2,4,100,0,1
63665,-86.9565217391304,4,2,6,100,0,1
65265,-86.9565217391304,4,2,4,100,0,1
78065,-100,4,2,5,100,0,0
105265,-100,4,2,1,75,0,0
118065,-100,4,2,3,75,0,0
128065,-100,4,2,3,80,0,0
128465,-100,4,2,3,85,0,0
128865,-100,4,2,3,90,0,0
129265,-133.333333333333,4,2,3,95,0,0
130265,-200,4,2,3,100,0,0
130865,-86.9565217391304,4,2,4,100,0,1
134065,-86.9565217391304,4,2,6,100,0,1
135665,-86.9565217391304,4,2,4,100,0,1
142065,-86.9565217391304,4,2,6,100,0,1
143665,-86.9565217391304,4,2,4,100,0,1
156465,-100,4,2,1,100,0,0
158465,-100,4,2,1,75,0,0
159665,-100,4,2,1,100,0,0
171665,-100,4,2,1,50,0,0
172465,-100,4,2,5,100,0,0
185265,-100,4,2,3,75,0,0
195265,-100,4,2,3,80,0,0
195665,-100,4,2,3,85,0,0
196065,-100,4,2,3,90,0,0
196465,-133.333333333333,4,2,1,95,0,0
199065,-200,4,2,3,50,0,0
199665,-86.9565217391304,4,2,4,100,0,1
202865,-86.9565217391304,4,2,6,100,0,1
204465,-86.9565217391304,4,2,4,100,0,1
210865,-86.9565217391304,4,2,6,100,0,1
212465,-86.9565217391304,4,2,4,100,0,1
228365,-86.9565217391304,4,2,4,100,0,0
228465,-100,4,2,5,100,0,1
228565,-100,4,2,5,100,0,0
253665,-200,4,2,5,100,0,0

[HitObjects]
212,56,1265,6,0,P|192:96|192:144,1,75
204,148,1565,2,0,L|196:200,1,37.5
184,284,1865,1,0,0:0:0:0:
44,236,2065,2,0,P|84:216|132:216,1,75
124,92,2465,2,0,P|166:106|200:140,1,75
232,212,2865,6,0,P|274:197|308:163,1,75
288,80,3265,2,0,L|376:88,1,75
388,88,3565,1,0,0:0:0:0:
388,88,3665,2,0,L|380:176,1,75
460,220,4065,2,0,L|466:145,1,75
376,260,4465,6,0,P|403:295|447:315,1,75
456,316,4765,1,0,0:0:0:0:
484,312,4865,1,0,0:0:0:0:
460,220,5065,1,0,0:0:0:0:
312,196,5265,2,0,L|305:270,1,75
232,140,5665,2,0,L|225:214,1,75
396,136,6065,2,0,L|389:210,1,75
479,95,6466,6,0,P|456:64|425:44,1,75
400,40,6765,1,0,0:0:0:0:
372,44,6865,2,0,L|297:37,1,75
200,28,7265,2,0,L|206:102,1,75
216,200,7665,5,2,0:0:0:0:
472,356,8465,1,2,0:0:0:0:
176,296,9265,2,0,L|250:289,1,75,2|2,0:0|0:0,0:0:0:0:
476,268,10065,1,2,0:0:0:0:
276,48,10865,5,2,0:0:0:0:
276,198,11265,1,2,0:0:0:0:
126,48,11665,1,2,0:0:0:0:
126,198,12065,1,2,0:0:0:0:
232,91,12465,5,2,0:0:0:0:
360,37,12665,1,2,0:0:0:0:
285,37,12865,1,2,0:0:0:0:
413,90,13065,1,2,0:0:0:0:
232,91,13265,2,0,B|205:109|216:156|216:156|213:158|213:158|209:158|209:158|222:212|191:233,1,150,2|6,0:0|0:0,0:0:0:0:
24,80,14065,6,0,P|47:49|78:29,1,75,2|0,0:0|0:0,0:0:0:0:
144,100,14465,2,0,P|121:131|90:151,1,75,8|0,0:0|0:0,0:0:0:0:
77,29,14865,1,0,0:0:0:0:
77,29,15065,1,0,0:0:0:0:
144,100,15265,2,0,L|218:93,1,75,8|0,0:0|0:0,0:0:0:0:
300,40,15665,5,0,0:0:0:0:
308,136,15865,1,0,0:0:0:0:
388,76,16065,2,0,L|462:69,1,75,8|0,0:0|0:0,0:0:0:0:
308,136,16465,2,0,L|234:143,1,75
300,40,16865,1,8,0:0:0:0:
392,164,17065,1,0,0:0:0:0:
196,56,17265,6,0,P|165:77|144:108,1,75
181,195,17665,2,0,P|212:173|233:143,1,75,8|0,0:0|0:0,0:0:0:0:
60,80,18065,2,0,L|53:154,1,75
100,240,18465,2,0,L|93:314,1,75,8|0,0:0|0:0,0:0:0:0:
176,264,18865,5,0,0:0:0:0:
264,304,19065,1,0,0:0:0:0:
260,208,19265,2,0,L|334:215,1,75,8|0,0:0|0:0,0:0:0:0:
432,224,19665,1,0,0:0:0:0:
392,52,19865,5,2,0:0:0:0:
392,52,20065,1,10,0:0:0:0:
312,108,20265,5,0,0:0:0:0:
243,39,20465,2,0,L|169:46,1,75
112,128,20865,2,0,L|186:121,1,75,8|0,0:0|0:0,0:0:0:0:
80,36,21265,2,0,P|49:56|27:87,1,75
48,184,21665,1,8,0:0:0:0:
28,280,21865,1,0,0:0:0:0:
116,236,22065,6,0,P|153:238|187:254,1,75
252,328,22465,2,0,P|289:325|323:309,1,75,8|0,0:0|0:0,0:0:0:0:
404,252,22865,2,0,L|397:326,1,75
496,248,23265,2,0,L|489:322,1,75,8|0,0:0|0:0,0:0:0:0:
432,160,23665,5,0,0:0:0:0:
432,160,23865,2,0,L|358:167,2,75,0|8|0,0:0|0:0|0:0,0:0:0:0:
376,80,24465,5,0,0:0:0:0:
376,80,24665,2,0,L|302:87,2,75,0|8|0,0:0|0:0|0:0,0:0:0:0:
256,192,26465,5,4,0:0:0:0:
61,192,26865,6,0,P|64:229|80:263,1,75
148,331,27265,2,0,P|185:328|219:312,1,75,14|0,0:0|0:0,0:0:0:0:
288,242,27665,2,0,P|285:205|269:171,1,75
199,101,28065,2,0,P|162:104|128:120,1,75,14|0,0:0|0:0,0:0:0:0:
61,192,28465,6,0,P|64:229|80:263,1,75
98,281,28765,1,0,0:0:0:0:
116,299,28865,2,0,P|153:296|187:280,1,75,14|0,0:0|0:0,0:0:0:0:
205,261,29165,1,0,0:0:0:0:
223,242,29265,2,0,P|220:205|204:171,1,75
185,152,29565,1,0,0:0:0:0:
166,133,29665,2,0,P|129:136|95:152,1,75,14|0,0:0|0:0,0:0:0:0:
36,228,30065,6,0,L|29:302,1,75
97,371,30465,2,0,L|104:297,1,75,14|0,0:0|0:0,0:0:0:0:
184,240,30865,2,0,L|177:314,1,75
245,383,31265,2,0,L|252:309,1,75,14|0,0:0|0:0,0:0:0:0:
321,239,31665,6,0,B|356:248|356:248|376:236|408:240,1,75
420,244,31965,1,0,0:0:0:0:
444,256,32065,2,0,P|459:289|462:326,1,75,14|0,0:0|0:0,0:0:0:0:
321,239,32465,2,0,P|305:205|302:168,1,75
384,112,32865,2,0,L|458:119,1,75,14|0,0:0|0:0,0:0:0:0:
304,56,33265,6,0,L|230:63,1,75
136,32,33665,1,14,0:0:0:0:
160,136,33865,1,0,0:0:0:0:
68,104,34065,2,0,P|37:125|16:155,1,75
16,253,34465,2,0,P|37:283|67:304,1,75,14|0,0:0|0:0,0:0:0:0:
152,256,34865,6,0,L|159:330,1,75
247,373,35265,1,14,0:0:0:0:
263,277,35465,2,0,P|339:261|423:289,1,150
480,344,36065,1,14,0:0:0:0:
480,344,36265,1,0,0:0:0:0:
426,208,36465,6,0,P|410:241|406:278,2,75,0|0|14,0:0|0:0|0:0,0:0:0:0:
496,140,37065,2,0,B|478:113|431:124|431:124|429:121|429:121|429:117|429:117|375:130|354:99,1,150
292,38,37665,1,14,0:0:0:0:
223,106,37865,6,0,P|207:182|235:266,1,150
304,312,38465,2,0,L|400:312,1,75,14|0,0:0|0:0,0:0:0:0:
225,250,38865,2,0,L|150:250,1,75
81,181,39265,1,14,0:0:0:0:
12,249,39465,1,0,0:0:0:0:
80,317,39665,5,2,0:0:0:0:
28,20,40465,1,2,0:0:0:0:
244,228,41265,6,0,P|280:234|317:228,1,75,2|2,0:0|0:0,0:0:0:0:
464,56,42065,1,2,0:0:0:0:
168,96,42865,5,2,0:0:0:0:
344,340,43665,1,2,0:0:0:0:
452,60,44465,6,0,L|378:67,1,75,2|2,0:0|0:0,0:0:0:0:
456,196,45065,1,0,0:0:0:0:
456,196,45265,2,0,P|391:159|317:156,1,150,2|4,0:0|0:0,0:0:0:0:
208,256,46065,5,2,0:0:0:0:
24,20,46865,1,2,0:0:0:0:
324,52,47665,6,0,L|398:45,1,75,2|2,0:0|0:0,0:0:0:0:
176,64,48465,1,2,0:0:0:0:
352,308,49265,5,2,0:0:0:0:
352,158,49665,1,2,0:0:0:0:
202,158,50065,1,2,0:0:0:0:
202,308,50465,1,2,0:0:0:0:
281,228,50865,6,0,B|364:176|420:284|496:224,1,225.000008583069
496,112,51865,6,0,P|466:133|444:163,1,75
